osu file format v14

[General]
AudioFilename: audio.mp3
AudioLeadIn: 0
PreviewTime: 202829
Countdown: 0
SampleSet: Soft
StackLeniency: 0.7
Mode: 0
LetterboxInBreaks: 0
WidescreenStoryboard: 1

[Editor]
DistanceSpacing: 1
BeatDivisor: 4
GridSize: 32
TimelineZoom: 2.3

[Metadata]
Title:Yukidoke (feat. isui)
TitleUnicode:雪解け (feat. 倚水)
Artist:Islet
ArtistUnicode:Islet
Creator:Zekk
Version:Normal
Source:
Tags:japanese pop cute anime girl aster
BeatmapID:3798025
BeatmapSetID:1848888

[Difficulty]
HPDrainRate:3
CircleSize:3.5
OverallDifficulty:4
ApproachRate:5
SliderMultiplier:1
SliderTickRate:1

[Events]
//Background and Video events
0,0,"101017380_p0.jpg",0,0
//Break Periods
2,54935,62947
2,90229,98241
2,118465,126476
2,153759,161770
2,186700,201770
//Storyboard Layer 0 (Background)
//Storyboard Layer 1 (Fail)
//Storyboard Layer 2 (Pass)
//Storyboard Layer 3 (Foreground)
//Storyboard Layer 4 (Overlay)
//Storyboard Sound Samples

[TimingPoints]
618,588.235294117647,4,2,0,100,1,0
35912,-62.5,4,2,0,55,0,0
64147,-55.5555555555556,4,2,0,60,0,0
72970,-55.5555555555556,4,2,0,70,0,0
73559,-50,4,2,1,70,0,0
99441,-55.5555555555556,4,2,0,55,0,0
118265,-55.5555555555556,4,2,1,60,0,0
137088,-50,4,2,2,75,0,0
153559,-55.5555555555556,4,2,2,65,0,0
167676,-55.5555555555556,4,2,2,70,0,0
170029,-50,4,2,2,80,0,0
172382,-55.5555555555556,4,2,2,65,0,0
202970,-50,4,2,2,80,0,0
203853,-50,4,2,2,80,0,0

[Colours]
Combo1 : 17,254,176
Combo2 : 173,255,95
Combo3 : 255,88,100
Combo4 : 255,94,55

[HitObjects]
468,261,35912,6,0,B|410:268|412:244|333:254,1,120,6|2,1:2|1:2,0:0:0:0:
316,275,36500,1,10,0:2:0:0:
191,375,37088,2,0,P|156:375|126:257,1,160,2|10,1:2|0:2,0:0:0:0:
225,162,38265,5,2,1:2:0:0:
94,70,38853,2,0,P|47:89|0:104,1,80,8|0,0:2|0:2,0:0:0:0:
3,135,39294,1,0,0:2:0:0:
106,197,39735,2,0,B|165:213|173:177|263:192,1,120,0|0,1:2|1:2,0:0:0:0:
258,209,40323,2,0,P|283:218|306:224,1,40
328,244,40618,6,0,P|316:271|280:379,1,120,4|2,1:2|1:2,0:0:0:0:
251,376,41206,1,10,0:2:0:0:
102,317,41794,2,0,P|52:324|17:217,1,160,2|10,1:2|0:2,0:0:0:0:
133,144,42970,2,0,P|194:150|299:141,1,160,2|8,1:2|0:2,0:0:0:0:
350,197,43853,1,2,0:2:0:0:
410,144,44147,2,0,P|409:120|396:76,1,40,2|0,0:2|0:2,0:0:0:0:
379,74,44441,6,0,B|313:72|325:32|251:40,1,120,0|0,1:2|1:2,0:0:0:0:
211,96,45176,1,0,0:2:0:0:
211,96,45323,2,0,P|206:149|191:240,1,120,4|2,1:2|1:2,0:0:0:0:
205,254,45912,1,10,0:2:0:0:
45,268,46500,6,0,P|56:203|63:98,1,160,2|10,1:2|0:2,0:0:0:0:
194,18,47676,2,0,B|263:40|265:-3|359:28,1,160,2|10,1:2|0:2,0:0:0:0:
407,132,48706,1,2,0:2:0:0:
336,228,49147,2,0,P|340:268|341:320,1,80,2|8,1:2|0:0,0:0:0:0:
269,343,49735,2,0,P|244:338|207:334,1,40,0|0,0:2|0:2,0:0:0:0:
203,305,50029,6,0,P|159:299|69:276,1,120,4|0,1:2|1:2,0:0:0:0:
47,269,50618,1,10,0:2:0:0:
11,113,51206,2,0,P|62:60|163:69,1,160,2|10,1:2|0:2,0:0:0:0:
215,95,52088,2,0,B|284:112|305:70|377:96,1,160,4|0,1:2|1:2,0:0:0:0:
429,150,52970,2,0,P|412:186|390:256,1,80,8|0,0:2|0:0,0:0:0:0:
438,293,53559,2,0,P|393:306|335:337,1,80,2|0,0:2|1:2,0:0:0:0:
289,350,54147,2,0,P|254:348|205:239,1,160,0|2,1:2|0:2,0:0:0:0:
306,383,64147,6,0,B|300:327|335:306|309:219,1,134.999995880127,0|0,1:2|1:2,0:0:0:0:
283,218,64735,1,2,0:2:0:0:
204,261,65029,2,0,P|146:256|12:252,1,179.999994506836,2|2,1:2|0:2,0:0:0:0:
26,161,65912,1,2,0:2:0:0:
115,164,66206,1,2,0:2:0:0:
204,167,66500,2,0,P|254:159|381:147,1,134.999995880127,0|0,1:2|1:2,0:0:0:0:
472,141,67382,2,0,P|412:139|365:34,1,179.999994506836,0|2,1:2|0:2,0:0:0:0:
280,4,68265,1,2,0:2:0:0:
223,73,68559,2,0,P|222:106|217:159,1,44.999998626709,2|0,0:2|0:0,0:0:0:0:
221,162,68853,6,0,P|221:213|211:365,1,179.999994506836,2|0,1:2|0:0,0:0:0:0:
297,373,69735,1,0,1:2:0:0:
361,310,70029,1,0,0:0:0:0:
433,362,70323,2,0,P|465:348|469:283,1,89.9999972534181,2|2,0:2|0:2,0:0:0:0:
413,234,70912,1,2,0:2:0:0:
323,233,71206,6,0,P|263:224|107:209,2,179.999994506836,2|2|2,1:2|1:2|1:2,0:0:0:0:
413,234,72676,1,2,1:2:0:0:
371,154,72970,1,6,1:2:0:0:
417,76,73265,1,0,0:0:0:0:
317,79,73559,6,0,B|254:98|231:50|129:74,1,150,6|2,1:2|1:2,0:0:0:0:
123,47,74147,1,8,0:2:0:0:
63,127,74441,2,0,P|66:188|63:298,1,150,2|0,1:2|0:2,0:0:0:0:
60,326,75029,1,2,1:2:0:0:
142,382,75323,1,10,0:2:0:0:
231,336,75618,2,0,P|240:325|250:277,1,50,2|0,0:2|0:2,0:0:0:0:
233,244,75912,6,0,P|275:237|357:200,1,100,2|2,1:2|0:2,0:0:0:0:
374,237,76353,2,0,P|428:215|498:207,1,100,2|2,1:2|0:2,0:0:0:0:
495,165,76794,2,0,P|479:103|465:7,1,150,2|0,1:2|0:2,0:0:0:0:
418,2,77382,1,2,1:2:0:0:
337,61,77676,2,0,P|294:65|243:19,1,100,10|0,0:2|0:0,0:0:0:0:
152,7,78265,5,6,1:2:0:0:
68,61,78559,1,2,0:2:0:0:
83,159,78853,1,10,0:2:0:0:
169,208,79147,2,0,P|220:195|300:171,1,100,2|2,1:2|0:2,0:0:0:0:
331,256,79735,1,2,1:2:0:0:
255,321,80029,1,10,0:2:0:0:
158,295,80323,2,0,P|118:301|83:327,1,50,2|0,0:2|0:2,0:0:0:0:
61,317,80618,6,0,B|100:261|15:222|79:133,1,150,2|2,1:2|1:2,0:0:0:0:
87,130,81206,1,10,0:2:0:0:
161,196,81500,2,0,P|240:199|369:217,1,200,2|2,1:2|1:2,0:0:0:0:
443,278,82382,1,10,0:2:0:0:
443,278,82529,1,0,1:2:0:0:
484,189,82823,5,0,0:2:0:0:
484,189,82970,2,0,P|491:143|439:97,1,100,6|0,1:2|0:2,0:0:0:0:
361,124,83559,1,10,0:2:0:0:
285,58,83853,2,0,B|194:71|201:9|82:36,1,200,2|2,1:2|1:2,0:0:0:0:
27,111,84735,1,8,0:2:0:0:
86,191,85029,2,0,P|85:216|65:253,1,50,2|0,0:2|0:2,0:0:0:0:
61,286,85323,6,0,P|116:275|174:269,1,100,2|2,1:2|0:2,0:0:0:0:
191,309,85765,2,0,P|240:303|289:292,1,100,2|2,1:2|0:2,0:0:0:0:
333,317,86206,1,2,1:2:0:0:
420,364,86500,2,0,P|421:313|435:178,1,150,0|0,0:2|0:2,0:0:0:0:
459,174,87088,1,8,0:2:0:0:
391,100,87382,1,2,0:2:0:0:
344,119,87529,1,2,0:2:0:0:
297,138,87676,6,0,B|230:151|217:95|125:110,1,150,2|2,1:2|1:2,0:0:0:0:
110,79,88265,1,8,0:2:0:0:
194,26,88559,1,2,1:2:0:0:
292,44,88853,2,0,P|357:35|435:29,1,100,0|0,0:0|1:2,0:0:0:0:
466,96,89441,1,10,0:2:0:0:
392,163,89735,2,0,P|384:182|373:230,1,50,2|2,0:2|0:2,0:0:0:0:
375,260,90029,1,2,0:2:0:0:
263,366,99441,6,0,P|249:313|236:268,1,89.9999972534181,0|2,1:2|0:2,0:0:0:0:
165,227,100029,2,0,P|101:268|36:260,1,134.999995880127,2|0,1:2|0:2,0:0:0:0:
12,231,100618,1,2,1:2:0:0:
69,161,100912,2,0,P|67:135|59:99,1,44.999998626709,2|0,0:2|0:0,0:0:0:0:
47,74,101206,1,2,1:2:0:0:
136,88,101500,2,0,L|143:136,1,44.999998626709,2|0,0:2|0:0,0:0:0:0:
175,163,101794,6,0,B|253:182|272:132|358:171,1,179.999994506836,2|0,1:2|1:2,0:0:0:0:
437,127,102676,1,0,0:2:0:0:
468,211,102970,2,0,P|449:250|428:322,1,89.9999972534181,0|0,1:2|0:2,0:0:0:0:
501,353,103559,2,0,P|450:370|409:387,1,89.9999972534181,2|2,1:2|0:2,0:0:0:0:
336,342,104147,6,0,P|272:335|130:311,1,179.999994506836,2|2,1:2|1:2,0:0:0:0:
78,358,105029,2,0,B|33:295|110:247|47:174,1,179.999994506836,2|2,0:2|0:2,0:0:0:0:
137,147,105912,1,2,1:2:0:0:
210,199,106206,1,2,0:2:0:0:
290,159,106500,6,0,P|331:169|397:174,1,89.9999972534181,0|0,1:2|0:2,0:0:0:0:
454,126,107088,2,0,P|462:94|441:65,1,44.999998626709,0|0,1:2|0:2,0:0:0:0:
429,49,107382,2,0,P|410:37|367:42,1,44.999998626709,0|0,0:2|0:2,0:0:0:0:
344,44,107676,2,0,P|290:38|233:27,1,89.9999972534181,0|2,1:2|0:2,0:0:0:0:
165,18,108265,2,0,P|124:29|101:111,1,134.999995880127,2|0,1:2|0:0,0:0:0:0:
112,153,108853,6,0,P|106:219|104:319,1,134.999995880127,0|0,1:2|0:2,0:0:0:0:
98,332,109441,1,10,0:2:0:0:
183,360,109735,2,0,B|264:383|299:328|377:360,1,179.999994506836,2|2,0:2|0:2,0:0:0:0:
442,316,110618,1,10,0:2:0:0:
399,236,110912,1,2,0:2:0:0:
312,260,111206,6,0,P|255:255|148:250,1,134.999995880127,2|0,1:2|0:2,0:0:0:0:
135,266,111794,1,8,0:2:0:0:
65,208,112088,2,0,B|42:172|42:172|68:126,1,89.9999972534181,0|0,0:2|1:2,0:0:0:0:
141,83,112676,2,0,L|213:96,1,44.999998626709,0|0,0:2|0:0,0:0:0:0:
224,113,112970,2,0,P|267:120|337:137,1,89.9999972534181,10|0,0:2|0:0,0:0:0:0:
383,185,113559,6,0,P|394:139|421:38,1,134.999995880127,2|0,1:2|0:2,0:0:0:0:
393,15,114147,1,10,0:2:0:0:
313,56,114441,2,0,B|231:60|208:15|120:36,1,179.999994506836,2|0,0:2|0:2,0:0:0:0:
81,104,115323,2,0,B|83:151|83:151|132:166,1,89.9999972534181,10|2,0:2|0:2,0:0:0:0:
167,176,115765,1,0,0:2:0:0:
167,176,115912,6,0,P|211:167|275:147,1,89.9999972534181,0|0,1:2|0:0,0:0:0:0:
298,232,116500,2,0,P|305:270|322:327,1,89.9999972534181,8|0,0:2|0:2,0:0:0:0:
239,361,117088,2,0,B|176:370|139:295|58:311,1,179.999994506836,0|8,1:0|0:2,0:0:0:0:
5,247,117970,1,0,0:2:0:0:
80,196,118265,1,6,1:2:0:0:
479,275,127676,6,0,P|419:251|331:202,1,134.999995880127,2|2,1:2|1:2,0:0:0:0:
316,197,128265,1,8,0:2:0:0:
286,281,128559,2,0,P|241:256|91:200,1,179.999994506836,10|10,0:2|0:2,0:0:0:0:
45,255,129441,1,10,0:2:0:0:
15,169,129735,2,0,B|20:140|20:140|45:132,1,44.999998626709,10|8,0:2|0:2,0:0:0:0:
75,115,130029,6,0,P|130:126|157:41,1,134.999995880127,0|0,1:2|1:2,0:0:0:0:
168,20,130618,1,8,0:2:0:0:
253,48,130912,2,0,L|338:66,2,44.999998626709,8|0|8,0:2|0:2|0:2,0:0:0:0:
227,134,131500,1,10,0:2:0:0:
314,152,131794,2,0,P|371:165|429:186,1,89.9999972534181,10|2,0:2|0:2,0:0:0:0:
445,253,132382,6,0,P|371:268|266:327,1,179.999994506836,0|10,1:2|0:2,0:0:0:0:
212,377,133265,1,10,0:2:0:0:
201,287,133559,2,0,P|183:328|136:317,1,89.9999972534181,2|10,0:2|0:2,0:0:0:0:
73,268,134147,2,0,P|41:246|74:214,1,89.9999972534181,10|10,0:2|0:2,0:0:0:0:
156,213,134735,6,0,P|185:202|278:185,1,89.9999972534181,8|8,1:2|0:2,0:0:0:0:
319,234,135323,1,8,0:2:0:0:
365,156,135618,1,10,0:2:0:0:
431,217,135912,2,0,P|421:280|411:388,1,134.999995880127,8|8,0:2|0:2,0:0:0:0:
374,372,136500,2,0,P|337:362|306:357,1,44.999998626709,10|8,0:0|0:3,0:0:0:0:
285,350,136794,1,4,0:3:0:0:
196,296,137088,6,0,B|133:316|120:259|25:285,1,150,6|0,1:2|1:2,0:0:0:0:
10,311,137676,1,8,0:2:0:0:
11,211,137970,2,0,P|22:156|34:45,1,150,2|0,1:2|0:2,0:0:0:0:
65,24,138559,1,2,1:2:0:0:
153,69,138853,2,0,B|188:108|188:108|155:166,1,100,10|2,0:2|0:2,0:0:0:0:
141,195,139294,1,0,0:0:0:0:
141,195,139441,6,0,B|234:166|209:241|319:235,1,150,0|2,1:2|1:2,0:0:0:0:
327,244,140029,1,8,0:2:0:0:
404,180,140323,2,0,B|423:134|423:134|380:104,1,100,2|0,1:2|0:2,0:0:0:0:
349,74,140765,1,0,0:2:0:0:
349,74,140912,2,0,P|319:87|258:103,1,50,2|0,1:2|0:2,0:0:0:0:
259,66,141206,2,0,P|216:84|134:108,1,100,10|0,0:2|0:0,0:0:0:0:
86,40,141794,6,0,P|76:69|44:110,1,50,6|2,1:2|0:2,0:0:0:0:
34,124,142088,2,0,P|24:157|9:198,1,50,2|0,0:2|1:2,0:0:0:0:
5,219,142382,1,10,0:2:0:0:
91,288,142676,1,2,1:2:0:0:
91,288,142823,1,0,0:0:0:0:
91,288,142970,2,0,P|121:314|140:324,1,50,2|2,0:0|0:0,0:0:0:0:
168,345,143265,1,2,1:2:0:0:
264,381,143559,6,0,P|321:358|391:338,1,100,10|2,0:2|3:2,0:0:0:0:
385,250,144147,2,0,B|388:196|388:196|315:172,1,100,2|0,1:2|0:2,0:0:0:0:
296,170,144588,1,0,1:2:0:0:
296,170,144735,2,0,L|279:233,1,50,10|2,0:2|0:2,0:0:0:0:
240,244,145029,2,0,B|169:252|161:205|68:224,1,150,2|10,1:2|0:2,0:0:0:0:
44,234,145618,1,2,1:2:0:0:
10,139,145912,1,8,0:2:0:0:
10,139,146059,1,2,1:2:0:0:
10,139,146206,1,10,0:2:0:0:
85,72,146500,6,0,P|136:92|191:109,1,100,6|0,1:2|0:2,0:0:0:0:
221,79,146941,1,2,1:2:0:0:
221,79,147088,1,10,0:2:0:0:
306,130,147382,2,0,B|351:106|351:106|336:56,1,100,2|0,1:2|0:2,0:0:0:0:
417,0,147970,1,2,1:2:0:0:
502,52,148265,1,10,0:2:0:0:
449,137,148559,2,0,P|443:164|431:197,1,50,2|0,0:2|0:0,0:0:0:0:
448,233,148853,6,0,P|434:280|418:342,1,100,2|2,1:2|0:2,0:0:0:0:
377,353,149294,2,0,P|333:349|314:288,1,100,2|0,1:2|0:2,0:0:0:0:
338,261,149735,1,2,1:2:0:0:
256,203,150029,2,0,P|227:209|205:240,1,50,0|0,0:2|0:0,0:0:0:0:
194,269,150323,2,0,P|183:294|198:338,1,50,0|0,1:2|0:2,0:0:0:0:
145,348,150618,2,0,B|97:365|97:365|31:306,1,100,8|2,0:2|0:2,0:0:0:0:
27,294,151059,1,2,0:2:0:0:
27,294,151206,6,0,P|39:248|46:161,1,100,6|2,1:2|0:2,0:0:0:0:
127,139,151794,1,8,0:0:0:0:
202,204,152088,2,0,P|232:192|277:180,1,50,2|0,1:2|0:2,0:0:0:0:
283,150,152382,2,0,P|326:131|380:94,1,100,2|0,0:2|1:2,0:0:0:0:
420,102,152823,1,0,0:2:0:0:
420,102,152970,1,10,0:2:0:0:
490,172,153265,2,0,P|461:184|433:204,1,50,8|4,0:3|0:3,0:0:0:0:
412,224,153559,1,6,1:2:0:0:
57,241,162970,6,0,P|103:241|168:235,1,89.9999972534181,4|0,1:2|0:0,0:0:0:0:
189,218,163412,1,0,1:2:0:0:
189,218,163559,1,8,0:2:0:0:
225,295,163853,2,0,B|296:323|329:263|411:293,1,179.999994506836,4|0,1:2|1:2,0:0:0:0:
476,338,164735,1,8,0:2:0:0:
508,254,165029,2,0,P|496:232|484:202,1,44.999998626709,0|0,0:2|0:2,0:0:0:0:
455,182,165323,6,0,B|409:196|409:196|375:160,1,89.9999972534181,4|0,1:2|0:0,0:0:0:0:
353,128,165765,1,0,1:2:0:0:
353,128,165912,1,8,0:2:0:0:
293,60,166206,2,0,P|233:60|125:47,1,134.999995880127,4|0,1:2|0:2,0:0:0:0:
126,21,166794,1,0,1:2:0:0:
55,77,167088,1,8,0:2:0:0:
85,161,167382,1,0,0:2:0:0:
168,127,167676,6,0,B|243:112|235:177|332:162,1,134.999995880127,4|0,1:2|1:2,0:0:0:0:
337,149,168265,1,8,0:2:0:0:
405,207,168559,2,0,B|424:251|424:251|392:288,1,89.9999972534181,4|0,1:2|0:2,0:0:0:0:
356,303,169000,1,0,0:2:0:0:
356,303,169147,2,0,P|316:297|286:292,1,44.999998626709,0|0,1:2|0:2,0:0:0:0:
267,289,169441,1,8,0:2:0:0:
177,275,169735,1,8,0:2:0:0:
88,321,170029,5,0,1:2:0:0:
88,321,170176,2,0,P|79:267|62:212,1,100,12|0,0:2|1:2,0:0:0:0:
29,188,170618,2,0,B|9:140|9:140|71:108,1,100,12|0,0:2|1:2,0:0:0:0:
98,100,171059,1,8,0:3:0:0:
179,157,171353,1,4,0:3:0:0:
179,157,171500,2,0,B|252:177|250:133|336:151,1,150,12|4,0:2|1:2,0:0:0:0:
446,86,172382,6,0,P|463:135|484:186,1,89.9999972534181,4|0,1:2|0:2,0:0:0:0:
441,252,172970,2,0,P|388:271|268:323,1,179.999994506836,8|2,0:2|0:2,0:0:0:0:
190,352,173853,1,2,1:2:0:0:
102,332,174147,2,0,P|60:311|52:268,1,89.9999972534181,10|0,0:2|0:2,0:0:0:0:
104,199,174735,6,0,P|151:217|211:236,1,89.9999972534181,0|0,1:2|0:2,0:0:0:0:
253,292,175323,2,0,P|295:306|340:327,1,89.9999972534181,8|0,0:2|1:2,0:0:0:0:
416,287,175912,2,0,P|424:274|415:224,1,44.999998626709,8|0,0:2|1:2,0:0:0:0:
412,202,176206,1,8,0:3:0:0:
336,163,176500,1,8,0:2:0:0:
336,163,176647,2,0,B|254:143|274:205|172:175,1,134.999995880127,4|4,1:2|1:2,0:0:0:0:
131,232,177382,5,0,0:2:0:0:
68,167,177676,2,0,P|85:122|101:66,1,89.9999972534181,12|2,0:2|1:2,0:0:0:0:
186,70,178265,2,0,P|172:120|158:188,1,89.9999972534181,2|2,0:2|1:2,0:0:0:0:
237,213,178853,2,0,B|281:209|281:209|297:157,1,89.9999972534181,10|0,0:2|0:2,0:0:0:0:
352,96,179441,6,0,P|348:183|358:291,1,179.999994506836,2|8,1:2|0:2,0:0:0:0:
362,365,180323,1,0,1:2:0:0:
287,314,180618,2,0,P|251:315|215:370,1,89.9999972534181,0|2,0:2|1:2,0:0:0:0:
130,328,181206,2,0,P|85:325|24:317,1,89.9999972534181,8|4,0:0|0:3,0:0:0:0:
5,236,181794,1,14,0:2:0:0:
140,117,182382,6,0,B|183:132|183:132|194:179,1,89.9999972534181,8|8,0:2|0:2,0:0:0:0:
159,258,182970,2,0,P|157:304|148:365,1,89.9999972534181,8|8,0:2|0:2,0:0:0:0:
235,315,183559,1,8,0:2:0:0:
314,358,183853,1,8,0:2:0:0:
377,294,184147,1,12,0:0:0:0:
256,192,184294,12,2,186500,0:2:0:0:
276,15,202970,6,0,B|311:108|204:208|272:279,1,250,6|0,1:2|0:0,0:0:0:0:
233,303,203853,2,0,P|314:253|439:223,1,200,4|2,1:2|1:2,0:0:0:0:
381,130,204735,1,8,0:0:0:0:
467,80,205029,1,8,0:3:0:0:
496,175,205323,6,0,P|494:241|502:345,1,150,6|2,1:2|1:2,0:0:0:0:
460,356,205912,1,8,0:2:0:0:
374,292,206206,2,0,B|294:269|296:338|206:316,1,150,2|8,1:2|0:2,0:0:0:0:
187,295,206794,1,2,1:2:0:0:
100,345,207088,1,10,0:2:0:0:
100,345,207235,2,0,B|60:312|60:312|79:264,1,100
117,236,207676,5,2,1:2:0:0:
88,150,207970,1,2,0:2:0:0:
88,150,208118,1,2,1:2:0:0:
88,150,208265,1,10,0:2:0:0:
156,77,208559,1,2,1:2:0:0:
240,17,208853,2,0,P|246:70|260:139,1,100,2|2,0:2|1:2,0:0:0:0:
276,213,209441,1,10,0:2:0:0:
324,223,209588,1,2,0:2:0:0:
372,233,209735,6,0,B|467:202|453:273|545:265,1,150,6|0,1:2|0:2,0:0:0:0:
488,308,210323,1,2,1:2:0:0:
410,371,210618,2,0,P|362:357|293:345,1,100,10|2,0:2|1:2,0:0:0:0:
244,274,211206,1,0,1:2:0:0:
244,274,211353,1,8,0:2:0:0:
244,274,211500,1,6,1:2:0:0:
153,315,211794,2,0,P|164:361|246:363,1,100,10|10,0:2|0:2,0:0:0:0:
258,372,212235,1,4,0:2:0:0:
305,355,212382,6,0,P|295:278|303:160,1,150,6|0,1:2|1:2,0:0:0:0:
320,161,212970,1,14,0:2:0:0:
235,107,213265,2,0,B|184:115|184:115|164:172,1,100,2|0,1:2|0:2,0:0:0:0:
116,246,213853,1,2,1:2:0:0:
19,221,214147,1,10,0:2:0:0:
14,320,214441,2,0,P|43:318|87:307,1,50,2|0,1:2|0:2,0:0:0:0:
112,306,214735,6,0,B|196:288|184:353|286:342,1,150,6|2,1:2|1:2,0:0:0:0:
301,356,215323,2,0,P|329:358|353:334,1,50,8|0,0:0|0:2,0:0:0:0:
350,295,215618,2,0,P|338:258|333:179,1,100,2|0,1:2|0:2,0:0:0:0:
395,120,216206,1,0,1:2:0:0:
479,173,216500,2,0,B|475:222|475:222|417:248,1,100,8|2,0:2|0:2,0:0:0:0:
382,252,216941,1,2,0:2:0:0:
382,252,217088,6,0,P|327:242|260:224,1,100,0|2,1:2|0:2,0:0:0:0:
237,214,217529,1,2,1:2:0:0:
237,214,217676,1,8,0:2:0:0:
164,282,217970,1,2,1:2:0:0:
89,214,218265,2,0,P|90:192|131:191,1,50,2|8,0:2|0:2,0:0:0:0:
151,147,218559,2,0,P|147:98|137:37,1,100,0|10,1:2|0:2,0:0:0:0:
229,5,219147,1,0,0:2:0:0:
301,73,219441,5,6,1:2:0:0:
241,153,219735,1,8,0:2:0:0:
175,77,220029,1,8,0:2:0:0:
107,150,220323,1,8,1:2:0:0:
103,250,220618,2,0,P|47:237|-17:218,1,100,8|8,0:2|0:2,0:0:0:0:
20,327,221206,1,8,0:2:0:0:
20,327,221353,1,8,0:2:0:0:
20,327,221500,1,6,0:2:0:0:
117,349,221794,1,2,0:2:0:0:
256,192,222970,12,6,224147,1:2:0:0:
