osu file format v14

[General]
AudioFilename: audio.mp3
AudioLeadIn: 0
PreviewTime: 202829
Countdown: 0
SampleSet: Soft
StackLeniency: 0.7
Mode: 0
LetterboxInBreaks: 0
WidescreenStoryboard: 1

[Editor]
DistanceSpacing: 1
BeatDivisor: 4
GridSize: 32
TimelineZoom: 1

[Metadata]
Title:Yukidoke (feat. isui)
TitleUnicode:雪解け (feat. 倚水)
Artist:Islet
ArtistUnicode:Islet
Creator:Zekk
Version:Hard
Source:
Tags:japanese pop cute anime girl aster
BeatmapID:3798023
BeatmapSetID:1848888

[Difficulty]
HPDrainRate:4.4
CircleSize:3.7
OverallDifficulty:6
ApproachRate:7.5
SliderMultiplier:1.4
SliderTickRate:1

[Events]
//Background and Video events
0,0,"101017380_p0.jpg",0,0
//Break Periods
2,54935,63322
2,90229,98616
2,118464,126851
2,186700,202145
//Storyboard Layer 0 (Background)
//Storyboard Layer 1 (Fail)
//Storyboard Layer 2 (Pass)
//Storyboard Layer 3 (Foreground)
//Storyboard Layer 4 (Overlay)
//Storyboard Sound Samples

[TimingPoints]
618,588.235294117647,4,2,0,100,1,0
35912,-100,4,2,0,55,0,0
64147,-90.9090909090909,4,2,0,60,0,0
72970,-250,4,2,0,70,0,0
73559,-66.6666666666667,4,2,1,70,0,0
99441,-90.9090909090909,4,2,0,55,0,0
118265,-90.9090909090909,4,2,1,60,0,0
127676,-90.9090909090909,4,2,1,60,0,0
137088,-64.5161290322581,4,2,2,75,0,0
153559,-90.9090909090909,4,2,2,65,0,0
167676,-76.9230769230769,4,2,2,70,0,0
170029,-76.9230769230769,4,2,2,80,0,0
172382,-83.3333333333333,4,2,2,65,0,0
202970,-100,4,2,2,80,0,0
203853,-58.8235294117647,4,2,2,80,0,0

[Colours]
Combo1 : 17,254,176
Combo2 : 173,255,95
Combo3 : 255,88,100
Combo4 : 255,94,55

[HitObjects]
366,368,35912,6,0,P|368:327|381:249,1,105,6|2,1:2|1:2,0:0:0:0:
396,185,36500,1,10,0:2:0:0:
158,299,37088,2,0,P|156:258|143:180,1,105,2|0,1:2|0:2,0:0:0:0:
122,117,37676,1,10,0:2:0:0:
387,9,38265,6,0,B|371:68|341:91|341:91|362:151,1,140,2|8,1:2|0:2,0:0:0:0:
414,186,39000,2,0,L|470:201,1,35,0|0,0:2|0:2,0:0:0:0:
487,259,39294,1,0,0:2:0:0:
241,382,39735,6,0,P|244:328|233:257,1,105,0|0,1:2|1:2,0:0:0:0:
96,288,40470,1,0,0:0:0:0:
35,333,40617,6,0,P|104:336|182:344,1,140,4|10,1:2|0:2,0:0:0:0:
361,193,41794,2,0,P|292:190|235:182,1,105,2|0,1:2|0:2,0:0:0:0:
181,175,42382,1,10,0:2:0:0:
181,175,42970,6,0,B|163:119|201:81|168:25,1,140,2|8,1:2|0:2,0:0:0:0:
81,2,43853,1,2,0:2:0:0:
25,87,44147,2,0,L|36:148,1,35,2|0,0:2|0:2,0:0:0:0:
7,186,44441,2,0,P|54:181|99:180,1,70,0|8,1:2|0:2,0:0:0:0:
146,135,44882,2,0,P|180:133|215:129,1,70,0|0,1:2|0:2,0:0:0:0:
289,189,45323,6,0,B|270:228|288:275|288:275|261:340,1,140,4|10,1:2|0:2,0:0:0:0:
0,273,46500,2,0,P|59:264|110:260,1,105,2|0,1:2|0:2,0:0:0:0:
184,255,47088,1,10,0:2:0:0:
461,368,47676,6,0,P|456:336|447:287,1,70,2|0,1:2|0:2,0:0:0:0:
425,227,48117,1,0,1:2:0:0:
425,227,48265,1,10,0:2:0:0:
314,264,48706,1,2,0:2:0:0:
250,173,49147,1,2,1:2:0:0:
312,116,49441,2,0,L|299:63,1,35,8|0,0:0|1:2,0:0:0:0:
232,40,49735,1,0,0:2:0:0:
232,40,49882,1,0,0:2:0:0:
164,103,50029,6,0,B|97:112|97:82|9:93,1,140,4|10,1:2|0:2,0:0:0:0:
5,190,50912,2,0,L|13:237,1,35
100,252,51206,6,0,P|91:214|80:125,1,105,2|0,1:2|0:2,0:0:0:0:
146,104,51794,1,10,0:2:0:0:
255,163,52088,2,0,P|264:201|283:315,1,140,4|0,1:2|1:2,0:0:0:0:
177,370,52970,2,0,P|212:377|248:386,1,70,8|0,0:2|0:0,0:0:0:0:
369,368,53559,6,0,P|418:366|476:289,1,140,2|0,0:2|1:2,0:0:0:0:
394,214,54441,1,0,0:2:0:0:
443,141,54735,1,2,0:2:0:0:
18,115,64147,6,0,B|68:106|94:80|94:80|157:104,1,115.50000352478,0|0,1:2|1:2,0:0:0:0:
197,126,64735,2,0,P|224:121|258:118,1,38.5000011749268,2|0,0:2|0:2,0:0:0:0:
309,85,65029,2,0,P|283:116|289:222,1,115.50000352478,2|0,1:2|0:2,0:0:0:0:
273,188,65617,1,2,0:2:0:0:
358,273,65912,1,2,0:2:0:0:
468,245,66206,1,2,0:2:0:0:
491,363,66500,6,0,B|419:357|410:384|325:365,1,154.000004699707,0|0,1:2|0:0,0:0:0:0:
239,382,67382,2,0,P|220:344|241:255,1,115.50000352478,0|0,1:2|0:2,0:0:0:0:
293,234,67970,1,2,0:2:0:0:
156,196,68265,2,0,P|194:184|251:171,1,77.0000023498536,2|2,0:2|0:2,0:0:0:0:
315,110,68853,6,0,P|327:199|332:290,1,154.000004699707,2|0,1:2|0:0,0:0:0:0:
413,338,69735,1,0,1:2:0:0:
486,254,70029,1,0,0:0:0:0:
408,184,70323,1,2,0:2:0:0:
452,104,70617,1,2,0:2:0:0:
436,185,70912,1,2,0:2:0:0:
353,105,71206,5,2,1:2:0:0:
221,124,71794,5,2,1:2:0:0:
105,182,72382,5,2,1:2:0:0:
49,257,72676,1,2,1:2:0:0:
93,343,72970,6,0,P|124:339|146:333,1,42,6|0,1:2|0:0,0:0:0:0:
212,364,73559,6,0,B|281:352|299:384|374:362,1,157.500006008148,6|2,1:2|1:2,0:0:0:0:
433,298,74147,2,0,L|418:234,1,52.5000020027161,8|0,0:2|0:2,0:0:0:0:
332,174,74441,6,0,B|275:179|238:217|238:217|184:199,1,157.500006008148,2|0,1:2|0:2,0:0:0:0:
101,176,75029,2,0,P|70:184|31:203,1,52.5000020027161,2|0,1:2|0:2,0:0:0:0:
6,120,75323,2,0,P|14:96|27:65,1,52.5000020027161,10|0,0:2|0:0,0:0:0:0:
100,28,75617,1,2,0:2:0:0:
100,28,75765,1,0,0:2:0:0:
180,85,75912,6,0,P|212:73|243:55,1,52.5000020027161,2|2,1:2|0:2,0:0:0:0:
285,9,76206,1,2,0:2:0:0:
299,102,76353,2,0,P|303:68|301:24,1,52.5000020027161,2|8,1:2|0:2,0:0:0:0:
378,11,76647,1,2,0:2:0:0:
430,76,76794,2,0,P|428:138|438:245,1,157.500006008148,2|0,1:2|0:2,0:0:0:0:
475,301,77382,2,0,P|438:293|404:290,1,52.5000020027161,2|0,1:2|0:2,0:0:0:0:
348,340,77676,2,0,P|303:340|255:287,1,105.000004005432,10|0,0:2|0:0,0:0:0:0:
135,206,78265,6,0,P|83:223|44:241,1,78.7500030040742,6|0,1:2|0:0,0:0:0:0:
21,249,78559,2,0,P|9:222|-10:182,1,52.5000020027161,2|0,0:2|1:2,0:0:0:0:
42,120,78853,2,0,B|97:132|112:107|163:123,1,105.000004005432,10|2,0:2|1:2,0:0:0:0:
215,75,79294,1,0,0:0:0:0:
273,135,79441,2,0,P|261:163|249:200,1,52.5000020027161,2|0,0:2|0:2,0:0:0:0:
318,244,79735,2,0,P|358:233|378:222,1,52.5000020027161,2|0,1:2|0:2,0:0:0:0:
441,279,80029,2,0,B|418:312|427:351|427:351|403:392,1,105.000004005432,10|2,0:2|0:2,0:0:0:0:
260,335,80617,6,0,P|203:325|107:319,1,105.000004005432,2|0,1:2|0:2,0:0:0:0:
74,342,81059,1,2,1:2:0:0:
55,258,81206,2,0,P|59:229|67:196,1,52.5000020027161,10|0,0:2|0:2,0:0:0:0:
147,165,81500,2,0,B|226:194|245:135|336:169,1,157.500006008148,2|0,1:2|0:2,0:0:0:0:
371,107,82088,2,0,P|366:76|349:43,1,52.5000020027161,2|0,1:2|0:2,0:0:0:0:
281,20,82382,1,10,0:2:0:0:
224,78,82529,1,0,1:2:0:0:
148,45,82676,1,2,0:2:0:0:
31,159,82970,6,0,P|40:207|42:284,1,105.000004005432,6|0,1:2|0:2,0:0:0:0:
105,308,83412,1,0,1:2:0:0:
147,239,83559,2,0,P|141:210|140:164,1,52.5000020027161,10|0,0:2|0:2,0:0:0:0:
211,142,83853,2,0,P|255:151|313:277,1,157.500006008148,2|0,1:2|0:2,0:0:0:0:
282,307,84441,6,0,P|288:338|293:385,1,52.5000020027161,2|0,1:2|0:2,0:0:0:0:
372,330,84735,2,0,P|398:325|438:311,1,52.5000020027161,8|0,0:2|0:0,0:0:0:0:
512,326,85029,2,0,P|506:295|501:248,1,52.5000020027161,2|0,0:2|0:2,0:0:0:0:
405,213,85323,6,0,P|409:160|449:117,1,105.000004005432,2|2,1:2|0:2,0:0:0:0:
506,89,85765,2,0,P|445:75|396:58,1,105.000004005432,2|2,1:2|0:2,0:0:0:0:
333,14,86206,2,0,P|325:42|307:94,1,52.5000020027161,2|0,1:2|0:0,0:0:0:0:
235,135,86500,2,0,B|198:115|198:115|147:167|72:157,1,157.500006008148,0|0,0:2|0:2,0:0:0:0:
33,219,87088,2,0,P|35:253|52:289,1,52.5000020027161,8|0,0:2|0:2,0:0:0:0:
24,355,87382,1,2,0:2:0:0:
24,355,87529,1,2,0:2:0:0:
112,321,87676,6,0,P|188:338|245:357,1,105.000004005432,2|2,1:2|0:2,0:0:0:0:
285,379,88117,2,0,P|250:339|272:262,1,105.000004005432,2|0,1:2|0:2,0:0:0:0:
336,265,88559,2,0,P|363:256|405:248,1,52.5000020027161,2|0,1:2|0:0,0:0:0:0:
439,182,88853,6,0,P|431:130|399:3,1,157.500006008148,0|0,0:0|0:2,0:0:0:0:
334,50,89441,2,0,P|346:83|353:127,1,52.5000020027161,10|0,0:2|0:2,0:0:0:0:
285,153,89735,2,0,P|278:127|269:103,1,52.5000020027161,2|2,0:2|0:2,0:0:0:0:
196,69,90029,1,2,0:2:0:0:
0,193,99441,6,0,B|66:217|93:167|166:195,1,154.000004699707,0|2,1:2|1:2,0:0:0:0:
254,266,100323,1,0,0:0:0:0:
319,171,100617,2,0,P|310:136|294:87,1,77.0000023498536,2|2,1:2|0:2,0:0:0:0:
395,12,101206,1,2,1:2:0:0:
502,84,101500,1,2,0:2:0:0:
423,189,101794,6,0,P|437:253|456:364,1,154.000004699707,2|0,1:2|1:2,0:0:0:0:
348,372,102676,1,0,0:2:0:0:
288,271,102970,1,0,1:2:0:0:
182,330,103265,1,0,0:2:0:0:
103,258,103559,2,0,P|80:268|39:279,1,38.5000011749268,2|0,1:2|0:0,0:0:0:0:
11,216,103853,2,0,P|19:186|31:164,1,38.5000011749268,2|0,0:2|0:0,0:0:0:0:
105,110,104147,6,0,P|157:158|224:154,1,115.50000352478,2|0,1:2|0:2,0:0:0:0:
269,125,104735,1,2,1:2:0:0:
292,249,105029,2,0,B|298:311|264:350|264:350|295:385,1,154.000004699707,2|2,0:2|0:2,0:0:0:0:
379,306,105912,1,2,1:2:0:0:
487,371,106206,2,0,P|477:337|468:280,1,77.0000023498536,2|0,0:2|1:2,0:0:0:0:
409,227,106794,1,0,0:2:0:0:
484,153,107088,5,0,1:2:0:0:
418,111,107235,1,0,0:2:0:0:
343,135,107382,2,0,P|319:146|287:154,1,38.5000011749268,0|0,0:2|0:2,0:0:0:0:
247,205,107676,2,0,P|229:196|211:190,1,38.5000011749268,0|0,1:2|0:0,0:0:0:0:
143,144,107970,6,0,B|82:157|90:122|-2:140,1,115.50000352478,2|0,0:2|0:0,0:0:0:0:
0,205,108559,1,2,0:2:0:0:
85,257,108853,2,0,P|92:304|99:386,1,115.50000352478,0|0,1:2|0:2,0:0:0:0:
182,378,109441,2,0,P|206:372|240:368,1,38.5000011749268,10|0,0:2|0:2,0:0:0:0:
273,305,109735,2,0,P|303:349|392:345,1,115.50000352478,2|0,0:2|0:0,0:0:0:0:
438,383,110323,1,2,0:2:0:0:
474,283,110617,1,10,0:2:0:0:
388,225,110912,2,0,P|356:233|330:238,1,38.5000011749268,2|0,0:2|0:2,0:0:0:0:
273,266,111206,6,0,B|206:272|188:237|110:253,1,154.000004699707,2|8,1:2|0:2,0:0:0:0:
24,178,112088,1,0,0:2:0:0:
107,106,112382,2,0,P|117:148|124:213,1,77.0000023498536,0|0,1:2|0:2,0:0:0:0:
268,229,112970,2,0,P|229:237|187:252,1,77.0000023498536,10|0,0:2|0:0,0:0:0:0:
61,316,113559,6,0,P|112:311|176:394,1,154.000004699707,2|10,1:2|0:2,0:0:0:0:
280,331,114441,1,2,0:2:0:0:
379,381,114735,2,0,B|386:342|421:305|421:305|389:241,1,154.000004699707,0|10,1:2|0:2,0:0:0:0:
306,177,115617,2,0,P|261:193|210:216,1,77.0000023498536,2|0,0:2|1:2,0:0:0:0:
107,265,116206,1,0,3:0:0:0:
107,265,116353,1,0,3:2:0:0:
107,265,116500,2,0,P|117:228|141:184,1,77.0000023498536,8|0,0:2|0:2,0:0:0:0:
120,83,117088,1,0,1:0:0:0:
227,36,117382,1,0,0:2:0:0:
309,117,117676,6,0,B|382:140|396:102|470:122,1,154.000004699707,8|6,0:2|1:2,0:0:0:0:
95,360,127676,6,0,P|98:314|101:220,1,115.50000352478,2|2,1:2|1:2,0:0:0:0:
178,262,128265,2,0,P|176:288|175:324,1,38.5000011749268,8|0,0:2|0:2,0:0:0:0:
233,351,128559,2,0,B|276:338|313:315|313:315|383:343,1,154.000004699707,10|10,0:2|0:2,0:0:0:0:
478,382,129441,1,10,0:2:0:0:
499,263,129735,2,0,L|493:234,3,19.2500005874634,10|0|8|0,0:2|0:0|0:2|0:0,0:0:0:0:
458,213,130029,6,0,P|391:209|347:250,1,115.50000352478,0|0,1:2|1:2,0:0:0:0:
289,284,130617,2,0,P|255:272|228:266,1,38.5000011749268,8|0,0:2|0:2,0:0:0:0:
201,211,130912,2,0,B|215:174|245:152|245:152|215:98,1,115.50000352478,8|8,0:2|0:2,0:0:0:0:
167,58,131500,1,10,0:2:0:0:
284,0,131794,1,10,0:2:0:0:
367,88,132088,2,0,P|360:113|350:151,1,38.5000011749268,2|0,0:2|0:0,0:0:0:0:
396,192,132382,6,0,P|405:261|418:357,1,154.000004699707,0|10,1:2|0:2,0:0:0:0:
289,295,133265,1,10,0:2:0:0:
200,379,133559,1,2,0:2:0:0:
104,318,133853,2,0,P|110:283|122:238,1,77.0000023498536,10|10,0:2|0:2,0:0:0:0:
19,115,134441,1,10,0:2:0:0:
27,210,134735,5,8,1:2:0:0:
117,160,135029,1,8,0:2:0:0:
207,202,135323,5,8,0:2:0:0:
332,253,135617,1,10,0:2:0:0:
394,188,135912,6,0,L|384:142,1,38.5000011749268,8|0,0:2|0:0,0:0:0:0:
456,68,136206,1,10,0:2:0:0:
388,23,136353,1,8,0:2:0:0:
388,23,136426,1,8,0:2:0:0:
388,23,136500,1,10,0:2:0:0:
308,75,136647,5,8,0:3:0:0:
237,111,136794,1,4,0:3:0:0:
237,111,137088,6,0,B|164:121|150:83|60:106,1,162.750001241684,6|0,1:2|1:2,0:0:0:0:
22,175,137676,2,0,P|33:204|42:243,1,54.2500004138947,8|0,0:2|0:2,0:0:0:0:
107,287,137970,2,0,B|146:288|192:322|192:322|262:294,1,162.750001241684,2|0,1:2|0:2,0:0:0:0:
342,279,138559,2,0,P|376:296|418:310,1,54.2500004138947,2|0,1:2|0:2,0:0:0:0:
477,261,138853,2,0,P|485:234|496:207,1,54.2500004138947,10|0,0:2|0:0,0:0:0:0:
425,152,139147,1,2,0:2:0:0:
425,152,139294,1,0,0:0:0:0:
332,184,139441,6,0,P|269:169|182:153,1,108.500000827789,0|2,1:2|0:2,0:0:0:0:
160,116,139882,2,0,P|213:105|288:75,1,108.500000827789,2|2,1:2|0:2,0:0:0:0:
329,13,140323,2,0,P|360:56|431:57,1,108.500000827789,2|0,1:2|0:2,0:0:0:0:
473,19,140765,1,0,0:2:0:0:
473,19,140912,1,2,1:2:0:0:
394,172,141206,2,0,B|400:238|354:276|354:276|387:315,1,162.750001241684,10|0,0:2|0:2,0:0:0:0:
332,384,141794,6,0,P|298:376|248:371,1,54.2500004138947,6|2,1:2|0:2,0:0:0:0:
204,329,142088,2,0,P|177:324|150:318,1,54.2500004138947,2|0,0:2|1:2,0:0:0:0:
52,305,142382,2,0,P|115:281|132:224,1,108.500000827789,10|2,0:2|1:2,0:0:0:0:
71,172,142823,1,0,0:0:0:0:
144,110,142970,2,0,P|136:82|123:44,1,54.2500004138947,0|0,0:2|0:2,0:0:0:0:
233,86,143265,2,0,P|241:114|254:152,1,54.2500004138947,2|0,1:2|0:2,0:0:0:0:
221,245,143559,6,0,P|255:233|304:223,1,54.2500004138947,10|0,0:2|0:2,0:0:0:0:
343,173,143853,2,0,B|380:182|413:211|413:211|481:195,1,108.500000827789,2|2,3:2|1:2,0:0:0:0:
512,66,144441,1,0,0:2:0:0:
512,66,144588,1,0,1:2:0:0:
435,16,144735,2,0,P|390:32|353:43,1,54.2500004138947,10|2,0:2|0:2,0:0:0:0:
324,94,145029,6,0,P|278:90|235:22,1,108.500000827789,2|0,1:2|0:2,0:0:0:0:
162,3,145470,1,10,0:2:0:0:
102,67,145617,2,0,P|111:90|121:133,1,54.2500004138947,2|8,1:2|0:2,0:0:0:0:
118,118,145838,1,8,0:2:0:0:
118,118,145912,1,8,0:2:0:0:
59,188,146059,1,2,1:2:0:0:
133,246,146206,1,10,0:2:0:0:
133,246,146500,6,0,B|222:263|215:221|295:237,1,162.750001241684,6|2,1:2|1:2,0:0:0:0:
371,301,147088,2,0,P|368:333|354:370,1,54.2500004138947,10|0,0:2|0:2,0:0:0:0:
266,379,147382,2,0,P|200:376|81:381,1,162.750001241684,2|0,1:2|0:2,0:0:0:0:
27,331,147970,2,0,P|47:307|65:270,1,54.2500004138947,2|0,1:2|0:2,0:0:0:0:
28,202,148265,2,0,P|57:191|98:167,1,54.2500004138947,10|0,0:2|0:2,0:0:0:0:
131,103,148559,1,2,0:2:0:0:
131,103,148706,1,0,0:0:0:0:
206,165,148853,6,0,B|255:179|271:145|335:160,1,108.500000827789,2|2,1:2|0:2,0:0:0:0:
388,195,149294,2,0,P|360:159|371:93,1,108.500000827789,2|0,1:2|0:2,0:0:0:0:
445,40,149735,2,0,P|410:27|372:9,1,54.2500004138947,2|0,1:2|0:2,0:0:0:0:
291,0,150029,6,0,B|257:36|270:85|270:85|241:138,1,108.500000827789,0|0,0:2|1:2,0:0:0:0:
207,173,150470,1,0,0:2:0:0:
139,113,150617,2,0,P|129:84|125:52,1,54.2500004138947,8|0,0:2|0:2,0:0:0:0:
51,15,150912,1,2,0:2:0:0:
51,15,151059,1,2,0:2:0:0:
9,94,151206,2,0,P|23:151|33:234,1,108.500000827789,6|2,1:2|0:2,0:0:0:0:
103,248,151647,2,0,B|150:244|179:264|179:264|225:231,1,108.500000827789,2|0,1:2|0:2,0:0:0:0:
285,289,152088,2,0,P|299:325|304:377,1,54.2500004138947,2|0,1:2|0:2,0:0:0:0:
410,370,152382,6,0,P|455:355|457:284,1,108.500000827789,2|0,0:2|1:2,0:0:0:0:
396,243,152823,1,0,0:2:0:0:
451,173,152970,1,10,0:2:0:0:
374,127,153117,1,8,0:3:0:0:
303,191,153265,2,0,P|274:196|220:210,1,54.2500004138947,8|4,0:3|0:3,0:0:0:0:
177,257,153559,6,0,P|130:270|22:287,1,154.000004699707,6|0,1:2|1:2,0:0:0:0:
0,148,154441,1,0,0:2:0:0:
135,172,154735,2,0,P|182:159|290:142,1,154.000004699707,0|0,1:2|1:2,0:0:0:0:
373,49,155617,1,0,0:2:0:0:
465,136,155912,2,0,P|454:176|449:231,1,77.0000023498536,0|0,1:2|0:2,0:0:0:0:
512,252,156353,2,0,P|480:263|431:301,1,77.0000023498536,0|0,0:2|0:2,0:0:0:0:
376,323,156794,2,0,P|384:337|397:367,1,38.5000011749268,0|0,0:2|0:0,0:0:0:0:
290,370,157088,6,0,B|228:373|226:345|158:353,1,115.50000352478,0|0,1:0|0:2,0:0:0:0:
118,304,157676,2,0,P|156:293|177:280,1,38.5000011749268,0|0,1:2|0:0,0:0:0:0:
211,235,157970,2,0,P|223:247|265:264,1,38.5000011749268,0|0,0:2|0:0,0:0:0:0:
318,198,158265,6,0,P|329:149|281:55,1,154.000004699707,4|0,1:2|1:0,0:0:0:0:
166,1,159147,1,0,0:2:0:0:
45,78,159441,2,0,P|113:85|223:103,1,154.000004699707,0|0,1:0|1:2,0:0:0:0:
303,159,160323,1,0,0:2:0:0:
203,228,160617,6,0,B|138:247|121:188|26:222,1,154.000004699707,0|0,1:2|1:2,0:0:0:0:
0,310,161500,2,0,P|18:348|40:410,1,77.0000023498536,0|0,0:2|1:2,0:0:0:0:
101,340,161941,1,0,0:2:0:0:
101,340,162088,1,0,0:2:0:0:
272,382,162382,6,0,P|296:374|312:364,2,25.6666674499512,8|8|8,1:3|0:3|0:3,0:3:0:0:
201,345,162676,2,0,P|177:353|161:363,2,25.6666674499512,8|4|4,0:3|0:3|0:3,0:3:0:0:
267,276,162970,6,0,B|244:213|290:183|263:108,1,154.000004699707,4|8,1:2|0:2,0:0:0:0:
344,29,163853,2,0,P|404:62|497:101,1,154.000004699707,4|0,1:2|1:2,0:0:0:0:
446,237,164735,2,0,P|430:195|409:157,1,77.0000023498536,8|0,0:2|0:2,0:0:0:0:
285,233,165323,6,0,P|292:284|404:293,1,154.000004699707,4|8,1:2|0:2,0:0:0:0:
278,348,166206,2,0,B|216:365|203:316|102:336,1,154.000004699707,4|0,1:2|1:2,0:0:0:0:
14,252,167088,2,0,P|61:240|110:220,1,77.0000023498536,8|0,0:2|0:2,0:0:0:0:
184,149,167676,5,4,1:2:0:0:
63,80,167970,1,0,0:2:0:0:
63,80,168117,1,0,1:2:0:0:
110,18,168265,2,0,P|139:35|171:50,1,45.4999979171754,8|0,0:2|0:2,0:0:0:0:
221,72,168559,2,0,B|280:88|300:40|393:56,1,136.499993751526,4|0,1:2|0:2,0:0:0:0:
408,116,169147,2,0,P|397:131|381:167,1,45.4999979171754,0|0,1:2|0:2,0:0:0:0:
376,236,169441,1,8,0:2:0:0:
252,180,169735,1,8,0:2:0:0:
116,229,170029,5,0,1:2:0:0:
158,297,170176,2,0,B|192:304|211:321|211:321|262:307,1,90.9999958343508,12|0,0:2|1:2,0:0:0:0:
314,336,170617,2,0,P|321:350|332:387,1,45.4999979171754,12|0,0:2|0:2,0:0:0:0:
401,342,170912,1,0,1:2:0:0:
493,344,171059,6,0,P|466:294|451:229,1,90.9999958343508,8|4,0:3|0:2,0:0:0:0:
473,177,171500,1,12,0:2:0:0:
398,131,171647,1,8,0:2:0:0:
398,131,171720,1,8,0:2:0:0:
398,131,171794,1,8,0:2:0:0:
305,189,171941,2,0,B|241:198|234:161|148:181,1,136.499993751526,4|4,1:2|1:2,0:0:0:0:
44,195,172676,5,0,0:2:0:0:
44,195,172823,1,0,1:2:0:0:
76,123,172970,2,0,P|84:103|98:61,1,41.9999987182618,8|0,0:2|0:0,0:0:0:0:
169,73,173265,2,0,B|206:80|228:98|228:98|266:88,1,83.9999974365235,2|2,1:2|0:2,0:0:0:0:
362,33,173853,1,2,1:2:0:0:
447,126,174147,2,0,P|436:167|425:217,1,83.9999974365235,10|0,0:2|0:2,0:0:0:0:
292,304,174735,6,0,P|323:295|403:284,1,83.9999974365235,0|0,1:2|0:2,0:0:0:0:
257,220,175323,2,0,B|206:223|172:259|172:259|121:234,1,125.999996154785,8|8,0:2|0:2,0:0:0:0:
143,245,175838,1,8,0:2:0:0:
143,245,175912,1,8,0:2:0:0:
71,202,176059,1,0,1:2:0:0:
131,158,176206,2,0,P|138:140|143:111,1,41.9999987182618,8|4,0:3|0:3,0:3:0:0:
91,33,176500,5,8,0:2:0:0:
185,52,176647,2,0,B|252:31|261:77|329:58,1,125.999996154785,4|4,1:2|1:2,0:0:0:0:
387,145,177382,1,0,0:2:0:0:
280,248,177676,2,0,P|275:202|264:148,1,83.9999974365235,12|2,0:2|1:2,0:0:0:0:
374,247,178265,1,2,0:2:0:0:
267,333,178559,2,0,P|240:327|191:311,1,41.9999987182618,2|0,1:2|1:2,0:0:0:0:
166,272,178853,2,0,B|125:281|102:311|102:311|28:295,1,125.999996154785,10|0,0:2|0:2,0:0:0:0:
4,236,179441,6,0,P|1:194|36:139,1,83.9999974365235,2|0,1:2|0:2,0:0:0:0:
142,183,180029,2,0,P|183:175|249:165,1,83.9999974365235,8|0,0:2|1:2,0:0:0:0:
287,116,180470,1,0,0:0:0:0:
324,182,180617,2,0,P|317:212|314:247,1,41.9999987182618,0|8,0:2|0:2,0:0:0:0:
389,288,180912,2,0,B|426:272|426:272|456:285|488:284,1,83.9999974365235,2|8,1:2|0:0,0:0:0:0:
504,356,181353,1,8,0:3:0:0:
428,381,181500,2,0,P|399:372|361:360,1,41.9999987182618,4|0,0:3|0:0,0:0:0:0:
280,307,181794,6,0,P|209:321|95:353,1,167.999994873047,14|8,0:2|0:2,0:0:0:0:
1,284,182676,1,8,0:2:0:0:
11,165,182970,1,8,0:2:0:0:
112,89,183265,1,8,0:2:0:0:
192,140,183412,1,8,0:2:0:0:
192,140,183485,1,8,0:2:0:0:
192,140,183559,1,8,0:2:0:0:
309,64,183853,1,8,0:2:0:0:
309,64,184000,1,4,0:3:0:0:
373,111,184147,1,12,0:0:0:0:
256,192,184294,12,2,186500,0:2:0:0:
270,381,202970,6,0,P|259:314|236:216,1,140,6|0,1:2|0:2,0:0:0:0:
243,243,203853,6,0,B|158:255|154:207|39:227,1,178.500003404617,4|0,1:2|0:2,0:0:0:0:
13,153,204441,2,0,P|27:126|36:91,1,59.5000011348725,2|0,1:2|0:2,0:0:0:0:
135,40,204735,6,0,P|116:33|98:24,2,39.6666674232483,8|8|8,0:3|0:3|0:3,0:3:0:0:
180,106,205029,2,0,P|208:119|241:141,2,39.6666674232483,8|4|4,0:3|0:3|0:3,0:0:0:0:
209,30,205323,6,0,P|256:20|361:-8,1,119.000002269745,6|2,1:2|0:2,0:0:0:0:
408,9,205765,2,0,P|387:37|373:124,1,119.000002269745,2|2,1:2|0:2,0:0:0:0:
391,190,206206,2,0,P|383:222|377:268,1,59.5000011348725,2|0,1:2|0:0,0:0:0:0:
430,334,206500,1,0,0:2:0:0:
363,370,206647,1,8,0:2:0:0:
299,320,206794,2,0,P|269:310|222:288,1,59.5000011348725,2|0,1:2|0:2,0:0:0:0:
166,349,207088,6,0,B|106:360|91:326|14:353,1,119.000002269745,10|0,0:2|0:2,0:0:0:0:
0,171,207676,1,2,1:2:0:0:
0,171,207823,1,2,0:2:0:0:
59,124,207970,2,0,P|101:141|134:149,1,59.5000011348725,2|2,0:2|1:2,0:0:0:0:
202,196,208265,6,0,B|208:152|240:131|240:131|223:86,1,119.000002269745,10|2,0:2|1:2,0:0:0:0:
272,12,208706,1,0,0:2:0:0:
343,61,208853,2,0,P|374:72|418:81,1,59.5000011348725,2|0,0:2|0:2,0:0:0:0:
421,168,209147,2,0,P|390:157|346:148,1,59.5000011348725,2|0,1:2|0:0,0:0:0:0:
282,197,209441,1,10,0:2:0:0:
278,287,209588,1,2,0:2:0:0:
361,329,209735,6,0,B|296:322|239:376|239:376|174:338,1,178.500003404617,6|0,1:2|0:2,0:0:0:0:
113,324,210323,2,0,P|108:300|96:247,1,59.5000011348725,2|0,1:2|1:2,0:0:0:0:
34,214,210617,2,0,P|104:209|172:188,1,119.000002269745,10|2,0:2|1:2,0:0:0:0:
229,224,211059,1,2,1:2:0:0:
289,152,211206,5,0,1:2:0:0:
289,152,211353,1,8,0:2:0:0:
220,88,211500,2,0,P|234:47|244:12,1,59.5000011348725,6|8,1:2|0:2,0:0:0:0:
238,31,211720,1,8,0:2:0:0:
238,31,211794,1,10,0:2:0:0:
166,8,211941,1,8,0:2:0:0:
104,66,212088,1,10,0:2:0:0:
104,66,212235,1,4,0:2:0:0:
4,33,212382,6,0,P|18:96|27:186,1,119.000002269745,6|0,1:2|0:2,0:0:0:0:
11,239,212823,1,0,1:2:0:0:
95,199,212970,2,0,B|134:209|169:230|169:230|208:214,1,119.000002269745,14|2,0:2|1:2,0:0:0:0:
276,168,213412,2,0,P|289:199|313:242,1,59.5000011348725,0|0,0:0|0:2,0:0:0:0:
253,292,213706,1,0,0:2:0:0:
328,340,213853,2,0,P|362:324|403:310,1,59.5000011348725,2|0,1:2|0:2,0:0:0:0:
465,351,214147,2,0,P|466:316|476:263,1,59.5000011348725,10|0,0:2|0:2,0:0:0:0:
506,217,214441,2,0,P|479:202|449:182,1,59.5000011348725,2|0,1:2|0:2,0:0:0:0:
345,167,214735,6,0,P|367:156|407:120,1,59.5000011348725,6|0,1:2|0:0,0:0:0:0:
391,37,215029,1,0,0:2:0:0:
321,89,215176,2,0,P|346:56|359:22,1,59.5000011348725,2|8,1:2|0:0,0:0:0:0:
275,7,215470,1,0,0:2:0:0:
201,82,215617,2,0,B|128:100|100:47|18:68,1,178.500003404617,2|0,1:2|0:0,0:0:0:0:
5,151,216206,2,0,P|7:189|6:240,1,59.5000011348725,0|0,1:2|0:2,0:0:0:0:
89,244,216500,2,0,P|86:184|102:93,1,119.000002269745,8|2,0:2|0:2,0:0:0:0:
166,174,216941,1,2,0:2:0:0:
251,139,217088,6,0,P|254:199|238:290,1,119.000002269745,0|2,1:2|0:2,0:0:0:0:
178,326,217529,2,0,B|220:305|220:305|253:331|310:341,1,119.000002269745,2|0,1:2|0:2,0:0:0:0:
362,374,217970,2,0,P|387:370|439:348,1,59.5000011348725,2|0,1:2|0:0,0:0:0:0:
476,257,218265,6,0,P|426:276|342:292,1,119.000002269745,2|0,0:2|1:2,0:0:0:0:
296,229,218706,1,0,0:2:0:0:
349,150,218853,2,0,P|334:114|328:71,1,59.5000011348725,10|0,0:2|0:2,0:0:0:0:
261,130,219147,2,0,P|242:122|198:98,1,59.5000011348725,0|0,0:2|0:2,0:0:0:0:
173,174,219441,6,0,P|134:190|48:253,1,119.000002269745,6|8,1:2|0:2,0:0:0:0:
19,297,219882,1,0,0:2:0:0:
92,346,220029,1,8,0:2:0:0:
200,282,220323,1,8,1:2:0:0:
346,369,220617,6,0,B|352:326|386:296|386:296|353:245,1,119.000002269745,8|8,0:2|0:2,0:0:0:0:
296,209,221059,1,8,0:2:0:0:
296,209,221132,1,8,0:2:0:0:
296,209,221206,1,8,0:2:0:0:
356,142,221353,1,8,0:2:0:0:
430,177,221500,1,6,0:2:0:0:
510,46,221794,1,2,0:2:0:0:
256,192,222970,12,6,224147,1:2:0:0:
