osu file format v14

[General]
AudioFilename: 01. .mp3
AudioLeadIn: 0
PreviewTime: 66299
Countdown: 1
SampleSet: Soft
StackLeniency: 0.4
Mode: 0
LetterboxInBreaks: 1
WidescreenStoryboard: 1

[Editor]
Bookmarks: 374,45974,67574,86774,110774,117974,139574,163574,177974,188774,207974,231974,243974,260774
DistanceSpacing: 0.7
BeatDivisor: 4
GridSize: 4
TimelineZoom: 2.4

[Metadata]
Title:Suki nanode.
TitleUnicode:好きなので。
Artist:Isla (CV: Amamiya Sora)
ArtistUnicode:アイラ (CV: 雨宮天)
Creator:lit120
Version:Confession
Source:プラスティック・メモリーズ
Tags:plastic memories anime japanese プラメモ puramemo insert character song キャラクターソング episode ep 10 japanese jpop j-pop j pop -Hakurei-
BeatmapID:2736002
BeatmapSetID:456521

[Difficulty]
HPDrainRate:5.5
CircleSize:4.5
OverallDifficulty:7
ApproachRate:8.5
SliderMultiplier:1.8
SliderTickRate:1

[Events]
//Background and Video events
0,0,"isla.jpg",0,0
//Break Periods
//Storyboard Layer 0 (Background)
//Storyboard Layer 1 (Fail)
//Storyboard Layer 2 (Pass)
//Storyboard Layer 3 (Foreground)
//Storyboard Layer 4 (Overlay)
//Storyboard Sound Samples

[TimingPoints]
374,573.065902578797,4,2,99,25,1,0
803,655.021834061135,4,2,99,25,1,0
1294,588.235294117647,4,2,99,25,1,0
1882,576.368876080692,4,2,99,25,1,0
2458,657.174151150055,4,2,99,25,1,0
2786,598.802395209581,4,2,1,25,1,0
2786,-200,4,2,98,25,0,0
3684,591.715976331361,4,2,1,25,1,0
3684,-200,4,2,99,25,0,0
4571,609.756097560976,4,2,1,25,1,0
4571,-200,4,2,50,25,0,0
5180,595.829195630586,4,2,1,25,1,0
5180,-200,4,2,45,25,0,0
5626,661.521499448732,4,2,1,25,1,0
5626,-200,4,2,99,25,0,0
6122,587.084148727984,4,2,99,25,1,0
6709,570.884871550904,4,2,99,25,1,0
6994,595.238095238095,4,2,99,25,1,0
7291,602.409638554217,4,2,99,25,1,0
7592,614.124872057318,4,2,98,25,1,0
8052,603.015075376884,4,2,98,25,1,0
8504,573.065902578797,4,2,99,25,1,0
9363,614.754098360656,4,2,1,25,1,0
9363,-200,4,2,50,25,0,0
9900,-200,4,2,1,5,0,0
9977,617.283950617284,4,2,1,25,1,0
9977,-200,4,2,46,25,0,0
10439,595.238095238095,4,2,99,25,1,0
10885,643.086816720257,4,2,1,25,1,0
10885,-200,4,2,99,25,0,0
12120,522.648083623693,4,2,1,25,1,0
12120,-200,4,2,1,25,0,0
12381,591.715976331361,4,2,47,25,1,0
12824,616.649537512847,4,2,98,25,1,0
13286,569.259962049336,4,2,1,25,1,0
13286,-200,4,2,99,25,0,0
14139,632.244467860906,4,2,1,25,1,0
14139,-200,4,2,99,25,0,0
14692,-200,4,2,1,5,0,0
14771,591.133004926108,4,2,1,25,1,0
14771,-200,4,2,50,25,0,0
15214,636.26723223754,4,2,99,25,1,0
15691,598.802395209581,4,2,1,25,1,0
15691,-200,4,2,99,25,0,0
16589,589.390962671906,4,2,1,25,1,0
16589,-200,4,2,97,25,0,0
17104,640.34151547492,4,2,1,25,1,0
17104,-200,4,2,1,5,0,0
17184,607.90273556231,4,2,1,25,1,0
17184,-200,4,2,48,25,0,0
19615,591.715976331361,4,2,1,25,1,0
19615,-200,4,2,98,25,0,0
21981,600,4,2,98,25,1,0
24381,-100,4,2,99,20,0,0
29181,606.060606060606,4,2,99,20,1,0
31605,555.555555555556,4,2,98,20,1,0
32021,601.805416248746,4,2,99,20,1,0
33074,600,4,2,40,20,1,0
33974,600,4,2,98,20,1,0
33974,-333.333333333333,4,2,98,20,0,0
34874,-333.333333333333,4,2,96,20,0,0
36374,-333.333333333333,4,2,98,20,0,0
37274,-333.333333333333,4,2,96,20,0,0
38774,-333.333333333333,4,2,99,20,0,0
40274,-333.333333333333,4,2,96,20,0,0
41174,-333.333333333333,4,2,40,20,0,0
43574,-333.333333333333,4,2,98,20,0,0
45974,-125,4,2,1,30,0,0
48299,-125,4,2,1,5,0,0
48374,-125,4,2,1,30,0,0
53099,-125,4,2,1,5,0,0
53174,-125,4,2,1,30,0,0
55499,-125,4,2,1,5,0,0
55574,-125,4,2,1,30,0,0
62699,-125,4,2,1,5,0,0
62774,-125,4,2,1,30,0,0
66749,-125,4,2,1,5,0,0
66824,-125,4,2,2,30,0,0
67574,-83.3333333333333,4,2,2,50,0,1
98699,-83.3333333333333,4,2,2,5,0,1
98774,-83.3333333333333,4,2,2,50,0,1
108299,-83.3333333333333,4,2,2,5,0,1
108374,-83.3333333333333,4,2,2,50,0,1
117899,-83.3333333333333,4,2,2,5,0,1
117974,-125,4,2,1,30,0,0
126674,-125,4,2,40,30,0,0
126974,-125,4,2,1,30,0,0
141899,-125,4,2,1,5,0,0
141974,-125,4,2,1,30,0,0
149099,-125,4,2,1,5,0,0
149174,-125,4,2,1,30,0,0
151499,-125,4,2,1,5,0,0
151574,-125,4,2,1,30,0,0
156299,-125,4,2,1,5,0,0
156374,-125,4,2,1,30,0,0
163574,-333.333333333333,4,2,98,25,0,0
167474,-333.333333333333,4,2,99,25,0,0
167774,-333.333333333333,4,2,98,25,0,0
168374,-333.333333333333,4,2,99,25,0,0
169274,-333.333333333333,4,2,98,25,0,0
170174,-333.333333333333,4,2,99,25,0,0
170774,-333.333333333333,4,2,98,25,0,0
171374,-333.333333333333,4,2,99,25,0,0
173174,-333.333333333333,4,2,98,25,0,0
174374,-333.333333333333,4,2,95,25,0,0
175574,-333.333333333333,4,2,98,25,0,0
176774,-333.333333333333,4,2,95,25,0,0
177974,-166.666666666667,4,2,98,30,0,0
179174,-166.666666666667,4,2,99,30,0,0
180374,-166.666666666667,4,2,98,30,0,0
182774,-125,4,2,95,30,0,0
185099,-125,4,2,1,5,0,0
185174,-125,4,2,95,30,0,0
185699,-125,4,2,1,5,0,0
185774,-90.9090909090909,4,2,95,35,0,0
186299,-90.9090909090909,4,2,1,5,0,0
186374,-71.4285714285714,4,2,95,40,0,0
186899,-71.4285714285714,4,2,1,5,0,0
186974,-58.8235294117647,4,2,94,45,0,0
187574,-111.111111111111,4,2,1,5,0,0
188774,600,4,2,1,50,1,0
188774,-83.3333333333333,4,2,2,50,0,1
191999,-83.3333333333333,4,2,2,5,0,1
192074,-83.3333333333333,4,2,2,50,0,1
205499,-83.3333333333333,4,2,2,5,0,1
205574,-83.3333333333333,4,2,2,50,0,1
218099,-83.3333333333333,4,2,2,5,0,1
218174,-83.3333333333333,4,2,2,50,0,1
229499,-83.3333333333333,4,2,2,5,0,1
229574,-83.3333333333333,4,2,2,50,0,1
243974,-200,4,2,1,25,0,0
245474,-200,4,2,80,25,0,0
247574,-200,4,2,98,25,0,0
252974,-133.333333333333,4,2,1,5,0,0
253574,-200,4,2,1,20,0,0
253724,-200,4,2,1,5,0,0
255974,-133.333333333333,4,2,10,20,0,0
258374,-133.333333333333,4,2,1,15,0,0
259574,-133.333333333333,4,2,1,10,0,0
260774,-133.333333333333,4,2,1,5,0,0

[Colours]
Combo1 : 249,197,153
Combo2 : 252,92,97
Combo3 : 222,150,84
Combo4 : 168,129,211
SliderBorder : 255,255,255

[HitObjects]
58,163,374,5,4,0:3:0:0:
131,93,803,1,4,0:3:0:0:
228,121,1294,1,2,0:0:0:0:
228,121,1882,5,8,0:3:0:0:
131,93,2170,1,2,0:3:0:0:
58,163,2458,1,2,0:0:0:0:
141,294,2786,6,0,P|146:244|150:216,2,67.5,8|2|2,0:3|0:0|0:0,0:0:0:0:
256,370,4571,5,2,0:0:0:0:
363,226,5180,6,0,P|367:260|371:294,1,67.5,6|4,0:3|0:3,0:0:0:0:
371,294,6122,1,2,0:0:0:0:
371,294,6709,5,8,0:3:0:0:
294,225,6994,1,2,0:3:0:0:
390,193,7291,1,2,0:0:0:0:
274,325,7592,5,8,0:3:0:0:
466,261,8052,1,2,0:0:0:0:
315,125,8504,1,2,0:0:0:0:
315,125,9363,6,0,P|354:140|399:135,1,78.75,2|0,0:0|0:0,0:0:0:0:
417,114,9977,6,0,P|414:80|405:47,1,67.5,6|4,0:3|0:3,0:0:0:0:
294,47,10885,2,0,B|223:65|238:1|156:17,1,135,2|0,0:3|0:0,0:0:0:0:
91,84,12120,2,0,L|98:126,1,22.5
107,172,12381,5,6,0:3:0:0:
223,264,12824,1,2,0:0:0:0:
131,380,13286,2,0,P|180:354|226:355,1,90,2|0,0:3|0:0,0:0:0:0:
321,353,14139,2,0,B|311:368|311:368|303:308,1,78.75
295,274,14771,6,0,P|332:272|360:242,1,67.5,6|4,0:3|0:3,0:0:0:0:
410,80,15691,2,0,B|414:114|414:114|410:132|410:132|414:167,1,90,2|0,0:3|0:0,0:0:0:0:
283,122,16589,2,0,B|246:113|246:113|208:128,1,78.75,4|0,0:3|0:0,0:0:0:0:
189,164,17184,6,0,B|141:134|59:137|67:61|112:32|153:53|153:53|173:12|227:9|278:66|213:111|189:164,1,360,6|8,0:3|0:3,0:0:0:0:
256,192,19762,12,2,21981,0:0:0:0:
331,100,24381,5,8,0:3:0:0:
419,41,26781,5,8,0:3:0:0:
424,146,29181,5,2,0:3:0:0:
424,146,31605,5,8,0:3:0:0:
419,41,32021,1,2,0:0:0:0:
331,100,32472,1,2,0:3:0:0:
256,252,33074,5,2,0:0:0:0:
154,286,33974,6,0,P|152:272|149:259,2,26.9999991760254,2|0|0,0:0|0:0|0:0,0:0:0:0:
106,361,34874,2,0,B|136:357|136:357|153:361|153:361|185:357,1,80.9999975280763,2|0,0:0|0:0,0:0:0:0:
256,374,36074,1,0,0:0:0:0:
358,285,36374,6,0,P|361:263|365:244,1,40.4999987640381,2|0,0:0|0:0,0:0:0:0:
406,361,37274,2,0,B|375:357|375:357|358:361|358:361|326:357,1,80.9999975280763,2|0,0:0|0:0,0:0:0:0:
256,374,38474,1,0,0:0:0:0:
256,252,38774,6,0,L|256:225,2,26.9999991760254,2|0|0,0:3|0:0|0:0,0:0:0:0:
191,171,39674,1,2,0:3:0:0:
256,37,40274,1,4,0:3:0:0:
321,171,40874,1,0,0:0:0:0:
321,171,41174,6,0,B|362:181|353:144|395:155,2,80.9999975280763,6|2|0,0:3|0:0|0:0,0:0:0:0:
162,42,43574,2,0,P|176:82|97:72,1,161.999995056153,2|0,0:0|0:0,0:0:0:0:
28,270,45974,6,0,P|83:252|115:252,1,72,0|0,3:2|0:0,0:0:0:0:
227,368,46574,2,0,P|190:344|176:296,1,72,2|0,0:0|0:0,0:0:0:0:
323,240,47174,1,8,0:0:0:0:
209,163,47474,1,0,0:0:0:0:
338,232,47774,2,0,B|386:235|386:235|410:246|410:246|460:249,1,126,2|0,0:0|0:0,0:0:0:0:
471,233,48374,6,0,P|465:197|465:157,1,72,0|0,3:2|0:0,0:0:0:0:
367,61,48974,2,0,B|292:42|308:109|234:89,1,144,2|8,0:0|0:0,0:0:0:0:
44,106,49874,5,2,0:0:0:0:
97,165,50174,1,2,0:0:0:0:
122,90,50474,1,2,0:0:0:0:
221,234,50774,6,0,P|185:226|150:224,1,72,0|0,3:2|0:0,0:0:0:0:
313,116,51374,2,0,P|302:163|304:205,1,72,2|0,0:0|0:0,0:0:0:0:
387,330,51974,2,0,P|350:302|293:306,1,72,8|0,0:0|0:0,0:0:0:0:
186,358,52574,2,0,P|147:351|47:348,1,126,2|0,0:0|0:0,0:0:0:0:
44,336,53174,6,0,P|63:303|76:267,1,72,0|0,3:2|0:0,0:0:0:0:
95,204,53774,1,2,0:0:0:0:
234,183,54074,2,0,P|195:182|158:189,1,72,2|8,0:0|0:0,0:0:0:0:
95,204,54674,1,2,0:0:0:0:
7,92,54974,1,10,0:0:0:0:
7,92,55124,2,0,P|52:97|97:75,1,90,2|0,0:0|0:0,0:0:0:0:
118,64,55574,6,0,P|153:77|187:96,1,72,0|0,3:2|0:0,0:0:0:0:
301,220,56174,1,2,0:0:0:0:
398,122,56474,1,0,0:0:0:0:
479,268,56774,2,0,P|448:249|413:239,1,72,8|0,0:0|0:0,0:0:0:0:
253,332,57374,2,0,P|287:321|318:303,1,72,10|0,0:0|0:0,0:0:0:0:
219,149,57974,6,0,P|219:182|223:221,1,72,0|0,3:2|0:0,0:0:0:0:
88,357,58574,1,2,0:0:0:0:
2,267,58874,1,2,0:0:0:0:
24,198,59024,1,2,0:0:0:0:
72,251,59174,2,0,P|116:255|148:247,1,72,8|2,0:0|0:0,0:0:0:0:
57,59,59774,2,0,P|81:107|86:125,1,72,2|2,0:0|0:0,0:0:0:0:
227,47,60374,5,2,3:2:0:0:
304,154,60674,1,2,0:0:0:0:
417,37,60974,1,2,0:0:0:0:
305,171,61274,2,8,P|303:217|307:252,1,72,10|8,0:0|0:0,0:0:0:0:
264,378,61874,1,2,0:0:0:0:
133,283,62174,2,0,P|195:284|256:299,1,126,10|0,0:0|0:0,0:0:0:0:
283,309,62774,6,0,P|337:330|391:268,1,144,2|0,3:2|0:0,0:0:0:0:
310,121,63674,1,8,0:0:0:0:
139,225,63974,6,0,L|134:189,1,36,10|2,0:0|0:0,0:0:0:0:
201,148,64274,2,0,L|205:183,1,36,2|2,0:0|0:0,0:0:0:0:
97,115,64574,6,0,L|133:111,1,36,10|2,0:0|0:0,0:0:0:0:
242,257,64874,2,0,L|206:261,1,36,2|2,3:2|0:0,0:0:0:0:
170,187,65174,5,0,3:2:0:0:
170,187,66074,5,0,0:0:0:0:
108,258,66374,2,0,P|120:299|135:357,1,90,10|0,0:0|0:0,0:0:0:0:
147,360,66824,5,8,0:0:0:0:
229,259,66974,1,8,0:0:0:0:
276,380,67124,1,8,0:3:0:0:
218,333,67274,1,4,0:3:0:0:
499,126,67574,6,0,B|387:97|410:198|299:168,1,215.999993408203,6|8,3:2|0:0,0:0:0:0:
64,89,68474,1,2,0:0:0:0:
131,153,68624,1,2,0:0:0:0:
153,63,68774,2,0,P|157:31|156:6,1,53.9999983520508,2|0,0:0|0:0,0:0:0:0:
42,179,69074,2,0,P|41:205|45:232,1,53.9999983520508,0|0,3:2|0:0,0:0:0:0:
152,344,69374,1,8,0:0:0:0:
161,349,69674,5,2,0:0:0:0:
229,272,69824,1,2,0:0:0:0:
340,373,69974,2,0,P|295:356|270:351,1,53.9999983520508,2|0,3:2|0:0,0:0:0:0:
374,270,70274,2,0,P|399:262|424:251,1,53.9999983520508,2|0,0:0|0:0,0:0:0:0:
306,122,70574,2,0,P|305:164|307:191,1,53.9999983520508,10|0,0:0|0:0,0:0:0:0:
436,46,70874,1,2,0:0:0:0:
444,49,71174,5,0,0:0:0:0:
463,149,71324,1,8,0:0:0:0:
367,114,71474,2,0,P|314:107|291:110,1,53.9999983520508,2|0,3:2|0:0,0:0:0:0:
142,221,71774,2,0,P|193:208|230:163,1,107.999996704102,10|2,0:0|0:0,0:0:0:0:
148,134,72224,1,2,0:0:0:0:
16,169,72374,6,0,L|70:173,1,53.9999983520508,2|0,3:2|0:0,0:0:0:0:
165,269,72674,2,0,L|142:221,1,53.9999983520508
178,89,72974,2,0,L|148:134,1,53.9999983520508,8|0,0:0|0:0,0:0:0:0:
151,344,73274,6,0,B|235:361|214:286|298:304,1,161.999995056153,2|0,3:2|0:0,0:0:0:0:
386,372,73874,1,2,3:2:0:0:
308,312,74024,1,0,0:0:0:0:
407,151,74174,2,0,P|388:214|382:268,1,107.999996704102,10|2,0:0|0:0,0:0:0:0:
301,125,74624,1,2,0:0:0:0:
301,125,74699,1,2,0:0:0:0:
301,125,74774,6,0,P|317:73|325:20,1,107.999996704102,2|2,3:2|0:0,0:0:0:0:
211,109,75224,1,2,0:0:0:0:
46,45,75374,2,0,P|99:32|160:23,1,107.999996704102,8|0,0:0|0:0,0:0:0:0:
133,310,75974,5,2,0:0:0:0:
78,237,76124,1,8,0:0:0:0:
43,322,76274,2,0,P|42:367|44:380,1,53.9999983520508,0|0,3:2|0:0,0:0:0:0:
169,285,76574,5,10,0:0:0:0:
190,365,76724,1,8,0:0:0:0:
238,238,76874,5,8,0:0:0:0:
273,368,77024,1,8,0:0:0:0:
409,308,77174,6,0,P|356:296|302:289,2,107.999996704102,6|0|8,3:2|0:0|0:0,0:0:0:0:
424,323,78074,1,2,0:0:0:0:
502,254,78224,1,2,0:0:0:0:
370,161,78374,2,0,P|382:192|389:224,1,53.9999983520508,2|0,0:0|0:0,0:0:0:0:
504,61,78674,2,0,P|457:94|401:95,1,107.999996704102,0|8,3:2|0:0,0:0:0:0:
384,89,79274,5,2,0:0:0:0:
306,22,79424,1,2,0:0:0:0:
226,189,79574,2,0,P|219:151|219:125,1,53.9999983520508,2|0,3:2|0:0,0:0:0:0:
343,232,79874,2,0,P|341:258|335:285,1,53.9999983520508,2|0,3:2|0:0,0:0:0:0:
229,352,80174,2,0,P|181:344|162:341,1,53.9999983520508,10|0,0:0|0:0,0:0:0:0:
17,213,80474,6,0,B|129:187|103:288|215:261,1,215.999993408203,6|2,3:2|3:2,0:0:0:0:
233,252,81374,1,10,0:0:0:0:
305,299,81524,1,0,0:0:0:0:
352,227,81674,1,0,0:0:0:0:
283,72,81824,1,2,0:0:0:0:
283,72,81899,1,2,0:0:0:0:
283,72,81974,6,0,P|279:126|280:180,1,107.999996704102,6|0,3:2|0:0,0:0:0:0:
165,111,82424,2,0,P|165:57|161:3,1,107.999996704102,2|0,0:0|0:0,0:0:0:0:
60,106,82874,1,2,0:0:0:0:
174,217,83024,1,8,0:0:0:0:
74,321,83174,6,0,P|123:305|133:305,1,53.9999983520508,6|0,3:2|0:0,0:0:0:0:
185,219,83474,2,0,P|223:253|228:262,1,53.9999983520508,0|2,3:2|0:0,0:0:0:0:
316,316,83774,2,0,B|357:313|357:313|377:303|377:303|420:301,1,107.999996704102,8|2,0:0|0:0,0:0:0:0:
490,334,84224,1,0,0:0:0:0:
511,118,84374,6,0,B|487:100|487:100|499:178,1,107.999996704102,6|0,3:2|0:0,0:0:0:0:
444,233,84824,1,0,3:2:0:0:
329,85,84974,1,8,0:0:0:0:
318,87,85274,5,8,0:0:0:0:
280,163,85424,1,8,0:3:0:0:
195,150,85574,1,4,0:3:0:0:
181,66,85724,1,8,0:0:0:0:
257,26,85874,1,4,0:3:0:0:
258,14,86174,5,10,0:0:0:0:
186,158,86324,1,8,0:0:0:0:
329,85,86474,1,4,0:3:0:0:
285,173,86624,1,4,0:3:0:0:
169,60,86774,6,0,P|92:127|115:227,1,215.999993408203,6|8,3:2|0:0,0:0:0:0:
354,268,87674,1,2,0:0:0:0:
282,316,87824,1,2,0:0:0:0:
246,184,87974,2,0,L|276:229,1,53.9999983520508,2|8,3:2|0:0,0:0:0:0:
259,364,88274,2,0,L|282:316,1,53.9999983520508
408,264,88574,1,8,0:0:0:0:
422,263,88874,5,2,0:0:0:0:
488,183,89024,1,2,0:0:0:0:
354,94,89174,2,0,B|313:97|313:97|293:107|293:107|250:109,1,107.999996704102,2|2,3:2|0:0,0:0:0:0:
182,158,89624,1,0,0:0:0:0:
89,29,89774,2,0,P|107:71|114:109,1,53.9999983520508,10|0,0:0|0:0,0:0:0:0:
60,236,90074,6,0,B|57:312|57:312|92:288,1,107.999996704102,2|0,0:0|3:2,0:0:0:0:
176,175,90524,1,8,0:0:0:0:
238,272,90674,2,0,P|237:310|232:341,1,53.9999983520508,2|0,0:0|0:0,0:0:0:0:
326,127,90974,1,10,0:0:0:0:
334,121,91274,5,2,0:0:0:0:
250,64,91424,1,2,0:0:0:0:
353,218,91574,2,0,P|406:209|487:204,1,107.999996704102,6|0,3:2|0:0,0:0:0:0:
389,320,92024,1,0,3:2:0:0:
249,202,92174,1,8,0:0:0:0:
233,197,92474,6,0,B|148:178|168:253|84:233,1,161.999995056153,6|8,3:2|0:0,0:0:0:0:
102,109,93074,2,0,P|105:148|102:182,1,53.9999983520508,2|0,3:2|0:0,0:0:0:0:
215,321,93374,2,0,P|212:294|213:268,1,53.9999983520508,10|0,0:0|0:0,0:0:0:0:
84,233,93674,1,2,0:0:0:0:
116,345,93824,1,2,0:0:0:0:
116,345,93899,1,2,0:0:0:0:
116,345,93974,6,0,P|161:317|215:321,1,107.999996704102,6|2,3:2|0:0,0:0:0:0:
291,371,94424,1,2,3:2:0:0:
342,249,94574,2,0,P|341:195|345:142,1,107.999996704102,10|0,0:0|0:0,0:0:0:0:
238,23,95024,1,8,0:0:0:0:
187,176,95174,1,10,0:0:0:0:
255,112,95324,1,8,0:3:0:0:
352,149,95474,1,8,0:0:0:0:
352,149,95549,1,8,0:0:0:0:
352,149,95624,1,8,0:0:0:0:
488,260,95774,5,10,0:0:0:0:
512,188,95924,1,8,0:0:0:0:
411,248,96074,5,8,0:0:0:0:
451,368,96224,1,8,0:0:0:0:
319,313,96374,6,0,B|207:284|230:385|119:355,1,215.999993408203,6|8,3:2|0:0,0:0:0:0:
9,249,97274,1,0,0:0:0:0:
172,133,97574,1,2,3:2:0:0:
172,133,97724,2,0,P|170:172|161:213,1,53.9999983520508,8|0,0:0|0:0,0:0:0:0:
94,83,98024,1,0,3:2:0:0:
94,83,98174,2,0,P|96:44|105:3,1,53.9999983520508,8|0,0:0|0:0,0:0:0:0:
222,66,98474,2,0,P|258:66|307:46,1,80.9999975280763,12|0,0:0|0:0,0:0:0:0:
320,35,98774,6,0,P|318:62|322:89,1,53.9999983520508,2|0,3:2|0:0,0:0:0:0:
437,184,99074,2,0,P|441:157|439:130,1,53.9999983520508,8|0,0:3|0:0,0:0:0:0:
251,214,99374,2,0,P|289:201|314:199,1,53.9999983520508,10|0,0:0|0:0,0:0:0:0:
448,292,99674,6,0,B|460:320|447:343|447:343|391:365|339:327,1,161.999995056153,6|8,3:2|0:0,0:0:0:0:
216,377,100274,2,0,P|224:350|226:306,1,53.9999983520508,2|8,3:2|0:0,0:0:0:0:
108,155,100574,1,8,0:0:0:0:
146,226,100724,1,8,0:3:0:0:
217,188,100874,1,4,0:3:0:0:
179,117,101024,1,4,0:3:0:0:
131,247,101174,6,0,P|126:304|126:371,1,107.999996704102,6|0,3:2|3:2,0:0:0:0:
32,262,101624,2,0,P|31:208|26:154,1,107.999996704102,2|0,0:0|0:0,0:0:0:0:
142,48,102074,2,0,P|135:83|134:111,1,53.9999983520508,2|0,0:0|0:0,0:0:0:0:
228,250,102374,6,0,P|225:223|219:196,1,53.9999983520508,2|8,3:2|0:0,0:0:0:0:
338,87,102674,2,0,P|315:102|295:120,1,53.9999983520508,0|2,3:2|0:0,0:0:0:0:
362,245,102974,1,8,0:0:0:0:
444,270,103124,1,0,0:0:0:0:
496,201,103274,1,2,0:0:0:0:
499,185,103574,6,0,P|502:131|509:77,2,107.999996704102,2|0|8,3:2|3:2|0:0,0:0:0:0:
505,365,104474,1,0,0:0:0:0:
452,295,104624,1,8,0:0:0:0:
364,384,104774,2,0,P|390:377|417:375,1,53.9999983520508,2|8,0:0|0:0,0:0:0:0:
332,211,105074,2,0,P|322:245|329:275,1,53.9999983520508,2|0,3:2|0:0,0:0:0:0:
218,376,105374,2,0,P|228:342|221:312,1,53.9999983520508,10|0,0:0|0:0,0:0:0:0:
117,203,105674,1,10,0:0:0:0:
67,358,105824,1,8,0:0:0:0:
123,191,105974,6,0,P|126:143|118:58,1,107.999996704102,6|0,3:2|3:2,0:0:0:0:
25,177,106424,2,0,P|21:230|24:284,1,107.999996704102,2|0,0:0|0:0,0:0:0:0:
146,344,106874,2,0,P|185:335|205:328,1,53.9999983520508,2|0,0:0|0:0,0:0:0:0:
246,158,107174,6,0,P|256:192|274:218,1,53.9999983520508,6|0,3:2|0:0,0:0:0:0:
316,254,107474,1,0,3:2:0:0:
268,363,107624,2,0,P|292:336|305:308,1,53.9999983520508,2|8,0:0|0:0,0:0:0:0:
316,254,107924,1,0,0:0:0:0:
435,240,108074,2,0,P|426:193|426:148,1,80.9999975280763,2|0,0:0|0:0,0:0:0:0:
440,136,108374,6,0,B|354:152|376:77|292:94,1,161.999995056153,6|0,3:2|3:2,0:0:0:0:
136,57,108974,1,8,0:0:0:0:
125,51,109274,5,2,0:0:0:0:
94,136,109424,1,8,0:0:0:0:
35,66,109574,2,0,P|32:33|37:3,1,53.9999983520508,2|8,0:0|0:0,0:0:0:0:
114,154,109874,2,0,P|116:180|113:207,1,53.9999983520508,8|0,0:3|0:0,0:0:0:0:
19,330,110174,1,10,0:0:0:0:
174,308,110324,1,8,0:0:0:0:
35,308,110474,1,8,0:3:0:0:
156,326,110624,1,4,0:3:0:0:
231,175,110774,6,0,B|345:156|313:255|426:235,1,215.999993408203,6|8,3:2|0:0,0:0:0:0:
437,243,111674,1,0,0:0:0:0:
501,150,111824,1,8,0:0:0:0:
447,252,111974,2,0,P|442:297|445:339,1,53.9999983520508
342,184,112274,2,0,P|347:139|344:97,1,53.9999983520508,2|0,3:2|0:0,0:0:0:0:
470,36,112574,2,0,P|412:60|332:36,1,107.999996704102,10|0,0:0|0:0,0:0:0:0:
98,190,113174,6,0,P|136:112|256:167,1,215.999993408203,2|8,3:2|0:0,0:0:0:0:
251,148,114074,1,0,0:0:0:0:
301,42,114224,1,8,0:0:0:0:
257,158,114374,2,0,P|255:225|262:292,1,107.999996704102,2|0,0:0|3:2,0:0:0:0:
123,374,114974,2,0,P|126:320|124:266,1,107.999996704102,8|0,0:0|0:0,0:0:0:0:
58,226,115424,6,0,P|115:220|125:158,1,107.999996704102,8|8,0:0|0:0,0:0:0:0:
42,74,115874,2,0,P|59:112|69:136,1,53.9999983520508,0|0,3:2|0:0,0:0:0:0:
167,31,116174,2,0,B|208:34|208:34|228:44|228:44|271:46,1,107.999996704102,8|0,0:0|0:0,0:0:0:0:
367,116,116624,5,8,0:0:0:0:
374,123,116924,1,8,0:0:0:0:
321,182,117074,2,0,P|276:172|251:167,1,53.9999983520508,0|8,3:2|0:0,0:0:0:0:
135,201,117374,1,8,0:0:0:0:
228,301,117524,1,8,0:0:0:0:
292,254,117674,2,0,P|332:264|388:273,1,80.9999975280763,2|0,0:3|0:0,0:0:0:0:
391,270,117974,6,0,P|382:306|377:344,1,72,2|0,3:2|0:0,0:0:0:0:
483,209,118574,2,0,P|478:173|469:138,1,72,2|2,0:0|0:0,0:0:0:0:
428,83,119024,1,2,0:0:0:0:
401,146,119174,1,8,0:0:0:0:
126,63,120074,5,2,0:0:0:0:
126,63,120374,2,0,P|134:123|141:184,2,108,2|2|2,3:2|0:0|0:0,0:0:0:0:
39,128,121574,1,8,0:0:0:0:
155,341,122774,6,0,B|230:357|212:290|286:308,1,144,2|2,3:2|0:0,0:0:0:0:
376,348,123674,1,2,0:0:0:0:
376,348,123824,2,0,P|372:307|372:298,1,36,2|8,0:0|0:0,0:0:0:0:
90,232,124874,5,2,0:0:0:0:
90,232,125174,2,0,P|85:196|74:162,1,72,2|0,3:2|0:0,0:0:0:0:
127,113,125624,2,0,P|160:127|195:134,1,72,2|0,0:0|0:0,0:0:0:0:
211,205,126074,1,2,3:2:0:0:
211,205,126674,6,0,P|182:226|157:253,1,72,10|0,0:0|3:2,0:0:0:0:
441,362,127574,5,2,3:2:0:0:
441,362,127874,2,0,P|449:322|451:290,1,72,0|2,0:0|0:0,0:0:0:0:
365,146,128474,2,0,P|364:164|368:182,1,36,2|2,0:0|0:0,0:0:0:0:
409,236,128774,1,8,0:0:0:0:
173,367,129674,5,2,0:0:0:0:
173,367,129974,2,0,P|143:349|108:340,1,72,2|0,3:2|0:0,0:0:0:0:
8,295,130424,2,0,P|42:285|73:267,1,72,2|0,0:0|0:0,0:0:0:0:
125,208,130874,1,2,0:0:0:0:
33,101,131174,1,8,0:0:0:0:
275,22,132074,5,2,0:0:0:0:
275,22,132374,2,0,P|268:67|263:113,2,72,2|2|2,3:2|0:0|0:0,0:0:0:0:
316,163,133274,2,0,P|255:115|179:143,1,144,10|2,0:0|0:0,0:0:0:0:
142,197,134174,2,0,P|150:249|160:293,1,72,8|2,0:0|0:0,0:0:0:0:
260,343,134774,5,2,3:2:0:0:
260,343,135074,2,0,B|315:339|315:339|342:326|342:326|400:323,1,144,0|2,0:0|0:0,0:0:0:0:
474,360,135974,1,8,0:0:0:0:
364,159,137174,5,2,3:2:0:0:
364,159,137474,2,0,P|312:203|225:200,1,144
163,151,138374,1,8,0:0:0:0:
161,140,138974,6,8,P|161:122|165:104,1,36
96,183,139274,2,0,P|99:200|100:218,1,36
182,263,139574,6,0,P|149:250|95:250,1,72,0|0,3:2|0:0,0:0:0:0:
225,361,140174,2,0,P|274:343|377:330,1,144,2|8,0:0|0:0,0:0:0:0:
441,371,141074,1,0,0:0:0:0:
479,257,141374,2,0,P|477:207|471:124,1,126,2|0,0:0|0:0,0:0:0:0:
457,112,141974,6,0,P|421:132|385:140,1,72,0|0,3:2|0:0,0:0:0:0:
245,38,142574,2,0,P|293:46|311:68,1,72,2|0,0:0|0:0,0:0:0:0:
237,253,143174,1,8,0:0:0:0:
154,154,143474,5,2,0:0:0:0:
224,180,143774,1,2,0:0:0:0:
280,132,144074,1,2,0:0:0:0:
216,275,144374,6,0,P|182:266|146:262,1,72,0|0,3:2|0:0,0:0:0:0:
107,384,144974,2,0,P|142:380|177:370,1,72,2|0,0:0|0:0,0:0:0:0:
295,275,145574,2,0,P|329:266|365:262,1,72,8|0,0:0|0:0,0:0:0:0:
405,384,146174,2,0,P|369:380|334:370,1,72,2|0,0:0|0:0,0:0:0:0:
471,294,146774,6,0,B|466:238|466:238|453:211|453:211|449:154,1,144,0|2,3:2|0:0,0:0:0:0:
398,61,147674,1,2,0:0:0:0:
273,164,147974,2,0,P|326:154|356:131,1,72,8|2,0:0|0:0,0:0:0:0:
254,47,148574,1,10,0:0:0:0:
254,47,148724,2,0,P|213:62|156:64,1,90,2|0,0:0|0:0,0:0:0:0:
146,59,149174,6,0,P|157:93|164:128,1,72,0|0,3:2|0:0,0:0:0:0:
33,239,149774,2,0,P|39:203|51:169,1,72,2|0,0:0|0:0,0:0:0:0:
185,274,150374,1,8,0:0:0:0:
94,340,150674,1,0,0:0:0:0:
199,269,150974,2,0,P|227:274|329:284,1,126,2|0,0:0|0:0,0:0:0:0:
345,282,151574,6,0,P|337:327|336:363,1,72,0|0,3:2|0:0,0:0:0:0:
259,204,152174,1,2,0:0:0:0:
361,130,152474,1,2,0:0:0:0:
289,138,152624,1,2,0:0:0:0:
246,79,152774,2,0,P|247:30|253:-2,1,72,8|2,0:0|0:0,0:0:0:0:
135,136,153374,2,0,P|139:171|139:207,1,72,2|2,0:0|0:0,0:0:0:0:
235,360,153974,5,2,3:2:0:0:
139,300,154274,1,2,0:0:0:0:
294,212,154574,1,2,0:0:0:0:
367,368,154874,2,0,P|371:325|381:283,1,72,10|0,0:0|0:0,0:0:0:0:
457,205,155474,1,2,0:0:0:0:
355,77,155774,2,0,B|303:80|303:80|279:91|279:91|231:94,1,126,10|0,0:0|0:0,0:0:0:0:
210,98,156374,6,0,P|173:46|64:91,1,144,2|0,3:2|0:0,0:0:0:0:
32,94,157274,1,2,0:0:0:0:
119,215,157574,1,8,0:0:0:0:
455,358,158774,5,2,3:2:0:0:
455,358,159074,2,0,P|391:309|303:347,1,144
216,349,159974,2,0,L|223:389,3,36,10|0|0|0,0:0|0:0|0:0|0:0,0:0:0:0:
167,292,160574,6,0,L|127:278,1,36,10|2,0:0|0:0,0:0:0:0:
239,279,160874,2,0,L|270:252,1,36,2|2,3:2|0:0,0:0:0:0:
47,90,163574,6,0,B|131:71|111:146|195:126,1,161.999995056153,2|0,0:0|0:0,0:0:0:0:
385,45,165974,5,2,0:0:0:0:
371,110,166874,1,2,0:0:0:0:
371,110,167474,5,2,0:0:0:0:
385,45,167774,1,8,0:3:0:0:
465,226,168374,5,2,0:3:0:0:
465,226,169274,2,0,P|427:207|380:209,1,80.9999975280763,8|2,0:3|0:0,0:0:0:0:
230,357,170774,5,8,0:3:0:0:
333,268,171374,1,2,0:3:0:0:
281,142,171974,1,2,0:0:0:0:
146,153,172574,1,4,0:3:0:0:
33,290,173174,6,0,B|65:286|65:286|82:290|82:290|113:286,1,80.9999975280763,2|0,0:0|0:0,0:0:0:0:
177,177,174374,2,0,P|167:207|166:235,1,53.9999983520508,2|0,0:0|0:0,0:0:0:0:
349,111,175574,6,0,P|309:133|263:123,1,80.9999975280763,2|0,0:0|0:0,0:0:0:0:
204,29,176774,2,0,P|210:55|216:81,1,53.9999983520508,8|4,0:3|0:3,0:0:0:0:
350,345,177974,6,0,P|352:327|373:256,2,80.9999975280763,8|0|0,0:3|0:0|0:0,0:0:0:0:
242,191,179174,2,0,P|254:229|260:269,2,80.9999975280763,2|0|0,0:3|0:0|0:0,0:0:0:0:
97,343,180374,6,0,P|142:309|209:319,1,107.999996704102,8|0,0:3|0:0,0:0:0:0:
293,160,181574,2,0,P|239:160|198:127,1,107.999996704102,8|2,0:3|0:0,0:0:0:0:
452,30,182774,6,0,P|442:78|439:103,1,72,4|0,0:3|0:0,0:0:0:0:
508,245,183374,2,0,P|503:209|480:178,1,72
323,243,183974,1,4,0:3:0:0:
376,300,184274,1,0,0:0:0:0:
300,317,184574,2,0,P|268:308|173:298,1,126
166,300,185174,6,0,P|181:340|175:297,1,126,4|0,0:3|0:0,0:0:0:0:
163,293,185774,6,0,P|183:348|176:289,1,173.250005287171,8|0,0:3|0:0,0:0:0:0:
160,286,186374,6,0,P|186:356|177:281,1,220.499993270874,2|0,0:3|0:0,0:0:0:0:
154,274,186974,6,0,P|190:371|177:268,1,306.000005836487,2|0,0:0|0:0,0:0:0:0:
48,59,188774,6,0,B|18:89|28:123|28:123|98:166|176:99,1,215.999993408203,6|8,3:2|0:0,0:0:0:0:
403,34,189674,1,2,0:0:0:0:
324,112,189824,1,2,0:0:0:0:
427,232,189974,2,0,P|372:208|307:201,1,107.999996704102,2|0,3:2|0:0,0:0:0:0:
246,259,190424,1,0,0:0:0:0:
149,116,190574,1,8,0:0:0:0:
136,103,190874,5,2,0:0:0:0:
56,167,191024,1,2,0:0:0:0:
149,279,191174,2,0,P|151:236|146:204,1,53.9999983520508,2|0,3:2|0:0,0:0:0:0:
34,350,191474,2,0,P|83:343|109:318,1,53.9999983520508,2|0,0:0|0:0,0:0:0:0:
232,282,191774,2,0,P|263:287|315:305,1,80.9999975280763,10|0,0:0|0:0,0:0:0:0:
326,315,192074,6,0,P|376:324|427:264,1,107.999996704102,2|0,0:0|3:2,0:0:0:0:
467,220,192524,1,8,0:0:0:0:
366,163,192674,2,0,P|375:188|382:214,1,53.9999983520508,2|0,0:0|0:0,0:0:0:0:
498,76,192974,2,0,B|457:79|457:79|437:89|437:89|394:91,1,107.999996704102,10|2,0:0|0:0,0:0:0:0:
313,35,193424,1,2,0:0:0:0:
195,139,193574,6,0,P|185:99|183:66,1,53.9999983520508,2|0,3:2|0:0,0:0:0:0:
305,195,193874,2,0,P|301:221|293:247,1,53.9999983520508
166,327,194174,1,8,0:0:0:0:
154,335,194474,6,0,P|97:319|6:313,1,107.999996704102,2|0,0:0|3:2,0:0:0:0:
279,223,195074,1,2,0:0:0:0:
220,279,195224,1,0,0:0:0:0:
194,158,195374,2,0,P|196:98|208:14,1,107.999996704102,10|2,0:0|0:0,0:0:0:0:
326,20,195824,1,2,0:0:0:0:
326,20,195899,1,2,0:0:0:0:
326,20,195974,6,0,P|331:73|333:127,1,107.999996704102,2|2,3:2|0:0,0:0:0:0:
360,208,196424,1,2,0:0:0:0:
483,332,196574,2,0,P|438:295|368:312,1,107.999996704102,8|0,0:0|0:0,0:0:0:0:
176,161,197174,5,2,3:2:0:0:
151,248,197324,1,8,0:0:0:0:
33,181,197474,2,0,P|60:178|87:182,1,53.9999983520508
188,28,197774,2,0,P|163:63|163:94,1,53.9999983520508,10|0,0:0|0:0,0:0:0:0:
238,218,198074,1,8,0:0:0:0:
150,88,198224,1,8,0:0:0:0:
46,276,198374,6,0,P|51:328|55:392,2,107.999996704102,6|0|8,3:2|0:0|0:0,0:0:0:0:
39,261,199274,1,2,0:0:0:0:
132,327,199424,1,2,0:0:0:0:
227,185,199574,2,0,P|215:222|213:253,1,53.9999983520508,2|8,3:2|0:0,0:0:0:0:
304,346,199874,2,0,P|299:319|290:294,1,53.9999983520508
391,193,200174,1,8,0:0:0:0:
401,188,200474,5,2,0:0:0:0:
323,122,200624,1,2,0:0:0:0:
480,66,200774,2,0,P|433:81|408:82,1,53.9999983520508,2|0,3:2|0:0,0:0:0:0:
268,16,201074,2,0,P|294:21|319:31,1,53.9999983520508,2|0,3:2|0:0,0:0:0:0:
237,158,201374,2,0,P|199:153|163:143,1,53.9999983520508,10|0,0:0|0:0,0:0:0:0:
41,59,201674,6,0,B|67:22|67:22|80:166,1,161.999995056153,6|8,3:2|0:0,0:0:0:0:
18,238,202274,2,0,P|8:200|15:160,1,53.9999983520508,2|0,3:2|0:0,0:0:0:0:
114,241,202574,5,10,0:0:0:0:
75,372,202724,1,8,0:0:0:0:
161,290,202874,5,4,0:3:0:0:
142,357,203024,1,4,0:3:0:0:
310,364,203174,6,0,P|261:343|207:339,1,107.999996704102,6|0,3:2|3:2,0:0:0:0:
315,256,203624,2,0,P|368:252|418:231,1,107.999996704102,2|0,0:0|0:0,0:0:0:0:
280,97,204074,1,2,0:0:0:0:
169,210,204224,1,2,0:0:0:0:
169,210,204299,1,2,0:0:0:0:
169,210,204374,6,0,P|177:180|178:138,1,53.9999983520508,6|0,3:2|0:0,0:0:0:0:
266,27,204674,2,0,P|268:53|275:79,1,53.9999983520508,0|2,3:2|0:0,0:0:0:0:
417,144,204974,1,8,0:0:0:0:
432,138,205274,2,0,P|426:178|421:230,1,80.9999975280763,2|0,0:0|0:0,0:0:0:0:
431,235,205574,6,0,P|350:231|407:357,1,215.999993408203,6|8,3:2|3:2,0:0:0:0:
177,198,206474,1,8,3:2:0:0:
11,362,206774,5,14,0:2:0:0:
11,362,206924,2,0,P|26:320|33:238,1,107.999996704102,0|0,3:2|3:2,0:0:0:0:
63,94,207374,5,10,0:0:0:0:
11,170,207524,1,0,3:2:0:0:
130,122,207674,5,8,0:0:0:0:
50,5,207824,1,8,0:0:0:0:
228,61,207974,6,0,P|174:52|121:50,2,107.999996704102,6|0|8,3:2|0:0|0:0,0:0:0:0:
241,71,208874,1,2,0:0:0:0:
272,153,209024,1,2,0:0:0:0:
397,27,209174,1,2,3:2:0:0:
366,109,209324,2,0,P|366:182|371:243,1,107.999996704102,8|0,0:0|0:0,0:0:0:0:
445,331,209774,1,8,0:0:0:0:
453,335,210074,5,2,0:0:0:0:
366,376,210224,1,2,0:0:0:0:
266,227,210374,2,0,P|282:268|290:309,1,53.9999983520508,2|0,3:2|0:0,0:0:0:0:
213,358,210674,1,2,0:0:0:0:
291,293,210824,1,0,0:0:0:0:
156,199,210974,2,0,P|164:144|168:83,1,107.999996704102,10|2,0:0|0:0,0:0:0:0:
1,291,211574,5,0,3:2:0:0:
62,239,211724,1,8,0:0:0:0:
137,267,211874,2,0,P|136:312|128:339,1,53.9999983520508,2|0,0:0|0:0,0:0:0:0:
52,210,212174,2,0,P|55:156|63:102,1,107.999996704102,10|2,0:0|0:0,0:0:0:0:
34,21,212624,1,2,0:0:0:0:
179,95,212774,6,0,P|218:90|264:67,1,53.9999983520508,2|0,3:2|0:0,0:0:0:0:
357,27,213074,2,0,P|331:19|304:17,1,53.9999983520508,0|0,3:2|0:0,0:0:0:0:
358,183,213374,2,0,P|375:153|382:110,1,53.9999983520508,8|0,0:0|0:0,0:0:0:0:
192,233,213674,6,0,P|262:184|352:224,1,161.999995056153,6|8,3:2|0:0,0:0:0:0:
400,276,214274,2,0,P|396:315|389:344,1,53.9999983520508,2|0,3:2|0:0,0:0:0:0:
492,168,214574,2,0,P|477:121|473:49,1,107.999996704102,14|2,0:0|0:0,0:0:0:0:
322,106,215024,1,8,0:0:0:0:
322,106,215099,1,8,0:0:0:0:
322,106,215174,6,0,P|262:84|199:76,1,107.999996704102,6|2,3:2|0:0,0:0:0:0:
143,47,215624,1,2,0:0:0:0:
12,205,215774,2,0,P|65:195|115:175,1,107.999996704102,10|0,0:0|0:0,0:0:0:0:
191,208,216224,1,8,0:3:0:0:
80,313,216374,5,2,3:2:0:0:
177,353,216524,2,0,P|251:336|321:329,1,107.999996704102,8|0,0:0|3:2,0:0:0:0:
445,213,216974,1,10,0:0:0:0:
397,339,217124,1,8,0:3:0:0:
310,233,217274,1,4,0:3:0:0:
383,261,217424,1,4,0:3:0:0:
473,106,217574,6,0,B|375:80|395:168|298:142,1,188.999994232178,6|0,3:2|0:0,0:0:0:0:
273,126,218174,2,0,P|268:71|277:14,1,107.999996704102,8|0,0:0|0:0,0:0:0:0:
151,91,218624,1,8,0:0:0:0:
151,91,218699,1,8,0:0:0:0:
151,91,218774,1,2,3:2:0:0:
58,20,218924,2,0,P|60:46|69:72,1,53.9999983520508,8|0,0:0|0:0,0:0:0:0:
143,276,219224,1,0,3:2:0:0:
229,187,219374,2,0,P|226:213|217:239,1,53.9999983520508,12|0,0:0|0:0,0:0:0:0:
51,357,219674,2,0,P|44:339|41:321,2,35.9999989013672,4|4|4,0:3|0:3|0:3,0:0:0:0:
71,381,219974,6,0,P|109:367|189:362,1,107.999996704102,6|4,3:2|0:3,0:0:0:0:
269,314,220424,1,0,0:0:0:0:
145,154,220574,1,10,0:0:0:0:
136,143,220874,6,0,B|140:27|140:27|183:79,1,161.999995056153,6|8,3:2|0:0,0:0:0:0:
248,167,221474,2,0,P|275:167|301:159,1,53.9999983520508,2|0,3:2|0:0,0:0:0:0:
383,25,221774,1,10,0:0:0:0:
395,183,221924,1,8,0:0:0:0:
293,61,222074,1,10,0:0:0:0:
446,98,222224,1,8,0:0:0:0:
301,159,222374,6,0,P|291:193|286:281,1,107.999996704102,6|0,3:2|3:2,0:0:0:0:
317,341,222824,1,2,0:0:0:0:
419,263,222974,2,0,P|393:271|367:276,1,53.9999983520508,8|0,0:0|0:0,0:0:0:0:
248,364,223274,2,0,P|273:356|300:351,1,53.9999983520508,2|0,0:0|0:0,0:0:0:0:
188,231,223574,5,2,3:2:0:0:
100,206,223724,1,8,0:0:0:0:
34,269,223874,1,0,3:2:0:0:
40,281,224174,2,0,P|47:309|51:348,1,53.9999983520508,8|0,0:2|0:0,0:0:0:0:
94,194,224474,2,0,P|87:166|83:127,1,53.9999983520508,2|0,0:2|0:0,0:0:0:0:
218,24,224774,6,0,P|201:67|173:81,1,53.9999983520508,6|0,3:2|0:0,0:0:0:0:
6,44,225074,2,0,P|46:42|66:45,1,53.9999983520508,0|0,3:2|0:0,0:0:0:0:
196,160,225374,1,8,0:0:0:0:
209,169,225674,1,0,3:2:0:0:
312,63,225824,1,8,0:0:0:0:
382,148,225974,6,0,P|375:180|371:209,1,53.9999983520508,2|8,0:0|0:0,0:0:0:0:
232,308,226274,2,0,P|274:289|298:288,1,53.9999983520508,2|0,3:2|0:0,0:0:0:0:
436,381,226574,1,10,0:0:0:0:
461,300,226724,1,8,0:3:0:0:
380,274,226874,1,4,0:3:0:0:
355,355,227024,1,4,0:3:0:0:
443,216,227174,6,0,P|449:162|443:67,1,107.999996704102,6|0,3:2|3:2,0:0:0:0:
398,39,227624,1,2,0:0:0:0:
262,181,227774,1,12,0:0:0:0:
250,176,228074,2,0,P|200:168|178:170,1,53.9999983520508,2|0,0:0|0:0,0:0:0:0:
120,180,228374,5,2,3:2:0:0:
59,295,228524,2,0,P|90:255|100:235,1,53.9999983520508,8|0,0:0|0:0,0:0:0:0:
120,180,228824,1,2,3:2:0:0:
51,70,228974,2,0,P|69:117|81:135,1,53.9999983520508,12|0,0:0|0:0,0:0:0:0:
194,53,229274,2,0,B|224:55|224:55|239:62|239:62|272:64,1,80.9999975280763,2|2,3:2|0:0,0:0:0:0:
293,59,229574,6,0,P|282:93|279:114,1,53.9999983520508,2|0,3:2|0:0,0:0:0:0:
330,190,229874,2,0,P|382:170|468:164,1,107.999996704102,8|0,0:0|3:2,0:0:0:0:
507,203,230324,1,8,0:3:0:0:
442,299,230474,2,0,P|436:272|436:246,1,53.9999983520508,2|0,0:0|3:2,0:0:0:0:
310,363,230774,5,8,0:0:0:0:
243,315,230924,2,0,P|191:335|121:348,1,107.999996704102,8|8,0:3|0:0,0:0:0:0:
36,187,231374,1,10,0:0:0:0:
1,261,231524,1,8,0:3:0:0:
75,296,231674,1,4,0:3:0:0:
110,221,231824,1,4,0:3:0:0:
3,66,231974,6,0,B|117:47|85:146|198:126,1,215.999993408203,6|8,3:2|0:0,0:0:0:0:
211,120,232874,1,0,0:0:0:0:
292,197,233024,1,0,0:0:0:0:
223,115,233174,2,0,P|221:84|228:42,1,53.9999983520508
363,14,233474,2,0,P|365:40|363:67,1,53.9999983520508,0|0,3:2|0:0,0:0:0:0:
300,209,233774,2,0,P|357:183|423:195,1,107.999996704102,10|0,0:0|0:0,0:0:0:0:
472,347,234224,1,2,0:0:0:0:
472,347,234299,1,2,0:0:0:0:
472,347,234374,6,0,P|382:310|248:317,1,215.999993408203,6|8,3:2|0:0,0:0:0:0:
246,319,235274,1,0,0:0:0:0:
127,375,235424,1,8,0:0:0:0:
228,326,235574,2,0,P|237:283|238:247,1,53.9999983520508,2|0,0:0|0:0,0:0:0:0:
73,214,235874,2,0,P|90:242|120:256,1,53.9999983520508,0|8,3:2|0:0,0:0:0:0:
213,144,236174,5,8,0:0:0:0:
62,98,236324,1,8,0:3:0:0:
201,118,236474,1,4,0:3:0:0:
73,123,236624,1,4,0:3:0:0:
292,38,236774,6,0,P|339:105|483:67,1,215.999993408203,6|8,3:2|0:0,0:0:0:0:
474,81,237674,1,2,0:0:0:0:
510,209,237824,1,8,0:0:0:0:
487,69,237974,2,0,P|484:42|487:15,1,53.9999983520508
385,137,238274,2,0,P|387:163|384:190,1,53.9999983520508,2|0,3:2|0:0,0:0:0:0:
486,310,238574,2,0,P|458:288|426:286,1,53.9999983520508,10|0,0:0|0:0,0:0:0:0:
307,351,238874,2,0,P|347:343|387:321,1,53.9999983520508,2|0,3:2|0:0,0:0:0:0:
237,222,239174,6,0,B|156:227|156:227|115:246|115:246|26:251,1,215.999993408203,6|8,3:2|0:0,0:0:0:0:
14,258,240074,1,0,0:0:0:0:
85,122,240224,1,8,0:0:0:0:
2,265,240374,2,0,P|8:296|12:325,1,53.9999983520508,2|8,0:0|0:0,0:0:0:0:
193,377,240674,2,0,P|159:348|71:356,1,107.999996704102,0|8,3:2|0:0,0:0:0:0:
241,182,241274,1,12,0:0:0:0:
376,361,241574,5,0,3:2:0:0:
376,361,241874,2,0,P|369:300|374:224,1,107.999996704102,8|0,0:0|0:0,0:0:0:0:
412,169,242324,2,0,P|347:208|312:189,1,107.999996704102,8|0,0:3|0:0,0:0:0:0:
276,60,242774,2,0,B|301:41|301:41|290:132,1,107.999996704102,8|0,0:3|0:0,0:0:0:0:
150,234,243224,1,8,0:3:0:0:
180,165,243374,1,8,0:3:0:0:
249,195,243524,1,8,0:3:0:0:
219,264,243674,1,4,0:3:0:0:
223,274,243974,6,0,P|219:302|217:322,2,45,2|2|2,3:2|0:0|0:0,0:0:0:0:
140,344,244874,2,0,P|118:331|47:327,1,90,2|8,0:0|0:3,0:0:0:0:
1,252,245774,1,4,0:3:0:0:
54,179,246074,2,0,L|58:162,2,15,2|0|0,0:3|0:0|0:0,0:0:0:0:
65,199,246374,5,2,0:0:0:0:
256,97,247574,5,8,0:3:0:0:
447,199,248774,5,2,0:0:0:0:
256,192,248924,12,0,252974,0:0:0:0:
234,229,253574,6,0,B|191:208|174:175|196:137|228:132|256:148|256:148|283:132|315:137|337:175|320:208|283:235|283:235|256:251|255:278,1,360,2|2,0:0|0:0,0:0:0:0:
256,192,256124,12,0,260774,0:0:0:0:
