osu file format v14

[General]
AudioFilename: audio.ogg
AudioLeadIn: 0
PreviewTime: 66324
Countdown: 0
SampleSet: Soft
StackLeniency: 0.7
Mode: 3
LetterboxInBreaks: 0
SpecialStyle: 0
WidescreenStoryboard: 0

[Editor]
DistanceSpacing: 0.7
BeatDivisor: 4
GridSize: 8
TimelineZoom: 2.1

[Metadata]
Title:Suki nanode.
TitleUnicode:好きなので。
Artist:Isla (CV: Amamiya Sora)
ArtistUnicode:アイラ (CV: 雨宮天)
Creator:DenYi
Version:Kokoro
Source:プラスティック・メモリーズ
Tags:plastic memories anime japanese プラメモ puramemo insert character song jpop j-pop pop
BeatmapID:4324192
BeatmapSetID:2066989

[Difficulty]
HPDrainRate:8
CircleSize:4
OverallDifficulty:8
ApproachRate:5
SliderMultiplier:1.4
SliderTickRate:1

[Events]
//Background and Video events
0,0,"bg.jpg",0,0
//Break Periods
//Storyboard Layer 0 (Background)
//Storyboard Layer 1 (Fail)
//Storyboard Layer 2 (Pass)
//Storyboard Layer 3 (Foreground)
//Storyboard Layer 4 (Overlay)
//Storyboard Sound Samples

[TimingPoints]
324,573.065902578797,4,2,1,60,1,0
324,-104.166666666667,4,2,1,60,0,0
753,655.021834061135,4,2,1,60,1,0
753,-91.743119266055,4,2,1,60,0,0
1244,588.235294117647,4,2,1,60,1,0
1244,-102.040816326531,4,2,1,60,0,0
1832,576.368876080692,4,2,1,60,1,0
1832,-104.166666666667,4,2,1,60,0,0
2408,657.174151150055,4,2,1,60,1,0
2408,-90.9090909090909,4,2,1,60,0,0
2736,598.802395209581,4,2,1,60,1,0
2736,-100,4,2,1,60,0,0
3634,591.715976331361,4,2,1,60,1,0
3634,-101.010101010101,4,2,1,60,0,0
4521,609.756097560976,4,2,1,60,1,0
4521,-98.0392156862745,4,2,1,60,0,0
5130,595.829195630586,4,2,1,60,1,0
5130,-101.010101010101,4,2,1,60,0,0
5576,661.521499448732,4,2,1,60,1,0
5576,-90.9090909090909,4,2,1,60,0,0
6072,587.084148727984,4,2,1,60,1,0
6072,-102.040816326531,4,2,1,60,0,0
6659,570.884871550904,4,2,1,60,1,0
6659,-105.263157894737,4,2,1,60,0,0
6944,595.238095238095,4,2,1,60,1,0
6944,-101.010101010101,4,2,1,60,0,0
7241,602.409638554217,4,2,1,60,1,0
7241,-100,4,2,1,60,0,0
7542,614.124872057318,4,2,1,60,1,0
7542,-98.0392156862745,4,2,1,60,0,0
8002,603.015075376884,4,2,1,60,1,0
8002,-99.009900990099,4,2,1,60,0,0
8454,573.065902578797,4,2,1,60,1,0
8454,-104.166666666667,4,2,1,60,0,0
9313,614.754098360656,4,2,1,60,1,0
9313,-98.0392156862745,4,2,1,60,0,0
9927,617.283950617284,4,2,1,60,1,0
9927,-97.0873786407767,4,2,1,60,0,0
10389,595.238095238095,4,2,1,60,1,0
10389,-101.010101010101,4,2,1,60,0,0
10835,643.086816720257,4,2,1,60,1,0
10835,-93.4579439252336,4,2,1,60,0,0
12070,522.648083623693,4,2,1,60,1,0
12070,-114.942528735632,4,2,1,60,0,0
12331,591.715976331361,4,2,1,60,1,0
12331,-101.010101010101,4,2,1,60,0,0
12774,616.649537512847,4,2,1,60,1,0
12774,-97.0873786407767,4,2,1,60,0,0
13236,569.259962049336,4,2,1,60,1,0
13236,-105.263157894737,4,2,1,60,0,0
14089,632.244467860906,4,2,1,60,1,0
14089,-95.2380952380952,4,2,1,60,0,0
14721,591.133004926108,4,2,1,60,1,0
14721,-101.010101010101,4,2,1,60,0,0
15164,636.26723223754,4,2,1,60,1,0
15164,-94.3396226415094,4,2,1,60,0,0
15641,598.802395209581,4,2,1,60,1,0
15641,-100,4,2,1,60,0,0
16539,589.390962671906,4,2,1,60,1,0
16539,-102.040816326531,4,2,1,60,0,0
17054,640.34151547492,4,2,1,60,1,0
17054,-93.4579439252336,4,2,1,60,0,0
17134,607.90273556231,4,2,1,60,1,0
17134,-99.009900990099,4,2,1,60,0,0
19565,591.715976331361,4,2,1,60,1,0
19565,-101.010101010101,4,2,1,60,0,0
21931,600,4,2,1,60,1,0
21931,-100,4,2,1,60,0,0
29131,606.060606060606,4,2,1,60,1,0
29131,-99.009900990099,4,2,1,60,0,0
31555,555.555555555556,4,2,1,60,1,0
31555,-107.52688172043,4,2,1,60,0,0
31971,601.805416248746,4,2,1,60,1,0
31971,-100,4,2,1,60,0,0
33024,600,4,2,1,60,1,0
33024,-100,4,2,1,60,0,0
33924,600,4,2,1,60,1,0
33924,-100,4,2,1,60,0,0
67524,-100,4,2,1,60,0,1
115524,-100,4,2,1,60,0,0
162324,-105.263157894737,4,2,1,60,0,0
162924,-111.111111111111,4,2,1,60,0,0
163524,-117.647058823529,4,2,1,60,0,0
172524,-111.111111111111,4,2,1,60,0,0
177924,-105.263157894737,4,2,1,60,0,0
182724,-100,4,2,1,60,0,0
188724,600,4,2,1,60,1,1
188724,-100,4,2,1,60,0,1
233761,600,4,2,1,60,1,1
233761,-100,4,2,1,60,0,1
234324,600,4,2,1,60,1,1
234324,-100,4,2,1,60,0,1
241524,-100,4,2,1,60,0,0

[HitObjects]
192,192,324,128,0,610:0:0:0:0:
320,192,753,128,0,1080:0:0:0:0:
448,192,1244,128,0,1832:0:0:0:0:
192,192,1832,128,0,2120:0:0:0:0:
448,192,2120,128,0,2408:0:0:0:0:
64,192,2408,128,0,2736:0:0:0:0:
320,192,2736,128,0,3035:0:0:0:0:
192,192,3185,128,0,3484:0:0:0:0:
64,192,3634,128,0,4225:0:0:0:0:
448,192,4521,128,0,5130:0:0:0:0:
64,192,5130,128,0,5427:0:0:0:0:
192,192,5576,128,0,5906:0:0:0:0:
320,192,6072,128,0,6659:0:0:0:0:
64,192,6659,128,0,6944:0:0:0:0:
448,192,6944,128,0,7241:0:0:0:0:
192,192,7241,128,0,7542:0:0:0:0:
448,192,7542,128,0,7849:0:0:0:0:
320,192,8002,128,0,8303:0:0:0:0:
192,192,8454,128,0,9027:0:0:0:0:
448,192,9313,128,0,9927:0:0:0:0:
64,192,9927,128,0,12070:0:0:0:0:
192,192,9927,128,0,10235:0:0:0:0:
320,192,10389,128,0,10686:0:0:0:0:
448,192,10835,128,0,11478:0:0:0:0:
192,192,12070,128,0,12200:0:0:0:0:
320,192,12200,128,0,12331:0:0:0:0:
448,192,12331,128,0,13236:0:0:0:0:
64,192,12331,128,0,12626:0:0:0:0:
192,192,12774,128,0,13082:0:0:0:0:
320,192,13236,128,0,13805:0:0:0:0:
64,192,13236,128,0,14089:0:0:0:0:
448,192,14089,128,0,14721:0:0:0:0:
192,192,14721,128,0,17134:0:0:0:0:
64,192,14721,128,0,15016:0:0:0:0:
320,192,15164,128,0,15482:0:0:0:0:
448,192,15641,128,0,16239:0:0:0:0:
64,192,16539,128,0,17134:0:0:0:0:
320,192,17134,128,0,21783:0:0:0:0:
448,192,17134,128,0,17741:0:0:0:0:
64,192,19565,128,0,20156:0:0:0:0:
192,192,20156,128,0,21931:0:0:0:0:
448,192,21931,1,0,0:0:0:0:
320,192,21931,1,0,0:0:0:0:
448,192,24331,5,0,0:0:0:0:
64,192,24331,1,0,0:0:0:0:
192,192,24931,128,0,25231:0:0:0:0:
320,192,25231,128,0,25381:0:0:0:0:
64,192,25381,128,0,25681:0:0:0:0:
192,192,26431,128,0,26731:0:0:0:0:
320,192,26731,128,0,27031:0:0:0:0:
448,192,26731,1,0,0:0:0:0:
64,192,27181,128,0,27481:0:0:0:0:
64,192,27631,128,0,27931:0:0:0:0:
192,192,29131,1,0,0:0:0:0:
320,192,29131,1,0,0:0:0:0:
448,192,29737,128,0,30040:0:0:0:0:
64,192,30040,128,0,30191:0:0:0:0:
320,192,30191,128,0,30494:0:0:0:0:
448,192,31252,128,0,31555:0:0:0:0:
64,192,31555,128,0,31832:0:0:0:0:
192,192,31555,1,0,0:0:0:0:
320,192,31971,128,0,32271:0:0:0:0:
320,192,32422,128,0,32723:0:0:0:0:
192,192,33024,1,0,0:0:0:0:
320,192,33061,1,0,0:0:0:0:
448,192,33924,1,0,0:0:0:0:
64,192,33924,1,0,0:0:0:0:
192,192,34224,1,0,0:0:0:0:
320,192,34524,128,0,34824:0:0:0:0:
64,192,34824,128,0,34974:0:0:0:0:
192,192,34824,128,0,35124:0:0:0:0:
448,192,34974,128,0,35274:0:0:0:0:
64,192,36024,128,0,36324:0:0:0:0:
448,192,36324,1,0,0:0:0:0:
320,192,36324,128,0,36624:0:0:0:0:
192,192,36774,128,0,37074:0:0:0:0:
448,192,37224,128,0,37524:0:0:0:0:
64,192,37224,128,0,37374:0:0:0:0:
320,192,38424,128,0,38724:0:0:0:0:
64,192,38724,128,0,39024:0:0:0:0:
448,192,38724,128,0,38874:0:0:0:0:
192,192,39024,128,0,39324:0:0:0:0:
320,192,39324,128,0,39624:0:0:0:0:
448,192,39624,128,0,40224:0:0:0:0:
64,192,39624,128,0,39924:0:0:0:0:
64,192,40224,128,0,40824:0:0:0:0:
192,192,40224,128,0,40524:0:0:0:0:
320,192,40824,128,0,43524:0:0:0:0:
64,192,41124,5,0,0:0:0:0:
448,192,41124,128,0,43524:0:0:0:0:
192,192,42024,1,0,0:0:0:0:
192,192,43524,1,0,0:0:0:0:
64,192,43524,128,0,45774:0:0:0:0:
448,192,45324,128,0,45774:0:0:0:0:
448,192,45924,5,0,0:0:0:0:
64,192,45924,128,0,46074:0:0:0:0:
192,192,46224,128,0,46374:0:0:0:0:
320,192,46524,128,0,46674:0:0:0:0:
448,192,46524,128,0,46974:0:0:0:0:
64,192,46824,128,0,47124:0:0:0:0:
448,192,47124,1,0,0:0:0:0:
320,192,47124,128,0,47274:0:0:0:0:
192,192,47424,128,0,47574:0:0:0:0:
64,192,47724,128,0,48174:0:0:0:0:
448,192,47724,128,0,47874:0:0:0:0:
320,192,48024,128,0,48324:0:0:0:0:
64,192,48324,1,0,0:0:0:0:
192,192,48324,128,0,48474:0:0:0:0:
320,192,48624,128,0,48774:0:0:0:0:
448,192,48924,128,0,49374:0:0:0:0:
64,192,48924,128,0,49074:0:0:0:0:
192,192,49224,128,0,49524:0:0:0:0:
448,192,49524,1,0,0:0:0:0:
320,192,49524,128,0,49674:0:0:0:0:
64,192,49824,128,0,50424:0:0:0:0:
192,192,50124,128,0,50424:0:0:0:0:
320,192,50124,128,0,50724:0:0:0:0:
448,192,50424,128,0,50724:0:0:0:0:
64,192,50724,1,0,0:0:0:0:
192,192,50724,128,0,50874:0:0:0:0:
320,192,51024,128,0,51174:0:0:0:0:
448,192,51324,128,0,51474:0:0:0:0:
64,192,51324,128,0,51774:0:0:0:0:
192,192,51624,128,0,51924:0:0:0:0:
448,192,51924,1,0,0:0:0:0:
320,192,51924,128,0,52074:0:0:0:0:
192,192,52224,128,0,52374:0:0:0:0:
64,192,52524,128,0,52674:0:0:0:0:
448,192,52524,128,0,52974:0:0:0:0:
320,192,52824,128,0,53124:0:0:0:0:
64,192,53124,1,0,0:0:0:0:
192,192,53124,128,0,53274:0:0:0:0:
320,192,53424,128,0,53574:0:0:0:0:
64,192,53724,128,0,54474:0:0:0:0:
448,192,53724,128,0,54174:0:0:0:0:
192,192,54024,128,0,54474:0:0:0:0:
448,192,54324,1,0,0:0:0:0:
320,192,54324,1,0,0:0:0:0:
192,192,54624,128,0,55224:0:0:0:0:
320,192,54924,1,0,0:0:0:0:
64,192,54924,128,0,55224:0:0:0:0:
448,192,55074,128,0,55524:0:0:0:0:
64,192,55524,1,0,0:0:0:0:
192,192,55524,128,0,55674:0:0:0:0:
320,192,55824,128,0,55974:0:0:0:0:
448,192,56124,128,0,56274:0:0:0:0:
64,192,56124,128,0,56574:0:0:0:0:
192,192,56424,128,0,56724:0:0:0:0:
448,192,56724,1,0,0:0:0:0:
320,192,56724,128,0,56874:0:0:0:0:
192,192,57024,128,0,57174:0:0:0:0:
64,192,57324,128,0,57474:0:0:0:0:
448,192,57324,128,0,57774:0:0:0:0:
320,192,57624,128,0,57924:0:0:0:0:
64,192,57924,1,0,0:0:0:0:
192,192,57924,128,0,58074:0:0:0:0:
320,192,58224,128,0,58374:0:0:0:0:
448,192,58524,128,0,58674:0:0:0:0:
64,192,58524,128,0,58974:0:0:0:0:
192,192,58824,128,0,59124:0:0:0:0:
320,192,58974,128,0,59724:0:0:0:0:
64,192,59124,1,0,0:0:0:0:
448,192,59124,1,0,0:0:0:0:
192,192,59424,128,0,59874:0:0:0:0:
64,192,59724,128,0,59874:0:0:0:0:
448,192,59724,1,0,0:0:0:0:
64,192,60024,128,0,60324:0:0:0:0:
320,192,60324,128,0,60924:0:0:0:0:
448,192,60324,128,0,60624:0:0:0:0:
192,192,60624,128,0,61224:0:0:0:0:
64,192,60924,128,0,61224:0:0:0:0:
448,192,61224,128,0,61824:0:0:0:0:
320,192,61224,128,0,61524:0:0:0:0:
64,192,61524,1,0,0:0:0:0:
192,192,61524,1,0,0:0:0:0:
64,192,61824,128,0,62724:0:0:0:0:
192,192,62124,128,0,63024:0:0:0:0:
448,192,62124,1,0,0:0:0:0:
320,192,62724,128,0,63324:0:0:0:0:
448,192,62724,128,0,63924:0:0:0:0:
64,192,63024,1,0,0:0:0:0:
192,192,63324,1,0,0:0:0:0:
64,192,63624,1,0,0:0:0:0:
320,192,63624,1,0,0:0:0:0:
64,192,63924,128,0,64224:0:0:0:0:
192,192,63924,128,0,64224:0:0:0:0:
320,192,64074,128,0,64374:0:0:0:0:
448,192,64224,128,0,64374:0:0:0:0:
64,192,64374,128,0,64524:0:0:0:0:
448,192,64524,128,0,64674:0:0:0:0:
320,192,64524,128,0,64824:0:0:0:0:
192,192,64674,128,0,64974:0:0:0:0:
64,192,64824,128,0,64974:0:0:0:0:
448,192,64824,128,0,65124:0:0:0:0:
320,192,64974,128,0,65124:0:0:0:0:
64,192,65124,1,0,0:0:0:0:
192,192,65124,1,0,0:0:0:0:
192,192,65424,1,0,0:0:0:0:
320,192,65574,1,0,0:0:0:0:
192,192,66024,1,0,0:0:0:0:
64,192,66324,128,0,66774:0:0:0:0:
448,192,66324,1,0,0:0:0:0:
320,192,66774,1,0,0:0:0:0:
192,192,66774,1,0,0:0:0:0:
64,192,66924,128,0,67374:0:0:0:0:
448,192,66924,1,0,0:0:0:0:
192,192,67074,1,0,0:0:0:0:
448,192,67224,1,0,0:0:0:0:
320,192,67224,1,0,0:0:0:0:
64,192,67524,1,0,0:0:0:0:
320,192,67524,128,0,67974:0:0:0:0:
448,192,67524,128,0,67974:0:0:0:0:
192,192,67524,1,0,0:0:0:0:
192,192,67824,1,0,0:0:0:0:
448,192,68124,1,0,0:0:0:0:
64,192,68124,1,0,0:0:0:0:
320,192,68124,1,0,0:0:0:0:
192,192,68424,128,0,68724:0:0:0:0:
320,192,68574,128,0,68874:0:0:0:0:
64,192,68724,128,0,69174:0:0:0:0:
192,192,68874,1,0,0:0:0:0:
320,192,69024,1,0,0:0:0:0:
448,192,69024,1,0,0:0:0:0:
64,192,69324,1,0,0:0:0:0:
192,192,69324,1,0,0:0:0:0:
448,192,69324,1,0,0:0:0:0:
320,192,69624,128,0,69924:0:0:0:0:
192,192,69774,128,0,70074:0:0:0:0:
448,192,69924,128,0,70374:0:0:0:0:
64,192,69924,128,0,70074:0:0:0:0:
320,192,70224,128,0,70674:0:0:0:0:
64,192,70224,128,0,70374:0:0:0:0:
448,192,70524,128,0,70974:0:0:0:0:
192,192,70524,128,0,70674:0:0:0:0:
64,192,70524,1,0,0:0:0:0:
64,192,70824,128,0,71574:0:0:0:0:
320,192,70824,128,0,70974:0:0:0:0:
192,192,71124,1,0,0:0:0:0:
448,192,71274,1,0,0:0:0:0:
192,192,71424,1,0,0:0:0:0:
320,192,71424,1,0,0:0:0:0:
64,192,71724,1,0,0:0:0:0:
320,192,71724,1,0,0:0:0:0:
448,192,71724,1,0,0:0:0:0:
192,192,72024,128,0,72324:0:0:0:0:
320,192,72174,128,0,72474:0:0:0:0:
448,192,72324,128,0,72774:0:0:0:0:
64,192,72324,128,0,72474:0:0:0:0:
192,192,72624,128,0,72774:0:0:0:0:
64,192,72924,1,0,0:0:0:0:
448,192,72924,1,0,0:0:0:0:
320,192,72924,128,0,73074:0:0:0:0:
192,192,73224,128,0,73524:0:0:0:0:
64,192,73224,128,0,73674:0:0:0:0:
448,192,73224,128,0,73374:0:0:0:0:
320,192,73524,1,0,0:0:0:0:
192,192,73674,1,0,0:0:0:0:
64,192,73824,1,0,0:0:0:0:
448,192,73824,128,0,74274:0:0:0:0:
192,192,74124,128,0,74574:0:0:0:0:
320,192,74124,128,0,74574:0:0:0:0:
64,192,74124,1,0,0:0:0:0:
64,192,74424,128,0,74874:0:0:0:0:
320,192,74724,128,0,74874:0:0:0:0:
448,192,74724,128,0,75174:0:0:0:0:
192,192,75024,128,0,75624:0:0:0:0:
64,192,75174,128,0,75624:0:0:0:0:
320,192,75324,1,0,0:0:0:0:
448,192,75324,1,0,0:0:0:0:
448,192,75624,1,0,0:0:0:0:
448,192,75924,128,0,76374:0:0:0:0:
192,192,75924,1,0,0:0:0:0:
320,192,76074,1,0,0:0:0:0:
192,192,76224,1,0,0:0:0:0:
64,192,76224,1,0,0:0:0:0:
448,192,76524,128,0,76974:0:0:0:0:
64,192,76524,1,0,0:0:0:0:
320,192,76674,1,0,0:0:0:0:
192,192,76824,1,0,0:0:0:0:
64,192,76824,1,0,0:0:0:0:
320,192,76974,1,0,0:0:0:0:
64,192,77124,128,0,77574:0:0:0:0:
192,192,77124,128,0,77574:0:0:0:0:
448,192,77124,1,0,0:0:0:0:
320,192,77424,1,0,0:0:0:0:
64,192,77724,1,0,0:0:0:0:
192,192,77724,1,0,0:0:0:0:
448,192,77724,1,0,0:0:0:0:
320,192,78024,128,0,78324:0:0:0:0:
192,192,78174,128,0,78474:0:0:0:0:
448,192,78324,128,0,78774:0:0:0:0:
320,192,78474,1,0,0:0:0:0:
192,192,78624,1,0,0:0:0:0:
64,192,78624,1,0,0:0:0:0:
448,192,78924,1,0,0:0:0:0:
320,192,78924,1,0,0:0:0:0:
64,192,78924,1,0,0:0:0:0:
192,192,79224,128,0,79674:0:0:0:0:
64,192,79374,128,0,79674:0:0:0:0:
448,192,79524,128,0,79674:0:0:0:0:
320,192,79524,128,0,79974:0:0:0:0:
64,192,79824,128,0,79974:0:0:0:0:
192,192,79824,128,0,80274:0:0:0:0:
448,192,80124,128,0,80274:0:0:0:0:
64,192,80124,128,0,80574:0:0:0:0:
320,192,80124,128,0,80274:0:0:0:0:
192,192,80424,128,0,80724:0:0:0:0:
448,192,80424,128,0,81174:0:0:0:0:
320,192,80424,128,0,80874:0:0:0:0:
64,192,80724,5,0,0:0:0:0:
192,192,81024,128,0,81474:0:0:0:0:
64,192,81024,1,0,0:0:0:0:
448,192,81324,128,0,81774:0:0:0:0:
320,192,81324,128,0,81774:0:0:0:0:
64,192,81474,1,0,0:0:0:0:
192,192,81624,1,0,0:0:0:0:
64,192,81924,5,0,0:0:0:0:
320,192,81924,128,0,82674:0:0:0:0:
448,192,81924,128,0,82374:0:0:0:0:
64,192,82224,1,0,0:0:0:0:
192,192,82374,128,0,82974:0:0:0:0:
64,192,82524,1,0,0:0:0:0:
448,192,82524,1,0,0:0:0:0:
320,192,82824,128,0,82974:0:0:0:0:
64,192,83124,128,0,83574:0:0:0:0:
192,192,83124,128,0,83874:0:0:0:0:
448,192,83124,1,0,0:0:0:0:
448,192,83424,1,0,0:0:0:0:
320,192,83574,128,0,84174:0:0:0:0:
64,192,83724,1,0,0:0:0:0:
448,192,83724,1,0,0:0:0:0:
192,192,84024,128,0,84174:0:0:0:0:
64,192,84324,128,0,84774:0:0:0:0:
320,192,84324,128,0,84774:0:0:0:0:
448,192,84324,128,0,84774:0:0:0:0:
64,192,84924,1,0,0:0:0:0:
448,192,84924,1,0,0:0:0:0:
192,192,84924,1,0,0:0:0:0:
64,192,85224,1,0,0:0:0:0:
448,192,85224,1,0,0:0:0:0:
192,192,85374,1,0,0:0:0:0:
320,192,85374,1,0,0:0:0:0:
64,192,85524,128,0,85974:0:0:0:0:
448,192,85524,1,0,0:0:0:0:
192,192,85674,1,0,0:0:0:0:
320,192,85824,1,0,0:0:0:0:
448,192,85824,1,0,0:0:0:0:
64,192,86124,128,0,86574:0:0:0:0:
192,192,86124,1,0,0:0:0:0:
448,192,86274,1,0,0:0:0:0:
320,192,86424,1,0,0:0:0:0:
192,192,86424,1,0,0:0:0:0:
64,192,86724,1,0,0:0:0:0:
448,192,86724,128,0,87174:0:0:0:0:
320,192,86724,128,0,87174:0:0:0:0:
192,192,87024,1,0,0:0:0:0:
64,192,87324,1,0,0:0:0:0:
448,192,87324,1,0,0:0:0:0:
320,192,87324,1,0,0:0:0:0:
192,192,87624,128,0,87924:0:0:0:0:
64,192,87774,128,0,87924:0:0:0:0:
448,192,87924,128,0,88374:0:0:0:0:
320,192,87924,128,0,88074:0:0:0:0:
64,192,88074,1,0,0:0:0:0:
192,192,88074,1,0,0:0:0:0:
320,192,88224,1,0,0:0:0:0:
64,192,88524,1,0,0:0:0:0:
448,192,88524,1,0,0:0:0:0:
192,192,88524,1,0,0:0:0:0:
320,192,88824,128,0,89124:0:0:0:0:
192,192,88974,128,0,89274:0:0:0:0:
448,192,89124,128,0,89274:0:0:0:0:
64,192,89124,128,0,89574:0:0:0:0:
448,192,89424,128,0,89874:0:0:0:0:
320,192,89424,128,0,89574:0:0:0:0:
320,192,89724,128,0,90174:0:0:0:0:
192,192,89724,128,0,89874:0:0:0:0:
64,192,89724,1,0,0:0:0:0:
448,192,90024,128,0,90174:0:0:0:0:
64,192,90024,128,0,90324:0:0:0:0:
320,192,90324,1,0,0:0:0:0:
448,192,90324,1,0,0:0:0:0:
192,192,90474,1,0,0:0:0:0:
64,192,90474,128,0,90774:0:0:0:0:
320,192,90624,1,0,0:0:0:0:
64,192,90924,1,0,0:0:0:0:
448,192,90924,1,0,0:0:0:0:
192,192,90924,1,0,0:0:0:0:
320,192,91224,128,0,91524:0:0:0:0:
192,192,91374,128,0,91674:0:0:0:0:
64,192,91524,128,0,91974:0:0:0:0:
448,192,91524,128,0,91674:0:0:0:0:
320,192,91824,128,0,91974:0:0:0:0:
448,192,91974,1,0,0:0:0:0:
64,192,92124,1,0,0:0:0:0:
192,192,92124,128,0,92274:0:0:0:0:
320,192,92124,1,0,0:0:0:0:
320,192,92424,128,0,92724:0:0:0:0:
448,192,92424,128,0,92874:0:0:0:0:
64,192,92424,128,0,92574:0:0:0:0:
192,192,92724,1,0,0:0:0:0:
320,192,92874,1,0,0:0:0:0:
64,192,93024,128,0,93774:0:0:0:0:
448,192,93024,1,0,0:0:0:0:
448,192,93324,1,0,0:0:0:0:
192,192,93324,128,0,93774:0:0:0:0:
320,192,93624,128,0,93924:0:0:0:0:
448,192,93924,128,0,94224:0:0:0:0:
64,192,93924,128,0,94224:0:0:0:0:
192,192,93924,1,0,0:0:0:0:
320,192,94224,1,0,0:0:0:0:
192,192,94374,1,0,0:0:0:0:
320,192,94524,128,0,94824:0:0:0:0:
448,192,94524,128,0,94824:0:0:0:0:
64,192,94524,1,0,0:0:0:0:
192,192,94824,1,0,0:0:0:0:
192,192,95124,128,0,95424:0:0:0:0:
320,192,95124,128,0,95424:0:0:0:0:
64,192,95124,1,0,0:0:0:0:
448,192,95274,1,0,0:0:0:0:
64,192,95424,1,0,0:0:0:0:
448,192,95574,1,0,0:0:0:0:
320,192,95574,1,0,0:0:0:0:
192,192,95724,128,0,96024:0:0:0:0:
64,192,95724,128,0,96024:0:0:0:0:
448,192,95874,128,0,96024:0:0:0:0:
320,192,96024,128,0,96174:0:0:0:0:
192,192,96174,128,0,96324:0:0:0:0:
320,192,96324,128,0,96774:0:0:0:0:
448,192,96324,128,0,96774:0:0:0:0:
64,192,96324,128,0,96474:0:0:0:0:
192,192,96624,1,0,0:0:0:0:
64,192,96924,1,0,0:0:0:0:
320,192,96924,1,0,0:0:0:0:
448,192,96924,1,0,0:0:0:0:
192,192,97224,1,0,0:0:0:0:
448,192,97524,128,0,97824:0:0:0:0:
64,192,97524,128,0,98274:0:0:0:0:
192,192,97674,1,0,0:0:0:0:
320,192,97824,1,0,0:0:0:0:
448,192,97974,1,0,0:0:0:0:
192,192,98124,1,0,0:0:0:0:
320,192,98124,1,0,0:0:0:0:
64,192,98424,1,0,0:0:0:0:
192,192,98424,1,0,0:0:0:0:
448,192,98424,1,0,0:0:0:0:
320,192,98724,128,0,98874:0:0:0:0:
448,192,98724,128,0,99174:0:0:0:0:
64,192,99024,128,0,99174:0:0:0:0:
192,192,99024,128,0,99474:0:0:0:0:
448,192,99324,128,0,99474:0:0:0:0:
64,192,99324,128,0,99474:0:0:0:0:
320,192,99324,128,0,99924:0:0:0:0:
64,192,99624,128,0,100224:0:0:0:0:
192,192,99624,128,0,100074:0:0:0:0:
448,192,99624,128,0,99924:0:0:0:0:
320,192,100074,1,0,0:0:0:0:
448,192,100074,1,0,0:0:0:0:
192,192,100224,1,0,0:0:0:0:
64,192,100374,1,0,0:0:0:0:
320,192,100524,1,0,0:0:0:0:
448,192,100524,1,0,0:0:0:0:
64,192,100674,1,0,0:0:0:0:
192,192,100674,1,0,0:0:0:0:
320,192,100824,128,0,100974:0:0:0:0:
192,192,100974,1,0,0:0:0:0:
64,192,101124,1,0,0:0:0:0:
448,192,101124,128,0,101574:0:0:0:0:
320,192,101124,1,0,0:0:0:0:
64,192,101424,1,0,0:0:0:0:
192,192,101574,128,0,102024:0:0:0:0:
448,192,101724,1,0,0:0:0:0:
320,192,101724,1,0,0:0:0:0:
64,192,101874,1,0,0:0:0:0:
320,192,102024,128,0,102324:0:0:0:0:
192,192,102174,1,0,0:0:0:0:
448,192,102324,128,0,102774:0:0:0:0:
64,192,102324,1,0,0:0:0:0:
320,192,102474,1,0,0:0:0:0:
192,192,102624,1,0,0:0:0:0:
64,192,102774,128,0,103224:0:0:0:0:
448,192,102924,1,0,0:0:0:0:
320,192,102924,1,0,0:0:0:0:
192,192,103074,1,0,0:0:0:0:
448,192,103224,128,0,103524:0:0:0:0:
192,192,103374,1,0,0:0:0:0:
320,192,103524,128,0,104124:0:0:0:0:
64,192,103524,1,0,0:0:0:0:
64,192,103824,1,0,0:0:0:0:
192,192,103824,1,0,0:0:0:0:
448,192,103974,1,0,0:0:0:0:
192,192,104124,1,0,0:0:0:0:
64,192,104124,1,0,0:0:0:0:
320,192,104274,1,0,0:0:0:0:
448,192,104424,1,0,0:0:0:0:
192,192,104574,1,0,0:0:0:0:
64,192,104574,1,0,0:0:0:0:
320,192,104724,128,0,104874:0:0:0:0:
64,192,104874,1,0,0:0:0:0:
448,192,104874,1,0,0:0:0:0:
192,192,105024,128,0,105174:0:0:0:0:
320,192,105024,1,0,0:0:0:0:
448,192,105324,1,0,0:0:0:0:
64,192,105324,128,0,105474:0:0:0:0:
192,192,105324,1,0,0:0:0:0:
320,192,105474,1,0,0:0:0:0:
448,192,105624,128,0,105774:0:0:0:0:
64,192,105624,1,0,0:0:0:0:
192,192,105774,1,0,0:0:0:0:
320,192,105774,1,0,0:0:0:0:
64,192,105924,128,0,106374:0:0:0:0:
448,192,105924,1,0,0:0:0:0:
448,192,106224,1,0,0:0:0:0:
320,192,106374,128,0,106824:0:0:0:0:
64,192,106524,1,0,0:0:0:0:
192,192,106524,1,0,0:0:0:0:
64,192,106824,128,0,107124:0:0:0:0:
448,192,106824,1,0,0:0:0:0:
448,192,107124,128,0,107574:0:0:0:0:
320,192,107124,1,0,0:0:0:0:
192,192,107124,1,0,0:0:0:0:
192,192,107424,1,0,0:0:0:0:
64,192,107574,128,0,108024:0:0:0:0:
448,192,107724,1,0,0:0:0:0:
320,192,107724,1,0,0:0:0:0:
320,192,108024,128,0,108324:0:0:0:0:
192,192,108024,1,0,0:0:0:0:
64,192,108324,1,0,0:0:0:0:
448,192,108324,128,0,108774:0:0:0:0:
192,192,108324,1,0,0:0:0:0:
320,192,108624,1,0,0:0:0:0:
192,192,108774,1,0,0:0:0:0:
64,192,108774,1,0,0:0:0:0:
448,192,108924,1,0,0:0:0:0:
320,192,108924,1,0,0:0:0:0:
192,192,109074,1,0,0:0:0:0:
64,192,109224,128,0,109524:0:0:0:0:
192,192,109374,1,0,0:0:0:0:
320,192,109374,1,0,0:0:0:0:
448,192,109524,1,0,0:0:0:0:
64,192,109674,1,0,0:0:0:0:
192,192,109674,1,0,0:0:0:0:
320,192,109824,128,0,110124:0:0:0:0:
448,192,109824,1,0,0:0:0:0:
64,192,110124,1,0,0:0:0:0:
192,192,110124,128,0,110274:0:0:0:0:
320,192,110274,1,0,0:0:0:0:
64,192,110424,1,0,0:0:0:0:
448,192,110424,128,0,110574:0:0:0:0:
192,192,110574,1,0,0:0:0:0:
320,192,110724,1,0,0:0:0:0:
64,192,110724,128,0,112974:0:0:0:0:
448,192,110724,1,0,0:0:0:0:
192,192,111024,1,0,0:0:0:0:
448,192,111324,1,0,0:0:0:0:
320,192,111324,1,0,0:0:0:0:
320,192,111624,1,0,0:0:0:0:
192,192,111774,1,0,0:0:0:0:
448,192,111774,1,0,0:0:0:0:
320,192,111924,1,0,0:0:0:0:
448,192,112074,1,0,0:0:0:0:
192,192,112224,1,0,0:0:0:0:
320,192,112224,1,0,0:0:0:0:
448,192,112524,1,0,0:0:0:0:
192,192,112524,1,0,0:0:0:0:
320,192,112824,1,0,0:0:0:0:
192,192,112974,1,0,0:0:0:0:
448,192,113124,128,0,114774:0:0:0:0:
64,192,113124,1,0,0:0:0:0:
320,192,113274,1,0,0:0:0:0:
192,192,113424,1,0,0:0:0:0:
64,192,113724,1,0,0:0:0:0:
320,192,113724,1,0,0:0:0:0:
64,192,114024,1,0,0:0:0:0:
192,192,114174,1,0,0:0:0:0:
320,192,114174,1,0,0:0:0:0:
64,192,114324,1,0,0:0:0:0:
320,192,114474,1,0,0:0:0:0:
192,192,114624,1,0,0:0:0:0:
64,192,114624,1,0,0:0:0:0:
64,192,114924,1,0,0:0:0:0:
448,192,114924,1,0,0:0:0:0:
320,192,114924,1,0,0:0:0:0:
192,192,115074,1,0,0:0:0:0:
448,192,115224,1,0,0:0:0:0:
64,192,115374,1,0,0:0:0:0:
320,192,115524,1,0,0:0:0:0:
192,192,115674,1,0,0:0:0:0:
448,192,115824,1,0,0:0:0:0:
64,192,115824,1,0,0:0:0:0:
448,192,116124,1,0,0:0:0:0:
320,192,116124,1,0,0:0:0:0:
64,192,116124,1,0,0:0:0:0:
192,192,116274,1,0,0:0:0:0:
320,192,116424,1,0,0:0:0:0:
192,192,116574,1,0,0:0:0:0:
448,192,116574,1,0,0:0:0:0:
64,192,116574,1,0,0:0:0:0:
448,192,116874,1,0,0:0:0:0:
192,192,116874,1,0,0:0:0:0:
64,192,117024,1,0,0:0:0:0:
320,192,117024,1,0,0:0:0:0:
448,192,117174,1,0,0:0:0:0:
64,192,117324,1,0,0:0:0:0:
192,192,117324,1,0,0:0:0:0:
64,192,117474,1,0,0:0:0:0:
192,192,117474,1,0,0:0:0:0:
320,192,117624,128,0,117924:0:0:0:0:
64,192,117924,1,0,0:0:0:0:
448,192,117924,1,0,0:0:0:0:
192,192,118224,1,0,0:0:0:0:
448,192,118524,128,0,118824:0:0:0:0:
64,192,118824,128,0,118974:0:0:0:0:
320,192,118974,128,0,119274:0:0:0:0:
64,192,119124,1,0,0:0:0:0:
192,192,119124,1,0,0:0:0:0:
192,192,120024,128,0,120324:0:0:0:0:
448,192,120324,128,0,120624:0:0:0:0:
320,192,120324,1,0,0:0:0:0:
192,192,120624,1,0,0:0:0:0:
320,192,120774,128,0,121074:0:0:0:0:
64,192,120924,1,0,0:0:0:0:
192,192,121224,128,0,121449:0:0:0:0:
320,192,121374,128,0,121524:0:0:0:0:
64,192,121524,1,0,0:0:0:0:
448,192,121524,1,0,0:0:0:0:
64,192,122724,1,0,0:0:0:0:
192,192,122724,1,0,0:0:0:0:
320,192,123024,1,0,0:0:0:0:
64,192,123324,128,0,123624:0:0:0:0:
448,192,123624,128,0,123774:0:0:0:0:
192,192,123774,128,0,124074:0:0:0:0:
320,192,123924,1,0,0:0:0:0:
448,192,123924,1,0,0:0:0:0:
320,192,124824,128,0,124974:0:0:0:0:
320,192,125124,128,0,125424:0:0:0:0:
448,192,125124,1,0,0:0:0:0:
64,192,125424,1,0,0:0:0:0:
192,192,125574,128,0,125874:0:0:0:0:
448,192,125724,1,0,0:0:0:0:
320,192,126024,1,0,0:0:0:0:
64,192,126024,128,0,126249:0:0:0:0:
448,192,126174,128,0,126324:0:0:0:0:
192,192,126624,1,0,0:0:0:0:
320,192,126661,1,0,0:0:0:0:
320,192,126924,1,0,0:0:0:0:
64,192,127524,1,0,0:0:0:0:
448,192,127524,1,0,0:0:0:0:
320,192,127824,1,0,0:0:0:0:
192,192,128124,128,0,128424:0:0:0:0:
448,192,128424,128,0,128724:0:0:0:0:
320,192,128424,128,0,128574:0:0:0:0:
64,192,128574,128,0,128874:0:0:0:0:
192,192,128724,1,0,0:0:0:0:
320,192,128724,1,0,0:0:0:0:
448,192,129624,128,0,129924:0:0:0:0:
64,192,129924,1,0,0:0:0:0:
192,192,129924,128,0,130224:0:0:0:0:
448,192,130224,1,0,0:0:0:0:
320,192,130374,128,0,130674:0:0:0:0:
192,192,130524,1,0,0:0:0:0:
448,192,130824,128,0,130974:0:0:0:0:
64,192,130824,128,0,131049:0:0:0:0:
192,192,130974,128,0,131124:0:0:0:0:
320,192,131124,1,0,0:0:0:0:
448,192,131124,1,0,0:0:0:0:
192,192,132024,128,0,132324:0:0:0:0:
448,192,132324,128,0,132624:0:0:0:0:
320,192,132324,128,0,132474:0:0:0:0:
64,192,132624,128,0,132774:0:0:0:0:
64,192,132924,128,0,133074:0:0:0:0:
320,192,133224,128,0,133674:0:0:0:0:
192,192,133224,128,0,133374:0:0:0:0:
64,192,133524,1,0,0:0:0:0:
448,192,133824,128,0,134274:0:0:0:0:
320,192,133824,128,0,133974:0:0:0:0:
64,192,134124,1,0,0:0:0:0:
192,192,134124,1,0,0:0:0:0:
64,192,134424,128,0,134574:0:0:0:0:
320,192,134574,1,0,0:0:0:0:
192,192,134649,1,0,0:0:0:0:
64,192,134724,128,0,134874:0:0:0:0:
448,192,134724,128,0,136974:0:0:0:0:
64,192,135024,1,0,0:0:0:0:
320,192,135624,1,0,0:0:0:0:
64,192,135924,1,0,0:0:0:0:
192,192,135924,1,0,0:0:0:0:
192,192,136974,1,0,0:0:0:0:
320,192,137049,1,0,0:0:0:0:
64,192,137124,128,0,139524:0:0:0:0:
448,192,137124,128,0,137274:0:0:0:0:
448,192,137424,1,0,0:0:0:0:
192,192,138024,1,0,0:0:0:0:
320,192,138324,1,0,0:0:0:0:
448,192,138324,1,0,0:0:0:0:
320,192,138924,5,0,0:0:0:0:
448,192,139074,1,0,0:0:0:0:
192,192,139224,128,0,139524:0:0:0:0:
448,192,139524,5,0,0:0:0:0:
320,192,139524,128,0,139674:0:0:0:0:
192,192,139824,128,0,139974:0:0:0:0:
448,192,140124,128,0,140274:0:0:0:0:
64,192,140124,128,0,140574:0:0:0:0:
320,192,140424,128,0,140724:0:0:0:0:
448,192,140574,128,0,140724:0:0:0:0:
64,192,140724,1,0,0:0:0:0:
192,192,140724,128,0,140874:0:0:0:0:
320,192,141024,128,0,141174:0:0:0:0:
448,192,141324,128,0,141774:0:0:0:0:
64,192,141324,128,0,141474:0:0:0:0:
192,192,141624,128,0,141924:0:0:0:0:
64,192,141774,128,0,141924:0:0:0:0:
448,192,141924,1,0,0:0:0:0:
320,192,141924,128,0,142074:0:0:0:0:
192,192,142224,128,0,142374:0:0:0:0:
448,192,142524,128,0,142674:0:0:0:0:
64,192,142524,128,0,142974:0:0:0:0:
320,192,142824,128,0,143124:0:0:0:0:
448,192,142974,128,0,143124:0:0:0:0:
64,192,143124,1,0,0:0:0:0:
192,192,143124,128,0,143274:0:0:0:0:
448,192,143424,128,0,144024:0:0:0:0:
320,192,143724,128,0,144024:0:0:0:0:
192,192,143724,128,0,144324:0:0:0:0:
64,192,144024,128,0,144324:0:0:0:0:
320,192,144324,1,0,0:0:0:0:
448,192,144324,128,0,144474:0:0:0:0:
320,192,144624,128,0,144774:0:0:0:0:
192,192,144924,128,0,145074:0:0:0:0:
64,192,144924,128,0,145374:0:0:0:0:
320,192,145224,128,0,145524:0:0:0:0:
448,192,145374,128,0,145524:0:0:0:0:
192,192,145524,1,0,0:0:0:0:
64,192,145524,128,0,145674:0:0:0:0:
192,192,145824,128,0,145974:0:0:0:0:
320,192,146124,128,0,146274:0:0:0:0:
448,192,146124,128,0,146574:0:0:0:0:
192,192,146424,128,0,146724:0:0:0:0:
64,192,146574,128,0,146724:0:0:0:0:
448,192,146724,1,0,0:0:0:0:
320,192,146724,128,0,146874:0:0:0:0:
192,192,147024,128,0,147174:0:0:0:0:
448,192,147324,128,0,148074:0:0:0:0:
64,192,147324,128,0,147774:0:0:0:0:
320,192,147624,128,0,148074:0:0:0:0:
64,192,147924,1,0,0:0:0:0:
192,192,147924,1,0,0:0:0:0:
320,192,148224,128,0,148974:0:0:0:0:
192,192,148524,1,0,0:0:0:0:
448,192,148524,128,0,148974:0:0:0:0:
64,192,148674,128,0,149124:0:0:0:0:
192,192,148824,128,0,149124:0:0:0:0:
448,192,149124,1,0,0:0:0:0:
320,192,149124,128,0,149274:0:0:0:0:
192,192,149424,128,0,149574:0:0:0:0:
320,192,149724,128,0,149874:0:0:0:0:
448,192,149724,128,0,150174:0:0:0:0:
64,192,150024,128,0,150324:0:0:0:0:
192,192,150174,128,0,150324:0:0:0:0:
320,192,150324,1,0,0:0:0:0:
448,192,150324,128,0,150474:0:0:0:0:
320,192,150624,128,0,150774:0:0:0:0:
192,192,150924,128,0,151074:0:0:0:0:
64,192,150924,128,0,151374:0:0:0:0:
448,192,151224,128,0,151524:0:0:0:0:
320,192,151374,128,0,151524:0:0:0:0:
192,192,151524,128,0,151674:0:0:0:0:
64,192,151524,1,0,0:0:0:0:
320,192,151824,128,0,151974:0:0:0:0:
64,192,152124,128,0,152274:0:0:0:0:
448,192,152124,128,0,152574:0:0:0:0:
320,192,152424,128,0,152724:0:0:0:0:
192,192,152574,128,0,153324:0:0:0:0:
448,192,152724,1,0,0:0:0:0:
64,192,152724,1,0,0:0:0:0:
320,192,153024,128,0,153474:0:0:0:0:
448,192,153324,128,0,153924:0:0:0:0:
64,192,153324,1,0,0:0:0:0:
320,192,153624,128,0,153924:0:0:0:0:
192,192,153924,128,0,154524:0:0:0:0:
64,192,153924,128,0,154224:0:0:0:0:
320,192,154224,128,0,154824:0:0:0:0:
448,192,154524,128,0,154824:0:0:0:0:
64,192,154824,128,0,155424:0:0:0:0:
192,192,154824,128,0,155124:0:0:0:0:
448,192,155124,1,0,0:0:0:0:
320,192,155124,1,0,0:0:0:0:
448,192,155424,128,0,156324:0:0:0:0:
320,192,155724,128,0,156624:0:0:0:0:
64,192,155724,1,0,0:0:0:0:
192,192,156324,128,0,156924:0:0:0:0:
64,192,156324,128,0,157224:0:0:0:0:
448,192,156624,1,0,0:0:0:0:
320,192,156924,1,0,0:0:0:0:
448,192,157224,128,0,158724:0:0:0:0:
320,192,157224,128,0,158424:0:0:0:0:
192,192,157524,1,0,0:0:0:0:
64,192,157524,1,0,0:0:0:0:
64,192,158424,1,0,0:0:0:0:
64,192,158724,128,0,159024:0:0:0:0:
192,192,158724,128,0,159024:0:0:0:0:
320,192,159024,5,0,0:0:0:0:
64,192,159174,1,0,0:0:0:0:
448,192,159324,1,0,0:0:0:0:
192,192,159474,1,0,0:0:0:0:
320,192,159624,1,0,0:0:0:0:
64,192,159774,1,0,0:0:0:0:
192,192,159924,5,0,0:0:0:0:
448,192,159924,128,0,160074:0:0:0:0:
320,192,160074,128,0,160224:0:0:0:0:
64,192,160224,128,0,160374:0:0:0:0:
192,192,160374,128,0,160524:0:0:0:0:
448,192,160524,128,0,160824:0:0:0:0:
64,192,160524,1,0,0:0:0:0:
320,192,160674,128,0,160974:0:0:0:0:
192,192,160824,128,0,161124:0:0:0:0:
64,192,160974,128,0,161124:0:0:0:0:
192,192,162324,128,0,163374:0:0:0:0:
448,192,162924,128,0,163974:0:0:0:0:
192,192,163524,128,0,163974:0:0:0:0:
64,192,163524,128,0,163974:0:0:0:0:
320,192,164424,128,0,165024:0:0:0:0:
448,192,164574,128,0,165024:0:0:0:0:
64,192,164724,128,0,165174:0:0:0:0:
192,192,165624,128,0,166074:0:0:0:0:
64,192,165774,128,0,166074:0:0:0:0:
320,192,165924,128,0,166374:0:0:0:0:
448,192,165924,128,0,166374:0:0:0:0:
192,192,166224,128,0,166674:0:0:0:0:
320,192,166524,128,0,166974:0:0:0:0:
448,192,166824,128,0,167424:0:0:0:0:
64,192,167274,128,0,167724:0:0:0:0:
192,192,167424,128,0,167574:0:0:0:0:
320,192,167724,128,0,167874:0:0:0:0:
448,192,168024,128,0,168474:0:0:0:0:
320,192,168174,128,0,168474:0:0:0:0:
64,192,168324,128,0,168774:0:0:0:0:
192,192,168324,128,0,168774:0:0:0:0:
448,192,169224,128,0,169674:0:0:0:0:
320,192,169224,128,0,169674:0:0:0:0:
192,192,169824,128,0,170274:0:0:0:0:
64,192,170124,128,0,170574:0:0:0:0:
448,192,170124,128,0,170574:0:0:0:0:
320,192,170424,128,0,170874:0:0:0:0:
192,192,170724,128,0,171024:0:0:0:0:
64,192,170724,128,0,171024:0:0:0:0:
448,192,171024,128,0,171924:0:0:0:0:
64,192,171174,128,0,171774:0:0:0:0:
320,192,171324,128,0,171924:0:0:0:0:
192,192,171324,128,0,171774:0:0:0:0:
64,192,171924,128,0,172374:0:0:0:0:
192,192,171924,128,0,172374:0:0:0:0:
320,192,172524,128,0,172974:0:0:0:0:
192,192,172524,128,0,173724:0:0:0:0:
320,192,173124,128,0,173724:0:0:0:0:
448,192,173124,128,0,173724:0:0:0:0:
448,192,174324,128,0,175374:0:0:0:0:
64,192,174324,128,0,174924:0:0:0:0:
320,192,174924,128,0,175374:0:0:0:0:
64,192,175524,128,0,175974:0:0:0:0:
192,192,175824,128,0,176274:0:0:0:0:
320,192,176124,128,0,176574:0:0:0:0:
448,192,176424,128,0,177174:0:0:0:0:
192,192,176724,128,0,177174:0:0:0:0:
64,192,176724,128,0,177774:0:0:0:0:
192,192,177324,128,0,177774:0:0:0:0:
320,192,177324,128,0,177474:0:0:0:0:
320,192,177624,128,0,178074:0:0:0:0:
448,192,177924,128,0,179274:0:0:0:0:
64,192,177924,128,0,178074:0:0:0:0:
192,192,178224,128,0,178374:0:0:0:0:
320,192,178524,128,0,178674:0:0:0:0:
64,192,179124,128,0,180474:0:0:0:0:
192,192,179124,128,0,179274:0:0:0:0:
320,192,179424,128,0,179574:0:0:0:0:
448,192,179724,128,0,179874:0:0:0:0:
448,192,180324,128,0,180474:0:0:0:0:
320,192,180324,128,0,181674:0:0:0:0:
192,192,180624,128,0,180774:0:0:0:0:
64,192,180924,128,0,181074:0:0:0:0:
192,192,181524,128,0,182274:0:0:0:0:
448,192,181524,128,0,181674:0:0:0:0:
64,192,181524,128,0,181674:0:0:0:0:
64,192,182124,128,0,182874:0:0:0:0:
320,192,182124,128,0,182274:0:0:0:0:
448,192,182124,128,0,182274:0:0:0:0:
448,192,182724,128,0,184074:0:0:0:0:
320,192,182724,128,0,182874:0:0:0:0:
192,192,182724,128,0,182874:0:0:0:0:
64,192,183024,128,0,183174:0:0:0:0:
192,192,183324,128,0,183474:0:0:0:0:
64,192,183924,128,0,184074:0:0:0:0:
192,192,183924,128,0,185274:0:0:0:0:
320,192,183924,128,0,184074:0:0:0:0:
448,192,184224,128,0,184374:0:0:0:0:
320,192,184524,128,0,184674:0:0:0:0:
64,192,185124,128,0,185574:0:0:0:0:
448,192,185124,128,0,186174:0:0:0:0:
192,192,185724,128,0,186174:0:0:0:0:
64,192,185724,128,0,186774:0:0:0:0:
192,192,186324,128,0,186774:0:0:0:0:
320,192,186324,128,0,186774:0:0:0:0:
448,192,186324,128,0,187524:0:0:0:0:
64,192,186924,128,0,187524:0:0:0:0:
320,192,186924,128,0,187524:0:0:0:0:
192,192,186924,128,0,187524:0:0:0:0:
64,192,187624,1,0,0:0:0:0:
192,192,187724,1,0,0:0:0:0:
448,192,187861,1,0,0:0:0:0:
320,192,188011,1,0,0:0:0:0:
192,192,188124,128,0,188424:0:0:0:0:
448,192,188724,128,0,189174:0:0:0:0:
320,192,188724,128,0,189174:0:0:0:0:
64,192,188724,128,0,189174:0:0:0:0:
192,192,188724,128,0,189174:0:0:0:0:
448,192,189324,1,0,0:0:0:0:
192,192,189324,1,0,0:0:0:0:
64,192,189324,1,0,0:0:0:0:
320,192,189624,128,0,189924:0:0:0:0:
192,192,189774,128,0,190074:0:0:0:0:
448,192,189924,1,0,0:0:0:0:
64,192,189924,128,0,190374:0:0:0:0:
320,192,190074,1,0,0:0:0:0:
192,192,190224,128,0,190374:0:0:0:0:
64,192,190524,1,0,0:0:0:0:
448,192,190524,1,0,0:0:0:0:
320,192,190524,1,0,0:0:0:0:
192,192,190824,128,0,191274:0:0:0:0:
64,192,190974,128,0,191274:0:0:0:0:
448,192,191124,128,0,191574:0:0:0:0:
320,192,191124,128,0,191274:0:0:0:0:
64,192,191424,128,0,191874:0:0:0:0:
320,192,191424,128,0,191574:0:0:0:0:
320,192,191724,128,0,192174:0:0:0:0:
192,192,191724,128,0,191874:0:0:0:0:
448,192,191724,1,0,0:0:0:0:
448,192,192024,128,0,192774:0:0:0:0:
192,192,192024,128,0,192324:0:0:0:0:
64,192,192024,128,0,192324:0:0:0:0:
320,192,192324,1,0,0:0:0:0:
64,192,192474,1,0,0:0:0:0:
192,192,192474,1,0,0:0:0:0:
320,192,192624,1,0,0:0:0:0:
448,192,192924,1,0,0:0:0:0:
192,192,192924,1,0,0:0:0:0:
64,192,192924,1,0,0:0:0:0:
320,192,193224,128,0,193674:0:0:0:0:
192,192,193374,128,0,193674:0:0:0:0:
64,192,193524,128,0,193974:0:0:0:0:
448,192,193524,128,0,193674:0:0:0:0:
320,192,193824,128,0,193974:0:0:0:0:
448,192,194124,1,0,0:0:0:0:
192,192,194124,128,0,194274:0:0:0:0:
64,192,194124,1,0,0:0:0:0:
320,192,194424,128,0,194724:0:0:0:0:
448,192,194424,128,0,194874:0:0:0:0:
64,192,194424,128,0,194574:0:0:0:0:
192,192,194724,1,0,0:0:0:0:
64,192,194724,1,0,0:0:0:0:
192,192,195024,128,0,195474:0:0:0:0:
64,192,195324,128,0,195774:0:0:0:0:
320,192,195324,1,0,0:0:0:0:
448,192,195324,128,0,195774:0:0:0:0:
320,192,195624,128,0,196074:0:0:0:0:
64,192,195924,128,0,196374:0:0:0:0:
192,192,195924,128,0,196224:0:0:0:0:
448,192,195924,128,0,196074:0:0:0:0:
448,192,196224,128,0,196824:0:0:0:0:
320,192,196374,128,0,196824:0:0:0:0:
192,192,196524,1,0,0:0:0:0:
64,192,196524,1,0,0:0:0:0:
192,192,196824,1,0,0:0:0:0:
64,192,197124,128,0,197574:0:0:0:0:
448,192,197124,128,0,197274:0:0:0:0:
192,192,197274,1,0,0:0:0:0:
320,192,197274,1,0,0:0:0:0:
448,192,197424,1,0,0:0:0:0:
64,192,197724,128,0,198174:0:0:0:0:
192,192,197724,128,0,197874:0:0:0:0:
320,192,198024,1,0,0:0:0:0:
448,192,198024,1,0,0:0:0:0:
192,192,198174,1,0,0:0:0:0:
448,192,198324,128,0,198774:0:0:0:0:
320,192,198324,128,0,198774:0:0:0:0:
64,192,198324,128,0,198774:0:0:0:0:
192,192,198624,1,0,0:0:0:0:
448,192,198924,1,0,0:0:0:0:
320,192,198924,1,0,0:0:0:0:
64,192,198924,1,0,0:0:0:0:
192,192,199224,128,0,199524:0:0:0:0:
320,192,199374,128,0,199674:0:0:0:0:
448,192,199524,128,0,199974:0:0:0:0:
64,192,199524,1,0,0:0:0:0:
192,192,199674,1,0,0:0:0:0:
320,192,199824,128,0,199974:0:0:0:0:
64,192,200124,1,0,0:0:0:0:
192,192,200124,1,0,0:0:0:0:
448,192,200124,1,0,0:0:0:0:
320,192,200424,128,0,200874:0:0:0:0:
448,192,200574,128,0,200874:0:0:0:0:
192,192,200724,128,0,200874:0:0:0:0:
64,192,200724,128,0,201174:0:0:0:0:
448,192,201024,128,0,201174:0:0:0:0:
320,192,201024,128,0,201474:0:0:0:0:
64,192,201324,128,0,201474:0:0:0:0:
448,192,201324,128,0,201774:0:0:0:0:
192,192,201324,128,0,201474:0:0:0:0:
64,192,201624,128,0,202374:0:0:0:0:
192,192,201624,128,0,202074:0:0:0:0:
320,192,201624,128,0,201924:0:0:0:0:
448,192,201924,5,0,0:0:0:0:
320,192,202074,1,0,0:0:0:0:
448,192,202224,128,0,202674:0:0:0:0:
192,192,202224,128,0,202374:0:0:0:0:
320,192,202524,128,0,202674:0:0:0:0:
64,192,202524,128,0,202974:0:0:0:0:
192,192,202674,1,0,0:0:0:0:
320,192,202824,1,0,0:0:0:0:
320,192,202974,1,0,0:0:0:0:
448,192,203124,5,0,0:0:0:0:
192,192,203124,128,0,204174:0:0:0:0:
64,192,203124,128,0,203574:0:0:0:0:
448,192,203424,1,0,0:0:0:0:
320,192,203574,128,0,204174:0:0:0:0:
64,192,203724,1,0,0:0:0:0:
448,192,203724,1,0,0:0:0:0:
448,192,204024,128,0,204174:0:0:0:0:
448,192,204324,128,0,204774:0:0:0:0:
320,192,204324,128,0,205374:0:0:0:0:
192,192,204324,1,0,0:0:0:0:
64,192,204624,1,0,0:0:0:0:
192,192,204774,128,0,205374:0:0:0:0:
448,192,204924,1,0,0:0:0:0:
64,192,204924,1,0,0:0:0:0:
64,192,205224,128,0,205674:0:0:0:0:
448,192,205524,128,0,205974:0:0:0:0:
192,192,205524,128,0,205674:0:0:0:0:
320,192,205524,128,0,205974:0:0:0:0:
64,192,205824,128,0,205974:0:0:0:0:
192,192,205824,128,0,205974:0:0:0:0:
192,192,206124,128,0,206274:0:0:0:0:
448,192,206124,128,0,206274:0:0:0:0:
320,192,206124,128,0,206574:0:0:0:0:
64,192,206124,128,0,206274:0:0:0:0:
448,192,206424,128,0,206574:0:0:0:0:
192,192,206424,128,0,206574:0:0:0:0:
64,192,206424,128,0,206574:0:0:0:0:
448,192,206724,128,0,207174:0:0:0:0:
320,192,206724,1,0,0:0:0:0:
64,192,206724,128,0,206874:0:0:0:0:
192,192,206874,1,0,0:0:0:0:
320,192,207024,1,0,0:0:0:0:
64,192,207174,1,0,0:0:0:0:
448,192,207324,128,0,207774:0:0:0:0:
192,192,207324,128,0,207474:0:0:0:0:
320,192,207474,1,0,0:0:0:0:
64,192,207624,1,0,0:0:0:0:
192,192,207624,1,0,0:0:0:0:
320,192,207774,1,0,0:0:0:0:
64,192,207924,128,0,208374:0:0:0:0:
192,192,207924,128,0,208374:0:0:0:0:
448,192,207924,128,0,208374:0:0:0:0:
320,192,208224,1,0,0:0:0:0:
448,192,208524,1,0,0:0:0:0:
64,192,208524,1,0,0:0:0:0:
192,192,208524,1,0,0:0:0:0:
320,192,208824,128,0,209124:0:0:0:0:
192,192,208974,128,0,209124:0:0:0:0:
64,192,209124,128,0,209574:0:0:0:0:
448,192,209124,128,0,209274:0:0:0:0:
320,192,209274,1,0,0:0:0:0:
192,192,209274,1,0,0:0:0:0:
448,192,209424,1,0,0:0:0:0:
320,192,209724,1,0,0:0:0:0:
64,192,209724,1,0,0:0:0:0:
192,192,209724,1,0,0:0:0:0:
448,192,210024,128,0,210474:0:0:0:0:
320,192,210174,128,0,210474:0:0:0:0:
192,192,210324,128,0,210774:0:0:0:0:
64,192,210324,128,0,210474:0:0:0:0:
448,192,210624,128,0,211074:0:0:0:0:
64,192,210624,128,0,210774:0:0:0:0:
192,192,210924,128,0,211374:0:0:0:0:
320,192,210924,128,0,211074:0:0:0:0:
64,192,210924,1,0,0:0:0:0:
64,192,211224,128,0,211524:0:0:0:0:
320,192,211224,128,0,211374:0:0:0:0:
448,192,211224,128,0,211524:0:0:0:0:
320,192,211524,1,0,0:0:0:0:
192,192,211524,1,0,0:0:0:0:
64,192,211674,128,0,211974:0:0:0:0:
448,192,211674,1,0,0:0:0:0:
192,192,211824,1,0,0:0:0:0:
448,192,212124,1,0,0:0:0:0:
320,192,212124,1,0,0:0:0:0:
64,192,212124,1,0,0:0:0:0:
192,192,212424,128,0,212874:0:0:0:0:
320,192,212574,128,0,212874:0:0:0:0:
448,192,212724,128,0,213174:0:0:0:0:
64,192,212724,128,0,212874:0:0:0:0:
320,192,213024,1,0,0:0:0:0:
192,192,213024,128,0,213174:0:0:0:0:
64,192,213324,1,0,0:0:0:0:
320,192,213324,1,0,0:0:0:0:
448,192,213324,128,0,213474:0:0:0:0:
192,192,213624,128,0,213924:0:0:0:0:
64,192,213624,128,0,214074:0:0:0:0:
320,192,213624,128,0,213774:0:0:0:0:
448,192,213924,1,0,0:0:0:0:
192,192,214074,1,0,0:0:0:0:
64,192,214224,1,0,0:0:0:0:
320,192,214224,128,0,214674:0:0:0:0:
448,192,214524,128,0,214974:0:0:0:0:
64,192,214524,128,0,214974:0:0:0:0:
192,192,214524,1,0,0:0:0:0:
192,192,214824,128,0,215274:0:0:0:0:
64,192,215124,128,0,215574:0:0:0:0:
448,192,215124,128,0,215424:0:0:0:0:
320,192,215124,1,0,0:0:0:0:
192,192,215424,1,0,0:0:0:0:
320,192,215574,1,0,0:0:0:0:
192,192,215724,128,0,216174:0:0:0:0:
64,192,215724,128,0,216024:0:0:0:0:
448,192,215724,1,0,0:0:0:0:
320,192,216024,1,0,0:0:0:0:
64,192,216174,1,0,0:0:0:0:
320,192,216324,128,0,216774:0:0:0:0:
192,192,216324,128,0,216624:0:0:0:0:
448,192,216324,1,0,0:0:0:0:
64,192,216474,1,0,0:0:0:0:
448,192,216624,1,0,0:0:0:0:
64,192,216774,1,0,0:0:0:0:
192,192,216774,1,0,0:0:0:0:
320,192,216924,128,0,217224:0:0:0:0:
448,192,216924,128,0,217374:0:0:0:0:
64,192,217074,128,0,217374:0:0:0:0:
192,192,217224,128,0,217374:0:0:0:0:
320,192,217374,128,0,217674:0:0:0:0:
192,192,217524,128,0,217974:0:0:0:0:
64,192,217524,128,0,217974:0:0:0:0:
448,192,217524,128,0,217974:0:0:0:0:
320,192,217824,1,0,0:0:0:0:
448,192,218124,1,0,0:0:0:0:
192,192,218124,1,0,0:0:0:0:
64,192,218124,1,0,0:0:0:0:
320,192,218424,1,0,0:0:0:0:
448,192,218724,128,0,219024:0:0:0:0:
64,192,218724,128,0,219174:0:0:0:0:
320,192,218874,128,0,219624:0:0:0:0:
192,192,219024,128,0,219174:0:0:0:0:
448,192,219174,128,0,219524:0:0:0:0:
192,192,219324,128,0,219724:0:0:0:0:
64,192,219324,128,0,219824:0:0:0:0:
448,192,219624,1,0,0:0:0:0:
320,192,219724,1,0,0:0:0:0:
192,192,219824,1,0,0:0:0:0:
448,192,219924,128,0,220374:0:0:0:0:
64,192,219924,128,0,220374:0:0:0:0:
320,192,219924,128,0,220074:0:0:0:0:
192,192,220224,128,0,220374:0:0:0:0:
320,192,220224,128,0,220674:0:0:0:0:
64,192,220524,128,0,220674:0:0:0:0:
448,192,220524,128,0,220674:0:0:0:0:
192,192,220524,128,0,221124:0:0:0:0:
448,192,220824,128,0,221424:0:0:0:0:
320,192,220824,128,0,221274:0:0:0:0:
64,192,220824,128,0,221124:0:0:0:0:
192,192,221274,1,0,0:0:0:0:
64,192,221274,1,0,0:0:0:0:
320,192,221424,1,0,0:0:0:0:
448,192,221574,1,0,0:0:0:0:
64,192,221724,1,0,0:0:0:0:
192,192,221724,1,0,0:0:0:0:
320,192,221874,1,0,0:0:0:0:
448,192,221874,1,0,0:0:0:0:
192,192,222024,1,0,0:0:0:0:
64,192,222024,128,0,222174:0:0:0:0:
320,192,222174,1,0,0:0:0:0:
448,192,222324,1,0,0:0:0:0:
64,192,222324,128,0,222774:0:0:0:0:
192,192,222324,128,0,222624:0:0:0:0:
448,192,222624,1,0,0:0:0:0:
320,192,222774,128,0,223224:0:0:0:0:
64,192,222924,1,0,0:0:0:0:
192,192,222924,1,0,0:0:0:0:
448,192,223074,1,0,0:0:0:0:
192,192,223224,128,0,223524:0:0:0:0:
320,192,223374,1,0,0:0:0:0:
448,192,223524,1,0,0:0:0:0:
64,192,223524,128,0,223974:0:0:0:0:
192,192,223674,1,0,0:0:0:0:
320,192,223824,1,0,0:0:0:0:
448,192,223974,128,0,224724:0:0:0:0:
64,192,224124,1,0,0:0:0:0:
192,192,224124,1,0,0:0:0:0:
320,192,224274,1,0,0:0:0:0:
64,192,224424,128,0,224724:0:0:0:0:
320,192,224724,128,0,225024:0:0:0:0:
192,192,224724,128,0,225324:0:0:0:0:
64,192,225024,1,0,0:0:0:0:
448,192,225024,1,0,0:0:0:0:
64,192,225324,1,0,0:0:0:0:
448,192,225324,1,0,0:0:0:0:
320,192,225474,1,0,0:0:0:0:
192,192,225624,1,0,0:0:0:0:
64,192,225624,1,0,0:0:0:0:
448,192,225774,1,0,0:0:0:0:
320,192,225774,1,0,0:0:0:0:
64,192,225924,128,0,226074:0:0:0:0:
448,192,226074,1,0,0:0:0:0:
320,192,226074,1,0,0:0:0:0:
64,192,226224,1,0,0:0:0:0:
192,192,226224,128,0,226374:0:0:0:0:
320,192,226374,1,0,0:0:0:0:
64,192,226524,1,0,0:0:0:0:
448,192,226524,128,0,226674:0:0:0:0:
320,192,226674,1,0,0:0:0:0:
192,192,226674,1,0,0:0:0:0:
448,192,226824,1,0,0:0:0:0:
64,192,226824,128,0,226974:0:0:0:0:
192,192,226974,1,0,0:0:0:0:
448,192,227124,128,0,227574:0:0:0:0:
320,192,227124,128,0,227424:0:0:0:0:
64,192,227124,1,0,0:0:0:0:
64,192,227424,1,0,0:0:0:0:
192,192,227574,128,0,228024:0:0:0:0:
64,192,227724,128,0,228024:0:0:0:0:
320,192,227724,1,0,0:0:0:0:
448,192,227724,1,0,0:0:0:0:
320,192,228024,128,0,228324:0:0:0:0:
64,192,228324,128,0,228774:0:0:0:0:
448,192,228324,1,0,0:0:0:0:
192,192,228474,1,0,0:0:0:0:
320,192,228624,1,0,0:0:0:0:
448,192,228774,128,0,229224:0:0:0:0:
320,192,228924,128,0,229224:0:0:0:0:
192,192,228924,1,0,0:0:0:0:
64,192,228924,1,0,0:0:0:0:
192,192,229224,128,0,229524:0:0:0:0:
64,192,229224,1,0,0:0:0:0:
448,192,229524,1,0,0:0:0:0:
320,192,229524,1,0,0:0:0:0:
64,192,229524,128,0,229824:0:0:0:0:
192,192,229824,1,0,0:0:0:0:
320,192,229824,1,0,0:0:0:0:
448,192,229824,1,0,0:0:0:0:
64,192,230124,1,0,0:0:0:0:
192,192,230124,1,0,0:0:0:0:
320,192,230274,1,0,0:0:0:0:
448,192,230274,1,0,0:0:0:0:
64,192,230424,128,0,230724:0:0:0:0:
192,192,230574,1,0,0:0:0:0:
448,192,230724,1,0,0:0:0:0:
320,192,230724,1,0,0:0:0:0:
64,192,230874,1,0,0:0:0:0:
192,192,230874,1,0,0:0:0:0:
320,192,231024,128,0,231174:0:0:0:0:
448,192,231174,1,0,0:0:0:0:
64,192,231324,1,0,0:0:0:0:
192,192,231324,128,0,231474:0:0:0:0:
448,192,231474,1,0,0:0:0:0:
320,192,231474,1,0,0:0:0:0:
64,192,231624,128,0,231774:0:0:0:0:
192,192,231624,1,0,0:0:0:0:
320,192,231774,1,0,0:0:0:0:
192,192,231924,1,0,0:0:0:0:
448,192,231924,128,0,234211:0:0:0:0:
64,192,231924,128,0,232224:0:0:0:0:
320,192,232224,1,0,0:0:0:0:
64,192,232524,1,0,0:0:0:0:
192,192,232524,1,0,0:0:0:0:
192,192,232824,1,0,0:0:0:0:
320,192,232974,1,0,0:0:0:0:
64,192,233124,1,0,0:0:0:0:
192,192,233274,1,0,0:0:0:0:
320,192,233424,1,0,0:0:0:0:
64,192,233424,1,0,0:0:0:0:
192,192,233761,1,0,0:0:0:0:
320,192,233761,1,0,0:0:0:0:
64,192,233911,1,0,0:0:0:0:
320,192,234061,1,0,0:0:0:0:
192,192,234211,1,0,0:0:0:0:
320,192,234324,1,0,0:0:0:0:
64,192,234324,128,0,235974:0:0:0:0:
448,192,234324,128,0,234624:0:0:0:0:
192,192,234624,1,0,0:0:0:0:
320,192,234924,1,0,0:0:0:0:
448,192,234924,1,0,0:0:0:0:
448,192,235224,1,0,0:0:0:0:
320,192,235374,1,0,0:0:0:0:
192,192,235374,1,0,0:0:0:0:
448,192,235524,1,0,0:0:0:0:
192,192,235674,1,0,0:0:0:0:
320,192,235824,1,0,0:0:0:0:
448,192,235824,1,0,0:0:0:0:
192,192,235974,1,0,0:0:0:0:
448,192,236124,1,0,0:0:0:0:
64,192,236124,1,0,0:0:0:0:
320,192,236274,1,0,0:0:0:0:
448,192,236274,1,0,0:0:0:0:
192,192,236424,1,0,0:0:0:0:
320,192,236424,1,0,0:0:0:0:
64,192,236574,1,0,0:0:0:0:
192,192,236574,1,0,0:0:0:0:
64,192,236724,1,0,0:0:0:0:
320,192,236724,128,0,238824:0:0:0:0:
448,192,236724,128,0,237024:0:0:0:0:
192,192,237024,1,0,0:0:0:0:
64,192,237324,1,0,0:0:0:0:
448,192,237324,1,0,0:0:0:0:
448,192,237624,1,0,0:0:0:0:
192,192,237774,1,0,0:0:0:0:
64,192,237774,1,0,0:0:0:0:
448,192,237924,1,0,0:0:0:0:
64,192,238074,1,0,0:0:0:0:
448,192,238224,1,0,0:0:0:0:
192,192,238224,1,0,0:0:0:0:
64,192,238524,1,0,0:0:0:0:
192,192,238524,1,0,0:0:0:0:
448,192,238824,1,0,0:0:0:0:
64,192,238824,1,0,0:0:0:0:
448,192,239124,1,0,0:0:0:0:
192,192,239124,128,0,241224:0:0:0:0:
320,192,239124,128,0,239424:0:0:0:0:
64,192,239424,1,0,0:0:0:0:
320,192,239724,1,0,0:0:0:0:
448,192,239724,1,0,0:0:0:0:
320,192,240024,1,0,0:0:0:0:
64,192,240174,1,0,0:0:0:0:
448,192,240174,1,0,0:0:0:0:
320,192,240324,1,0,0:0:0:0:
64,192,240474,1,0,0:0:0:0:
320,192,240624,1,0,0:0:0:0:
448,192,240624,1,0,0:0:0:0:
64,192,240924,1,0,0:0:0:0:
448,192,240924,1,0,0:0:0:0:
64,192,241224,1,0,0:0:0:0:
448,192,241224,1,0,0:0:0:0:
320,192,241224,1,0,0:0:0:0:
192,192,241524,1,0,0:0:0:0:
320,192,241524,1,0,0:0:0:0:
192,192,241824,1,0,0:0:0:0:
64,192,241824,1,0,0:0:0:0:
448,192,241824,1,0,0:0:0:0:
320,192,242274,5,0,0:0:0:0:
64,192,242311,1,0,0:0:0:0:
448,192,242724,1,0,0:0:0:0:
192,192,242761,5,0,0:0:0:0:
448,192,243174,5,0,0:0:0:0:
320,192,243174,1,0,0:0:0:0:
192,192,243324,1,0,0:0:0:0:
64,192,243324,1,0,0:0:0:0:
320,192,243474,1,0,0:0:0:0:
192,192,243474,1,0,0:0:0:0:
448,192,243624,1,0,0:0:0:0:
320,192,243624,1,0,0:0:0:0:
64,192,243924,5,0,0:0:0:0:
448,192,243924,1,0,0:0:0:0:
192,192,244224,1,0,0:0:0:0:
320,192,244524,1,0,0:0:0:0:
64,192,244824,128,0,245424:0:0:0:0:
448,192,245424,1,0,0:0:0:0:
320,192,245724,1,0,0:0:0:0:
64,192,246024,1,0,0:0:0:0:
320,192,246124,1,0,0:0:0:0:
192,192,246224,1,0,0:0:0:0:
448,192,246324,128,0,247524:0:0:0:0:
320,192,247224,1,0,0:0:0:0:
64,192,247524,128,0,250824:0:0:0:0:
448,192,247824,1,0,0:0:0:0:
320,192,248124,1,0,0:0:0:0:
192,192,248424,1,0,0:0:0:0:
448,192,248724,128,0,252924:0:0:0:0:
320,192,248761,128,0,252924:0:0:0:0:
192,192,249924,128,0,252924:0:0:0:0:
64,192,251124,128,0,252924:0:0:0:0:
64,192,253524,128,0,260724:0:0:0:0:
448,192,253524,128,0,259524:0:0:0:0:
192,192,255924,128,0,260124:0:0:0:0:
