osu file format v14

[General]
AudioFilename: audio.mp3
AudioLeadIn: 0
PreviewTime: 51827
Countdown: 1
SampleSet: Soft
StackLeniency: 0.7
Mode: 1
LetterboxInBreaks: 0
WidescreenStoryboard: 1

[Editor]
DistanceSpacing: 1.2
BeatDivisor: 2
GridSize: 8
TimelineZoom: 1.3

[Metadata]
Title:Kamisama no Iutoori
TitleUnicode:神様のいうとおり
Artist:Ishiwatari Juuji & Sunahara Yoshinori + Yakushimaru Etsuko
ArtistUnicode:いしわたり淳治&砂原良徳 + やくしまるえつこ
Creator:Invective
Version:Kantan
Source:四畳半神話大系
Tags:tatami galaxy yojouhan shinwa taikei michiru oshima 大島ミチル ED ending
BeatmapID:1459773
BeatmapSetID:689631

[Difficulty]
HPDrainRate:8
CircleSize:5
OverallDifficulty:3
ApproachRate:5
SliderMultiplier:1.4
SliderTickRate:1

[Events]
//Background and Video events
0,0,"akashi.jpg",0,0
//Break Periods
//Storyboard Layer 0 (Background)
//Storyboard Layer 1 (Fail)
//Storyboard Layer 2 (Pass)
//Storyboard Layer 3 (Foreground)
//Storyboard Sound Samples

[TimingPoints]
533,535.714285714286,4,2,0,100,1,0
51961,-100,4,2,0,100,0,1
86247,-100,4,2,0,100,0,0

[HitObjects]
272,216,533,5,0,0:0:0:0:
416,176,2140,1,8,0:0:0:0:
336,240,2675,1,0,0:0:0:0:
360,176,3747,1,0,0:0:0:0:
360,136,4818,1,0,0:0:0:0:
384,144,6425,1,8,0:0:0:0:
376,192,6961,1,0,0:0:0:0:
480,152,8033,1,8,0:0:0:0:
288,224,9104,1,0,0:0:0:0:
424,192,10711,1,8,0:0:0:0:
40,136,11247,1,0,0:0:0:0:
40,136,12318,1,0,0:0:0:0:
40,136,13390,1,0,0:0:0:0:
40,136,14997,1,8,0:0:0:0:
40,136,15533,1,0,0:0:0:0:
40,136,16604,1,8,0:0:0:0:
264,176,17140,1,8,0:0:0:0:
40,136,17675,1,0,0:0:0:0:
232,136,18479,1,0,0:0:0:0:
232,136,19818,1,8,0:0:0:0:
232,136,20622,1,8,0:0:0:0:
168,136,21961,1,0,0:0:0:0:
232,136,22765,1,8,0:0:0:0:
232,136,24104,1,8,0:0:0:0:
264,136,24908,1,0,0:0:0:0:
176,80,26247,1,0,0:0:0:0:
176,80,27050,1,0,0:0:0:0:
232,136,28390,1,8,0:0:0:0:
232,136,29193,1,8,0:0:0:0:
432,112,30533,1,0,0:0:0:0:
384,96,32140,1,8,0:0:0:0:
168,48,32675,1,0,0:0:0:0:
384,96,34283,1,8,0:0:0:0:
352,176,34818,1,0,0:0:0:0:
304,232,35890,1,8,0:0:0:0:
296,184,36961,1,8,0:0:0:0:
368,144,39104,1,8,0:0:0:0:
448,184,40175,1,0,0:0:0:0:
328,152,41247,1,0,0:0:0:0:
328,152,43390,1,0,0:0:0:0:
368,144,44461,1,8,0:0:0:0:
432,144,45533,1,8,0:0:0:0:
400,128,47675,1,8,0:0:0:0:
432,208,48747,1,0,0:0:0:0:
328,224,49818,1,8,0:0:0:0:
352,160,50890,1,8,0:0:0:0:
264,232,51961,1,0,0:0:0:0:
432,256,53568,1,8,0:0:0:0:
432,256,54104,1,0,0:0:0:0:
384,152,55175,1,8,0:0:0:0:
320,216,55711,1,0,0:0:0:0:
432,256,56247,1,0,0:0:0:0:
432,256,57854,1,8,0:0:0:0:
432,256,58390,1,8,0:0:0:0:
432,256,59461,1,8,0:0:0:0:
384,168,59997,1,0,0:0:0:0:
432,256,60533,1,0,0:0:0:0:
432,256,62140,1,8,0:0:0:0:
432,256,62675,1,0,0:0:0:0:
384,152,63747,1,8,0:0:0:0:
344,168,64283,1,0,0:0:0:0:
432,256,64818,1,0,0:0:0:0:
432,256,66425,1,8,0:0:0:0:
432,256,66961,1,8,0:0:0:0:
432,256,68033,1,8,0:0:0:0:
432,256,68568,1,8,0:0:0:0:
432,256,69104,1,0,0:0:0:0:
432,256,70711,1,8,0:0:0:0:
432,256,71247,1,0,0:0:0:0:
368,216,72050,1,0,0:0:0:0:
352,168,72318,1,8,0:0:0:0:
40,200,72854,1,0,0:0:0:0:
96,112,73390,1,0,0:0:0:0:
96,112,74997,1,8,0:0:0:0:
96,112,75533,1,8,0:0:0:0:
384,160,76336,1,0,0:0:0:0:
480,136,76604,1,8,0:0:0:0:
264,192,77140,1,0,0:0:0:0:
96,112,77675,1,0,0:0:0:0:
96,112,79283,1,8,0:0:0:0:
96,112,79818,1,0,0:0:0:0:
376,184,80622,1,0,0:0:0:0:
464,176,80890,1,8,0:0:0:0:
264,192,81425,1,0,0:0:0:0:
96,112,81961,1,0,0:0:0:0:
96,112,83568,1,8,0:0:0:0:
96,112,84104,1,8,0:0:0:0:
440,232,84908,1,0,0:0:0:0:
96,112,85175,1,8,0:0:0:0:
240,120,85711,1,8,0:0:0:0:
96,112,86247,1,0,0:0:0:0:
96,112,87318,1,8,0:0:0:0:
