osu file format v14

[General]
AudioFilename: audio.mp3
AudioLeadIn: 0
PreviewTime: 51779
Countdown: 0
SampleSet: Soft
StackLeniency: 0.7
Mode: 0
LetterboxInBreaks: 0
WidescreenStoryboard: 1

[Editor]
Bookmarks: 351,17493,34636,68922,86065
DistanceSpacing: 0.8
BeatDivisor: 8
GridSize: 32
TimelineZoom: 0.8999999

[Metadata]
Title:Kamisama no Iu Toori (TV Version)
TitleUnicode:神様のいうとおり(TV Version)
Artist:Ishiwatari Junji & Sunahara Yoshinori + Yakushimaru Etsuko
ArtistUnicode:いしわたり淳治&砂原良徳 + やくしまるえつこ
Creator:Shyotamaze
Version:Normal
Source:四畳半神話大系
Tags:Yojouhan Shinwa Taikei The Tatami Galaxy anime ending Deppyforce TV Size
BeatmapID:1071415
BeatmapSetID:503563

[Difficulty]
HPDrainRate:4
CircleSize:3.8
OverallDifficulty:4
ApproachRate:5
SliderMultiplier:1.2
SliderTickRate:1

[Events]
//Background and Video events
0,0,"The Tatami Galaxy.jpg",0,0
Video,-1250,"ED.avi"
//Break Periods
//Storyboard Layer 0 (Background)
//Storyboard Layer 1 (Fail)
//Storyboard Layer 2 (Pass)
//Storyboard Layer 3 (Foreground)
//Storyboard Sound Samples

[TimingPoints]
351,535.714285714286,4,2,1,70,1,0
51779,-100,4,2,1,70,0,1
86065,-100,4,2,1,70,0,0

[Colours]
Combo1 : 216,158,22
Combo2 : 43,130,61
Combo3 : 15,56,62
Combo4 : 186,32,6

[HitObjects]
224,224,351,5,6,0:0:0:0:
319,224,886,2,0,P|314:253|301:280,1,60,10|2,0:0|0:0,0:0:0:0:
213,320,1690,2,0,P|184:311|159:295,1,60,2|10,0:0|0:0,0:0:0:0:
129,203,2493,6,0,P|103:186|75:178,2,60,2|0|8,0:0|0:0|0:0,0:0:0:0:
176,216,3297,1,0,0:0:0:0:
224,224,3565,2,0,L|257:175,1,60,2|0,0:0|0:0,0:0:0:0:
303,160,4101,2,0,L|336:111,1,60,8|2,0:0|0:0,0:0:0:0:
378,86,4636,5,6,0:0:0:0:
304,23,5172,2,0,L|244:35,1,60,10|2,0:0|0:0,0:0:0:0:
186,110,5976,2,0,L|126:122,1,60,2|10,0:0|0:0,0:0:0:0:
63,49,6779,6,0,P|31:100|36:158,1,120,2|8,0:0|0:0,0:0:0:0:
65,197,7583,1,2,0:0:0:0:
65,197,7851,2,0,P|67:226|60:259,1,60,2|10,0:0|0:0,0:0:0:0:
30,292,8386,2,0,P|27:321|34:354,1,60,10|2,0:0|0:0,0:0:0:0:
70,382,8922,5,6,0:0:0:0:
166,382,9458,2,0,L|234:374,1,60,10|2,0:0|0:0,0:0:0:0:
232,278,10261,2,0,L|172:285,1,60,2|10,0:0|0:0,0:0:0:0:
80,257,11065,6,0,L|20:249,2,60,2|0|8,0:0|0:0|0:0,0:0:0:0:
119,229,11868,1,0,0:0:0:0:
153,195,12136,2,0,L|221:187,1,60,2|0,0:0|0:0,0:0:0:0:
257,204,12672,2,0,L|325:196,1,60,8|2,0:0|0:0,0:0:0:0:
363,209,13208,5,6,0:0:0:0:
458,199,13743,2,0,P|456:228|443:260,1,60,10|2,0:0|0:0,0:0:0:0:
362,304,14547,2,0,P|333:298|304:283,1,60,2|10,0:0|0:0,0:0:0:0:
257,204,15351,5,2,0:0:0:0:
304,120,15886,2,0,P|316:91|321:62,2,60,10|2|2,0:0|0:0|0:0,0:0:0:0:
338,153,16690,2,0,P|369:148|396:138,2,60,10|10|2,0:0|0:0|0:0,0:0:0:0:
353,198,17493,5,6,0:0:0:0:
257,204,18029,1,8,0:0:0:0:
206,122,18565,2,0,P|182:143|166:171,1,60
161,214,19101,1,8,0:0:0:0:
214,291,19636,6,0,L|153:304,1,60,2|0,0:0|0:0,0:0:0:0:
124,340,20172,2,0,L|63:353,1,60,8|0,0:0|0:0,0:0:0:0:
12,271,20976,1,0,0:0:0:0:
0,224,21243,2,0,P|5:195|16:166,1,60,10|0,0:0|0:0,0:0:0:0:
44,128,21779,5,2,0:0:0:0:
139,117,22315,2,0,L|198:103,1,60,8|0,0:0|0:0,0:0:0:0:
244,115,22851,2,0,L|303:101,2,60,0|0|8,0:0|0:0|0:0,0:0:0:0:
183,189,23922,6,0,P|155:240|160:302,1,120,2|8,0:0|0:0,0:0:0:0:
182,342,24726,1,2,0:0:0:0:
182,342,24993,2,0,P|205:362|232:376,1,60,2|10,0:0|0:0,0:0:0:0:
279,378,25529,2,0,P|309:371|339:369,1,60,10|2,0:0|0:0,0:0:0:0:
386,371,26065,5,2,0:0:0:0:
444,294,26601,2,0,P|421:280|389:274,1,60,8|0,0:0|0:0,0:0:0:0:
341,280,27136,2,0,P|310:276|280:261,1,60
251,228,27672,1,8,0:0:0:0:
338,180,28208,6,0,P|332:151|320:123,1,60,2|0,0:0|0:0,0:0:0:0:
357,92,28743,2,0,P|385:104|414:110,1,60,8|0,0:0|0:0,0:0:0:0:
462,193,29547,1,0,0:0:0:0:
470,241,29815,2,0,B|461:271|443:294,1,60,10|0,0:0|0:0,0:0:0:0:
407,326,30351,6,0,P|414:355|428:382,2,60,2|0|8,0:0|0:0|0:0,0:0:0:0:
364,304,31154,1,2,0:0:0:0:
273,272,31690,1,0,0:0:0:0:
278,224,31958,2,0,P|291:198|314:174,1,60,10|0,0:0|0:0,0:0:0:0:
358,159,32493,6,0,P|372:102|339:46,1,120,2|8,0:0|0:0,0:0:0:0:
299,32,33297,1,2,0:0:0:0:
299,32,33565,2,0,P|269:34|240:42,1,60,2|10,0:0|0:0,0:0:0:0:
208,77,34101,2,0,P|181:91|146:101,1,60,2|2,0:0|0:0,0:0:0:0:
106,89,34636,6,0,P|91:146|57:195,1,120,2|8,0:0|0:0,0:0:0:0:
24,231,35440,1,0,0:0:0:0:
24,231,35708,2,0,P|24:262|32:293,2,60,0|2|10,0:0|0:0|0:0,0:0:0:0:
118,250,36779,6,0,P|177:250|241:272,1,120,0|8,0:0|0:0,0:0:0:0:
280,282,37583,1,0,0:0:0:0:
328,280,37851,1,2,0:0:0:0:
410,230,38386,2,0,P|432:208|447:181,1,60,10|0,0:0|0:0,0:0:0:0:
465,139,38922,6,0,P|430:88|416:32,1,120,2|8,0:0|0:0,0:0:0:0:
370,47,39726,2,0,P|314:64|249:64,1,120
206,51,40529,2,0,P|181:69|160:96,1,60,10|0,0:0|0:0,0:0:0:0:
145,136,41065,5,2,0:0:0:0:
186,222,41601,2,0,P|211:204|232:177,1,60,8|2,0:0|0:0,0:0:0:0:
247,137,42136,1,2,0:0:0:0:
206,51,42672,2,0,P|179:34|150:24,1,60,8|8,0:0|0:3,0:0:0:0:
104,21,43208,6,0,P|53:50|26:105,1,120,2|8,0:0|0:0,0:0:0:0:
121,116,44279,2,0,B|156:129|156:129|188:158|188:158|226:172,1,120,0|10,0:0|0:0,0:0:0:0:
320,163,45351,6,0,L|358:116,1,60
405,106,45886,2,0,L|443:59,1,60,8|0,0:0|0:0,0:0:0:0:
491,56,46422,1,2,0:0:0:0:
470,151,46958,2,0,L|430:199,1,60,10|0,0:0|0:0,0:0:0:0:
400,233,47493,6,0,P|344:252|288:289,1,120,2|8,0:0|0:0,0:0:0:0:
247,291,48297,2,0,P|192:266|142:221,1,120
136,180,49101,2,0,P|165:173|197:171,1,60,10|0,0:0|0:0,0:0:0:0:
243,177,49636,6,0,P|302:158|330:106,1,120,2|8,0:0|0:0,0:0:0:0:
278,30,50708,2,0,P|249:21|217:21,1,60,2|8,0:0|0:0,0:0:0:0:
173,35,51243,2,0,P|143:46|112:46,1,60,8|0,0:0|0:0,0:0:0:0:
69,60,51779,5,6,0:0:0:0:
48,103,52047,2,0,P|21:118|0:138,2,60,0|8|2,0:0|0:0|0:0,0:0:0:0:
79,139,52851,2,0,P|130:166|159:226,1,120,0|8,0:0|0:0,0:0:0:0:
63,235,53922,6,0,P|39:255|17:287,1,60,2|0,0:0|0:0,0:0:0:0:
8,324,54458,2,0,B|55:361|55:361|119:368,1,120,8|2,0:0|0:0,0:0:0:0:
188,305,55529,1,8,0:0:0:0:
158,219,56065,5,2,0:0:0:0:
158,219,56333,2,0,P|148:189|125:162,2,60,0|8|0,0:0|0:0|0:0,0:0:0:0:
128,256,57136,2,0,P|79:289|21:278,1,120,0|8,0:0|0:0,0:0:0:0:
0,184,58208,6,0,P|24:127|79:93,1,120,2|8,0:0|0:0,0:0:0:0:
106,127,59011,1,2,0:0:0:0:
106,127,59279,2,0,P|117:157|135:185,1,60,2|10,0:0|0:0,0:0:0:0:
167,213,59815,2,0,P|190:191|206:164,1,60,10|2,0:0|0:0,0:0:0:0:
213,120,60351,5,2,0:0:0:0:
213,120,60618,2,0,P|199:96|175:71,2,60,0|8|2,0:0|0:0|0:0,0:0:0:0:
259,132,61422,2,0,P|311:164|336:225,1,120,0|8,0:0|0:0,0:0:0:0:
239,227,62493,6,0,P|211:217|188:199,1,60,2|0,0:0|0:0,0:0:0:0:
166,155,63029,2,0,P|170:96|214:46,1,120,8|2,0:0|0:0,0:0:0:0:
303,47,64101,1,8,0:0:0:0:
259,132,64636,5,2,0:0:0:0:
354,126,65172,2,0,P|385:133|415:146,1,60,8|0,0:0|0:0,0:0:0:0:
434,186,65708,2,0,P|415:211|391:233,1,60
347,229,66243,1,8,0:0:0:0:
402,307,66779,6,0,P|374:320|343:324,1,60,2|0,0:0|0:0,0:0:0:0:
299,310,67315,2,0,P|274:329|255:353,2,60,10|2|2,0:0|0:0|0:0,0:0:0:0:
265,275,68118,2,0,P|233:276|204:284,2,60,10|10|2,0:0|0:0|0:0,0:0:0:0:
253,228,68922,5,2,0:0:0:0:
266,182,69190,2,0,P|239:164|210:154,2,60,0|10|2,0:0|0:0|0:0,0:0:0:0:
301,149,69994,2,0,P|278:94|226:66,1,120,0|8,0:0|0:0,0:0:0:0:
138,103,71065,6,0,P|126:132|123:162,1,60,2|0,0:0|0:0,0:0:0:0:
138,205,71601,2,0,P|168:256|159:321,1,120,8|2,0:0|0:0,0:0:0:0:
73,277,72672,1,8,0:0:0:0:
138,205,73208,5,2,0:0:0:0:
138,205,73476,2,0,P|137:176|127:146,2,60,0|10|2,0:0|0:0|0:0,0:0:0:0:
177,231,74279,2,0,P|229:262|288:257,1,120,0|10,0:0|0:0,0:0:0:0:
249,168,75351,6,0,P|197:137|138:142,1,120,2|8,0:0|0:0,0:0:0:0:
102,171,76154,1,2,0:0:0:0:
102,171,76422,2,0,P|87:198|81:228,1,60,2|10,0:0|0:0,0:0:0:0:
91,273,76958,2,0,P|108:298|133:316,1,60,10|2,0:0|0:0,0:0:0:0:
178,327,77493,5,2,0:0:0:0:
178,327,77761,2,0,P|170:357|160:384,2,60,0|10|2,0:0|0:0|0:0,0:0:0:0:
222,307,78565,2,0,P|272:272|295:211,1,120,0|8,0:0|0:0,0:0:0:0:
256,130,79636,6,0,P|279:112|315:101,1,60,2|0,0:0|0:0,0:0:0:0:
355,92,80172,2,0,P|399:132|416:192,1,120,8|2,0:0|0:0,0:0:0:0:
370,273,81243,1,8,0:0:0:0:
466,270,81779,5,2,0:0:0:0:
421,354,82315,2,0,P|450:364|483:364,2,60,10|2|0,0:0|0:0|0:0,0:0:0:0:
397,311,83119,2,0,P|377:290|346:273,1,60,2|10,0:0|0:0,0:0:0:0:
274,334,83922,6,0,P|243:334|208:320,1,60,2|0,0:0|0:0,0:0:0:0:
177,295,84458,2,0,P|150:306|124:325,2,60,10|2|2,0:0|0:0|0:0,0:0:0:0:
170,247,85261,2,0,P|141:240|109:241,2,60,10|10|2,0:0|0:0|0:0,0:0:0:0:
193,204,86065,5,6,0:0:0:0:
