osu file format v14

[General]
AudioFilename: audio.mp3
AudioLeadIn: 0
PreviewTime: 6005
Countdown: 0
SampleSet: Soft
StackLeniency: 0.7
Mode: 0
LetterboxInBreaks: 0
WidescreenStoryboard: 0

[Editor]
DistanceSpacing: 1
BeatDivisor: 4
GridSize: 4
TimelineZoom: 1

[Metadata]
Title:Peanuts Heiya
TitleUnicode:ピーナツ平野
Artist:Ishikawa Jun
ArtistUnicode:石川淳
Creator:MoodyRPG
Version:Easy
Source:星のカービィ スーパーデラックス
Tags:hazu- krisom hal laboratory snes sfc super nintendo ds famicom Hoshi no kirby super star ultra deluxe kss Fun Pak plains video game instrumental electronic 16-bits
BeatmapID:3959374
BeatmapSetID:1918666

[Difficulty]
HPDrainRate:3
CircleSize:3
OverallDifficulty:3
ApproachRate:3
SliderMultiplier:0.9
SliderTickRate:1

[Events]
//Background and Video events
0,0,"Peanut.png",0,0
//Break Periods
//Storyboard Layer 0 (Background)
//Storyboard Layer 1 (Fail)
//Storyboard Layer 2 (Pass)
//Storyboard Layer 3 (Foreground)
//Storyboard Layer 4 (Overlay)
//Storyboard Sound Samples

[TimingPoints]
223,361.397887027021,4,2,0,50,1,0
82621,-100,4,2,0,40,0,0
84067,-100,4,2,0,30,0,0

[Colours]
Combo1 : 255,192,0
Combo2 : 255,108,255
Combo3 : 0,147,0
Combo4 : 164,72,255

[HitObjects]
136,358,223,6,0,B|200:376|256:316|256:316|317:378|382:349,1,270,0|0,3:0|3:0,0:0:0:0:
362,262,1668,2,0,B|343:192|164:192|148:101,1,270,0|0,3:0|3:0,0:0:0:0:
134,20,3114,2,0,B|198:2|254:62|254:62|315:0|380:26,1,270,0|0,3:0|3:0,0:0:0:0:
456,64,4559,2,0,L|467:166,2,90,8|8|4,3:0|3:0|3:0,0:0:0:0:
375,24,5643,1,0,3:0:0:0:
303,78,6005,6,0,B|215:100|215:100|257:189|187:266,1,270,0|2,3:0|3:2,0:0:0:0:
150,347,7450,2,0,P|107:331|56:338,1,90,0|2,3:0|3:2,0:0:0:0:
35,249,8173,1,2,3:2:0:0:
33,68,8896,6,0,B|88:37|161:72|233:102|296:57,1,270,0|2,3:0|3:2,0:0:0:0:
379,26,10342,2,0,L|484:31,1,90,0|2,3:0|3:2,0:0:0:0:
493,116,11064,1,2,3:2:0:0:
451,291,11787,6,0,P|378:277|277:309,1,180,0|0,3:0|3:0,0:0:0:0:
246,223,12871,1,2,3:2:0:0:
300,150,13233,2,0,P|342:130|404:130,2,90,0|2|0,3:0|3:2|3:0,0:0:0:0:
223,102,14317,1,2,3:2:0:0:
154,159,14678,6,0,B|150:229|150:229|175:254|175:254|170:330,1,180,0|0,3:0|3:0,0:0:0:0:
256,356,15763,1,2,3:2:0:0:
295,275,16124,2,0,B|379:246|379:246|482:255,1,180,2|0,3:2|3:0,0:0:0:0:
362,109,17570,6,0,P|256:41|147:116,1,270,0|2,3:0|3:2,0:0:0:0:
214,174,19015,2,0,L|193:276,1,90,0|2,3:0|3:2,0:0:0:0:
257,327,19738,1,2,3:2:0:0:
435,348,20461,6,0,B|469:279|427:220|387:162|435:86,1,270,0|2,3:0|3:2,0:0:0:0:
372,21,21906,2,0,P|331:43|277:41,1,90,0|2,3:0|3:2,0:0:0:0:
201,68,22629,1,2,3:2:0:0:
82,203,23352,6,0,P|52:285|124:351,1,180,0|0,3:0|3:0,0:0:0:0:
197,362,24436,1,2,3:2:0:0:
257,295,24798,2,0,P|267:252|243:198,2,90,0|2|0,3:0|3:2|3:0,0:0:0:0:
331,346,25882,1,2,3:2:0:0:
417,319,26243,6,0,L|425:224,1,90,0|2,3:0|3:2,0:0:0:0:
466,149,26966,1,0,3:0:0:0:
403,84,27327,1,2,3:2:0:0:
326,131,27689,2,0,B|274:140|274:140|286:201|248:265,2,180,2|0|0,3:2|0:0|3:0,0:0:0:0:
169,47,29857,6,0,L|139:150,1,90,2|0,3:2|3:0,0:0:0:0:
60,168,30580,2,0,P|142:145|199:217,1,180,0|0,3:0|3:0,0:0:0:0:
255,279,31664,1,0,3:0:0:0:
313,209,32026,6,0,P|369:145|452:168,1,180,0|2,3:0|3:2,0:0:0:0:
399,241,33110,1,0,3:0:0:0:
382,329,33471,2,0,B|328:357|301:286|207:286|180:358|120:331,1,270,0|0,3:0|3:0,0:0:0:0:
67,258,34917,6,0,B|75:185|75:185|130:163|142:98,1,180,2|2,3:2|3:2,0:0:0:0:
131,16,36001,1,0,3:0:0:0:
215,47,36362,2,0,L|311:41,1,90,2|2,3:2|0:0,0:0:0:0:
484,25,37446,1,0,3:0:0:0:
408,73,37808,6,0,B|406:123|406:123|406:205|460:235,1,180,2|2,3:2|0:0,0:0:0:0:
463,324,38892,2,0,B|413:324|413:324|329:324|301:376,1,180,2|2,3:2|0:0,0:0:0:0:
210,375,39976,2,0,B|182:323|98:323|98:323|48:323,1,180,2|0,3:2|3:0,0:0:0:0:
104,151,41422,5,0,3:0:0:0:
256,55,42145,1,8,3:0:0:0:
408,153,42867,2,0,P|421:198|410:241,1,90,4|0,3:0|3:0,0:0:0:0:
344,299,43590,6,0,B|256:316|256:316|163:297,1,180,0|2,3:0|3:2,0:0:0:0:
81,269,44674,1,2,3:2:0:0:
95,180,45036,2,0,L|88:84,2,90,0|2|2,3:0|3:2|3:2,0:0:0:0:
219,49,46481,6,0,B|230:114|230:114|273:136|273:136|283:202,1,180,0|2,3:0|3:2,0:0:0:0:
207,251,47566,1,2,3:2:0:0:
136,307,47927,2,0,B|93:296|93:296|41:311,2,90,0|2|2,3:0|3:2|3:2,0:0:0:0:
311,349,49373,6,0,B|346:310|392:325|392:325|414:275|478:272,1,180,0|0,3:0|3:0,0:0:0:0:
460,183,50457,1,2,3:2:0:0:
379,143,50818,2,0,L|379:48,2,90,0|2|0,3:0|3:2|3:0,0:0:0:0:
302,190,51902,1,2,3:2:0:0:
226,239,52264,6,0,B|173:245|143:302|143:302|59:302,1,180,0|0,3:0|3:0,0:0:0:0:
43,216,53348,1,2,3:2:0:0:
104,150,53709,2,0,L|91:55,2,90,2|0|0,3:2|0:0|3:0,0:0:0:0:
255,52,55155,6,0,L|255:239,1,180,0|2,3:0|3:2,0:0:0:0:
256,322,56239,1,2,3:2:0:0:
331,273,56601,2,0,P|255:233|178:279,1,180,0|2,3:0|3:2,0:0:0:0:
21,361,58046,6,0,B|49:275|49:275|18:184,1,180,0|2,3:0|3:2,0:0:0:0:
85,127,59130,1,2,3:2:0:0:
12,73,59492,2,0,P|87:112|166:69,1,180,0|2,3:0|3:2,0:0:0:0:
341,34,60937,6,0,B|391:38|404:90|404:90|456:97|461:161,1,180,0|0,3:0|3:0,0:0:0:0:
419,230,62022,1,2,3:2:0:0:
485,290,62383,2,0,P|476:336|489:379,2,90,0|2|0,3:0|3:2|3:0,0:0:0:0:
419,230,63467,1,2,3:2:0:0:
347,283,63829,6,0,L|257:293,1,90,0|2,3:0|3:2,0:0:0:0:
167,301,64551,1,0,3:0:0:0:
117,226,64913,1,2,3:2:0:0:
188,170,65274,2,0,B|259:170|259:170|293:154|293:154|373:154,2,180,2|0|0,3:2|0:0|3:0,0:0:0:0:
67,304,67443,6,0,L|163:304,1,90,2|0,3:2|3:0,0:0:0:0:
208,230,68165,2,0,P|161:302|208:380,1,180,0|0,3:0|3:0,0:0:0:0:
257,305,69249,1,0,3:0:0:0:
309,376,69611,6,0,P|350:301|304:230,1,180,0|2,3:0|3:2,0:0:0:0:
369,168,70695,1,0,3:0:0:0:
381,78,71056,2,0,B|327:50|300:121|206:121|179:49|119:76,1,270,0|0,3:0|3:0,0:0:0:0:
155,158,72502,6,0,L|186:342,1,180,2|2,3:2|3:2,0:0:0:0:
104,376,73586,1,0,3:0:0:0:
49,304,73948,2,0,L|30:198,1,90,2|2,3:2|0:0,0:0:0:0:
92,45,75032,1,0,0:0:0:0:
175,79,75393,6,0,B|145:138|170:167|200:194|169:255,1,180,2|2,3:2|0:0,0:0:0:0:
167,342,76477,2,0,B|255:360|255:360|345:341,1,180,2|2,3:2|0:0,0:0:0:0:
343,251,77562,2,0,B|313:192|343:165|368:136|338:77,1,180,2|0,3:2|3:0,0:0:0:0:
158,78,79007,5,0,3:0:0:0:
338,77,79730,1,8,3:0:0:0:
212,205,80453,2,0,P|254:216|297:203,1,90,4|0,3:0|3:0,0:0:0:0:
256,192,81176,12,0,84067,0:0:0:0:
