osu file format v14

[General]
AudioFilename: audio.mp3
AudioLeadIn: 0
PreviewTime: 59868
Countdown: 0
SampleSet: Normal
StackLeniency: 0.4
Mode: 3
LetterboxInBreaks: 0
SpecialStyle: 0
WidescreenStoryboard: 0

[Editor]
DistanceSpacing: 0.8
BeatDivisor: 4
GridSize: 4
TimelineZoom: 2.599999

[Metadata]
Title:Drawcia Soul
TitleUnicode:ドロシア ソウル
Artist:Ishikawa Jun
ArtistUnicode:石川淳
Creator:Youwhang
Version:dR@W s)mTh|ng
Source:タッチ!カービー
Tags:HAL Laboratory Hoshi no Kirby Canvas Curse Soul Chiptune
BeatmapID:1959719
BeatmapSetID:938186

[Difficulty]
HPDrainRate:10
CircleSize:4
OverallDifficulty:10
ApproachRate:5
SliderMultiplier:1.4
SliderTickRate:1

[Events]
//Background and Video events
0,0,"31569675_p0_master1200.jpg",0,0
//Break Periods
2,16323,35517
2,43580,112658
//Storyboard Layer 0 (Background)
//Storyboard Layer 1 (Fail)
//Storyboard Layer 2 (Pass)
//Storyboard Layer 3 (Foreground)
//Storyboard Layer 4 (Overlay)
//Storyboard Sound Samples

[TimingPoints]
5907,324.324324324324,4,1,0,100,1,0
37040,317.040951122853,4,1,0,100,1,0
47178,315.789473684211,4,1,0,100,1,0
57285,324.324324324324,4,1,0,100,1,0
91015,317.040951122853,4,1,0,100,1,0
101159,315.789473684211,4,1,0,100,1,0
111264,324.324324324324,4,1,0,100,1,0

[HitObjects]
64,192,5582,5,0,0:0:0:0:
192,192,5663,1,0,0:0:0:0:
320,192,5744,1,0,0:0:0:0:
448,192,5825,1,0,0:0:0:0:
64,192,5906,1,0,0:0:0:0:
320,192,5906,1,0,0:0:0:0:
320,192,6069,1,0,0:0:0:0:
320,192,6231,1,0,0:0:0:0:
64,192,6231,1,0,0:0:0:0:
448,192,6393,1,0,0:0:0:0:
192,192,6447,1,0,0:0:0:0:
320,192,6501,1,0,0:0:0:0:
64,192,6555,1,0,0:0:0:0:
320,192,6636,1,0,0:0:0:0:
448,192,6636,1,0,0:0:0:0:
320,192,6798,1,0,0:0:0:0:
192,192,6798,1,0,0:0:0:0:
320,192,7042,1,0,0:0:0:0:
64,192,7042,1,0,0:0:0:0:
192,192,7204,1,0,0:0:0:0:
448,192,7204,1,0,0:0:0:0:
192,192,7366,1,0,0:0:0:0:
192,192,7528,1,0,0:0:0:0:
448,192,7528,1,0,0:0:0:0:
64,192,7690,1,0,0:0:0:0:
320,192,7744,1,0,0:0:0:0:
192,192,7798,1,0,0:0:0:0:
448,192,7852,1,0,0:0:0:0:
320,192,7934,1,0,0:0:0:0:
64,192,7934,1,0,0:0:0:0:
192,192,8096,1,0,0:0:0:0:
448,192,8096,1,0,0:0:0:0:
192,192,8339,1,0,0:0:0:0:
320,192,8339,1,0,0:0:0:0:
64,192,8501,1,0,0:0:0:0:
448,192,8501,1,0,0:0:0:0:
64,192,8663,1,0,0:0:0:0:
64,192,8825,1,0,0:0:0:0:
448,192,8825,1,0,0:0:0:0:
192,192,8988,1,0,0:0:0:0:
320,192,9042,1,0,0:0:0:0:
64,192,9096,1,0,0:0:0:0:
448,192,9150,1,0,0:0:0:0:
320,192,9231,1,0,0:0:0:0:
192,192,9231,1,0,0:0:0:0:
192,192,9393,1,0,0:0:0:0:
448,192,9393,1,0,0:0:0:0:
320,192,9636,1,0,0:0:0:0:
64,192,9636,1,0,0:0:0:0:
448,192,9798,1,0,0:0:0:0:
192,192,9798,1,0,0:0:0:0:
448,192,9961,1,0,0:0:0:0:
448,192,10123,1,0,0:0:0:0:
192,192,10123,1,0,0:0:0:0:
64,192,10285,1,0,0:0:0:0:
448,192,10339,1,0,0:0:0:0:
320,192,10393,1,0,0:0:0:0:
192,192,10447,1,0,0:0:0:0:
448,192,10528,1,0,0:0:0:0:
64,192,10528,1,0,0:0:0:0:
320,192,10690,1,0,0:0:0:0:
64,192,10690,1,0,0:0:0:0:
192,192,10934,1,0,0:0:0:0:
448,192,10934,128,0,11015:0:0:0:0:
64,192,11096,1,0,0:0:0:0:
192,192,11096,1,0,0:0:0:0:
64,192,11258,1,0,0:0:0:0:
64,192,11420,1,0,0:0:0:0:
192,192,11420,1,0,0:0:0:0:
64,192,11582,1,0,0:0:0:0:
320,192,11636,1,0,0:0:0:0:
448,192,11690,1,0,0:0:0:0:
192,192,11744,1,0,0:0:0:0:
64,192,11825,1,0,0:0:0:0:
448,192,11825,1,0,0:0:0:0:
320,192,11988,1,0,0:0:0:0:
64,192,11988,1,0,0:0:0:0:
320,192,12231,1,0,0:0:0:0:
192,192,12231,1,0,0:0:0:0:
64,192,12393,1,0,0:0:0:0:
320,192,12393,1,0,0:0:0:0:
64,192,12555,1,0,0:0:0:0:
64,192,12717,1,0,0:0:0:0:
192,192,12717,1,0,0:0:0:0:
64,192,12879,1,0,0:0:0:0:
320,192,12934,1,0,0:0:0:0:
448,192,12988,1,0,0:0:0:0:
192,192,13042,1,0,0:0:0:0:
64,192,13123,1,0,0:0:0:0:
448,192,13123,1,0,0:0:0:0:
320,192,13285,1,0,0:0:0:0:
64,192,13285,1,0,0:0:0:0:
192,192,13528,1,0,0:0:0:0:
64,192,13528,1,0,0:0:0:0:
64,192,13690,1,0,0:0:0:0:
448,192,13690,1,0,0:0:0:0:
64,192,13852,1,0,0:0:0:0:
192,192,14015,1,0,0:0:0:0:
64,192,14015,1,0,0:0:0:0:
64,192,14177,1,0,0:0:0:0:
320,192,14231,1,0,0:0:0:0:
448,192,14285,1,0,0:0:0:0:
192,192,14339,1,0,0:0:0:0:
448,192,14420,1,0,0:0:0:0:
64,192,14420,1,0,0:0:0:0:
64,192,14582,1,0,0:0:0:0:
320,192,14582,1,0,0:0:0:0:
192,192,14825,1,0,0:0:0:0:
448,192,14825,1,0,0:0:0:0:
64,192,14988,1,0,0:0:0:0:
192,192,14988,1,0,0:0:0:0:
64,192,15150,1,0,0:0:0:0:
64,192,15312,1,0,0:0:0:0:
320,192,15312,1,0,0:0:0:0:
64,192,15474,1,0,0:0:0:0:
320,192,15528,1,0,0:0:0:0:
448,192,15582,1,0,0:0:0:0:
192,192,15636,1,0,0:0:0:0:
64,192,15717,1,0,0:0:0:0:
448,192,15717,1,0,0:0:0:0:
320,192,15879,1,0,0:0:0:0:
64,192,15879,1,0,0:0:0:0:
320,192,16123,1,0,0:0:0:0:
448,192,16123,1,0,0:0:0:0:
64,192,36717,5,0,0:0:0:0:
448,192,36798,1,0,0:0:0:0:
64,192,36879,1,0,0:0:0:0:
448,192,36961,1,0,0:0:0:0:
320,192,37040,1,0,0:0:0:0:
64,192,37040,1,0,0:0:0:0:
64,192,37119,1,0,0:0:0:0:
192,192,37198,1,0,0:0:0:0:
320,192,37277,1,0,0:0:0:0:
448,192,37357,1,0,0:0:0:0:
192,192,37357,1,0,0:0:0:0:
192,192,37436,1,0,0:0:0:0:
320,192,37515,1,0,0:0:0:0:
448,192,37594,1,0,0:0:0:0:
64,192,37674,1,0,0:0:0:0:
192,192,37674,1,0,0:0:0:0:
448,192,37753,1,0,0:0:0:0:
192,192,37832,1,0,0:0:0:0:
320,192,37911,1,0,0:0:0:0:
448,192,37991,1,0,0:0:0:0:
64,192,37991,128,0,38308:0:0:0:0:
192,192,38070,1,0,0:0:0:0:
320,192,38149,1,0,0:0:0:0:
448,192,38228,1,0,0:0:0:0:
320,192,38308,1,0,0:0:0:0:
192,192,38308,1,0,0:0:0:0:
320,192,38387,1,0,0:0:0:0:
64,192,38466,1,0,0:0:0:0:
192,192,38545,1,0,0:0:0:0:
448,192,38625,1,0,0:0:0:0:
320,192,38625,1,0,0:0:0:0:
448,192,38704,1,0,0:0:0:0:
192,192,38783,1,0,0:0:0:0:
320,192,38862,1,0,0:0:0:0:
448,192,38942,1,0,0:0:0:0:
64,192,38942,1,0,0:0:0:0:
192,192,39021,1,0,0:0:0:0:
320,192,39100,1,0,0:0:0:0:
64,192,39180,1,0,0:0:0:0:
448,192,39259,128,0,39576:0:0:0:0:
320,192,39259,1,0,0:0:0:0:
64,192,39338,1,0,0:0:0:0:
192,192,39417,1,0,0:0:0:0:
320,192,39497,1,0,0:0:0:0:
192,192,39576,1,0,0:0:0:0:
64,192,39576,1,0,0:0:0:0:
192,192,39655,1,0,0:0:0:0:
448,192,39734,1,0,0:0:0:0:
64,192,39814,1,0,0:0:0:0:
192,192,39893,1,0,0:0:0:0:
320,192,39893,1,0,0:0:0:0:
320,192,39972,1,0,0:0:0:0:
64,192,40051,1,0,0:0:0:0:
192,192,40131,1,0,0:0:0:0:
448,192,40210,1,0,0:0:0:0:
64,192,40210,1,0,0:0:0:0:
320,192,40289,1,0,0:0:0:0:
192,192,40368,1,0,0:0:0:0:
64,192,40448,1,0,0:0:0:0:
320,192,40527,128,0,40844:0:0:0:0:
448,192,40527,1,0,0:0:0:0:
64,192,40606,1,0,0:0:0:0:
192,192,40685,1,0,0:0:0:0:
448,192,40765,1,0,0:0:0:0:
64,192,40844,1,0,0:0:0:0:
192,192,40844,1,0,0:0:0:0:
64,192,40923,1,0,0:0:0:0:
448,192,41003,1,0,0:0:0:0:
192,192,41082,1,0,0:0:0:0:
448,192,41161,1,0,0:0:0:0:
320,192,41161,1,0,0:0:0:0:
448,192,41240,1,0,0:0:0:0:
64,192,41320,1,0,0:0:0:0:
320,192,41399,1,0,0:0:0:0:
192,192,41478,1,0,0:0:0:0:
448,192,41478,1,0,0:0:0:0:
64,192,41557,1,0,0:0:0:0:
448,192,41637,1,0,0:0:0:0:
192,192,41716,128,0,41874:0:0:0:0:
320,192,41795,128,0,42112:0:0:0:0:
448,192,41795,1,0,0:0:0:0:
64,192,41874,1,0,0:0:0:0:
448,192,41954,1,0,0:0:0:0:
192,192,42033,1,0,0:0:0:0:
64,192,42112,1,0,0:0:0:0:
448,192,42112,1,0,0:0:0:0:
192,192,42191,1,0,0:0:0:0:
448,192,42271,1,0,0:0:0:0:
64,192,42350,1,0,0:0:0:0:
192,192,42350,1,0,0:0:0:0:
320,192,42429,1,0,0:0:0:0:
448,192,42429,1,0,0:0:0:0:
192,192,42508,1,0,0:0:0:0:
320,192,42588,1,0,0:0:0:0:
64,192,42667,1,0,0:0:0:0:
448,192,42667,1,0,0:0:0:0:
448,192,42746,1,0,0:0:0:0:
320,192,42746,1,0,0:0:0:0:
192,192,42825,1,0,0:0:0:0:
320,192,42905,1,0,0:0:0:0:
64,192,42984,1,0,0:0:0:0:
448,192,43063,1,0,0:0:0:0:
192,192,43063,128,0,43380:0:0:0:0:
320,192,43143,1,0,0:0:0:0:
448,192,43222,1,0,0:0:0:0:
64,192,43301,1,0,0:0:0:0:
448,192,113858,5,0,0:0:0:0:
