osu file format v14

[General]
AudioFilename: audio.mp3
AudioLeadIn: 0
PreviewTime: 54285
Countdown: 0
SampleSet: Soft
StackLeniency: 0.2
Mode: 0
LetterboxInBreaks: 0
WidescreenStoryboard: 0

[Editor]
Bookmarks: 760,11119,24932,26659,40472,54285,56011
DistanceSpacing: 1.8
BeatDivisor: 4
GridSize: 32
TimelineZoom: 1.800003

[Metadata]
Title:TEMPEST (TV Size)
TitleUnicode:TEMPEST (TV Size)
Artist:Ishihara Kaori
ArtistUnicode:石原夏織
Creator:lililing
Version:Insane
Source:魔王様、リトライ!
Tags:
BeatmapID:2091032
BeatmapSetID:999744

[Difficulty]
HPDrainRate:5
CircleSize:4
OverallDifficulty:8
ApproachRate:9
SliderMultiplier:1.8
SliderTickRate:1

[Events]
//Background and Video events
0,0,"kv03_02.jpg",0,0
//Break Periods
//Storyboard Layer 0 (Background)
//Storyboard Layer 1 (Fail)
//Storyboard Layer 2 (Pass)
//Storyboard Layer 3 (Foreground)
//Storyboard Sound Samples

[TimingPoints]
760,431.654676258993,4,2,1,100,1,0
11119,-66.6666666666667,4,2,1,100,0,0
24932,-83.3333333333333,4,2,1,100,0,0
26659,-100,4,2,1,100,0,0
27090,-133.333333333333,4,2,1,100,0,0
27522,-100,4,2,1,100,0,0
28817,-133.333333333333,4,2,1,100,0,0
29249,-100,4,2,1,100,0,0
40472,-83.3333333333333,4,2,1,100,0,0
56011,-66.6666666666667,4,2,1,100,0,1
69824,-66.6666666666667,4,2,1,100,0,1
83637,-83.3333333333333,4,2,1,100,0,0

[HitObjects]
272,321,760,6,0,L|332:308,2,45
381,258,1191,2,0,L|441:271,1,45
162,258,1623,1,0,0:0:0:0:
162,258,1731,1,0,0:0:0:0:
272,69,2054,1,0,0:0:0:0:
162,131,2270,2,0,L|102:144,1,45
78,150,2486,5,0,0:0:0:0:
272,194,2702,1,0,0:0:0:0:
143,42,2918,2,0,L|83:55,2,45
361,11,3349,5,0,0:0:0:0:
407,179,3565,1,0,0:0:0:0:
272,69,3781,1,0,0:0:0:0:
446,78,3997,1,0,0:0:0:0:
446,78,4105,1,0,0:0:0:0:
446,78,4213,1,0,0:0:0:0:
256,192,4321,12,0,5724,0:0:0:0:
256,192,5939,5,0,0:0:0:0:
241,234,6587,5,0,0:0:0:0:
226,276,7666,5,0,0:0:0:0:
38,167,7881,1,0,0:0:0:0:
226,60,8097,1,0,0:0:0:0:
98,280,8529,5,0,0:0:0:0:
285,172,8745,1,0,0:0:0:0:
98,62,8961,1,0,0:0:0:0:
226,276,9393,5,0,0:0:0:0:
98,62,9609,1,0,0:0:0:0:
38,167,9824,5,0,0:0:0:0:
226,276,10040,1,0,0:0:0:0:
226,60,10256,5,0,0:0:0:0:
264,47,10364,1,0,0:0:0:0:
308,48,10472,1,0,0:0:0:0:
353,66,10580,1,0,0:0:0:0:
391,104,10688,1,0,0:0:0:0:
411,158,10795,1,0,0:0:0:0:
401,220,10903,1,0,0:0:0:0:
360,274,11011,1,0,0:0:0:0:
292,297,11119,6,0,L|438:299,1,135.000005149842
285,172,11551,2,0,L|139:170,2,135.000005149842
120,265,12198,2,0,L|47:264,1,67.5000025749208
50,73,12414,2,0,L|123:74,1,67.5000025749208
0,168,12630,1,0,0:0:0:0:
226,73,12846,6,0,L|193:14,2,67.5000025749208
285,172,13170,1,0,0:0:0:0:
285,172,13277,2,0,P|345:144|416:144,1,135.000005149842
209,245,13709,1,0,0:0:0:0:
285,352,13925,5,0,0:0:0:0:
297,314,14033,1,0,0:0:0:0:
311,275,14141,2,0,P|377:274|438:246,1,135.000005149842
209,245,14572,2,0,L|140:260,1,67.5000025749208
33,170,14788,1,0,0:0:0:0:
65,177,14895,1,0,0:0:0:0:
98,184,15003,1,0,0:0:0:0:
32,295,15220,5,0,0:0:0:0:
208,244,15436,1,0,0:0:0:0:
159,65,15652,1,0,0:0:0:0:
130,305,15867,1,0,0:0:0:0:
220,144,16083,1,0,0:0:0:0:
59,55,16299,1,0,0:0:0:0:
305,206,16515,1,0,0:0:0:0:
305,206,16623,1,0,0:0:0:0:
305,206,16731,2,0,P|366:222|431:188,1,135.000005149842
256,119,17162,5,0,0:0:0:0:
254,85,17270,1,0,0:0:0:0:
252,58,17377,1,0,0:0:0:0:
356,119,17594,1,0,0:0:0:0:
205,206,17810,1,0,0:0:0:0:
205,206,17918,1,0,0:0:0:0:
205,206,18026,6,0,P|144:190|79:224,1,135.000005149842
278,310,18457,2,0,L|420:369,2,135.000005149842
82,220,19105,6,0,L|63:308,1,67.5000025749208
11,148,19321,2,0,L|30:59,1,67.5000025749208
153,292,19536,1,0,0:0:0:0:
109,80,19752,2,0,L|128:-8,2,67.5000025749208
216,55,20077,1,0,0:0:0:0:
216,55,20184,2,0,P|283:34|342:65,1,135.000005149842
180,160,20616,1,0,0:0:0:0:
288,322,20831,5,0,0:0:0:0:
285,288,20939,1,0,0:0:0:0:
282,254,21047,2,0,L|273:108,1,135.000005149842
477,119,21479,2,0,L|409:123,1,67.5000025749208
409,245,21695,1,0,0:0:0:0:
443,247,21803,1,0,0:0:0:0:
477,250,21911,1,0,0:0:0:0:
282,254,22127,5,0,0:0:0:0:
101,128,22343,1,0,0:0:0:0:
207,360,22559,1,0,0:0:0:0:
25,232,22774,1,0,0:0:0:0:
227,138,22990,1,0,0:0:0:0:
79,349,23206,1,0,0:0:0:0:
182,32,23422,1,0,0:0:0:0:
182,32,23529,1,0,0:0:0:0:
182,32,23638,2,0,P|246:24|309:57,1,135.000005149842
101,128,24069,5,0,0:0:0:0:
77,103,24177,1,0,0:0:0:0:
62,73,24285,1,0,0:0:0:0:
227,138,24501,5,0,0:0:0:0:
25,232,24716,1,0,0:0:0:0:
25,232,24824,1,0,0:0:0:0:
25,232,24932,6,0,P|71:255|134:255,1,107.999996704102
368,191,25364,1,0,0:0:0:0:
213,384,25688,5,0,0:0:0:0:
227,138,25903,1,0,0:0:0:0:
227,138,26011,1,0,0:0:0:0:
362,344,26227,1,0,0:0:0:0:
474,39,26659,6,0,L|451:152,1,90
363,159,26983,1,0,0:0:0:0:
363,159,27090,2,0,L|389:26,1,135.000005149842
302,50,27630,1,0,0:0:0:0:
302,50,27738,1,0,0:0:0:0:
302,50,27846,1,0,0:0:0:0:
302,50,27954,2,0,P|259:57|208:44,1,90
101,119,28385,6,0,L|195:125,1,90
224,215,28709,1,0,0:0:0:0:
225,215,28817,2,0,L|90:206,1,135.000005149842
23,157,29357,1,0,0:0:0:0:
23,157,29465,1,0,0:0:0:0:
23,157,29572,1,0,0:0:0:0:
23,157,29680,2,0,P|15:113|36:64,1,90
14,244,30112,5,0,0:0:0:0:
176,356,30328,1,0,0:0:0:0:
140,358,30436,1,0,0:0:0:0:
104,361,30544,2,0,L|14:366,2,90
301,350,31191,1,0,0:0:0:0:
236,201,31407,2,0,B|237:309,1,90
306,143,31839,6,0,P|356:158|397:144,1,90
395,66,32162,1,0,0:0:0:0:
395,66,32270,2,0,P|345:50|304:65,1,90
178,130,32702,5,0,0:0:0:0:
187,114,32810,1,0,0:0:0:0:
194,87,32918,1,0,0:0:0:0:
183,45,33026,1,0,0:0:0:0:
110,42,33134,5,0,0:0:0:0:
95,75,33242,1,0,0:0:0:0:
95,102,33350,1,0,0:0:0:0:
104,126,33458,1,0,0:0:0:0:
136,191,33565,5,0,0:0:0:0:
184,362,33781,1,0,0:0:0:0:
178,335,33889,1,0,0:0:0:0:
172,308,33997,2,0,P|212:316|275:298,1,90
94,267,34429,5,0,0:0:0:0:
298,230,34644,1,0,0:0:0:0:
298,230,34752,1,0,0:0:0:0:
298,230,34860,2,0,P|258:222|195:240,1,90
389,355,35292,6,0,L|399:264,1,90
489,274,35616,1,0,0:0:0:0:
489,274,35724,2,0,L|479:363,1,90
453,185,36155,1,0,0:0:0:0:
453,185,36262,1,0,0:0:0:0:
453,185,36370,1,0,0:0:0:0:
265,119,36587,2,0,L|369:130,1,90
169,68,37018,6,0,P|157:109|163:159,2,90
291,309,37666,1,0,0:0:0:0:
291,309,37882,2,0,P|303:268|297:218,2,90
110,250,38529,2,0,P|151:262|201:256,1,90
110,250,38961,5,0,0:0:0:0:
291,309,39177,1,0,0:0:0:0:
169,68,39393,1,0,0:0:0:0:
354,128,39608,1,0,0:0:0:0:
354,128,39716,1,0,0:0:0:0:
354,128,39824,1,0,0:0:0:0:
353,128,39932,1,0,0:0:0:0:
354,128,40040,2,0,L|265:119,1,90
405,220,40472,6,0,L|511:230,1,107.999996704102
291,309,40903,2,0,L|398:301,1,107.999996704102
220,381,41335,1,0,0:0:0:0:
354,128,41659,1,0,0:0:0:0:
94,267,41983,2,0,L|198:240,1,107.999996704102
10,290,42414,5,0,0:0:0:0:
141,146,42630,2,0,L|248:137,1,107.999996704102
54,154,43061,1,0,0:0:0:0:
291,309,43385,1,0,0:0:0:0:
132,45,43709,2,0,L|24:53,1,107.999996704102
240,35,44141,6,0,L|347:26,2,107.999996704102
54,154,44788,1,0,0:0:0:0:
354,128,45112,1,0,0:0:0:0:
220,381,45436,2,0,L|214:264,1,107.999996704102
205,100,45867,5,0,0:0:0:0:
322,227,46083,2,0,P|374:230|427:200,1,107.999996704102
354,128,46407,1,0,0:0:0:0:
354,128,46515,1,0,0:0:0:0:
350,341,46731,1,0,0:0:0:0:
350,341,46839,1,0,0:0:0:0:
350,341,46947,2,0,L|456:318,1,107.999996704102
214,273,47378,6,0,L|219:380,1,107.999996704102
139,179,47810,2,0,L|125:286,1,107.999996704102
86,73,48241,1,0,0:0:0:0:
347,26,48565,1,0,0:0:0:0:
86,73,48889,2,0,L|54:176,1,107.999996704102
197,79,49320,5,0,0:0:0:0:
362,128,49536,2,0,P|414:105|445:59,1,107.999996704102
266,147,49968,1,0,0:0:0:0:
505,312,50291,1,0,0:0:0:0:
214,273,50616,2,0,L|219:380,1,107.999996704102
139,179,51047,5,0,0:0:0:0:
33,342,51263,2,0,L|27:234,1,107.999996704102
21,136,51587,1,0,0:0:0:0:
20,114,51695,1,0,0:0:0:0:
124,306,51911,1,0,0:0:0:0:
229,146,52126,5,0,0:0:0:0:
231,178,52234,1,0,0:0:0:0:
334,358,52558,5,0,0:0:0:0:
332,316,52666,1,0,0:0:0:0:
437,104,52990,5,0,0:0:0:0:
438,164,53098,1,0,0:0:0:0:
381,185,53206,1,0,0:0:0:0:
343,137,53314,1,0,0:0:0:0:
377,88,53421,2,0,L|416:39,3,53.9999983520508
312,42,53853,2,0,L|278:84,3,53.9999983520508
217,160,54285,6,0,L|197:109,1,53.9999983520508
163,19,54501,2,0,L|216:26,1,53.9999983520508
312,42,54716,2,0,L|278:84,1,53.9999983520508
217,160,54932,2,0,L|197:109,1,53.9999983520508
163,19,55148,5,0,0:0:0:0:
195,24,55255,1,0,0:0:0:0:
244,32,55364,1,0,0:0:0:0:
309,43,55472,1,0,0:0:0:0:
267,98,55579,1,0,0:0:0:0:
218,160,55687,1,0,0:0:0:0:
190,89,55795,1,0,0:0:0:0:
163,19,55903,1,0,0:0:0:0:
115,77,56011,6,0,L|19:199,1,135.000005149842
163,19,56443,1,0,0:0:0:0:
246,231,56659,1,0,0:0:0:0:
246,231,56767,1,0,0:0:0:0:
246,231,56875,2,0,L|329:124,1,135.000005149842
244,338,57306,2,0,P|176:313|144:263,1,135.000005149842
337,286,57738,5,0,0:0:0:0:
55,211,57954,1,0,0:0:0:0:
55,211,58062,1,0,0:0:0:0:
55,211,58170,2,0,P|110:164|169:161,1,135.000005149842
362,348,58601,2,0,L|337:286,1,67.5000025749208
260,106,58925,1,0,0:0:0:0:
260,106,59033,2,0,P|273:177|246:229,1,135.000005149842
289,30,59465,5,0,0:0:0:0:
170,161,59680,1,0,0:0:0:0:
365,99,59896,1,0,0:0:0:0:
192,61,60112,1,0,0:0:0:0:
343,198,60328,2,0,P|424:182|464:72,1,202.500007724762
462,51,60760,2,0,L|488:234,1,135.000005149842
