osu file format v14

[General]
AudioFilename: audio.mp3
AudioLeadIn: 0
PreviewTime: 163347
Countdown: 0
SampleSet: Soft
StackLeniency: 0.7
Mode: 0
LetterboxInBreaks: 0
EpilepsyWarning: 1
WidescreenStoryboard: 1

[Editor]
DistanceSpacing: 1
BeatDivisor: 4
GridSize: 4
TimelineZoom: 1.5

[Metadata]
Title:Starcast
TitleUnicode:Starcast
Artist:Ishihara Kaori
ArtistUnicode:石原夏織
Creator:Saggin
Version:Starry Sky
Source:
Tags:japanese pop jpop j-pop gfmrt affirmation heto
BeatmapID:3332720
BeatmapSetID:1632709

[Difficulty]
HPDrainRate:5
CircleSize:4.2
OverallDifficulty:9
ApproachRate:9.3
SliderMultiplier:1.76
SliderTickRate:1

[Events]
//Background and Video events
0,0,"bg.jpg",0,0
//Break Periods
2,51291,55704
2,163292,167371
//Storyboard Layer 0 (Background)
Sprite,Background,Centre,"bg.jpg",320,240 F,0,0,1424,0
Sprite,Background,Centre,"sb\blur.jpg",320,240 F,0,1429,1763,0,1 S,0,1429,1763,0.46 F,0,1763,27096,1 S,0,1763,27096,0.46
Sprite,Background,Centre,"sb\blur.jpg",320,240 F,0,27096,28430,1,0 S,0,27096,28430,0.46 F,0,56430,61091,1 S,0,56430,61091,0.46
Sprite,Background,Centre,"sb\blur.jpg",320,240 F,0,61091,61758,1,0 S,0,61091,61758,0.46
Sprite,Background,Centre,"sb\blur.jpg",320,240 F,0,32424,51091,1 S,0,32424,51091,0.46
Sprite,Background,Centre,"sb\blur.jpg",320,240 F,0,61758,83091,1 S,0,61758,83091,0.46
Sprite,Background,Centre,"sb\blur.jpg",320,240 F,0,61758,82758,0.3 S,0,61758,82758,0.46 P,0,61758,82758,A F,0,82758,83091,0.3,0 S,0,82758,83091,0.46 P,0,82758,83091,A
Sprite,Background,Centre,"sb\blur.jpg",320,240 F,0,83091,93091,1 S,0,83091,93091,0.46
Sprite,Background,Centre,"sb\blur.jpg",320,240 F,0,93091,93758,1,0 S,0,93091,93758,0.46
Sprite,Background,Centre,"sb\blur.jpg",320,240 F,0,115091,136425,1 S,0,115091,136425,0.46
Sprite,Background,Centre,"sb\blur.jpg",320,240 F,0,115091,136425,0.3 S,0,115091,136425,0.46 P,0,115091,136425,A
Sprite,Background,Centre,"sb\blur.jpg",320,240 F,0,72425,73591,0.33,0 S,0,72425,73591,0.46,0.49 P,0,72425,73591,A
Sprite,Background,Centre,"sb\blur.jpg",320,240 F,0,125758,126925,0.33,0 S,0,125758,126925,0.46,0.49 P,0,125758,126925,A
Sprite,Background,Centre,"sb\blur.jpg",320,240 F,0,104425,114425,1 S,0,104425,114425,0.46
Sprite,Background,Centre,"sb\blur.jpg",320,240 F,0,114425,115091,1,0 S,0,114425,115091,0.46
Sprite,Background,Centre,"sb\blur.jpg",320,240 F,0,141758,162425,1 S,0,141758,162425,0.46
Sprite,Background,Centre,"sb\blur.jpg",320,240 F,0,162425,163091,1,0 S,0,162425,163091,0.46
Sprite,Background,Centre,"sb\st.png",150,130 F,0,164425,165091,1,0 S,0,164425,165091,0,0.8 R,0,164425,165091,0,0.3
Sprite,Background,Centre,"sb\st.png",124,120 F,0,164425,165091,1,0 S,0,164425,165091,0,0.4 R,0,164425,165091,0,-0.24444
Sprite,Background,Centre,"sb\st.png",137,110 F,0,164425,165091,1,0 S,0,164425,165091,0,0.2 R,0,164425,165091,0,0.5
Sprite,Background,Centre,"sb\st.png",130,138 F,0,164425,165091,1,0 S,0,164425,165091,0,0.2 R,0,164425,165091,0,0.4
Sprite,Background,Centre,"sb\st.png",580,340 F,0,165091,165758,1,0 S,0,165091,165758,0,0.8 R,0,165091,165758,0,0.3
Sprite,Background,Centre,"sb\st.png",600,330 F,0,165091,165758,1,0 S,0,165091,165758,0,0.4 R,0,165091,165758,0,-0.24444
Sprite,Background,Centre,"sb\st.png",567,320 F,0,165091,165758,1,0 S,0,165091,165758,0,0.2 R,0,165091,165758,0,0.5
Sprite,Background,Centre,"sb\st.png",557,348 F,0,165091,165758,1,0 S,0,165091,165758,0,0.2 R,0,165091,165758,0,0.4
Sprite,Background,Centre,"sb\st.png",180,400 F,0,165758,166425,1,0 S,0,165758,166425,0,0.8 R,0,165758,166425,0,0.3
Sprite,Background,Centre,"sb\st.png",154,390 F,0,165758,166425,1,0 S,0,165758,166425,0,0.4 R,0,165758,166425,0,-0.24444
Sprite,Background,Centre,"sb\st.png",167,380 F,0,165758,166425,1,0 S,0,165758,166425,0,0.2 R,0,165758,166425,0,0.5
Sprite,Background,Centre,"sb\st.png",160,408 F,0,165758,166425,1,0 S,0,165758,166425,0,0.2 R,0,165758,166425,0,0.4
Sprite,Background,Centre,"sb\st.png",550,240 F,0,167091,167758,1,0 S,0,167091,167758,0,0.8 R,0,167091,167758,0,0.3
Sprite,Background,Centre,"sb\st.png",570,230 F,0,167091,167758,1,0 S,0,167091,167758,0,0.4 R,0,167091,167758,0,-0.24444
Sprite,Background,Centre,"sb\st.png",537,220 F,0,167091,167758,1,0 S,0,167091,167758,0,0.2 R,0,167091,167758,0,0.5
Sprite,Background,Centre,"sb\st.png",527,248 F,0,167091,167758,1,0 S,0,167091,167758,0,0.2 R,0,167091,167758,0,0.4
Sprite,Background,Centre,"sb\st.png",150,130 F,0,167758,168425,1,0 S,0,167758,168425,0,0.8 R,0,167758,168425,0,0.3
Sprite,Background,Centre,"sb\st.png",124,120 F,0,167758,168425,1,0 S,0,167758,168425,0,0.4 R,0,167758,168425,0,-0.24444
Sprite,Background,Centre,"sb\st.png",137,110 F,0,167758,168425,1,0 S,0,167758,168425,0,0.2 R,0,167758,168425,0,0.5
Sprite,Background,Centre,"sb\st.png",130,138 F,0,167758,168425,1,0 S,0,167758,168425,0,0.2 R,0,167758,168425,0,0.4
Sprite,Background,Centre,"sb\blur.jpg",320,240 F,0,173758,191758,1 S,0,173758,191758,0.46
Sprite,Background,Centre,"sb\blur.jpg",320,240 F,0,173758,191091,0.3 S,0,173758,191091,0.46 P,0,173758,191091,A
Sprite,Background,Centre,"sb\blur.jpg",320,240 F,0,191091,191758,0.3,0 S,0,191091,191758,0.46 P,0,191091,191758,A
Sprite,Background,Centre,"sb\blur.jpg",320,240 F,0,192425,213091,1 S,0,192425,213091,0.46
Sprite,Background,Centre,"sb\blur.jpg",320,240 F,0,213091,213758,1,0 S,0,213091,213758,0.46
Sprite,Background,Centre,"sb\blur.jpg",320,240 F,0,224425,229091,1 S,0,224425,229091,0.46
Sprite,Background,Centre,"sb\blur.jpg",320,240 F,0,229091,229758,1,0 S,0,229091,229758,0.46
Sprite,Background,Centre,"bg.jpg",320,240 F,0,213758,224091,1 S,0,213758,224091,0.46
Sprite,Background,Centre,"bg.jpg",320,240 F,0,213758,224091,0.5 S,0,213758,224091,0.46 P,0,213758,224091,A
Sprite,Background,Centre,"bg.jpg",320,240 F,0,224091,224425,1,0 S,0,224091,224425,0.46
Sprite,Background,Centre,"bg.jpg",320,240 F,0,224091,224425,0.5,0 S,0,224091,224425,0.46 P,0,224091,224425,A
Sprite,Background,Centre,"sb\blur.jpg",320,240 F,0,224091,224425,0,1 S,0,224091,224425,0.46
Sprite,Background,Centre,"sb\w.jpg",320,240 F,0,93758,102925,1 S,0,93758,102925,0.46
Sprite,Background,Centre,"sb\w.jpg",320,240 F,0,104425,105425,1,0 S,0,104425,105425,0.46
Sprite,Background,Centre,"sb\w.jpg",320,240 F,0,102925,103758,1,0 S,0,102925,103758,0.46
Sprite,Background,Centre,"sb\cir2.png",0,0 L,1758,4 F,1,0,1097,0,0.1490196 M,2,0,5485,241.2213,87.39697,245.8975,-12.49364 F,2,4388,5485,0.1490196,0 S,0,1758,,0.2 R,0,1758,,-1.524017 C,0,1758,,173,173,173 P,0,1758,23700,A
Sprite,Background,Centre,"sb\cir2.png",0,0 L,2179,4 F,1,0,1097,0,0.1490196 M,2,0,5485,-59.97821,307.3235,-60.98739,207.3286 F,2,4388,5485,0.1490196,0 S,0,2179,,0.2 R,0,2179,,-1.580888 C,0,2179,,166,166,166 P,0,2179,24121,A
Sprite,Background,Centre,"sb\cir2.png",0,0 L,3023,4 F,1,0,1097,0,0.1490196 M,2,0,5485,-94.16296,520.4745,-102.3504,420.8102 F,2,4388,5485,0.1490196,0 S,0,3023,,0.2 R,0,3023,,-1.652763 C,0,3023,,254,254,254 P,0,3023,24965,A
Sprite,Background,Centre,"sb\cir2.png",0,0 L,3445,4 F,1,0,1097,0,0.1490196 M,2,0,5485,195.8945,243.7221,201.4228,143.8751 F,2,4388,5485,0.1490196,0 S,0,3445,,0.2 R,0,3445,,-1.515485 C,0,3445,,254,254,254 P,0,3445,25387,A
Sprite,Background,Centre,"sb\cir2.png",0,0 L,3867,4 F,1,0,1097,0,0.1490196 M,2,0,5485,622.6436,513.1205,623.1023,413.1216 F,2,4388,5485,0.1490196,0 S,0,3867,,0.2 R,0,3867,,-1.566209 C,0,3867,,217,217,217 P,0,3867,25809,A
Sprite,Background,Centre,"sb\cir2.png",0,0 L,4289,4 F,1,0,1097,0,0.1490196 M,2,0,5485,185.9737,411.9718,180.5157,312.1208 F,2,4388,5485,0.1490196,0 S,0,4289,,0.2 R,0,4289,,-1.625403 C,0,4289,,186,186,186 P,0,4289,26231,A
Sprite,Background,Centre,"sb\cir2.png",0,0 L,4711,4 F,1,0,1097,0,0.1490196 M,2,0,5485,614.8433,421.9373,619.4312,322.0426 F,2,4388,5485,0.1490196,0 S,0,4711,,0.2 R,0,4711,,-1.5249 C,0,4711,,206,206,206 P,0,4711,26653,A
Sprite,Background,Centre,"sb\cir2.png",0,0 L,5555,4 F,1,0,1097,0,0.1490196 M,2,0,5485,265.728,310.1802,261.775,210.2583 F,2,4388,5485,0.1490196,0 S,0,5555,,0.2 R,0,5555,,-1.610337 C,0,5555,,230,230,230 P,0,5555,27497,A
Sprite,Background,Centre,"sb\cir2.png",0,0 L,6821,4 F,1,0,1097,0,0.1490196 M,2,0,5485,91.10857,253.942,85.78632,154.0837 F,2,4388,5485,0.1490196,0 S,0,6821,,0.2 R,0,6821,,-1.624044 C,0,6821,,234,234,234 P,0,6821,28763,A
Sprite,Background,Centre,"sb\t.png",0,0 L,61058,3 F,1,0,1200,0,0.4220503 M,21,0,6000,625.8998,-60.46068,-3105.627,1867.156 F,2,4800,6000,0.4220503,0 S,0,61058,,0.4 R,0,61058,,2.664773 C,0,61058,,173,173,173 P,0,61058,79058,A
Sprite,Background,Centre,"sb\t.png",0,0 L,61229,3 F,1,0,1200,0,0.4220503 M,21,0,6000,558.1299,-10.9772,-3057.799,2125.622 F,2,4800,6000,0.4220503,0 S,0,61229,,0.4 R,0,61229,,2.607902 C,0,61229,,166,166,166 P,0,61229,79229,A
Sprite,Background,Centre,"sb\t.png",0,0 L,61400,3 F,1,0,1200,0,0.4220503 M,21,0,6000,621.9869,79.40395,-3062.962,2094.633 F,2,4800,6000,0.4220503,0 S,0,61400,,0.4 R,0,61400,,2.641147 C,0,61400,,253,253,253 P,0,61400,79400,A
Sprite,Background,Centre,"sb\t.png",0,0 L,61572,3 F,1,0,1200,0,0.4220503 M,21,0,6000,720.0608,35.85012,-3084.989,1813.938 F,2,4800,6000,0.4220503,0 S,0,61572,,0.4 R,0,61572,,2.704448 C,0,61572,,181,181,181 P,0,61572,79572,A
Sprite,Background,Centre,"sb\t.png",0,0 L,61743,3 F,1,0,1200,0,0.4220503 M,21,0,6000,671.8254,-55.66415,-3132.155,1724.711 F,2,4800,6000,0.4220503,0 S,0,61743,,0.4 R,0,61743,,2.703847 C,0,61743,,231,231,231 P,0,61743,79743,A
Sprite,Background,Centre,"sb\t.png",0,0 L,61915,3 F,1,0,1200,0,0.4220503 M,21,0,6000,552.2032,5.700592,-3151.908,1985.489 F,2,4800,6000,0.4220503,0 S,0,61915,,0.4 R,0,61915,,2.65074 C,0,61915,,161,161,161 P,0,61915,79915,A
Sprite,Background,Centre,"sb\t.png",0,0 L,62086,3 F,1,0,1200,0,0.4220503 M,21,0,6000,661.3213,75.92912,-2899.382,2303.348 F,2,4800,6000,0.4220503,0 S,0,62086,,0.4 R,0,62086,,2.582594 C,0,62086,,211,211,211 P,0,62086,80086,A
Sprite,Background,Centre,"sb\t.png",0,0 L,62258,3 F,1,0,1200,0,0.4220503 M,21,0,6000,639.2766,4.361458,-2953.635,2179.445 F,2,4800,6000,0.4220503,0 S,0,62258,,0.4 R,0,62258,,2.597225 C,0,62258,,251,251,251 P,0,62258,80258,A
Sprite,Background,Centre,"sb\t.png",0,0 L,62429,3 F,1,0,1200,0,0.4220503 M,21,0,6000,561.8859,17.54616,-2927.823,2354.623 F,2,4800,6000,0.4220503,0 S,0,62429,,0.4 R,0,62429,,2.551489 C,0,62429,,246,246,246 P,0,62429,80429,A
Sprite,Background,Centre,"sb\t.png",0,0 L,62600,3 F,1,0,1200,0,0.4220503 M,21,0,6000,652.5059,-30.20537,-2969.016,2096.901 F,2,4800,6000,0.4220503,0 S,0,62600,,0.4 R,0,62600,,2.610525 C,0,62600,,190,190,190 P,0,62600,80600,A
Sprite,Background,Centre,"sb\t.png",0,0 L,62772,3 F,1,0,1200,0,0.4220503 M,21,0,6000,573.559,60.85391,-3106.869,2084.329 F,2,4800,6000,0.4220503,0 S,0,62772,,0.4 R,0,62772,,2.638908 C,0,62772,,175,175,175 P,0,62772,80772,A
Sprite,Background,Centre,"sb\t.png",0,0 L,62943,3 F,1,0,1200,0,0.4220503 M,21,0,6000,696.9661,-36.64741,-3023.524,1912.186 F,2,4800,6000,0.4220503,0 S,0,62943,,0.4 R,0,62943,,2.659078 C,0,62943,,217,217,217 P,0,62943,80943,A
Sprite,Background,Centre,"sb\t.png",0,0 L,63115,3 F,1,0,1200,0,0.4220503 M,21,0,6000,608.2336,-9.716318,-3165.21,1834.497 F,2,4800,6000,0.4220503,0 S,0,63115,,0.4 R,0,63115,,2.686998 C,0,63115,,147,147,147 P,0,63115,81115,A
Sprite,Background,Centre,"sb\t.png",0,0 L,63286,3 F,1,0,1200,0,0.4220503 M,21,0,6000,657.6111,-11.52077,-3031.36,1996.337 F,2,4800,6000,0.4220503,0 S,0,63286,,0.4 R,0,63286,,2.643147 C,0,63286,,165,165,165 P,0,63286,81286,A
Sprite,Background,Centre,"sb\t.png",0,0 L,63458,3 F,1,0,1200,0,0.4220503 M,21,0,6000,700.4424,19.98929,-2991.36,2022.635 F,2,4800,6000,0.4220503,0 S,0,63458,,0.4 R,0,63458,,2.644559 C,0,63458,,234,234,234 P,0,63458,81458,A
Sprite,Background,Centre,"sb\t.png",0,0 L,63629,3 F,1,0,1200,0,0.4220503 M,21,0,6000,699.905,65.53491,-3014.805,2025.363 F,2,4800,6000,0.4220503,0 S,0,63629,,0.4 R,0,63629,,2.656121 C,0,63629,,247,247,247 P,0,63629,81629,A
Sprite,Background,Centre,"sb\t.png",0,0 L,63800,3 F,1,0,1200,0,0.4220503 M,21,0,6000,661.1953,77.65532,-2990.972,2151.703 F,2,4800,6000,0.4220503,0 S,0,63800,,0.4 R,0,63800,,2.625114 C,0,63800,,224,224,224 P,0,63800,81800,A
Sprite,Background,Centre,"sb\t.png",0,0 L,63972,3 F,1,0,1200,0,0.4220503 M,21,0,6000,557.448,36.20821,-3187.838,1936.954 F,2,4800,6000,0.4220503,0 S,0,63972,,0.4 R,0,63972,,2.67196 C,0,63972,,228,228,228 P,0,63972,81972,A
Sprite,Background,Centre,"sb\t.png",0,0 L,64143,3 F,1,0,1200,0,0.4220503 M,21,0,6000,683.1661,1.305038,-2962.463,2086.824 F,2,4800,6000,0.4220503,0 S,0,64143,,0.4 R,0,64143,,2.621971 C,0,64143,,183,183,183 P,0,64143,82143,A
Sprite,Background,Centre,"sb\t.png",0,0 L,64315,3 F,1,0,1200,0,0.4220503 M,21,0,6000,619.355,99.36817,-2912.024,2372.991 F,2,4800,6000,0.4220503,0 S,0,64315,,0.4 R,0,64315,,2.569564 C,0,64315,,175,175,175 P,0,64315,82315,A
Sprite,Background,Centre,"sb\t.png",0,0 L,64486,3 F,1,0,1200,0,0.4220503 M,21,0,6000,584.895,-32.85382,-3099.257,1983.832 F,2,4800,6000,0.4220503,0 S,0,64486,,0.4 R,0,64486,,2.640752 C,0,64486,,162,162,162 P,0,64486,82486,A
Sprite,Background,Centre,"sb\t.png",0,0 L,64658,3 F,1,0,1200,0,0.4220503 M,21,0,6000,658.9224,9.946331,-3116.046,1851.036 F,2,4800,6000,0.4220503,0 S,0,64658,,0.4 R,0,64658,,2.687825 C,0,64658,,157,157,157 P,0,64658,82658,A
Sprite,Background,Centre,"sb\t.png",0,0 L,64829,3 F,1,0,1200,0,0.4220503 M,21,0,6000,655.4368,43.71571,-3021.468,2073.585 F,2,4800,6000,0.4220503,0 S,0,64829,,0.4 R,0,64829,,2.63717 C,0,64829,,193,193,193 P,0,64829,82829,A
Sprite,Background,Centre,"sb\t.png",0,0 L,65000,3 F,1,0,1200,0,0.4220503 M,21,0,6000,682.2751,79.40011,-2980.366,2134.895 F,2,4800,6000,0.4220503,0 S,0,65000,,0.4 R,0,65000,,2.630187 C,0,65000,,221,221,221 P,0,65000,83000,A
Sprite,Background,Centre,"sb\t.png",0,0 L,65172,3 F,1,0,1200,0,0.4220503 M,21,0,6000,692.0428,21.7263,-3066.84,1895.439 F,2,4800,6000,0.4220503,0 S,0,65172,,0.4 R,0,65172,,2.679165 C,0,65172,,197,197,197 P,0,65172,83172,A
Sprite,Background,Centre,"sb\t.png",0,0 L,65343,3 F,1,0,1200,0,0.4220503 M,21,0,6000,613.4035,-64.61391,-3189.616,1717.812 F,2,4800,6000,0.4220503,0 S,0,65343,,0.4 R,0,65343,,2.703308 C,0,65343,,210,210,210 P,0,65343,83343,A
Sprite,Background,Centre,"sb\t.png",0,0 L,65515,3 F,1,0,1200,0,0.4220503 M,21,0,6000,625.8683,82.89746,-3022.958,2162.818 F,2,4800,6000,0.4220503,0 S,0,65515,,0.4 R,0,65515,,2.623506 C,0,65515,,198,198,198 P,0,65515,83515,A
Sprite,Background,Centre,"sb\t.png",0,0 L,65686,3 F,1,0,1200,0,0.4220503 M,21,0,6000,555.2244,22.03983,-3122.845,2049.799 F,2,4800,6000,0.4220503,0 S,0,65686,,0.4 R,0,65686,,2.637744 C,0,65686,,234,234,234 P,0,65686,83686,A
Sprite,Background,Centre,"sb\t.png",0,0 L,65858,3 F,1,0,1200,0,0.4220503 M,21,0,6000,567.0576,70.27576,-2927.433,2400.197 F,2,4800,6000,0.4220503,0 S,0,65858,,0.4 R,0,65858,,2.553538 C,0,65858,,213,213,213 P,0,65858,83858,A
Sprite,Background,Centre,"sb\t.png",0,0 L,66029,3 F,1,0,1200,0,0.4220503 M,21,0,6000,674.121,-45.15211,-2988.477,2010.419 F,2,4800,6000,0.4220503,0 S,0,66029,,0.4 R,0,66029,,2.630166 C,0,66029,,186,186,186 P,0,66029,84029,A
Sprite,Background,Centre,"sb\t.png",0,0 L,66200,3 F,1,0,1200,0,0.4220503 M,21,0,6000,603.1151,-8.532541,-3202.483,1768.381 F,2,4800,6000,0.4220503,0 S,0,66200,,0.4 R,0,66200,,2.704757 C,0,66200,,158,158,158 P,0,66200,84200,A
Sprite,Background,Centre,"sb\t.png",0,0 L,66372,3 F,1,0,1200,0,0.4220503 M,21,0,6000,630.906,102.3068,-3031.098,2158.937 F,2,4800,6000,0.4220503,0 S,0,66372,,0.4 R,0,66372,,2.629877 C,0,66372,,203,203,203 P,0,66372,84372,A
Sprite,Background,Centre,"sb\t.png",0,0 L,66543,3 F,1,0,1200,0,0.4220503 M,21,0,6000,662.6481,15.31855,-2979.402,2107.082 F,2,4800,6000,0.4220503,0 S,0,66543,,0.4 R,0,66543,,2.620257 C,0,66543,,239,239,239 P,0,66543,84543,A
Sprite,Background,Centre,"sb\t.png",0,0 L,66715,3 F,1,0,1200,0,0.4220503 M,21,0,6000,595.3223,-33.28509,-3061.204,2033.067 F,2,4800,6000,0.4220503,0 S,0,66715,,0.4 R,0,66715,,2.62722 C,0,66715,,254,254,254 P,0,66715,84715,A
Sprite,Background,Centre,"sb\t.png",0,0 L,66886,3 F,1,0,1200,0,0.4220503 M,21,0,6000,630.7156,41.6567,-2993.955,2163.392 F,2,4800,6000,0.4220503,0 S,0,66886,,0.4 R,0,66886,,2.612008 C,0,66886,,177,177,177 P,0,66886,84886,A
Sprite,Background,Centre,"sb\cir2.png",0,0 L,1758,4 F,1,0,1097,0,0.125 M,0,0,5485,455.3087,80.49884,456.4252,-19.49493 F,2,4388,5485,0.125,0 S,0,1758,,0.1 R,0,1758,,-1.559631 C,0,1758,,160,160,160 P,0,1758,23700,A
Sprite,Background,Centre,"sb\cir2.png",0,0 L,2215,4 F,1,0,1097,0,0.125 M,0,0,5485,609.857,557.1859,608.9654,457.1899 F,2,4388,5485,0.125,0 S,0,2215,,0.1 R,0,2215,,-1.579712 C,0,2215,,230,230,230 P,0,2215,24157,A
Sprite,Background,Centre,"sb\cir2.png",0,0 L,3129,4 F,1,0,1097,0,0.125 M,0,0,5485,-41.05103,334.5649,-40.55447,234.5662 F,2,4388,5485,0.125,0 S,0,3129,,0.1 R,0,3129,,-1.565831 C,0,3129,,201,201,201 P,0,3129,25071,A
Sprite,Background,Centre,"sb\cir2.png",0,0 L,3586,4 F,1,0,1097,0,0.125 M,0,0,5485,377.1336,82.50879,374.4878,-17.45621 F,2,4388,5485,0.125,0 S,0,3586,,0.1 R,0,3586,,-1.597257 C,0,3586,,216,216,216 P,0,3586,25528,A
Sprite,Background,Centre,"sb\cir2.png",0,0 L,4043,4 F,1,0,1097,0,0.125 M,0,0,5485,185.2391,496.6422,178.2463,396.887 F,2,4388,5485,0.125,0 S,0,4043,,0.1 R,0,4043,,-1.640781 C,0,4043,,176,176,176 P,0,4043,25985,A
Sprite,Background,Centre,"sb\cir2.png",0,0 L,4500,4 F,1,0,1097,0,0.125 M,0,0,5485,167.5488,265.657,170.4079,165.6979 F,2,4388,5485,0.125,0 S,0,4500,,0.1 R,0,4500,,-1.542202 C,0,4500,,245,245,245 P,0,4500,26442,A
Sprite,Background,Centre,"sb\cir2.png",0,0 L,4957,4 F,1,0,1097,0,0.125 M,0,0,5485,362.3599,487.0543,369.9677,387.3441 F,2,4388,5485,0.125,0 S,0,4957,,0.1 R,0,4957,,-1.494645 C,0,4957,,172,172,172 P,0,4957,26899,A
Sprite,Background,Centre,"sb\cir2.png",0,0 L,5415,4 F,1,0,1097,0,0.125 M,0,0,5485,483.2927,478.6547,484.6176,378.6635 F,2,4388,5485,0.125,0 S,0,5415,,0.1 R,0,5415,,-1.557547 C,0,5415,,187,187,187 P,0,5415,27357,A
Sprite,Background,Centre,"sb\cir2.png",0,0 L,5872,4 F,1,0,1097,0,0.125 M,0,0,5485,287.423,394.9072,284.2353,294.958 F,2,4388,5485,0.125,0 S,0,5872,,0.1 R,0,5872,,-1.602679 C,0,5872,,202,202,202 P,0,5872,27814,A
Sprite,Background,Centre,"sb\cir2.png",0,0 L,6329,4 F,1,0,1097,0,0.125 M,0,0,5485,-41.78629,363.9212,-35.24961,264.1351 F,2,4388,5485,0.125,0 S,0,6329,,0.1 R,0,6329,,-1.505383 C,0,6329,,207,207,207 P,0,6329,28271,A
Sprite,Background,Centre,"sb\cir2.png",0,0 L,61458,3 F,1,0,1173,0,0.14 M,2,0,5866,285.1136,578.1082,282.5237,528.1754 F,2,4693,5866,0.14,0 S,0,61458,,0.24 R,0,61458,,-1.622616 C,0,61458,,216,216,216 P,0,61458,79058,A
Sprite,Background,Centre,"sb\cir2.png",0,0 L,61909,3 F,1,0,1173,0,0.14 M,2,0,5866,66.89442,542.5632,98.99876,504.2316 F,2,4693,5866,0.14,0 S,0,61909,,0.24 R,0,61909,,-0.8735791 C,0,61909,,225,225,225 P,0,61909,79509,A
Sprite,Background,Centre,"sb\cir2.png",0,0 L,62360,3 F,1,0,1173,0,0.14 M,2,0,5866,479.9941,480.6508,466.0528,432.6338 F,2,4693,5866,0.14,0 S,0,62360,,0.24 R,0,62360,,-1.853367 C,0,62360,,216,216,216 P,0,62360,79960,A
Sprite,Background,Centre,"sb\cir2.png",0,0 L,62811,3 F,1,0,1173,0,0.14 M,2,0,5866,164.3271,269.1732,173.3369,219.9916 F,2,4693,5866,0.14,0 S,0,62811,,0.24 R,0,62811,,-1.389611 C,0,62811,,222,222,222 P,0,62811,80411,A
Sprite,Background,Centre,"sb\cir2.png",0,0 L,63263,3 F,1,0,1173,0,0.14 M,2,0,5866,400.2027,407.0645,374.812,363.9912 F,2,4693,5866,0.14,0 S,0,63263,,0.24 R,0,63263,,-2.103442 C,0,63263,,236,236,236 P,0,63263,80863,A
Sprite,Background,Centre,"sb\cir2.png",0,0 L,64165,3 F,1,0,1173,0,0.14 M,2,0,5866,450.8075,107.3458,455.2237,57.54117 F,2,4693,5866,0.14,0 S,0,64165,,0.24 R,0,64165,,-1.482357 C,0,64165,,222,222,222 P,0,64165,81765,A
Sprite,Background,Centre,"sb\cir2.png",0,0 L,64616,3 F,1,0,1173,0,0.14 M,2,0,5866,680.9153,479.0359,704.0547,434.7125 F,2,4693,5866,0.14,0 S,0,64616,,0.24 R,0,64616,,-1.089659 C,0,64616,,146,146,146 P,0,64616,82216,A
Sprite,Background,Centre,"sb\cir2.png",0,0 L,65068,3 F,1,0,1173,0,0.14 M,2,0,5866,-4.71405,418.8177,-22.18006,371.9675 F,2,4693,5866,0.14,0 S,0,65068,,0.24 R,0,65068,,-1.927642 C,0,65068,,217,217,217 P,0,65068,82668,A
Sprite,Background,Centre,"sb\cir2.png",0,0 L,65970,3 F,1,0,1173,0,0.14 M,2,0,5866,162.8052,198.0754,143.274,152.0479 F,2,4693,5866,0.14,0 S,0,65970,,0.24 R,0,65970,,-1.972105 C,0,65970,,211,211,211 P,0,65970,83570,A
Sprite,Background,Centre,"sb\cir2.png",0,0 L,66873,3 F,1,0,1173,0,0.14 M,2,0,5866,159.3671,541.4958,191.8297,503.4672 F,2,4693,5866,0.14,0 S,0,66873,,0.24 R,0,66873,,-0.8641944 C,0,66873,,252,252,252 P,0,66873,84473,A
Sprite,Background,Centre,"sb\cir2.png",0,0 L,61458,3 F,1,0,1173,0,0.1372549 M,2,0,5866,317.6049,192.9351,292.5594,149.6601 F,2,4693,5866,0.1372549,0 S,0,61458,,0.14 R,0,61458,,-2.095444 C,0,61458,,146,146,146 P,0,61458,79058,A
Sprite,Background,Centre,"sb\cir2.png",0,0 L,62240,3 F,1,0,1173,0,0.1372549 M,2,0,5866,290.6286,486.8226,310.8721,441.1039 F,2,4693,5866,0.1372549,0 S,0,62240,,0.14 R,0,62240,,-1.153958 C,0,62240,,177,177,177 P,0,62240,79840,A
Sprite,Background,Centre,"sb\cir2.png",0,0 L,62631,3 F,1,0,1173,0,0.1372549 M,2,0,5866,37.23477,429.4399,20.25419,382.4117 F,2,4693,5866,0.1372549,0 S,0,62631,,0.14 R,0,62631,,-1.9173 C,0,62631,,171,171,171 P,0,62631,80231,A
Sprite,Background,Centre,"sb\cir2.png",0,0 L,63022,3 F,1,0,1173,0,0.1372549 M,2,0,5866,270.0275,326.4883,239.5468,286.8534 F,2,4693,5866,0.1372549,0 S,0,63022,,0.14 R,0,63022,,-2.22637 C,0,63022,,193,193,193 P,0,63022,80622,A
Sprite,Background,Centre,"sb\cir2.png",0,0 L,63413,3 F,1,0,1173,0,0.1372549 M,2,0,5866,239.6563,68.98648,263.2365,24.89597 F,2,4693,5866,0.1372549,0 S,0,63413,,0.14 R,0,63413,,-1.079687 C,0,63413,,247,247,247 P,0,63413,81013,A
Sprite,Background,Centre,"sb\cir2.png",0,0 L,64195,3 F,1,0,1173,0,0.1372549 M,2,0,5866,410.3955,429.1461,377.2525,391.709 F,2,4693,5866,0.1372549,0 S,0,64195,,0.14 R,0,64195,,-2.295428 C,0,64195,,241,241,241 P,0,64195,81795,A
Sprite,Background,Centre,"sb\cir2.png",0,0 L,64586,3 F,1,0,1173,0,0.1372549 M,2,0,5866,151.1508,126.5798,165.5256,78.69068 F,2,4693,5866,0.1372549,0 S,0,64586,,0.14 R,0,64586,,-1.279185 C,0,64586,,177,177,177 P,0,64586,82186,A
Sprite,Background,Centre,"sb\cir2.png",0,0 L,65369,3 F,1,0,1173,0,0.1372549 M,2,0,5866,573.6206,373.6756,539.2562,337.3563 F,2,4693,5866,0.1372549,0 S,0,65369,,0.14 R,0,65369,,-2.328544 C,0,65369,,189,189,189 P,0,65369,82969,A
Sprite,Background,Centre,"sb\cir2.png",0,0 L,65760,3 F,1,0,1173,0,0.1372549 M,2,0,5866,-35.30576,473.861,-25.92684,424.7485 F,2,4693,5866,0.1372549,0 S,0,65760,,0.14 R,0,65760,,-1.3821 C,0,65760,,246,246,246 P,0,65760,83360,A
Sprite,Background,Centre,"sb\cir2.png",0,0 L,66151,3 F,1,0,1173,0,0.1372549 M,2,0,5866,66.80893,296.6523,35.80802,257.4229 F,2,4693,5866,0.1372549,0 S,0,66151,,0.14 R,0,66151,,-2.239562 C,0,66151,,167,167,167 P,0,66151,83751,A
Sprite,Background,Centre,"sb\cir2.png",0,0 L,115391,3 F,1,0,1135,0,0.1333333 M,2,0,5678,317.6049,192.9351,292.5594,149.6601 F,2,4542,5678,0.1333333,0 S,0,115391,,0.14 R,0,115391,,-2.095444 C,0,115391,,146,146,146 P,0,115391,132425,A
Sprite,Background,Centre,"sb\cir2.png",0,0 L,116148,3 F,1,0,1135,0,0.1333333 M,2,0,5678,290.6286,486.8226,310.8721,441.1039 F,2,4542,5678,0.1333333,0 S,0,116148,,0.14 R,0,116148,,-1.153958 C,0,116148,,177,177,177 P,0,116148,133182,A
Sprite,Background,Centre,"sb\cir2.png",0,0 L,116526,3 F,1,0,1135,0,0.1333333 M,2,0,5678,37.23477,429.4399,20.25419,382.4117 F,2,4542,5678,0.1333333,0 S,0,116526,,0.14 R,0,116526,,-1.9173 C,0,116526,,171,171,171 P,0,116526,133560,A
Sprite,Background,Centre,"sb\cir2.png",0,0 L,116905,3 F,1,0,1135,0,0.1333333 M,2,0,5678,270.0275,326.4883,239.5468,286.8534 F,2,4542,5678,0.1333333,0 S,0,116905,,0.14 R,0,116905,,-2.22637 C,0,116905,,193,193,193 P,0,116905,133939,A
Sprite,Background,Centre,"sb\cir2.png",0,0 L,117283,3 F,1,0,1135,0,0.1333333 M,2,0,5678,239.6563,68.98648,263.2365,24.89597 F,2,4542,5678,0.1333333,0 S,0,117283,,0.14 R,0,117283,,-1.079687 C,0,117283,,247,247,247 P,0,117283,134317,A
Sprite,Background,Centre,"sb\cir2.png",0,0 L,118040,3 F,1,0,1135,0,0.1333333 M,2,0,5678,410.3955,429.1461,377.2525,391.709 F,2,4542,5678,0.1333333,0 S,0,118040,,0.14 R,0,118040,,-2.295428 C,0,118040,,241,241,241 P,0,118040,135074,A
Sprite,Background,Centre,"sb\cir2.png",0,0 L,118419,3 F,1,0,1135,0,0.1333333 M,2,0,5678,151.1508,126.5798,165.5256,78.69068 F,2,4542,5678,0.1333333,0 S,0,118419,,0.14 R,0,118419,,-1.279185 C,0,118419,,177,177,177 P,0,118419,135453,A
Sprite,Background,Centre,"sb\cir2.png",0,0 L,119176,3 F,1,0,1135,0,0.1333333 M,2,0,5678,573.6206,373.6756,539.2562,337.3563 F,2,4542,5678,0.1333333,0 S,0,119176,,0.14 R,0,119176,,-2.328544 C,0,119176,,189,189,189 P,0,119176,136210,A
Sprite,Background,Centre,"sb\cir2.png",0,0 L,119554,3 F,1,0,1135,0,0.1333333 M,2,0,5678,-35.30576,473.861,-25.92684,424.7485 F,2,4542,5678,0.1333333,0 S,0,119554,,0.14 R,0,119554,,-1.3821 C,0,119554,,246,246,246 P,0,119554,136588,A
Sprite,Background,Centre,"sb\cir2.png",0,0 L,119933,3 F,1,0,1135,0,0.1333333 M,2,0,5678,66.80893,296.6523,35.80802,257.4229 F,2,4542,5678,0.1333333,0 S,0,119933,,0.14 R,0,119933,,-2.239562 C,0,119933,,167,167,167 P,0,119933,136967,A
Sprite,Background,Centre,"sb\cir2.png",0,0 L,115391,3 F,1,0,1135,0,0.1372549 M,2,0,5678,285.1136,578.1082,282.5237,528.1754 F,2,4542,5678,0.1372549,0 S,0,115391,,0.24 R,0,115391,,-1.622616 C,0,115391,,216,216,216 P,0,115391,132425,A
Sprite,Background,Centre,"sb\cir2.png",0,0 L,115827,3 F,1,0,1135,0,0.1372549 M,2,0,5678,66.89442,542.5632,98.99876,504.2316 F,2,4542,5678,0.1372549,0 S,0,115827,,0.24 R,0,115827,,-0.8735791 C,0,115827,,225,225,225 P,0,115827,132861,A
Sprite,Background,Centre,"sb\cir2.png",0,0 L,116264,3 F,1,0,1135,0,0.1372549 M,2,0,5678,479.9941,480.6508,466.0528,432.6338 F,2,4542,5678,0.1372549,0 S,0,116264,,0.24 R,0,116264,,-1.853367 C,0,116264,,216,216,216 P,0,116264,133298,A
Sprite,Background,Centre,"sb\cir2.png",0,0 L,116701,3 F,1,0,1135,0,0.1372549 M,2,0,5678,164.3271,269.1732,173.3369,219.9916 F,2,4542,5678,0.1372549,0 S,0,116701,,0.24 R,0,116701,,-1.389611 C,0,116701,,222,222,222 P,0,116701,133735,A
Sprite,Background,Centre,"sb\cir2.png",0,0 L,117138,3 F,1,0,1135,0,0.1372549 M,2,0,5678,400.2027,407.0645,374.812,363.9912 F,2,4542,5678,0.1372549,0 S,0,117138,,0.24 R,0,117138,,-2.103442 C,0,117138,,236,236,236 P,0,117138,134172,A
Sprite,Background,Centre,"sb\cir2.png",0,0 L,118011,3 F,1,0,1135,0,0.1372549 M,2,0,5678,450.8075,107.3458,455.2237,57.54117 F,2,4542,5678,0.1372549,0 S,0,118011,,0.24 R,0,118011,,-1.482357 C,0,118011,,222,222,222 P,0,118011,135045,A
Sprite,Background,Centre,"sb\cir2.png",0,0 L,118448,3 F,1,0,1135,0,0.1372549 M,2,0,5678,680.9153,479.0359,704.0547,434.7125 F,2,4542,5678,0.1372549,0 S,0,118448,,0.24 R,0,118448,,-1.089659 C,0,118448,,146,146,146 P,0,118448,135482,A
Sprite,Background,Centre,"sb\cir2.png",0,0 L,118885,3 F,1,0,1135,0,0.1372549 M,2,0,5678,-4.71405,418.8177,-22.18006,371.9675 F,2,4542,5678,0.1372549,0 S,0,118885,,0.24 R,0,118885,,-1.927642 C,0,118885,,217,217,217 P,0,118885,135919,A
Sprite,Background,Centre,"sb\cir2.png",0,0 L,119758,3 F,1,0,1135,0,0.1372549 M,2,0,5678,162.8052,198.0754,143.274,152.0479 F,2,4542,5678,0.1372549,0 S,0,119758,,0.24 R,0,119758,,-1.972105 C,0,119758,,211,211,211 P,0,119758,136792,A
Sprite,Background,Centre,"sb\cir2.png",0,0 L,120632,3 F,1,0,1135,0,0.1372549 M,2,0,5678,159.3671,541.4958,191.8297,503.4672 F,2,4542,5678,0.1372549,0 S,0,120632,,0.24 R,0,120632,,-0.8641944 C,0,120632,,252,252,252 P,0,120632,137666,A
Sprite,Background,Centre,"sb\t.png",0,0 L,114691,2 F,1,0,1763,0,0.4220503 M,21,0,8817,625.8998,-60.46068,-3105.627,1867.156 F,2,7053,8817,0.4220503,0 S,0,114691,,0.4 R,0,114691,,2.664773 C,0,114691,,173,173,173 P,0,114691,132325,A
Sprite,Background,Centre,"sb\t.png",0,0 L,114942,2 F,1,0,1763,0,0.4220503 M,21,0,8817,558.1299,-10.9772,-3057.799,2125.622 F,2,7053,8817,0.4220503,0 S,0,114942,,0.4 R,0,114942,,2.607902 C,0,114942,,166,166,166 P,0,114942,132576,A
Sprite,Background,Centre,"sb\t.png",0,0 L,115194,2 F,1,0,1763,0,0.4220503 M,21,0,8817,621.9869,79.40395,-3062.962,2094.633 F,2,7053,8817,0.4220503,0 S,0,115194,,0.4 R,0,115194,,2.641147 C,0,115194,,253,253,253 P,0,115194,132828,A
Sprite,Background,Centre,"sb\t.png",0,0 L,115446,2 F,1,0,1763,0,0.4220503 M,21,0,8817,720.0608,35.85012,-3084.989,1813.938 F,2,7053,8817,0.4220503,0 S,0,115446,,0.4 R,0,115446,,2.704448 C,0,115446,,181,181,181 P,0,115446,133080,A
Sprite,Background,Centre,"sb\t.png",0,0 L,115698,2 F,1,0,1763,0,0.4220503 M,21,0,8817,671.8254,-55.66415,-3132.155,1724.711 F,2,7053,8817,0.4220503,0 S,0,115698,,0.4 R,0,115698,,2.703847 C,0,115698,,231,231,231 P,0,115698,133332,A
Sprite,Background,Centre,"sb\t.png",0,0 L,115950,2 F,1,0,1763,0,0.4220503 M,21,0,8817,552.2032,5.700592,-3151.908,1985.489 F,2,7053,8817,0.4220503,0 S,0,115950,,0.4 R,0,115950,,2.65074 C,0,115950,,161,161,161 P,0,115950,133584,A
Sprite,Background,Centre,"sb\t.png",0,0 L,116202,2 F,1,0,1763,0,0.4220503 M,21,0,8817,661.3213,75.92912,-2899.382,2303.348 F,2,7053,8817,0.4220503,0 S,0,116202,,0.4 R,0,116202,,2.582594 C,0,116202,,211,211,211 P,0,116202,133836,A
Sprite,Background,Centre,"sb\t.png",0,0 L,116454,2 F,1,0,1763,0,0.4220503 M,21,0,8817,639.2766,4.361458,-2953.635,2179.445 F,2,7053,8817,0.4220503,0 S,0,116454,,0.4 R,0,116454,,2.597225 C,0,116454,,251,251,251 P,0,116454,134088,A
Sprite,Background,Centre,"sb\t.png",0,0 L,116706,2 F,1,0,1763,0,0.4220503 M,21,0,8817,561.8859,17.54616,-2927.823,2354.623 F,2,7053,8817,0.4220503,0 S,0,116706,,0.4 R,0,116706,,2.551489 C,0,116706,,246,246,246 P,0,116706,134340,A
Sprite,Background,Centre,"sb\t.png",0,0 L,116958,2 F,1,0,1763,0,0.4220503 M,21,0,8817,652.5059,-30.20537,-2969.016,2096.901 F,2,7053,8817,0.4220503,0 S,0,116958,,0.4 R,0,116958,,2.610525 C,0,116958,,190,190,190 P,0,116958,134592,A
Sprite,Background,Centre,"sb\t.png",0,0 L,117210,2 F,1,0,1763,0,0.4220503 M,21,0,8817,573.559,60.85391,-3106.869,2084.329 F,2,7053,8817,0.4220503,0 S,0,117210,,0.4 R,0,117210,,2.638908 C,0,117210,,175,175,175 P,0,117210,134844,A
Sprite,Background,Centre,"sb\t.png",0,0 L,117462,2 F,1,0,1763,0,0.4220503 M,21,0,8817,696.9661,-36.64741,-3023.524,1912.186 F,2,7053,8817,0.4220503,0 S,0,117462,,0.4 R,0,117462,,2.659078 C,0,117462,,217,217,217 P,0,117462,135096,A
Sprite,Background,Centre,"sb\t.png",0,0 L,117713,2 F,1,0,1763,0,0.4220503 M,21,0,8817,608.2336,-9.716318,-3165.21,1834.497 F,2,7053,8817,0.4220503,0 S,0,117713,,0.4 R,0,117713,,2.686998 C,0,117713,,147,147,147 P,0,117713,135347,A
Sprite,Background,Centre,"sb\t.png",0,0 L,117965,2 F,1,0,1763,0,0.4220503 M,21,0,8817,657.6111,-11.52077,-3031.36,1996.337 F,2,7053,8817,0.4220503,0 S,0,117965,,0.4 R,0,117965,,2.643147 C,0,117965,,165,165,165 P,0,117965,135599,A
Sprite,Background,Centre,"sb\t.png",0,0 L,118217,2 F,1,0,1763,0,0.4220503 M,21,0,8817,700.4424,19.98929,-2991.36,2022.635 F,2,7053,8817,0.4220503,0 S,0,118217,,0.4 R,0,118217,,2.644559 C,0,118217,,234,234,234 P,0,118217,135851,A
Sprite,Background,Centre,"sb\t.png",0,0 L,118469,2 F,1,0,1763,0,0.4220503 M,21,0,8817,699.905,65.53491,-3014.805,2025.363 F,2,7053,8817,0.4220503,0 S,0,118469,,0.4 R,0,118469,,2.656121 C,0,118469,,247,247,247 P,0,118469,136103,A
Sprite,Background,Centre,"sb\t.png",0,0 L,118721,2 F,1,0,1763,0,0.4220503 M,21,0,8817,661.1953,77.65532,-2990.972,2151.703 F,2,7053,8817,0.4220503,0 S,0,118721,,0.4 R,0,118721,,2.625114 C,0,118721,,224,224,224 P,0,118721,136355,A
Sprite,Background,Centre,"sb\t.png",0,0 L,118973,2 F,1,0,1763,0,0.4220503 M,21,0,8817,557.448,36.20821,-3187.838,1936.954 F,2,7053,8817,0.4220503,0 S,0,118973,,0.4 R,0,118973,,2.67196 C,0,118973,,228,228,228 P,0,118973,136607,A
Sprite,Background,Centre,"sb\t.png",0,0 L,119225,2 F,1,0,1763,0,0.4220503 M,21,0,8817,683.1661,1.305038,-2962.463,2086.824 F,2,7053,8817,0.4220503,0 S,0,119225,,0.4 R,0,119225,,2.621971 C,0,119225,,183,183,183 P,0,119225,136859,A
Sprite,Background,Centre,"sb\t.png",0,0 L,119477,2 F,1,0,1763,0,0.4220503 M,21,0,8817,619.355,99.36817,-2912.024,2372.991 F,2,7053,8817,0.4220503,0 S,0,119477,,0.4 R,0,119477,,2.569564 C,0,119477,,175,175,175 P,0,119477,137111,A
Sprite,Background,Centre,"sb\t.png",0,0 L,119729,2 F,1,0,1763,0,0.4220503 M,21,0,8817,584.895,-32.85382,-3099.257,1983.832 F,2,7053,8817,0.4220503,0 S,0,119729,,0.4 R,0,119729,,2.640752 C,0,119729,,162,162,162 P,0,119729,137363,A
Sprite,Background,Centre,"sb\t.png",0,0 L,119981,2 F,1,0,1763,0,0.4220503 M,21,0,8817,658.9224,9.946331,-3116.046,1851.036 F,2,7053,8817,0.4220503,0 S,0,119981,,0.4 R,0,119981,,2.687825 C,0,119981,,157,157,157 P,0,119981,137615,A
Sprite,Background,Centre,"sb\t.png",0,0 L,120233,2 F,1,0,1763,0,0.4220503 M,21,0,8817,655.4368,43.71571,-3021.468,2073.585 F,2,7053,8817,0.4220503,0 S,0,120233,,0.4 R,0,120233,,2.63717 C,0,120233,,193,193,193 P,0,120233,137867,A
Sprite,Background,Centre,"sb\t.png",0,0 L,120485,2 F,1,0,1763,0,0.4220503 M,21,0,8817,682.2751,79.40011,-2980.366,2134.895 F,2,7053,8817,0.4220503,0 S,0,120485,,0.4 R,0,120485,,2.630187 C,0,120485,,221,221,221 P,0,120485,138119,A
Sprite,Background,Centre,"sb\t.png",0,0 L,120736,2 F,1,0,1763,0,0.4220503 M,21,0,8817,692.0428,21.7263,-3066.84,1895.439 F,2,7053,8817,0.4220503,0 S,0,120736,,0.4 R,0,120736,,2.679165 C,0,120736,,197,197,197 P,0,120736,138370,A
Sprite,Background,Centre,"sb\t.png",0,0 L,120988,2 F,1,0,1763,0,0.4220503 M,21,0,8817,613.4035,-64.61391,-3189.616,1717.812 F,2,7053,8817,0.4220503,0 S,0,120988,,0.4 R,0,120988,,2.703308 C,0,120988,,210,210,210 P,0,120988,138622,A
Sprite,Background,Centre,"sb\t.png",0,0 L,121240,2 F,1,0,1763,0,0.4220503 M,21,0,8817,625.8683,82.89746,-3022.958,2162.818 F,2,7053,8817,0.4220503,0 S,0,121240,,0.4 R,0,121240,,2.623506 C,0,121240,,198,198,198 P,0,121240,138874,A
Sprite,Background,Centre,"sb\t.png",0,0 L,121492,2 F,1,0,1763,0,0.4220503 M,21,0,8817,555.2244,22.03983,-3122.845,2049.799 F,2,7053,8817,0.4220503,0 S,0,121492,,0.4 R,0,121492,,2.637744 C,0,121492,,234,234,234 P,0,121492,139126,A
Sprite,Background,Centre,"sb\t.png",0,0 L,121744,2 F,1,0,1763,0,0.4220503 M,21,0,8817,567.0576,70.27576,-2927.433,2400.197 F,2,7053,8817,0.4220503,0 S,0,121744,,0.4 R,0,121744,,2.553538 C,0,121744,,213,213,213 P,0,121744,139378,A
Sprite,Background,Centre,"sb\t.png",0,0 L,121996,2 F,1,0,1763,0,0.4220503 M,21,0,8817,674.121,-45.15211,-2988.477,2010.419 F,2,7053,8817,0.4220503,0 S,0,121996,,0.4 R,0,121996,,2.630166 C,0,121996,,186,186,186 P,0,121996,139630,A
Sprite,Background,Centre,"sb\t.png",0,0 L,122248,2 F,1,0,1763,0,0.4220503 M,21,0,8817,603.1151,-8.532541,-3202.483,1768.381 F,2,7053,8817,0.4220503,0 S,0,122248,,0.4 R,0,122248,,2.704757 C,0,122248,,158,158,158 P,0,122248,139882,A
Sprite,Background,Centre,"sb\t.png",0,0 L,122500,2 F,1,0,1763,0,0.4220503 M,21,0,8817,630.906,102.3068,-3031.098,2158.937 F,2,7053,8817,0.4220503,0 S,0,122500,,0.4 R,0,122500,,2.629877 C,0,122500,,203,203,203 P,0,122500,140134,A
Sprite,Background,Centre,"sb\t.png",0,0 L,122752,2 F,1,0,1763,0,0.4220503 M,21,0,8817,662.6481,15.31855,-2979.402,2107.082 F,2,7053,8817,0.4220503,0 S,0,122752,,0.4 R,0,122752,,2.620257 C,0,122752,,239,239,239 P,0,122752,140386,A
Sprite,Background,Centre,"sb\t.png",0,0 L,123004,2 F,1,0,1763,0,0.4220503 M,21,0,8817,595.3223,-33.28509,-3061.204,2033.067 F,2,7053,8817,0.4220503,0 S,0,123004,,0.4 R,0,123004,,2.62722 C,0,123004,,254,254,254 P,0,123004,140638,A
Sprite,Background,Centre,"sb\t.png",0,0 L,123256,2 F,1,0,1763,0,0.4220503 M,21,0,8817,630.7156,41.6567,-2993.955,2163.392 F,2,7053,8817,0.4220503,0 S,0,123256,,0.4 R,0,123256,,2.612008 C,0,123256,,177,177,177 P,0,123256,140890,A
Sprite,Background,Centre,"sb\cir2.png",0,0 L,213425,1 F,1,0,1155,0,0.1849999 M,2,0,5775,338.6049,192.9351,318.2245,-56.23285 F,2,4620,5775,0.1849999,0 S,0,213425,,0.2 R,0,213425,,-1.652408 C,0,213425,,146,146,146 P,0,213425,219200,A
Sprite,Background,Centre,"sb\cir2.png",0,0 L,214387,1 F,1,0,1155,0,0.1849999 M,2,0,5775,311.6286,486.8226,327.8276,237.3479 F,2,4620,5775,0.1849999,0 S,0,214387,,0.2 R,0,214387,,-1.505955 C,0,214387,,177,177,177 P,0,214387,220162,A
Sprite,Background,Centre,"sb\cir2.png",0,0 L,214868,1 F,1,0,1155,0,0.1849999 M,2,0,5775,58.23477,429.4399,44.76613,179.803 F,2,4620,5775,0.1849999,0 S,0,214868,,0.2 R,0,214868,,-1.624697 C,0,214868,,171,171,171 P,0,214868,220643,A
Sprite,Background,Centre,"sb\cir2.png",0,0 L,215350,1 F,1,0,1155,0,0.1849999 M,2,0,5775,291.0275,326.4883,265.5772,77.78711 F,2,4620,5775,0.1849999,0 S,0,215350,,0.2 R,0,215350,,-1.672774 C,0,215350,,193,193,193 P,0,215350,221125,A
Sprite,Background,Centre,"sb\cir2.png",0,0 L,215831,1 F,1,0,1155,0,0.1849999 M,2,0,5775,260.6563,68.98648,279.7364,-180.2844 F,2,4620,5775,0.1849999,0 S,0,215831,,0.2 R,0,215831,,-1.494401 C,0,215831,,247,247,247 P,0,215831,221606,A
Sprite,Background,Centre,"sb\cir2.png",0,0 L,216312,1 F,1,0,1155,0,0.1849999 M,2,0,5775,575.0931,639.274,601.0375,390.6239 F,2,4620,5775,0.1849999,0 S,0,216312,,0.2 R,0,216312,,-1.466832 C,0,216312,,145,145,145 P,0,216312,222087,A
Sprite,Background,Centre,"sb\cir2.png",0,0 L,216793,1 F,1,0,1155,0,0.1849999 M,2,0,5775,531.7328,501.2225,553.0651,252.1342 F,2,4620,5775,0.1849999,0 S,0,216793,,0.2 R,0,216793,,-1.485363 C,0,216793,,227,227,227 P,0,216793,222568,A
Sprite,Background,Centre,"sb\cir2.png",0,0 L,217275,1 F,1,0,1155,0,0.1849999 M,2,0,5775,256.9932,332.8164,228.9842,84.39035 F,2,4620,5775,0.1849999,0 S,0,217275,,0.2 R,0,217275,,-1.683068 C,0,217275,,189,189,189 P,0,217275,223050,A
Sprite,Background,Centre,"sb\cir2.png",0,0 L,217756,1 F,1,0,1155,0,0.1849999 M,2,0,5775,-87.23831,445.5435,-83.8148,195.5669 F,2,4620,5775,0.1849999,0 S,0,217756,,0.2 R,0,217756,,-1.557102 C,0,217756,,215,215,215 P,0,217756,223531,A
Sprite,Background,Centre,"sb\cir2.png",0,0 L,218237,1 F,1,0,1155,0,0.1849999 M,2,0,5775,152.3781,678.2619,161.0771,428.4133 F,2,4620,5775,0.1849999,0 S,0,218237,,0.2 R,0,218237,,-1.535994 C,0,218237,,157,157,157 P,0,218237,224012,A
Sprite,Background,Centre,"sb\cir2.png",0,0 L,218718,1 F,1,0,1155,0,0.1849999 M,2,0,5775,549.3753,256.4785,545.2441,6.512634 F,2,4620,5775,0.1849999,0 S,0,218718,,0.2 R,0,218718,,-1.587322 C,0,218718,,209,209,209 P,0,218718,224493,A
Sprite,Background,Centre,"sb\cir2.png",0,0 L,213425,1 F,1,0,1155,0,0.1843137 M,2,0,5775,306.1136,578.1082,304.0984,328.1163 F,2,4620,5775,0.1843137,0 S,0,213425,,0.1 R,0,213425,,-1.578857 C,0,213425,,216,216,216 P,0,213425,219200,A
Sprite,Background,Centre,"sb\cir2.png",0,0 L,213837,1 F,1,0,1155,0,0.1843137 M,2,0,5775,87.89442,542.5632,114.9553,294.0321 F,2,4620,5775,0.1843137,0 S,0,213837,,0.1 R,0,213837,,-1.46234 C,0,213837,,225,225,225 P,0,213837,219612,A
Sprite,Background,Centre,"sb\cir2.png",0,0 L,214250,1 F,1,0,1155,0,0.1843137 M,2,0,5775,500.9941,480.6508,490.0088,230.8923 F,2,4620,5775,0.1843137,0 S,0,214250,,0.1 R,0,214250,,-1.614752 C,0,214250,,216,216,216 P,0,214250,220025,A
Sprite,Background,Centre,"sb\cir2.png",0,0 L,214662,1 F,1,0,1155,0,0.1843137 M,2,0,5775,185.3271,269.1732,192.3723,19.27246 F,2,4620,5775,0.1843137,0 S,0,214662,,0.1 R,0,214662,,-1.542612 C,0,214662,,222,222,222 P,0,214662,220437,A
Sprite,Background,Centre,"sb\cir2.png",0,0 L,215075,1 F,1,0,1155,0,0.1843137 M,2,0,5775,421.2027,407.0645,400.5124,157.9222 F,2,4620,5775,0.1843137,0 S,0,215075,,0.1 R,0,215075,,-1.653652 C,0,215075,,236,236,236 P,0,215075,220850,A
Sprite,Background,Centre,"sb\cir2.png",0,0 L,215900,1 F,1,0,1155,0,0.1843137 M,2,0,5775,471.8075,107.3458,475.2467,-142.6306 F,2,4620,5775,0.1843137,0 S,0,215900,,0.1 R,0,215900,,-1.557039 C,0,215900,,222,222,222 P,0,215900,221675,A
Sprite,Background,Centre,"sb\cir2.png",0,0 L,216312,1 F,1,0,1155,0,0.1843137 M,2,0,5775,701.9153,479.0359,720.6087,229.7358 F,2,4620,5775,0.1843137,0 S,0,216312,,0.1 R,0,216312,,-1.495953 C,0,216312,,146,146,146 P,0,216312,222087,A
Sprite,Background,Centre,"sb\cir2.png",0,0 L,216725,1 F,1,0,1155,0,0.1843137 M,2,0,5775,16.28595,418.8177,2.415731,169.2027 F,2,4620,5775,0.1843137,0 S,0,216725,,0.1 R,0,216725,,-1.626306 C,0,216725,,217,217,217 P,0,216725,222500,A
Sprite,Background,Centre,"sb\cir2.png",0,0 L,217137,1 F,1,0,1155,0,0.1843137 M,2,0,5775,105.4994,617.3163,116.211,367.5459 F,2,4620,5775,0.1843137,0 S,0,217137,,0.1 R,0,217137,,-1.527937 C,0,217137,,198,198,198 P,0,217137,222912,A
Sprite,Background,Centre,"sb\cir2.png",0,0 L,217550,1 F,1,0,1155,0,0.1843137 M,2,0,5775,313.1888,682.6771,314.7924,432.6823 F,2,4620,5775,0.1843137,0 S,0,217550,,0.1 R,0,217550,,-1.564382 C,0,217550,,199,199,199 P,0,217550,223325,A
Sprite,Background,Centre,"sb\cir2.png",0,0 L,217962,1 F,1,0,1155,0,0.1843137 M,2,0,5775,214.9331,210.243,193.9003,-38.87068 F,2,4620,5775,0.1843137,0 S,0,217962,,0.1 R,0,217962,,-1.655027 C,0,217962,,145,145,145 P,0,217962,223737,A
Sprite,Background,Centre,"sb\cir2.png",0,0 L,218375,1 F,1,0,1155,0,0.1843137 M,2,0,5775,580.6235,398.9571,589.1129,149.1013 F,2,4620,5775,0.1843137,0 S,0,218375,,0.1 R,0,218375,,-1.536832 C,0,218375,,185,185,185 P,0,218375,224150,A
Sprite,Background,Centre,"sb\cir2.png",0,0 L,218787,1 F,1,0,1155,0,0.1843137 M,2,0,5775,330.7578,559.5472,319.2717,309.8112 F,2,4620,5775,0.1843137,0 S,0,218787,,0.1 R,0,218787,,-1.616757 C,0,218787,,184,184,184 P,0,218787,224562,A
Sprite,Background,Centre,"sb\cir2.png",0,0 L,173458,2 F,1,0,1256,0,0.2232594 M,2,0,6283,317.6049,192.9351,292.5594,149.6601 F,2,5026,6283,0.2232594,0 S,0,173458,,0.14 R,0,173458,,-2.095444 C,0,173458,,146,146,146 P,0,173458,186025,A
Sprite,Background,Centre,"sb\cir2.png",0,0 L,174295,2 F,1,0,1256,0,0.2232594 M,2,0,6283,290.6286,486.8226,310.8721,441.1039 F,2,5026,6283,0.2232594,0 S,0,174295,,0.14 R,0,174295,,-1.153958 C,0,174295,,177,177,177 P,0,174295,186862,A
Sprite,Background,Centre,"sb\cir2.png",0,0 L,174714,2 F,1,0,1256,0,0.2232594 M,2,0,6283,37.23477,429.4399,20.25419,382.4117 F,2,5026,6283,0.2232594,0 S,0,174714,,0.14 R,0,174714,,-1.9173 C,0,174714,,171,171,171 P,0,174714,187281,A
Sprite,Background,Centre,"sb\cir2.png",0,0 L,175133,2 F,1,0,1256,0,0.2232594 M,2,0,6283,270.0275,326.4883,239.5468,286.8534 F,2,5026,6283,0.2232594,0 S,0,175133,,0.14 R,0,175133,,-2.22637 C,0,175133,,193,193,193 P,0,175133,187700,A
Sprite,Background,Centre,"sb\cir2.png",0,0 L,175552,2 F,1,0,1256,0,0.2232594 M,2,0,6283,239.6563,68.98648,263.2365,24.89597 F,2,5026,6283,0.2232594,0 S,0,175552,,0.14 R,0,175552,,-1.079687 C,0,175552,,247,247,247 P,0,175552,188119,A
Sprite,Background,Centre,"sb\cir2.png",0,0 L,176390,2 F,1,0,1256,0,0.2232594 M,2,0,6283,410.3955,429.1461,377.2525,391.709 F,2,5026,6283,0.2232594,0 S,0,176390,,0.14 R,0,176390,,-2.295428 C,0,176390,,241,241,241 P,0,176390,188957,A
Sprite,Background,Centre,"sb\cir2.png",0,0 L,176809,2 F,1,0,1256,0,0.2232594 M,2,0,6283,151.1508,126.5798,165.5256,78.69068 F,2,5026,6283,0.2232594,0 S,0,176809,,0.14 R,0,176809,,-1.279185 C,0,176809,,177,177,177 P,0,176809,189376,A
Sprite,Background,Centre,"sb\cir2.png",0,0 L,177647,2 F,1,0,1256,0,0.2232594 M,2,0,6283,573.6206,373.6756,539.2562,337.3563 F,2,5026,6283,0.2232594,0 S,0,177647,,0.14 R,0,177647,,-2.328544 C,0,177647,,189,189,189 P,0,177647,190214,A
Sprite,Background,Centre,"sb\cir2.png",0,0 L,178065,2 F,1,0,1256,0,0.2232594 M,2,0,6283,-35.30576,473.861,-25.92684,424.7485 F,2,5026,6283,0.2232594,0 S,0,178065,,0.14 R,0,178065,,-1.3821 C,0,178065,,246,246,246 P,0,178065,190632,A
Sprite,Background,Centre,"sb\cir2.png",0,0 L,178484,2 F,1,0,1256,0,0.2232594 M,2,0,6283,66.80893,296.6523,35.80802,257.4229 F,2,5026,6283,0.2232594,0 S,0,178484,,0.14 R,0,178484,,-2.239562 C,0,178484,,167,167,167 P,0,178484,191051,A
Sprite,Background,Centre,"sb\t.png",0,0 L,213425,1 F,1,0,1155,0,1 M,2,0,5775,251.2213,87.39697,267.5822,-162.0671 F,2,4620,5775,1,0 S,0,213425,,0.4 R,0,213425,,-1.505306 C,0,213425,,173,173,173 P,0,213425,219200,A
Sprite,Background,Centre,"sb\t.png",0,0 L,213521,1 F,1,0,1155,0,1 M,2,0,5775,-49.97821,307.3235,-53.51025,57.34848 F,2,4620,5775,1,0 S,0,213521,,0.4 R,0,213521,,-1.584925 C,0,213521,,166,166,166 P,0,213521,219296,A
Sprite,Background,Centre,"sb\t.png",0,0 L,213617,1 F,1,0,1155,0,1 M,2,0,5775,233.8305,709.0175,241.9327,459.1488 F,2,4620,5775,1,0 S,0,213617,,0.4 R,0,213617,,-1.538382 C,0,213617,,253,253,253 P,0,213617,219392,A
Sprite,Background,Centre,"sb\t.png",0,0 L,213713,1 F,1,0,1155,0,1 M,2,0,5775,669.7146,515.445,699.8998,267.274 F,2,4620,5775,1,0 S,0,213713,,0.4 R,0,213713,,-1.44976 C,0,213713,,181,181,181 P,0,213713,219488,A
Sprite,Background,Centre,"sb\t.png",0,0 L,213810,1 F,1,0,1155,0,1 M,2,0,5775,455.335,108.7149,485.3112,-139.4815 F,2,4620,5775,1,0 S,0,213810,,0.4 R,0,213810,,-1.450602 C,0,213810,,231,231,231 P,0,213810,219585,A
Sprite,Background,Centre,"sb\t.png",0,0 L,213906,1 F,1,0,1155,0,1 M,2,0,5775,-76.31876,381.4471,-64.86167,131.7097 F,2,4620,5775,1,0 S,0,213906,,0.4 R,0,213906,,-1.524952 C,0,213906,,161,161,161 P,0,213906,219681,A
Sprite,Background,Centre,"sb\t.png",0,0 L,214002,1 F,1,0,1155,0,1 M,2,0,5775,408.6503,693.5739,396.2653,443.8808 F,2,4620,5775,1,0 S,0,214002,,0.4 R,0,214002,,-1.620357 C,0,214002,,211,211,211 P,0,214002,219777,A
Sprite,Background,Centre,"sb\t.png",0,0 L,214098,1 F,1,0,1155,0,1 M,2,0,5775,310.6739,375.4954,303.4059,125.601 F,2,4620,5775,1,0 S,0,214098,,0.4 R,0,214098,,-1.599872 C,0,214098,,251,251,251 P,0,214098,219873,A
Sprite,Background,Centre,"sb\t.png",0,0 L,214195,1 F,1,0,1155,0,1 M,2,0,5775,-33.28488,434.0941,-56.52782,185.1768 F,2,4620,5775,1,0 S,0,214195,,0.4 R,0,214195,,-1.663903 C,0,214195,,246,246,246 P,0,214195,219970,A
Sprite,Background,Centre,"sb\t.png",0,0 L,214291,1 F,1,0,1155,0,1 M,2,0,5775,369.4705,221.865,366.8566,-28.12131 F,2,4620,5775,1,0 S,0,214291,,0.4 R,0,214291,,-1.581252 C,0,214291,,190,190,190 P,0,214291,220066,A
Sprite,Background,Centre,"sb\t.png",0,0 L,214387,1 F,1,0,1155,0,1 M,2,0,5775,18.59546,626.5729,25.91445,376.6801 F,2,4620,5775,1,0 S,0,214387,,0.4 R,0,214387,,-1.541516 C,0,214387,,175,175,175 P,0,214387,220162,A
Sprite,Background,Centre,"sb\t.png",0,0 L,214483,1 F,1,0,1155,0,1 M,2,0,5775,567.0715,193.2337,581.4432,-56.35284 F,2,4620,5775,1,0 S,0,214483,,0.4 R,0,214483,,-1.513278 C,0,214483,,217,217,217 P,0,214483,220258,A
Sprite,Background,Centre,"sb\t.png",0,0 L,214580,1 F,1,0,1155,0,1 M,2,0,5775,172.7051,312.9275,196.8189,64.09314 F,2,4620,5775,1,0 S,0,214580,,0.4 R,0,214580,,-1.474191 C,0,214580,,147,147,147 P,0,214580,220355,A
Sprite,Background,Centre,"sb\t.png",0,0 L,214676,1 F,1,0,1155,0,1 M,2,0,5775,392.1607,304.9077,400.9624,55.06262 F,2,4620,5775,1,0 S,0,214676,,0.4 R,0,214676,,-1.535582 C,0,214676,,165,165,165 P,0,214676,220451,A
Sprite,Background,Centre,"sb\t.png",0,0 L,214772,1 F,1,0,1155,0,1 M,2,0,5775,582.5221,444.9524,591.8176,195.1252 F,2,4620,5775,1,0 S,0,214772,,0.4 R,0,214772,,-1.533606 C,0,214772,,234,234,234 P,0,214772,220547,A
Sprite,Background,Centre,"sb\t.png",0,0 L,214868,1 F,1,0,1155,0,1 M,2,0,5775,580.1335,647.3774,593.4716,397.7334 F,2,4620,5775,1,0 S,0,214868,,0.4 R,0,214868,,-1.517419 C,0,214868,,247,247,247 P,0,214868,220643,A
Sprite,Background,Centre,"sb\t.png",0,0 L,214965,1 F,1,0,1155,0,1 M,2,0,5775,408.0904,701.2458,410.5824,451.2582 F,2,4620,5775,1,0 S,0,214965,,0.4 R,0,214965,,-1.560828 C,0,214965,,224,224,224 P,0,214965,220740,A
Sprite,Background,Centre,"sb\t.png",0,0 L,215061,1 F,1,0,1155,0,1 M,2,0,5775,-53.00873,517.0364,-34.13853,267.7496 F,2,4620,5775,1,0 S,0,215061,,0.4 R,0,215061,,-1.495244 C,0,215061,,228,228,228 P,0,215061,220836,A
Sprite,Background,Centre,"sb\t.png",0,0 L,215157,1 F,1,0,1155,0,1 M,2,0,5775,505.738,361.9113,507.1299,111.9151 F,2,4620,5775,1,0 S,0,215157,,0.4 R,0,215157,,-1.565229 C,0,215157,,183,183,183 P,0,215157,220932,A
Sprite,Background,Centre,"sb\t.png",0,0 L,215350,1 F,1,0,1155,0,1 M,2,0,5775,345.4503,541.5753,353.0619,291.6912 F,2,4620,5775,1,0 S,0,215350,,0.4 R,0,215350,,-1.540345 C,0,215350,,214,214,214 P,0,215350,221125,A
Sprite,Background,Centre,"sb\t.png",0,0 L,215446,1 F,1,0,1155,0,1 M,2,0,5775,474.0694,362.3546,500.2098,113.725 F,2,4620,5775,1,0 S,0,215446,,0.4 R,0,215446,,-1.466043 C,0,215446,,247,247,247 P,0,215446,221221,A
Sprite,Background,Centre,"sb\t.png",0,0 L,215542,1 F,1,0,1155,0,1 M,2,0,5775,251.7499,334.5422,230.3408,85.46062 F,2,4620,5775,1,0 S,0,215542,,0.4 R,0,215542,,-1.656538 C,0,215542,,223,223,223 P,0,215542,221317,A
Sprite,Background,Centre,"sb\t.png",0,0 L,215638,1 F,1,0,1155,0,1 M,2,0,5775,573.0721,363.53,551.5996,114.4539 F,2,4620,5775,1,0 S,0,215638,,0.4 R,0,215638,,-1.656792 C,0,215638,,208,208,208 P,0,215638,221413,A
Sprite,Background,Centre,"sb\t.png",0,0 L,216023,1 F,1,0,1155,0,1 M,2,0,5775,553.2667,427.5196,554.6558,177.5234 F,2,4620,5775,1,0 S,0,216023,,0.4 R,0,216023,,-1.56524 C,0,216023,,210,210,210 P,0,216023,221798,A
Sprite,Background,Centre,"sb\t.png",0,0 L,216120,1 F,1,0,1155,0,1 M,2,0,5775,211.3681,426.1741,197.9693,176.5334 F,2,4620,5775,1,0 S,0,216120,,0.4 R,0,216120,,-1.624417 C,0,216120,,239,239,239 P,0,216120,221895,A
Sprite,Background,Centre,"sb\t.png",0,0 L,216216,1 F,1,0,1155,0,1 M,2,0,5775,207.1832,360.7548,221.9776,111.1929 F,2,4620,5775,1,0 S,0,216216,,0.4 R,0,216216,,-1.511584 C,0,216216,,248,248,248 P,0,216216,221991,A
Sprite,Background,Centre,"sb\t.png",0,0 L,216312,1 F,1,0,1155,0,1 M,2,0,5775,532.964,689.9016,540.013,440.001 F,2,4620,5775,1,0 S,0,216312,,0.4 R,0,216312,,-1.542597 C,0,216312,,218,218,218 P,0,216312,222087,A
Sprite,Background,Centre,"sb\t.png",0,0 L,216408,1 F,1,0,1155,0,1 M,2,0,5775,154.4479,374.4529,135.1962,125.1952 F,2,4620,5775,1,0 S,0,216408,,0.4 R,0,216408,,-1.647879 C,0,216408,,176,176,176 P,0,216408,222183,A
Sprite,Background,Centre,"sb\t.png",0,0 L,216505,1 F,1,0,1155,0,1 M,2,0,5775,606.5964,439.532,579.9789,190.953 F,2,4620,5775,1,0 S,0,216505,,0.4 R,0,216505,,-1.677469 C,0,216505,,241,241,241 P,0,216505,222280,A
Sprite,Background,Centre,"sb\t.png",0,0 L,216601,1 F,1,0,1155,0,1 M,2,0,5775,12.47836,311.6227,13.47813,61.62469 F,2,4620,5775,1,0 S,0,216601,,0.4 R,0,216601,,-1.566797 C,0,216601,,143,143,143 P,0,216601,222376,A
Sprite,Background,Centre,"sb\t.png",0,0 L,216697,1 F,1,0,1155,0,1 M,2,0,5775,147.6552,432.1517,166.7964,182.8855 F,2,4620,5775,1,0 S,0,216697,,0.4 R,0,216697,,-1.494156 C,0,216697,,209,209,209 P,0,216697,222472,A
Sprite,Background,Centre,"sb\t.png",0,0 L,216793,1 F,1,0,1155,0,1 M,2,0,5775,-5.094208,338.0428,25.04245,89.86583 F,2,4620,5775,1,0 S,0,216793,,0.4 R,0,216793,,-1.449956 C,0,216793,,170,170,170 P,0,216793,222568,A
Sprite,Background,Centre,"sb\t.png",0,0 L,216890,1 F,1,0,1155,0,1 M,2,0,5775,33.41608,504.4477,16.10007,255.0481 F,2,4620,5775,1,0 S,0,216890,,0.4 R,0,216890,,-1.640116 C,0,216890,,193,193,193 P,0,216890,222665,A
Sprite,Background,Centre,"sb\t.png",0,0 L,216986,1 F,1,0,1155,0,1 M,2,0,5775,461.0412,662.1523,458.0529,412.1702 F,2,4620,5775,1,0 S,0,216986,,0.4 R,0,216986,,-1.58275 C,0,216986,,207,207,207 P,0,216986,222761,A
Sprite,Background,Centre,"sb\t.png",0,0 L,217082,1 F,1,0,1155,0,1 M,2,0,5775,377.5882,280.2346,402.8123,31.51038 F,2,4620,5775,1,0 S,0,217082,,0.4 R,0,217082,,-1.469728 C,0,217082,,216,216,216 P,0,217082,222857,A
Sprite,Background,Centre,"sb\t.png",0,0 L,217178,1 F,1,0,1155,0,1 M,2,0,5775,692.9225,352.8719,663.4783,104.6118 F,2,4620,5775,1,0 S,0,217178,,0.4 R,0,217178,,-1.688847 C,0,217178,,178,178,178 P,0,217178,222953,A
Sprite,Background,Centre,"sb\t.png",0,0 L,217275,1 F,1,0,1155,0,1 M,2,0,5775,605.1683,382.1844,621.7839,132.7371 F,2,4620,5775,1,0 S,0,217275,,0.4 R,0,217275,,-1.504285 C,0,217275,,202,202,202 P,0,217275,223050,A
Sprite,Background,Centre,"sb\t.png",0,0 L,217371,1 F,1,0,1155,0,1 M,2,0,5775,676.8499,385.9443,705.6727,137.6114 F,2,4620,5775,1,0 S,0,217371,,0.4 R,0,217371,,-1.455248 C,0,217371,,178,178,178 P,0,217371,223146,A
Sprite,Background,Centre,"sb\t.png",0,0 L,217467,1 F,1,0,1155,0,1 M,2,0,5775,439.8814,343.4008,463.2368,94.49414 F,2,4620,5775,1,0 S,0,217467,,0.4 R,0,217467,,-1.477238 C,0,217467,,233,233,233 P,0,217467,223242,A
Sprite,Background,Centre,"sb\t.png",0,0 L,217563,1 F,1,0,1155,0,1 M,2,0,5775,68.47583,424.0795,98.44272,175.882 F,2,4620,5775,1,0 S,0,217563,,0.4 R,0,217563,,-1.45064 C,0,217563,,230,230,230 P,0,217563,223338,A
Sprite,Background,Centre,"sb\t.png",0,0 L,217660,1 F,1,0,1155,0,1 M,2,0,5775,432.8276,566.8434,432.6148,316.8435 F,2,4620,5775,1,0 S,0,217660,,0.4 R,0,217660,,-1.571647 C,0,217660,,178,178,178 P,0,217660,223435,A
Sprite,Background,Centre,"sb\t.png",0,0 L,217756,1 F,1,0,1155,0,1 M,2,0,5775,232.1249,627.8414,249.4642,378.4434 F,2,4620,5775,1,0 S,0,217756,,0.4 R,0,217756,,-1.501384 C,0,217756,,222,222,222 P,0,217756,223531,A
Sprite,Background,Centre,"sb\t.png",0,0 L,217852,1 F,1,0,1155,0,1 M,2,0,5775,3.333984,327.1157,-6.374613,77.30429 F,2,4620,5775,1,0 S,0,217852,,0.4 R,0,217852,,-1.60964 C,0,217852,,184,184,184 P,0,217852,223627,A
Sprite,Background,Centre,"sb\t.png",0,0 L,217948,1 F,1,0,1155,0,1 M,2,0,5775,547.7949,210.9269,571.7127,-37.92636 F,2,4620,5775,1,0 S,0,217948,,0.4 R,0,217948,,-1.474979 C,0,217948,,175,175,175 P,0,217948,223723,A
Sprite,Background,Centre,"sb\t.png",0,0 L,218045,1 F,1,0,1155,0,1 M,2,0,5775,279.3707,719.1991,260.8117,469.8889 F,2,4620,5775,1,0 S,0,218045,,0.4 R,0,218045,,-1.645101 C,0,218045,,195,195,195 P,0,218045,223820,A
Sprite,Background,Centre,"sb\t.png",0,0 L,218141,1 F,1,0,1155,0,1 M,2,0,5775,158.4628,272.7189,150.4601,22.84697 F,2,4620,5775,1,0 S,0,218141,,0.4 R,0,218141,,-1.602812 C,0,218141,,254,254,254 P,0,218141,223916,A
Sprite,Background,Centre,"sb\t.png",0,0 L,218237,1 F,1,0,1155,0,1 M,2,0,5775,291.8693,434.0668,321.3315,185.8089 F,2,4620,5775,1,0 S,0,218237,,0.4 R,0,218237,,-1.452673 C,0,218237,,153,153,153 P,0,218237,224012,A
Sprite,Background,Centre,"sb\t.png",0,0 L,218333,1 F,1,0,1155,0,1 M,2,0,5775,321.8448,325.3323,302.9817,76.04491 F,2,4620,5775,1,0 S,0,218333,,0.4 R,0,218333,,-1.646321 C,0,218333,,184,184,184 P,0,218333,224108,A
Sprite,Background,Centre,"sb\t.png",0,0 L,218430,1 F,1,0,1155,0,1 M,2,0,5775,291.2236,318.0432,311.9586,68.90456 F,2,4620,5775,1,0 S,0,218430,,0.4 R,0,218430,,-1.487761 C,0,218430,,209,209,209 P,0,218430,224205,A
Sprite,Background,Centre,"sb\t.png",0,0 L,218622,1 F,1,0,1155,0,1 M,2,0,5775,-55.33444,568.6957,-36.83189,319.3813 F,2,4620,5775,1,0 S,0,218622,,0.4 R,0,218622,,-1.496718 C,0,218622,,190,190,190 P,0,218622,224397,A
Sprite,Background,Centre,"sb\t.png",0,0 L,218718,1 F,1,0,1155,0,1 M,2,0,5775,350.9609,187.7245,359.9493,-62.11389 F,2,4620,5775,1,0 S,0,218718,,0.4 R,0,218718,,-1.534835 C,0,218718,,207,207,207 P,0,218718,224493,A
Sprite,Background,Centre,"sb\t.png",0,0 L,218815,1 F,1,0,1155,0,1 M,2,0,5775,572.0657,613.7911,601.9661,365.5856 F,2,4620,5775,1,0 S,0,218815,,0.4 R,0,218815,,-1.450908 C,0,218815,,201,201,201 P,0,218815,224590,A
Sprite,Background,Centre,"sb\t.png",0,0 L,218911,1 F,1,0,1155,0,1 M,2,0,5775,316.5988,458.6045,320.109,208.6292 F,2,4620,5775,1,0 S,0,218911,,0.4 R,0,218911,,-1.556755 C,0,218911,,188,188,188 P,0,218911,224686,A
Sprite,Background,Centre,"sb\t.png",0,0 L,219007,1 F,1,0,1155,0,1 M,2,0,5775,457.0601,275.0519,474.5553,25.66484 F,2,4620,5775,1,0 S,0,219007,,0.4 R,0,219007,,-1.500758 C,0,219007,,237,237,237 P,0,219007,224782,A
Sprite,Background,Centre,"sb\t.png",0,0 L,219103,1 F,1,0,1155,0,1 M,2,0,5775,25.49539,370.9805,4.926979,121.828 F,2,4620,5775,1,0 S,0,219103,,0.4 R,0,219103,,-1.653163 C,0,219103,,207,207,207 P,0,219103,224878,A
Sprite,Background,Centre,"sb\st.png",0,0 L,93258,1 F,1,0,1966,0,1 M,0,0,9833,900,110,-7099.913,72.57726 F,2,7866,9833,1,0 S,0,93258,,0.8 R,0,93258,,3.146271 C,0,93258,,20,20,20
Sprite,Background,Centre,"sb\st.png",0,0 L,93565,1 F,1,0,1966,0,1 M,0,0,9833,900,110,-7099.996,118.0731 F,2,7866,9833,1,0 S,0,93565,,0.8 R,0,93565,,3.140584 C,0,93565,,17,17,17
Sprite,Background,Centre,"sb\st.png",0,0 L,93872,1 F,1,0,1966,0,1 M,0,0,9833,900,110,-7099.979,91.47705 F,2,7866,9833,1,0 S,0,93872,,0.8 R,0,93872,,3.143908 C,0,93872,,120,120,120
Sprite,Background,Centre,"sb\st.png",0,0 L,94179,1 F,1,0,1966,0,1 M,0,0,9833,900,110,-7099.702,40.83779 F,2,7866,9833,1,0 S,0,94179,,0.8 R,0,94179,,3.150238 C,0,94179,,28,28,28
Sprite,Background,Centre,"sb\st.png",0,0 L,94487,1 F,1,0,1966,0,1 M,0,0,9833,900,110,-7099.706,41.31842 F,2,7866,9833,1,0 S,0,94487,,0.8 R,0,94487,,3.150178 C,0,94487,,104,104,104
Sprite,Background,Centre,"sb\st.png",0,0 L,94794,1 F,1,0,1966,0,1 M,0,0,9833,900,110,-7099.958,83.80382 F,2,7866,9833,1,0 S,0,94794,,0.8 R,0,94794,,3.144867 C,0,94794,,8,8,8
Sprite,Background,Centre,"sb\st.png",0,0 L,95101,1 F,1,0,1966,0,1 M,0,0,9833,900,110,-7099.95,138.3215 F,2,7866,9833,1,0 S,0,95101,,0.8 R,0,95101,,3.138052 C,0,95101,,40,40,40
Sprite,Background,Centre,"sb\st.png",0,0 L,95408,1 F,1,0,1966,0,1 M,0,0,9833,900,110,-7099.983,126.6142 F,2,7866,9833,1,0 S,0,95408,,0.8 R,0,95408,,3.139516 C,0,95408,,124,124,124
Sprite,Background,Centre,"sb\st.png",0,0 L,95716,1 F,1,0,1966,0,1 M,0,0,9833,900,110,-7099.824,163.2025 F,2,7866,9833,1,0 S,0,95716,,0.8 R,0,95716,,3.134942 C,0,95716,,119,119,119
Sprite,Background,Centre,"sb\st.png",0,0 L,96023,1 F,1,0,1966,0,1 M,0,0,9833,900,110,-7099.998,115.975 F,2,7866,9833,1,0 S,0,96023,,0.8 R,0,96023,,3.140846 C,0,96023,,30,30,30
Sprite,Background,Centre,"sb\st.png",0,0 L,96330,1 F,1,0,1966,0,1 M,0,0,9833,900,110,-7099.983,93.26996 F,2,7866,9833,1,0 S,0,96330,,0.8 R,0,96330,,3.143684 C,0,96330,,21,21,21
Sprite,Background,Centre,"sb\st.png",0,0 L,96638,1 F,1,0,1966,0,1 M,0,0,9833,900,110,-7099.933,77.13196 F,2,7866,9833,1,0 S,0,96638,,0.8 R,0,96638,,3.145701 C,0,96638,,50,50,50
Sprite,Background,Centre,"sb\st.png",0,0 L,96945,1 F,1,0,1966,0,1 M,0,0,9833,900,110,-7099.81,54.79916 F,2,7866,9833,1,0 S,0,96945,,0.8 R,0,96945,,3.148493 C,0,96945,,6,6,6
Sprite,Background,Centre,"sb\st.png",0,0 L,97252,1 F,1,0,1966,0,1 M,0,0,9833,900,110,-7099.975,89.87679 F,2,7866,9833,1,0 S,0,97252,,0.8 R,0,97252,,3.144108 C,0,97252,,16,16,16
Sprite,Background,Centre,"sb\st.png",0,0 L,97559,1 F,1,0,1966,0,1 M,0,0,9833,900,110,-7099.972,88.74765 F,2,7866,9833,1,0 S,0,97559,,0.8 R,0,97559,,3.144249 C,0,97559,,70,70,70
Sprite,Background,Centre,"sb\st.png",0,0 L,97867,1 F,1,0,1966,0,1 M,0,0,9833,900,110,-7099.942,79.49896 F,2,7866,9833,1,0 S,0,97867,,0.8 R,0,97867,,3.145405 C,0,97867,,129,129,129
Sprite,Background,Centre,"sb\st.png",0,0 L,98174,1 F,1,0,1966,0,1 M,0,0,9833,900,110,-7099.999,104.304 F,2,7866,9833,1,0 S,0,98174,,0.8 R,0,98174,,3.142305 C,0,98174,,82,82,82
Sprite,Background,Centre,"sb\st.png",0,0 L,98481,1 F,1,0,1966,0,1 M,0,0,9833,900,110,-7099.884,66.82668 F,2,7866,9833,1,0 S,0,98481,,0.8 R,0,98481,,3.146989 C,0,98481,,61,61,61
Sprite,Background,Centre,"sb\st.png",0,0 L,98789,1 F,1,0,1966,0,1 M,0,0,9833,900,110,-7100,106.8197 F,2,7866,9833,1,0 S,0,98789,,0.8 R,0,98789,,3.14199 C,0,98789,,30,30,30
Sprite,Background,Centre,"sb\st.png",0,0 L,99096,1 F,1,0,1966,0,1 M,0,0,9833,900,110,-7099.907,148.7431 F,2,7866,9833,1,0 S,0,99096,,0.8 R,0,99096,,3.13675 C,0,99096,,9,9,9
Sprite,Background,Centre,"sb\st.png",0,0 L,99403,1 F,1,0,1966,0,1 M,0,0,9833,900,110,-7099.98,91.79176 F,2,7866,9833,1,0 S,0,99403,,0.8 R,0,99403,,3.143869 C,0,99403,,15,15,15
Sprite,Background,Centre,"sb\st.png",0,0 L,99710,1 F,1,0,1966,0,1 M,0,0,9833,900,110,-7099.806,54.13542 F,2,7866,9833,1,0 S,0,99710,,0.8 R,0,99710,,3.148576 C,0,99710,,8,8,8
Sprite,Background,Centre,"sb\st.png",0,0 L,100018,1 F,1,0,1966,0,1 M,0,0,9833,900,110,-7099.986,94.66041 F,2,7866,9833,1,0 S,0,100018,,0.8 R,0,100018,,3.14351 C,0,100018,,32,32,32
Sprite,Background,Centre,"sb\st.png",0,0 L,100325,1 F,1,0,1966,0,1 M,0,0,9833,900,110,-7099.995,100.247 F,2,7866,9833,1,0 S,0,100325,,0.8 R,0,100325,,3.142812 C,0,100325,,81,81,81
Sprite,Background,Centre,"sb\st.png",0,0 L,100632,1 F,1,0,1966,0,1 M,0,0,9833,900,110,-7099.851,61.06467 F,2,7866,9833,1,0 S,0,100632,,0.8 R,0,100632,,3.14771 C,0,100632,,41,41,41
Sprite,Background,Centre,"sb\st.png",0,0 L,100940,1 F,1,0,1966,0,1 M,0,0,9833,900,110,-7099.709,41.74947 F,2,7866,9833,1,0 S,0,100940,,0.8 R,0,100940,,3.150124 C,0,100940,,61,61,61
Sprite,Background,Centre,"sb\st.png",0,0 L,101247,1 F,1,0,1966,0,1 M,0,0,9833,900,110,-7099.999,105.5895 F,2,7866,9833,1,0 S,0,101247,,0.8 R,0,101247,,3.142144 C,0,101247,,41,41,41
Sprite,Background,Centre,"sb\st.png",0,0 L,101554,1 F,1,0,1966,0,1 M,0,0,9833,900,110,-7099.985,94.20074 F,2,7866,9833,1,0 S,0,101554,,0.8 R,0,101554,,3.143568 C,0,101554,,106,106,106
Sprite,Background,Centre,"sb\st.png",0,0 L,101861,1 F,1,0,1966,0,1 M,0,0,9833,900,110,-7099.834,161.5641 F,2,7866,9833,1,0 S,0,101861,,0.8 R,0,101861,,3.135147 C,0,101861,,54,54,54
Sprite,Background,Centre,"sb\st.png",0,0 L,102169,1 F,1,0,1966,0,1 M,0,0,9833,900,110,-7099.995,100.2623 F,2,7866,9833,1,0 S,0,102169,,0.8 R,0,102169,,3.14281 C,0,102169,,25,25,25
Sprite,Background,Centre,"sb\st.png",0,0 L,102476,1 F,1,0,1966,0,1 M,0,0,9833,900,110,-7099.7,40.58984 F,2,7866,9833,1,0 S,0,102476,,0.8 R,0,102476,,3.150269 C,0,102476,,6,6,6
Sprite,Background,Centre,"sb\st.png",0,0 L,102783,1 F,1,0,1966,0,1 M,0,0,9833,900,110,-7099.995,100.4931 F,2,7866,9833,1,0 S,0,102783,,0.8 R,0,102783,,3.142781 C,0,102783,,48,48,48
Sprite,Background,Centre,"sb\st.png",0,0 L,93258,1 F,1,0,1966,0,1 M,0,0,9833,-250,400,7749.913,437.4235 F,2,7866,9833,1,0 S,0,93258,,0.8 R,0,93258,,6.287863 C,0,93258,,20,20,20
Sprite,Background,Centre,"sb\st.png",0,0 L,93565,1 F,1,0,1966,0,1 M,0,0,9833,-250,400,7749.996,391.9257 F,2,7866,9833,1,0 S,0,93565,,0.8 R,0,93565,,6.282176 C,0,93565,,17,17,17
Sprite,Background,Centre,"sb\st.png",0,0 L,93872,1 F,1,0,1966,0,1 M,0,0,9833,-250,400,7749.979,418.5217 F,2,7866,9833,1,0 S,0,93872,,0.8 R,0,93872,,6.285501 C,0,93872,,120,120,120
Sprite,Background,Centre,"sb\st.png",0,0 L,94179,1 F,1,0,1966,0,1 M,0,0,9833,-250,400,7749.702,469.1648 F,2,7866,9833,1,0 S,0,94179,,0.8 R,0,94179,,6.291831 C,0,94179,,28,28,28
Sprite,Background,Centre,"sb\st.png",0,0 L,94487,1 F,1,0,1966,0,1 M,0,0,9833,-250,400,7749.706,468.6842 F,2,7866,9833,1,0 S,0,94487,,0.8 R,0,94487,,6.291771 C,0,94487,,104,104,104
Sprite,Background,Centre,"sb\st.png",0,0 L,94794,1 F,1,0,1966,0,1 M,0,0,9833,-250,400,7749.958,426.1969 F,2,7866,9833,1,0 S,0,94794,,0.8 R,0,94794,,6.28646 C,0,94794,,8,8,8
Sprite,Background,Centre,"sb\st.png",0,0 L,95101,1 F,1,0,1966,0,1 M,0,0,9833,-250,400,7749.95,371.6812 F,2,7866,9833,1,0 S,0,95101,,0.8 R,0,95101,,6.279645 C,0,95101,,40,40,40
Sprite,Background,Centre,"sb\st.png",0,0 L,95408,1 F,1,0,1966,0,1 M,0,0,9833,-250,400,7749.983,383.3846 F,2,7866,9833,1,0 S,0,95408,,0.8 R,0,95408,,6.281108 C,0,95408,,124,124,124
Sprite,Background,Centre,"sb\st.png",0,0 L,95716,1 F,1,0,1966,0,1 M,0,0,9833,-250,400,7749.824,346.7982 F,2,7866,9833,1,0 S,0,95716,,0.8 R,0,95716,,6.276535 C,0,95716,,119,119,119
Sprite,Background,Centre,"sb\st.png",0,0 L,96023,1 F,1,0,1966,0,1 M,0,0,9833,-250,400,7749.998,394.0238 F,2,7866,9833,1,0 S,0,96023,,0.8 R,0,96023,,6.282438 C,0,96023,,30,30,30
Sprite,Background,Centre,"sb\st.png",0,0 L,96330,1 F,1,0,1966,0,1 M,0,0,9833,-250,400,7749.983,416.7326 F,2,7866,9833,1,0 S,0,96330,,0.8 R,0,96330,,6.285277 C,0,96330,,21,21,21
Sprite,Background,Centre,"sb\st.png",0,0 L,96638,1 F,1,0,1966,0,1 M,0,0,9833,-250,400,7749.933,432.8687 F,2,7866,9833,1,0 S,0,96638,,0.8 R,0,96638,,6.287294 C,0,96638,,50,50,50
Sprite,Background,Centre,"sb\st.png",0,0 L,96945,1 F,1,0,1966,0,1 M,0,0,9833,-250,400,7749.81,455.1996 F,2,7866,9833,1,0 S,0,96945,,0.8 R,0,96945,,6.290085 C,0,96945,,6,6,6
Sprite,Background,Centre,"sb\st.png",0,0 L,97252,1 F,1,0,1966,0,1 M,0,0,9833,-250,400,7749.975,420.1201 F,2,7866,9833,1,0 S,0,97252,,0.8 R,0,97252,,6.2857 C,0,97252,,16,16,16
Sprite,Background,Centre,"sb\st.png",0,0 L,97559,1 F,1,0,1966,0,1 M,0,0,9833,-250,400,7749.972,421.2492 F,2,7866,9833,1,0 S,0,97559,,0.8 R,0,97559,,6.285841 C,0,97559,,70,70,70
Sprite,Background,Centre,"sb\st.png",0,0 L,97867,1 F,1,0,1966,0,1 M,0,0,9833,-250,400,7749.942,430.4998 F,2,7866,9833,1,0 S,0,97867,,0.8 R,0,97867,,6.286998 C,0,97867,,129,129,129
Sprite,Background,Centre,"sb\st.png",0,0 L,98174,1 F,1,0,1966,0,1 M,0,0,9833,-250,400,7749.999,405.6967 F,2,7866,9833,1,0 S,0,98174,,0.8 R,0,98174,,6.283897 C,0,98174,,82,82,82
Sprite,Background,Centre,"sb\st.png",0,0 L,98481,1 F,1,0,1966,0,1 M,0,0,9833,-250,400,7749.884,443.1721 F,2,7866,9833,1,0 S,0,98481,,0.8 R,0,98481,,6.288582 C,0,98481,,61,61,61
Sprite,Background,Centre,"sb\st.png",0,0 L,98789,1 F,1,0,1966,0,1 M,0,0,9833,-250,400,7750,403.1829 F,2,7866,9833,1,0 S,0,98789,,0.8 R,0,98789,,6.283583 C,0,98789,,30,30,30
Sprite,Background,Centre,"sb\st.png",0,0 L,99096,1 F,1,0,1966,0,1 M,0,0,9833,-250,400,7749.907,361.2557 F,2,7866,9833,1,0 S,0,99096,,0.8 R,0,99096,,6.278342 C,0,99096,,9,9,9
Sprite,Background,Centre,"sb\st.png",0,0 L,99403,1 F,1,0,1966,0,1 M,0,0,9833,-250,400,7749.98,418.2089 F,2,7866,9833,1,0 S,0,99403,,0.8 R,0,99403,,6.285461 C,0,99403,,15,15,15
Sprite,Background,Centre,"sb\st.png",0,0 L,99710,1 F,1,0,1966,0,1 M,0,0,9833,-250,400,7749.806,455.8672 F,2,7866,9833,1,0 S,0,99710,,0.8 R,0,99710,,6.290169 C,0,99710,,8,8,8
Sprite,Background,Centre,"sb\st.png",0,0 L,100018,1 F,1,0,1966,0,1 M,0,0,9833,-250,400,7749.986,415.3403 F,2,7866,9833,1,0 S,0,100018,,0.8 R,0,100018,,6.285103 C,0,100018,,32,32,32
Sprite,Background,Centre,"sb\st.png",0,0 L,100325,1 F,1,0,1966,0,1 M,0,0,9833,-250,400,7749.995,409.7518 F,2,7866,9833,1,0 S,0,100325,,0.8 R,0,100325,,6.284404 C,0,100325,,81,81,81
Sprite,Background,Centre,"sb\st.png",0,0 L,100632,1 F,1,0,1966,0,1 M,0,0,9833,-250,400,7749.851,448.936 F,2,7866,9833,1,0 S,0,100632,,0.8 R,0,100632,,6.289302 C,0,100632,,41,41,41
Sprite,Background,Centre,"sb\st.png",0,0 L,100940,1 F,1,0,1966,0,1 M,0,0,9833,-250,400,7749.709,468.2493 F,2,7866,9833,1,0 S,0,100940,,0.8 R,0,100940,,6.291717 C,0,100940,,61,61,61
Sprite,Background,Centre,"sb\st.png",0,0 L,101247,1 F,1,0,1966,0,1 M,0,0,9833,-250,400,7749.999,404.4112 F,2,7866,9833,1,0 S,0,101247,,0.8 R,0,101247,,6.283737 C,0,101247,,41,41,41
Sprite,Background,Centre,"sb\st.png",0,0 L,101554,1 F,1,0,1966,0,1 M,0,0,9833,-250,400,7749.985,415.798 F,2,7866,9833,1,0 S,0,101554,,0.8 R,0,101554,,6.28516 C,0,101554,,106,106,106
Sprite,Background,Centre,"sb\st.png",0,0 L,101861,1 F,1,0,1966,0,1 M,0,0,9833,-250,400,7749.834,348.4385 F,2,7866,9833,1,0 S,0,101861,,0.8 R,0,101861,,6.27674 C,0,101861,,54,54,54
Sprite,Background,Centre,"sb\st.png",0,0 L,102169,1 F,1,0,1966,0,1 M,0,0,9833,-250,400,7749.995,409.7365 F,2,7866,9833,1,0 S,0,102169,,0.8 R,0,102169,,6.284402 C,0,102169,,25,25,25
Sprite,Background,Centre,"sb\st.png",0,0 L,102476,1 F,1,0,1966,0,1 M,0,0,9833,-250,400,7749.7,469.4089 F,2,7866,9833,1,0 S,0,102476,,0.8 R,0,102476,,6.291862 C,0,102476,,6,6,6
Sprite,Background,Centre,"sb\st.png",0,0 L,102783,1 F,1,0,1966,0,1 M,0,0,9833,-250,400,7749.995,409.5076 F,2,7866,9833,1,0 S,0,102783,,0.8 R,0,102783,,6.284374 C,0,102783,,48,48,48
Sprite,Background,Centre,"sb\cir2.png",0,0 L,173458,2 F,1,0,1256,0,0.1333333 M,2,0,6283,444.3087,80.49884,449.3248,30.75109 F,2,5026,6283,0.1333333,0 S,0,173458,,0.24 R,0,173458,,-1.470305 C,0,173458,,160,160,160 P,0,173458,186025,A
Sprite,Background,Centre,"sb\cir2.png",0,0 L,173941,2 F,1,0,1256,0,0.1333333 M,2,0,6283,598.857,557.1859,594.8491,507.3468 F,2,5026,6283,0.1333333,0 S,0,173941,,0.24 R,0,173941,,-1.65104 C,0,173941,,230,230,230 P,0,173941,186508,A
Sprite,Background,Centre,"sb\cir2.png",0,0 L,174908,2 F,1,0,1256,0,0.1333333 M,2,0,6283,-52.05103,334.5649,-49.81727,284.6149 F,2,5026,6283,0.1333333,0 S,0,174908,,0.24 R,0,174908,,-1.526106 C,0,174908,,201,201,201 P,0,174908,187475,A
Sprite,Background,Centre,"sb\cir2.png",0,0 L,175391,2 F,1,0,1256,0,0.1333333 M,2,0,6283,366.1336,82.50879,354.3384,33.91996 F,2,5026,6283,0.1333333,0 S,0,175391,,0.24 R,0,175391,,-1.808945 C,0,175391,,216,216,216 P,0,175391,187958,A
Sprite,Background,Centre,"sb\cir2.png",0,0 L,175874,2 F,1,0,1256,0,0.1333333 M,2,0,6283,174.2391,496.6422,144.7874,456.2368 F,2,5026,6283,0.1333333,0 S,0,175874,,0.24 R,0,175874,,-2.20066 C,0,175874,,176,176,176 P,0,175874,188441,A
Sprite,Background,Centre,"sb\cir2.png",0,0 L,176358,2 F,1,0,1256,0,0.1333333 M,2,0,6283,156.5488,265.657,169.2749,217.3036 F,2,5026,6283,0.1333333,0 S,0,176358,,0.24 R,0,176358,,-1.313444 C,0,176358,,245,245,245 P,0,176358,188925,A
Sprite,Background,Centre,"sb\cir2.png",0,0 L,176841,2 F,1,0,1256,0,0.1333333 M,2,0,6283,351.3599,487.0543,383.0076,448.3448 F,2,5026,6283,0.1333333,0 S,0,176841,,0.24 R,0,176841,,-0.8854333 C,0,176841,,172,172,172 P,0,176841,189408,A
Sprite,Background,Centre,"sb\cir2.png",0,0 L,177324,2 F,1,0,1256,0,0.1333333 M,2,0,6283,472.2927,478.6547,478.2408,429.0097 F,2,5026,6283,0.1333333,0 S,0,177324,,0.24 R,0,177324,,-1.451553 C,0,177324,,187,187,187 P,0,177324,189891,A
Sprite,Background,Centre,"sb\cir2.png",0,0 L,177808,2 F,1,0,1256,0,0.1333333 M,2,0,6283,276.423,394.9072,262.2719,346.9516 F,2,5026,6283,0.1333333,0 S,0,177808,,0.24 R,0,177808,,-1.857741 C,0,177808,,202,202,202 P,0,177808,190375,A
Sprite,Background,Centre,"sb\cir2.png",0,0 L,178291,2 F,1,0,1256,0,0.1333333 M,2,0,6283,-52.78629,363.9212,-25.02144,322.3386 F,2,5026,6283,0.1333333,0 S,0,178291,,0.24 R,0,178291,,-0.9820764 C,0,178291,,207,207,207 P,0,178291,190858,A
Sprite,Background,Centre,"sb\cir2.png",0,0 L,179258,2 F,1,0,1256,0,0.1333333 M,2,0,6283,219.1138,576.2415,205.1618,528.2275 F,2,5026,6283,0.1333333,0 S,0,179258,,0.24 R,0,179258,,-1.85359 C,0,179258,,217,217,217 P,0,179258,191825,A
Sprite,Background,Centre,"sb\g.png",320,240 L,61758,3 F,0,0,3500,1 S,0,0,3500,0.46 R,0,0,3500,0,0.035 F,0,3500,7000,1 S,0,3500,7000,0.46 R,0,3500,7000,0.035,0 F,0,82758,83091,1,0
Sprite,Background,Centre,"sb\g.png",320,240 L,115091,3 F,0,0,3500,1 S,0,0,3500,0.46 R,0,0,3500,0,0.035 F,0,3500,7000,1 S,0,3500,7000,0.46 R,0,3500,7000,0.035,0 F,0,136091,136425,1,0
Sprite,Background,Centre,"sb\g.png",320,240 F,0,213758,224091,1 S,0,213758,224091,0.46
Sprite,Background,Centre,"sb\g.png",320,240 F,0,213758,224091,0.2 S,0,213758,224091,0.46 P,0,213758,224091,A
Sprite,Background,Centre,"sb\g.png",320,240 F,0,224091,224425,1,0 S,0,224091,224425,0.46
Sprite,Background,Centre,"sb\g.png",320,240 F,0,224091,224425,0.2,0 S,0,224091,224425,0.46 P,0,224091,224425,A
Sprite,Background,Centre,"sb\g.png",320,240 F,0,173758,191091,1 S,0,173758,191091,0.46
Sprite,Background,Centre,"sb\g.png",320,240 F,0,191091,191758,1,0 S,0,191091,191758,0.46
Sprite,Background,Centre,"sb\h.png",320,240 R,0,191758,,1.570796 F,0,191758,192091,1 V,1,191758,192091,1,5,0,5 P,0,191758,192091,A
Sprite,Background,Centre,"sb\w.jpg",320,240 F,0,32424,33424,1,0 S,0,32424,33424,0.46 F,0,50424,51091,0,1 S,0,50424,51091,0.46 F,0,51091,56424,1 S,0,51091,56424,0.46 F,0,56424,57424,1,0 S,0,56424,57424,0.46 F,0,61758,62924,1,0 S,0,61758,62924,0.46 F,0,115091,116258,1,0 S,0,115091,116258,0.46 F,0,135758,136425,0,1 S,0,135758,136425,0.46 F,0,136425,141091,1 S,0,136425,141091,0.46
Sprite,Background,Centre,"sb\w.jpg",320,240 F,0,192425,193591,1,0 S,0,192425,193591,0.46
Sprite,Background,Centre,"sb\w.jpg",320,240 F,0,213758,214925,1,0 S,0,213758,214925,0.46
Sprite,Background,Centre,"sb\w.jpg",320,240 F,0,141091,141758,1,0 S,0,141091,141758,0.46
Sprite,Background,Centre,"sb\w.jpg",320,240 F,0,141758,142925,1,0 S,0,141758,142925,0.46
Sprite,Background,Centre,"sb\w.jpg",320,240 F,0,173758,174925,1,0 S,0,173758,174925,0.46
Sprite,Background,Centre,"sb\w.jpg",320,240 F,0,229091,229758,0,1 S,0,229091,229758,0.46
Sprite,Background,Centre,"sb\w.jpg",320,240 F,0,229758,238224,1 S,0,229758,238224,0.46
Sprite,Background,Centre,"sb\w.jpg",320,240 F,0,238224,238742,1,0 S,0,238224,238742,0.46
Sprite,Background,Centre,"sb\b.png",320,240 F,0,0,245471,0.45 S,0,0,245471,0.64
Sprite,Background,Centre,"sb\spotlight.png",547,105 C,0,71092,,196,94,234 F,2,71092,71742,1,0 S,2,71092,71742,2,0.4 P,0,71092,71742,A
Sprite,Background,Centre,"sb\spotlight.png",281,255 C,0,71258,,196,94,234 F,2,71258,71908,1,0 S,2,71258,71908,2,0.4 P,0,71258,71908,A
Sprite,Background,Centre,"sb\spotlight.png",82,78 C,0,71758,,115,63,237 F,2,71758,72408,1,0 S,2,71758,72408,2,0.4 P,0,71758,72408,A
Sprite,Background,Centre,"sb\spotlight.png",354,224 C,0,71924,,115,63,237 F,2,71924,72574,1,0 S,2,71924,72574,2,0.4 P,0,71924,72574,A
Sprite,Background,Centre,"sb\spotlight.png",323,228 C,0,80424,,196,94,234 F,2,80424,81024,1,0 S,2,80424,81024,2.2,0.44 P,0,80424,81024,A
Sprite,Background,Centre,"sb\spotlight.png",98,334 C,0,80592,,196,94,234 F,2,80592,81192,1,0 S,2,80592,81192,2.2,0.44 P,0,80592,81192,A
Sprite,Background,Centre,"sb\spotlight.png",333,437 C,0,80758,,196,94,234 F,2,80758,81358,1,0 S,2,80758,81358,2.2,0.44 P,0,80758,81358,A
Sprite,Background,Centre,"sb\spotlight.png",126,196 C,0,80925,,115,63,237 F,2,80925,81525,1,0 S,2,80925,81525,2.2,0.44 P,0,80925,81525,A
Sprite,Background,Centre,"sb\spotlight.png",367,327 C,0,81092,,115,63,237 F,2,81092,81692,1,0 S,2,81092,81692,2.2,0.44 P,0,81092,81692,A
Sprite,Background,Centre,"sb\spotlight.png",122,438 C,0,81258,,115,63,237 F,2,81258,81858,1,0 S,2,81258,81858,2.2,0.44 P,0,81258,81858,A
Sprite,Background,Centre,"sb\spotlight.png",352,247 C,0,81425,,111,129,255 F,2,81425,82025,1,0 S,2,81425,82025,2.2,0.44 P,0,81425,82025,A
Sprite,Background,Centre,"sb\spotlight.png",398,247 C,0,81508,,111,129,255 F,2,81508,82108,1,0 S,2,81508,82108,2.2,0.44 P,0,81508,82108,A
Sprite,Background,Centre,"sb\spotlight.png",437,271 C,0,81592,,111,129,255 F,2,81592,82192,1,0 S,2,81592,82192,2.2,0.44 P,0,81592,82192,A
Sprite,Background,Centre,"sb\spotlight.png",458,311 C,0,81675,,111,129,255 F,2,81675,82275,1,0 S,2,81675,82275,2.2,0.44 P,0,81675,82275,A
Sprite,Background,Centre,"sb\spotlight.png",458,357 C,0,81758,,233,164,255 F,2,81758,82358,1,0 S,2,81758,82358,2.2,0.44 P,0,81758,82358,A
Sprite,Background,Centre,"sb\spotlight.png",219,185 C,0,81925,,233,164,255 F,2,81925,82525,1,0 S,2,81925,82525,2.2,0.44 P,0,81925,82525,A
Sprite,Background,Centre,"sb\spotlight.png",386,330 C,0,60425,,233,164,255 F,2,60425,60995,1,0 S,2,60425,60995,1.9,0.38 P,0,60425,60995,A
Sprite,Background,Centre,"sb\spotlight.png",417,344 C,0,60508,,233,164,255 F,2,60508,61078,1,0 S,2,60508,61078,1.9,0.38 P,0,60508,61078,A
Sprite,Background,Centre,"sb\spotlight.png",452,347 C,0,60592,,233,164,255 F,2,60592,61162,1,0 S,2,60592,61162,1.9,0.38 P,0,60592,61162,A
Sprite,Background,Centre,"sb\spotlight.png",484,334 C,0,60675,,233,164,255 F,2,60675,61245,1,0 S,2,60675,61245,1.9,0.38 P,0,60675,61245,A
Sprite,Background,Centre,"sb\spotlight.png",510,310 C,0,60758,,233,164,255 F,2,60758,61328,1,0 S,2,60758,61328,1.9,0.38 P,0,60758,61328,A
Sprite,Background,Centre,"sb\spotlight.png",519,275 C,0,60842,,233,164,255 F,2,60842,61412,1,0 S,2,60842,61412,1.9,0.38 P,0,60842,61412,A
Sprite,Background,Centre,"sb\spotlight.png",517,239 C,0,60925,,233,164,255 F,2,60925,61495,1,0 S,2,60925,61495,1.9,0.38 P,0,60925,61495,A
Sprite,Background,Centre,"sb\spotlight.png",499,208 C,0,61008,,233,164,255 F,2,61008,61578,1,0 S,2,61008,61578,1.9,0.38 P,0,61008,61578,A
Sprite,Background,Centre,"sb\spotlight.png",474,182 C,0,61092,,196,94,234 F,2,61092,61662,1,0 S,2,61092,61662,1.9,0.38 P,0,61092,61662,A
Sprite,Background,Centre,"sb\spotlight.png",421,174 C,0,61175,,196,94,234 F,2,61175,61745,1,0 S,2,61175,61745,1.9,0.38 P,0,61175,61745,A
Sprite,Background,Centre,"sb\spotlight.png",372,194 C,0,61258,,196,94,234 F,2,61258,61828,1,0 S,2,61258,61828,1.9,0.38 P,0,61258,61828,A
Sprite,Background,Centre,"sb\spotlight.png",346,240 C,0,61342,,196,94,234 F,2,61342,61912,1,0 S,2,61342,61912,1.9,0.38 P,0,61342,61912,A
Sprite,Background,Centre,"sb\spotlight.png",318,284 C,0,61425,,196,94,234 F,2,61425,61995,1,0 S,2,61425,61995,1.9,0.38 P,0,61425,61995,A
Sprite,Background,Centre,"sb\spotlight.png",266,294 C,0,61508,,196,94,234 F,2,61508,62078,1,0 S,2,61508,62078,1.9,0.38 P,0,61508,62078,A
Sprite,Background,Centre,"sb\spotlight.png",0,0 C,0,61592,,196,94,234 M,0,61592,61633,218,270,212.6991,249.0954 F,2,61592,62245,1,0 S,2,61592,62245,1.9,0.38 P,0,61592,62245,A M,0,61633,61675,212.6991,249.0954,217.1273,227.9791
Sprite,Background,Centre,"sb\spotlight.png",575,311 C,0,113758,,111,129,255 F,2,113758,114328,1,0 S,2,113758,114328,1.9,0.38 P,0,113758,114328,A
Sprite,Background,Centre,"sb\spotlight.png",563,268 C,0,113842,,111,129,255 F,2,113842,114412,1,0 S,2,113842,114412,1.9,0.38 P,0,113842,114412,A
Sprite,Background,Centre,"sb\spotlight.png",531,237 C,0,113925,,111,129,255 F,2,113925,114495,1,0 S,2,113925,114495,1.9,0.38 P,0,113925,114495,A
Sprite,Background,Centre,"sb\spotlight.png",487,230 C,0,114008,,111,129,255 F,2,114008,114578,1,0 S,2,114008,114578,1.9,0.38 P,0,114008,114578,A
Sprite,Background,Centre,"sb\spotlight.png",444,242 C,0,114092,,111,129,255 F,2,114092,114662,1,0 S,2,114092,114662,1.9,0.38 P,0,114092,114662,A
Sprite,Background,Centre,"sb\spotlight.png",417,276 C,0,114175,,111,129,255 F,2,114175,114745,1,0 S,2,114175,114745,1.9,0.38 P,0,114175,114745,A
Sprite,Background,Centre,"sb\spotlight.png",0,0 C,0,114258,,111,129,255 M,0,114258,114299,412,319,414.9076,340.807 F,2,114258,114911,1,0 S,2,114258,114911,1.9,0.38 P,0,114258,114911,A M,0,114299,114341,414.9076,340.807,417.8152,362.614
Sprite,Background,Centre,"sb\spotlight.png",237,257 C,0,114425,,233,164,255 F,2,114425,114995,1,0 S,2,114425,114995,1.9,0.38 P,0,114425,114995,A
Sprite,Background,Centre,"sb\spotlight.png",243,222 C,0,114508,,233,164,255 F,2,114508,115078,1,0 S,2,114508,115078,1.9,0.38 P,0,114508,115078,A
Sprite,Background,Centre,"sb\spotlight.png",0,0 C,0,114592,,233,164,255 M,0,114592,114633,251,187,255.024,165.3711 F,2,114592,115245,1,0 S,2,114592,115245,1.9,0.38 P,0,114592,115245,A M,0,114633,114675,255.024,165.3711,259,144
Sprite,Background,Centre,"sb\spotlight.png",345,355 C,0,114758,,196,94,234 F,2,114758,115328,1,0 S,2,114758,115328,1.9,0.38 P,0,114758,115328,A
Sprite,Background,Centre,"sb\spotlight.png",290,374 C,0,114842,,196,94,234 F,2,114842,115412,1,0 S,2,114842,115412,1.9,0.38 P,0,114842,115412,A
Sprite,Background,Centre,"sb\spotlight.png",235,391 C,0,114925,,196,94,234 F,2,114925,115495,1,0 S,2,114925,115495,1.9,0.38 P,0,114925,115495,A
Sprite,Background,Centre,"sb\spotlight.png",180,409 C,0,115008,,196,94,234 F,2,115008,115578,1,0 S,2,115008,115578,1.9,0.38 P,0,115008,115578,A
Sprite,Background,Centre,"sb\ring.png",244,354 C,0,56425,,196,94,234 F,2,56425,57025,1,0 S,2,56425,57025,0.7,0.14 P,0,56425,57025,A
Sprite,Background,Centre,"sb\ring.png",324,176 C,0,56592,,196,94,234 F,2,56592,57192,1,0 S,2,56592,57192,0.7,0.14 P,0,56592,57192,A
Sprite,Background,Centre,"sb\ring.png",149,292 C,0,56758,,196,94,234 F,2,56758,57358,1,0 S,2,56758,57358,0.7,0.14 P,0,56758,57358,A
Sprite,Background,Centre,"sb\ring.png",391,414 C,0,56925,,115,63,237 F,2,56925,57525,1,0 S,2,56925,57525,0.7,0.14 P,0,56925,57525,A
Sprite,Background,Centre,"sb\ring.png",255,228 C,0,57092,,115,63,237 F,2,57092,57692,1,0 S,2,57092,57692,0.7,0.14 P,0,57092,57692,A
Sprite,Background,Centre,"sb\ring.png",131,414 C,0,57258,,115,63,237 F,2,57258,57858,1,0 S,2,57258,57858,0.7,0.14 P,0,57258,57858,A
Sprite,Background,Centre,"sb\ring.png",379,252 C,0,57425,,111,129,255 F,2,57425,58025,1,0 S,2,57425,58025,0.7,0.14 P,0,57425,58025,A
Sprite,Background,Centre,"sb\ring.png",141,123 C,0,57592,,111,129,255 F,2,57592,58192,1,0 S,2,57592,58192,0.7,0.14 P,0,57592,58192,A
Sprite,Background,Centre,"sb\ring.png",261,332 C,0,57758,,111,129,255 F,2,57758,58358,1,0 S,2,57758,58358,0.7,0.14 P,0,57758,58358,A
Sprite,Background,Centre,"sb\ring.png",384,115 C,0,57925,,233,164,255 F,2,57925,58525,1,0 S,2,57925,58525,0.7,0.14 P,0,57925,58525,A
Sprite,Background,Centre,"sb\ring.png",155,250 C,0,58092,,233,164,255 F,2,58092,58692,1,0 S,2,58092,58692,0.7,0.14 P,0,58092,58692,A
Sprite,Background,Centre,"sb\ring.png",408,330 C,0,58258,,233,164,255 F,2,58258,58858,1,0 S,2,58258,58858,0.7,0.14 P,0,58258,58858,A
Sprite,Background,Centre,"sb\ring.png",222,112 C,0,58425,,196,94,234 F,2,58425,59025,1,0 S,2,58425,59025,0.7,0.14 P,0,58425,59025,A
Sprite,Background,Centre,"sb\ring.png",372,405 C,0,58592,,196,94,234 F,2,58592,59192,1,0 S,2,58592,59192,0.7,0.14 P,0,58592,59192,A
Sprite,Background,Centre,"sb\spotlight.png",71,104 C,0,133758,,233,164,255 F,2,133758,134258,1,0 S,2,133758,134258,2,0.4 P,0,133758,134258,A
Sprite,Background,Centre,"sb\spotlight.png",294,173 C,0,133925,,233,164,255 F,2,133925,134425,1,0 S,2,133925,134425,2,0.4 P,0,133925,134425,A
Sprite,Background,Centre,"sb\spotlight.png",67,286 C,0,134092,,233,164,255 F,2,134092,134592,1,0 S,2,134092,134592,2,0.4 P,0,134092,134592,A
Sprite,Background,Centre,"sb\spotlight.png",281,87 C,0,134258,,196,94,234 F,2,134258,134758,1,0 S,2,134258,134758,2,0.4 P,0,134258,134758,A
Sprite,Background,Centre,"sb\spotlight.png",392,297 C,0,134425,,196,94,234 F,2,134425,134925,1,0 S,2,134425,134925,2,0.4 P,0,134425,134925,A
Sprite,Background,Centre,"sb\spotlight.png",163,197 C,0,134592,,196,94,234 F,2,134592,135092,1,0 S,2,134592,135092,2,0.4 P,0,134592,135092,A
Sprite,Background,Centre,"sb\spotlight.png",399,81 C,0,134758,,115,63,237 F,2,134758,135258,1,0 S,2,134758,135258,2,0.4 P,0,134758,135258,A
Sprite,Background,Centre,"sb\spotlight.png",447,91 C,0,134842,,115,63,237 F,2,134842,135342,1,0 S,2,134842,135342,2,0.4 P,0,134842,135342,A
Sprite,Background,Centre,"sb\spotlight.png",481,126 C,0,134925,,115,63,237 F,2,134925,135425,1,0 S,2,134925,135425,2,0.4 P,0,134925,135425,A
Sprite,Background,Centre,"sb\spotlight.png",491,174 C,0,135008,,115,63,237 F,2,135008,135508,1,0 S,2,135008,135508,2,0.4 P,0,135008,135508,A
Sprite,Background,Centre,"sb\spotlight.png",475,221 C,0,135092,,111,129,255 F,2,135092,135592,1,0 S,2,135092,135592,2,0.4 P,0,135092,135592,A
Sprite,Background,Centre,"sb\spotlight.png",217,391 C,0,135258,,111,129,255 F,2,135258,135758,1,0 S,2,135258,135758,2,0.4 P,0,135258,135758,A
Sprite,Background,Centre,"sb\spotlight.png",217,391 C,0,135592,,233,164,255 F,2,135592,136092,1,0 S,2,135592,136092,2,0.4 P,0,135592,136092,A
Sprite,Background,Centre,"sb\spotlight.png",186,296 C,0,124425,,196,94,234 F,2,124425,125075,1,0 S,2,124425,125075,2,0.4 P,0,124425,125075,A
Sprite,Background,Centre,"sb\spotlight.png",457,165 C,0,124592,,196,94,234 F,2,124592,125242,1,0 S,2,124592,125242,2,0.4 P,0,124592,125242,A
Sprite,Background,Centre,"sb\spotlight.png",556,417 C,0,125092,,115,63,237 F,2,125092,125742,1,0 S,2,125092,125742,2,0.4 P,0,125092,125742,A
Sprite,Background,Centre,"sb\spotlight.png",282,259 C,0,125258,,115,63,237 F,2,125258,125908,1,0 S,2,125258,125908,2,0.4 P,0,125258,125908,A
Sprite,Background,Centre,"sb\spotlight.png",0,0 C,0,217758,,196,94,234 M,0,217758,217799,394,338,424.1425,316.2802 F,2,217758,218484,1,0 S,2,217758,218484,2,0.4 P,0,217758,218484,A M,0,217799,217841,424.1425,316.2802,460.1314,306.6915 M,0,217841,217882,460.1314,306.6915,497.4668,306.5465 M,0,217882,217924,497.4668,306.5465,488.8007,320.802
Sprite,Background,Centre,"sb\spotlight.png",394,200 C,0,218008,,115,63,237 F,2,218008,218568,1,0 S,2,218008,218568,2,0.4 P,0,218008,218568,A
Sprite,Background,Centre,"sb\spotlight.png",0,0 C,0,218092,,115,63,237 M,0,218092,218133,394,200,360.167,184.625 F,2,218092,218818,1,0 S,2,218092,218818,2,0.4 P,0,218092,218818,A M,0,218133,218175,360.167,184.625,333.8613,158.2586 M,0,218175,218216,333.8613,158.2586,315.1163,125.9715 M,0,218216,218258,315.1163,125.9715,331.3215,125.7919
Sprite,Background,Centre,"sb\spotlight.png",279,276 C,0,218342,,111,129,255 F,2,218342,218902,1,0 S,2,218342,218902,2,0.4 P,0,218342,218902,A
Sprite,Background,Centre,"sb\spotlight.png",0,0 C,0,218425,,111,129,255 M,0,218425,218466,279,276,282.3744,312.9926 F,2,218425,219151,1,0 S,2,218425,219151,2,0.4 P,0,218425,219151,A M,0,218466,218508,282.3744,312.9926,272.2731,348.8433 M,0,218508,218549,272.2731,348.8433,253.4542,381.0918 M,0,218549,218591,253.4542,381.0918,245.858,366.0184
Sprite,Background,Centre,"sb\spotlight.png",91,253 C,0,218675,,233,164,255 F,2,218675,219235,1,0 S,2,218675,219235,2,0.4 P,0,218675,219235,A
Sprite,Background,Centre,"sb\spotlight.png",0,0 C,0,218758,,233,164,255 M,0,218758,218799,91,253,96.46655,229.4255 F,2,218758,219401,1,0 S,2,218758,219401,2,0.4 P,0,218758,219401,A M,0,218799,218841,96.46655,229.4255,101.9331,205.851
Sprite,Background,Centre,"sb\spotlight.png",249,95 C,0,218925,,196,94,234 F,2,218925,219485,1,0 S,2,218925,219485,2,0.4 P,0,218925,219485,A
Sprite,Background,Centre,"sb\spotlight.png",249,95 C,0,219008,,196,94,234 F,2,219008,219568,1,0 S,2,219008,219568,2,0.4 P,0,219008,219568,A
Sprite,Background,Centre,"sb\spotlight.png",0,0 C,0,109758,,111,129,255 M,0,109758,109799,380,322,347.9853,313.9963 F,2,109758,110608,1,0 S,2,109758,110608,2.3,0.46 P,0,109758,110608,A M,0,109799,109841,347.9853,313.9963,315.9706,305.9926 M,0,109841,109883,315.9706,305.9926,292.9518,289.0057 M,0,109883,109924,292.9518,289.0057,260.9042,281.1344 M,0,109924,109966,260.9042,281.1344,228.8568,273.2631 M,0,109966,110008,228.8568,273.2631,196.8092,265.3917
Sprite,Background,Centre,"sb\spotlight.png",0,0 C,0,110092,,233,164,255 M,0,110092,110133,90,317,122.3574,312.2343 F,2,110092,110942,1,0 S,2,110092,110942,2.3,0.46 P,0,110092,110942,A M,0,110133,110175,122.3574,312.2343,150.5137,295.7569 M,0,110175,110217,150.5137,295.7569,170.1466,269.7023 M,0,110217,110258,170.1466,269.7023,178.2236,238.0941 M,0,110258,110300,178.2236,238.0941,173.4973,205.8141 M,0,110300,110342,173.4973,205.8141,156.697,177.8476
Sprite,Background,Centre,"sb\spotlight.png",0,0 C,0,110425,,196,94,234 M,0,110425,110466,94,239,126.7408,235.376 F,2,110425,111275,1,0 S,2,110425,111275,2.3,0.46 P,0,110425,111275,A M,0,110466,110508,126.7408,235.376,156.9195,222.5301 M,0,110508,110550,156.9195,222.5301,181.102,200.1775 M,0,110550,110591,181.102,200.1775,206.4518,179.2551 M,0,110591,110633,206.4518,179.2551,237.4753,168.47 M,0,110633,110675,237.4753,168.47,270.3136,165.6767
Sprite,Background,Centre,"sb\spotlight.png",0,0 C,0,110758,,115,63,237 M,0,110758,110799,358,119,338.2,92.6 F,2,110758,111608,1,0 S,2,110758,111608,2.3,0.46 P,0,110758,111608,A M,0,110799,110841,338.2,92.6,326.9631,85.82342 M,0,110841,110883,326.9631,85.82342,332.8523,118.2937 M,0,110883,110924,332.8523,118.2937,338.7415,150.7639 M,0,110924,110966,338.7415,150.7639,344.6307,183.2342 M,0,110966,111008,344.6307,183.2342,350.5199,215.7044
Sprite,Background,Centre,"sb\spotlight.png",0,0 C,0,111092,,111,129,255 M,0,111092,111133,448,300,469.7099,297.4261 F,2,111092,112025,1,0 S,2,111092,112025,2.3,0.46 P,0,111092,112025,A M,0,111133,111175,469.7099,297.4261,489.9767,289.3126 M,0,111175,111217,489.9767,289.3126,507.2267,275.8172 M,0,111217,111258,507.2267,275.8172,519.4,257.6583 M,0,111258,111300,519.4,257.6583,526.4265,236.9897 M,0,111300,111342,526.4265,236.9897,527.4034,215.1103 M,0,111342,111383,527.4034,215.1103,521.5374,194.0504 M,0,111383,111425,521.5374,194.0504,510.5244,175.1631
Sprite,Background,Centre,"sb\spotlight.png",0,0 C,0,159758,,115,63,237 M,0,159758,159799,333,288,369.0694,279.051 F,2,159758,160524,1,0 S,2,159758,160524,2,0.4 P,0,159758,160524,A M,0,159799,159841,369.0694,279.051,398.0678,255.6838 M,0,159841,159882,398.0678,255.6838,429.2718,235.4541 M,0,159882,159924,429.2718,235.4541,465.2754,225.6253
Sprite,Background,Centre,"sb\spotlight.png",0,0 C,0,160008,,111,129,255 M,0,160008,160049,348,64,337.39,99.60046 F,2,160008,160774,1,0 S,2,160008,160774,2,0.4 P,0,160008,160774,A M,0,160049,160091,337.39,99.60046,343.1339,136.3958 M,0,160091,160132,343.1339,136.3958,345.0208,173.5388 M,0,160132,160174,345.0208,173.5388,335.5642,209.6418
Sprite,Background,Centre,"sb\spotlight.png",0,0 C,0,160258,,233,164,255 M,0,160258,160299,482,147,448.0287,131.8024 F,2,160258,160941,1,0 S,2,160258,160941,2,0.4 P,0,160258,160941,A M,0,160299,160341,448.0287,131.8024,415.3347,114.2151
Sprite,Background,Centre,"sb\spotlight.png",0,0 C,0,160425,,196,94,234 M,0,160425,160466,223,62,200.338,53.96644 F,2,160425,161358,1,0 S,2,160425,161358,2,0.4 P,0,160425,161358,A M,0,160466,160508,200.338,53.96644,176.3958,52.68836 M,0,160508,160549,176.3958,52.68836,153.1722,58.65617 M,0,160549,160591,153.1722,58.65617,132.8084,71.32107 M,0,160591,160633,132.8084,71.32107,117.1828,89.51719 M,0,160633,160674,117.1828,89.51719,107.7377,111.5687 M,0,160674,160716,107.7377,111.5687,105.3468,135.4439 M,0,160716,160758,105.3468,135.4439,110.2341,158.9421
Sprite,Background,Centre,"sb\spotlight.png",289,273 C,0,160925,,196,94,234 F,2,160925,161525,1,0 S,2,160925,161525,2,0.4 P,0,160925,161525,A
Sprite,Background,Centre,"sb\spotlight.png",98,366 C,0,161092,,196,94,234 F,2,161092,161692,1,0 S,2,161092,161692,2,0.4 P,0,161092,161692,A
Sprite,Background,Centre,"sb\spotlight.png",229,192 C,0,161258,,196,94,234 F,2,161258,161858,1,0 S,2,161258,161858,2,0.4 P,0,161258,161858,A
Sprite,Background,Centre,"sb\spotlight.png",336,373 C,0,161425,,196,94,234 F,2,161425,162025,1,0 S,2,161425,162025,2,0.4 P,0,161425,162025,A
Sprite,Background,Centre,"sb\spotlight.png",81,251 C,0,161592,,196,94,234 F,2,161592,162192,1,0 S,2,161592,162192,2,0.4 P,0,161592,162192,A
Sprite,Background,Centre,"sb\spotlight.png",334,95 C,0,161758,,115,63,237 F,2,161758,162358,1,0 S,2,161758,162358,2,0.4 P,0,161758,162358,A
Sprite,Background,Centre,"sb\spotlight.png",369,90 C,0,161842,,115,63,237 F,2,161842,162442,1,0 S,2,161842,162442,2,0.4 P,0,161842,162442,A
Sprite,Background,Centre,"sb\spotlight.png",404,96 C,0,161925,,115,63,237 F,2,161925,162525,1,0 S,2,161925,162525,2,0.4 P,0,161925,162525,A
Sprite,Background,Centre,"sb\spotlight.png",430,121 C,0,162008,,115,63,237 F,2,162008,162608,1,0 S,2,162008,162608,2,0.4 P,0,162008,162608,A
Sprite,Background,Centre,"sb\spotlight.png",446,154 C,0,162092,,115,63,237 F,2,162092,162692,1,0 S,2,162092,162692,2,0.4 P,0,162092,162692,A
Sprite,Background,Centre,"sb\spotlight.png",449,189 C,0,162175,,115,63,237 F,2,162175,162775,1,0 S,2,162175,162775,2,0.4 P,0,162175,162775,A
Sprite,Background,Centre,"sb\spotlight.png",437,223 C,0,162258,,115,63,237 F,2,162258,162858,1,0 S,2,162258,162858,2,0.4 P,0,162258,162858,A
Sprite,Background,Centre,"sb\spotlight.png",407,248 C,0,162342,,115,63,237 F,2,162342,162942,1,0 S,2,162342,162942,2,0.4 P,0,162342,162942,A
Sprite,Background,Centre,"sb\spotlight.png",359,271 C,0,162425,,111,129,255 F,2,162425,163025,1,0 S,2,162425,163025,2,0.4 P,0,162425,163025,A
Sprite,Background,Centre,"sb\spotlight.png",304,251 C,0,162508,,111,129,255 F,2,162508,163108,1,0 S,2,162508,163108,2,0.4 P,0,162508,163108,A
Sprite,Background,Centre,"sb\spotlight.png",269,202 C,0,162592,,111,129,255 F,2,162592,163192,1,0 S,2,162592,163192,2,0.4 P,0,162592,163192,A
Sprite,Background,Centre,"sb\spotlight.png",213,187 C,0,162675,,111,129,255 F,2,162675,163275,1,0 S,2,162675,163275,2,0.4 P,0,162675,163275,A
Sprite,Background,Centre,"sb\spotlight.png",159,207 C,0,162758,,233,164,255 F,2,162758,163358,1,0 S,2,162758,163358,2,0.4 P,0,162758,163358,A
Sprite,Background,Centre,"sb\spotlight.png",122,259 C,0,162842,,233,164,255 F,2,162842,163442,1,0 S,2,162842,163442,2,0.4 P,0,162842,163442,A
Sprite,Background,Centre,"sb\spotlight.png",128,321 C,0,162925,,233,164,255 F,2,162925,163525,1,0 S,2,162925,163525,2,0.4 P,0,162925,163525,A
Sprite,Background,Centre,"sb\spotlight.png",168,368 C,0,163008,,233,164,255 F,2,163008,163608,1,0 S,2,163008,163608,2,0.4 P,0,163008,163608,A
Sprite,Background,Centre,"sb\spotlight.png",0,0 C,0,173758,,111,129,255 M,0,173758,173799,485,227,452.7653,220.1785 F,2,173758,174608,1,0 S,2,173758,174608,2,0.4 P,0,173758,174608,A M,0,173799,173841,452.7653,220.1785,424.1565,204.2328 M,0,173841,173882,424.1565,204.2328,402.6064,179.2886 M,0,173882,173924,402.6064,179.2886,375.4809,161.0818 M,0,173924,173966,375.4809,161.0818,343.3664,153.8379 M,0,173966,174008,343.3664,153.8379,310.4412,151.8623
Sprite,Background,Centre,"sb\spotlight.png",286,151 C,0,174092,,233,164,255 F,2,174092,174692,1,0 S,2,174092,174692,2,0.4 P,0,174092,174692,A
Sprite,Background,Centre,"sb\spotlight.png",106,253 C,0,174258,,233,164,255 F,2,174258,174858,1,0 S,2,174258,174858,2,0.4 P,0,174258,174858,A
Sprite,Background,Centre,"sb\spotlight.png",301,262 C,0,174425,,196,94,234 F,2,174425,175025,1,0 S,2,174425,175025,2,0.4 P,0,174425,175025,A
Sprite,Background,Centre,"sb\spotlight.png",87,144 C,0,174592,,196,94,234 F,2,174592,175192,1,0 S,2,174592,175192,2,0.4 P,0,174592,175192,A
Sprite,Background,Centre,"sb\spotlight.png",307,139 C,0,174758,,115,63,237 F,2,174758,175358,1,0 S,2,174758,175358,2,0.4 P,0,174758,175358,A
Sprite,Background,Centre,"sb\spotlight.png",82,268 C,0,174925,,115,63,237 F,2,174925,175525,1,0 S,2,174925,175525,2,0.4 P,0,174925,175525,A
Sprite,Background,Centre,"sb\spotlight.png",322,274 C,0,175092,,111,129,255 F,2,175092,175692,1,0 S,2,175092,175692,2,0.4 P,0,175092,175692,A
Sprite,Background,Centre,"sb\spotlight.png",64,132 C,0,175258,,111,129,255 F,2,175258,175858,1,0 S,2,175258,175858,2,0.4 P,0,175258,175858,A
Sprite,Background,Centre,"sb\spotlight.png",338,62 C,0,175425,,233,164,255 F,2,175425,176025,1,0 S,2,175425,176025,2,0.4 P,0,175425,176025,A
Sprite,Background,Centre,"sb\spotlight.png",249,337 C,0,175592,,233,164,255 F,2,175592,176192,1,0 S,2,175592,176192,2,0.4 P,0,175592,176192,A
Sprite,Background,Centre,"sb\spotlight.png",242,59 C,0,175758,,196,94,234 F,2,175758,176358,1,0 S,2,175758,176358,2,0.4 P,0,175758,176358,A
Sprite,Background,Centre,"sb\spotlight.png",337,367 C,0,175925,,196,94,234 F,2,175925,176525,1,0 S,2,175925,176525,2,0.4 P,0,175925,176525,A
Sprite,Background,Centre,"sb\spotlight.png",438,62 C,0,176092,,115,63,237 F,2,176092,176692,1,0 S,2,176092,176692,2,0.4 P,0,176092,176692,A
Sprite,Background,Centre,"sb\spotlight.png",192,249 C,0,176258,,115,63,237 F,2,176258,176858,1,0 S,2,176258,176858,2,0.4 P,0,176258,176858,A
Sprite,Background,Centre,"sb\spotlight.png",0,0 C,0,176425,,111,129,255 M,0,176425,176466,450,369,473.01,361.5313 F,2,176425,177191,1,0 S,2,176425,177191,2,0.4 P,0,176425,177191,A M,0,176466,176508,473.01,361.5313,496.5897,356.1259 M,0,176508,176549,496.5897,356.1259,520.5544,352.8262 M,0,176549,176591,520.5544,352.8262,544.7167,351.6578
Sprite,Background,Centre,"sb\spotlight.png",379,219 C,0,176758,,233,164,255 F,2,176758,177358,1,0 S,2,176758,177358,2,0.4 P,0,176758,177358,A
Sprite,Background,Centre,"sb\spotlight.png",268,410 C,0,176925,,233,164,255 F,2,176925,177525,1,0 S,2,176925,177525,2,0.4 P,0,176925,177525,A
Sprite,Background,Centre,"sb\spotlight.png",490,258 C,0,177092,,196,94,234 F,2,177092,177692,1,0 S,2,177092,177692,2,0.4 P,0,177092,177692,A
Sprite,Background,Centre,"sb\spotlight.png",0,0 C,0,177258,,196,94,234 M,0,177258,177299,245,149,246.5835,173.1481 F,2,177258,177941,1,0 S,2,177258,177941,2,0.4 P,0,177258,177941,A M,0,177299,177341,246.5835,173.1481,248.167,197.2963
Sprite,Background,Centre,"sb\spotlight.png",0,0 C,0,177425,,196,94,234 M,0,177425,177466,369,394,367.031,369.8802 F,2,177425,178108,1,0 S,2,177425,178108,2,0.4 P,0,177425,178108,A M,0,177466,177508,367.031,369.8802,365.0621,345.7605
Sprite,Background,Centre,"sb\spotlight.png",0,0 C,0,177591,,115,63,237 M,0,177591,177632,174,135,141.3608,132.8823 F,2,177591,178441,1,0 S,2,177591,178441,2,0.4 P,0,177591,178441,A M,0,177632,177674,141.3608,132.8823,110.3712,143.0827 M,0,177674,177715,110.3712,143.0827,85.69388,164.4236 M,0,177715,177757,85.69388,164.4236,71.12989,193.6177 M,0,177757,177799,71.12989,193.6177,68.92266,226.1684 M,0,177799,177841,68.92266,226.1684,79.41229,257.0616
Sprite,Background,Centre,"sb\spotlight.png",79,257 C,0,177925,,115,63,237 F,2,177925,178525,1,0 S,2,177925,178525,2,0.4 P,0,177925,178525,A
Sprite,Background,Centre,"sb\spotlight.png",224,398 C,0,178092,,115,63,237 F,2,178092,178692,1,0 S,2,178092,178692,2,0.4 P,0,178092,178692,A
Sprite,Background,Centre,"sb\spotlight.png",152,423 C,0,178258,,111,129,255 F,2,178258,178858,1,0 S,2,178258,178858,2,0.4 P,0,178258,178858,A
Sprite,Background,Centre,"sb\spotlight.png",152,407 C,0,178342,,111,129,255 F,2,178342,178942,1,0 S,2,178342,178942,2,0.4 P,0,178342,178942,A
Sprite,Background,Centre,"sb\spotlight.png",153,392 C,0,178425,,111,129,255 F,2,178425,179025,1,0 S,2,178425,179025,2,0.4 P,0,178425,179025,A
Sprite,Background,Centre,"sb\spotlight.png",272,300 C,0,178591,,233,164,255 F,2,178591,179191,1,0 S,2,178591,179191,2,0.4 P,0,178591,179191,A
Sprite,Background,Centre,"sb\spotlight.png",272,316 C,0,178674,,233,164,255 F,2,178674,179274,1,0 S,2,178674,179274,2,0.4 P,0,178674,179274,A
Sprite,Background,Centre,"sb\spotlight.png",271,331 C,0,178759,,233,164,255 F,2,178759,179359,1,0 S,2,178759,179359,2,0.4 P,0,178759,179359,A
Sprite,Background,Centre,"sb\spotlight.png",212,252 C,0,178925,,233,164,255 F,2,178925,179525,1,0 S,2,178925,179525,2,0.4 P,0,178925,179525,A
Sprite,Background,Centre,"sb\cir2.png",0,0 L,213425,1 F,1,0,1155,0,0.1843137 M,2,0,5775,192.5463,626.2764,178.0746,376.6956 F,2,4620,5775,0.1843137,0 S,0,213425,,0.3 R,0,213425,,-1.628715 C,0,213425,,198,198,198 P,0,213425,219200,A
Sprite,Background,Centre,"sb\cir2.png",0,0 L,214250,1 F,1,0,1155,0,0.1843137 M,2,0,5775,442.7677,378.4437,470.2377,129.9575 F,2,4620,5775,0.1843137,0 S,0,214250,,0.3 R,0,214250,,-1.460694 C,0,214250,,163,163,163 P,0,214250,220025,A
Sprite,Background,Centre,"sb\cir2.png",0,0 L,215075,1 F,1,0,1155,0,0.1843137 M,2,0,5775,545.7351,407.7375,519.511,159.1167 F,2,4620,5775,0.1843137,0 S,0,215075,,0.3 R,0,215075,,-1.675886 C,0,215075,,213,213,213 P,0,215075,220850,A
Sprite,Background,Centre,"sb\cir2.png",0,0 L,215900,1 F,1,0,1155,0,0.1843137 M,2,0,5775,529.8906,767.0104,505.2118,518.2315 F,2,4620,5775,0.1843137,0 S,0,215900,,0.3 R,0,215900,,-1.669673 C,0,215900,,169,169,169 P,0,215900,221675,A
Sprite,Background,Centre,"sb\cir2.png",0,0 L,216725,1 F,1,0,1155,0,0.1843137 M,2,0,5775,196.4061,457.8456,216.9646,208.6923 F,2,4620,5775,0.1843137,0 S,0,216725,,0.3 R,0,216725,,-1.488469 C,0,216725,,164,164,164 P,0,216725,222500,A
Sprite,Background,Centre,"sb\cir2.png",0,0 L,217550,1 F,1,0,1155,0,0.1843137 M,2,0,5775,295.5433,252.2164,312.9792,2.825119 F,2,4620,5775,0.1843137,0 S,0,217550,,0.3 R,0,217550,,-1.500996 C,0,217550,,148,148,148 P,0,217550,223325,A
Sprite,Background,Centre,"sb\cir2.png",0,0 L,218375,1 F,1,0,1155,0,0.1843137 M,2,0,5775,648.5551,517.3031,636.818,267.5787 F,2,4620,5775,0.1843137,0 S,0,218375,,0.3 R,0,218375,,-1.617762 C,0,218375,,205,205,205 P,0,218375,224150,A
Sprite,Background,Centre,"sb\spotlight.png",309,228 C,0,213092,,111,129,255 F,2,213092,213642,1,0 S,2,213092,213642,2,0.4 P,0,213092,213642,A
Sprite,Background,Centre,"sb\spotlight.png",340,258 C,0,213175,,111,129,255 F,2,213175,213725,1,0 S,2,213175,213725,2,0.4 P,0,213175,213725,A
Sprite,Background,Centre,"sb\spotlight.png",374,283 C,0,213258,,111,129,255 F,2,213258,213808,1,0 S,2,213258,213808,2,0.4 P,0,213258,213808,A
Sprite,Background,Centre,"sb\spotlight.png",415,297 C,0,213342,,111,129,255 F,2,213342,213892,1,0 S,2,213342,213892,2,0.4 P,0,213342,213892,A
Sprite,Background,Centre,"sb\spotlight.png",476,283 C,0,213425,,233,164,255 F,2,213425,213975,1,0 S,2,213425,213975,2,0.4 P,0,213425,213975,A
Sprite,Background,Centre,"sb\spotlight.png",518,236 C,0,213508,,233,164,255 F,2,213508,214058,1,0 S,2,213508,214058,2,0.4 P,0,213508,214058,A
Sprite,Background,Centre,"sb\spotlight.png",528,173 C,0,213592,,233,164,255 F,2,213592,214142,1,0 S,2,213592,214142,2,0.4 P,0,213592,214142,A
Sprite,Background,Centre,"sb\spotlight.png",497,118 C,0,213675,,233,164,255 F,2,213675,214225,1,0 S,2,213675,214225,2,0.4 P,0,213675,214225,A
Sprite,Background,Centre,"sb\spotlight.png",0,0 C,0,208425,,111,129,255 M,0,208425,208466,459,141,452.69,173.3911 F,2,208425,209275,1,0 S,2,208425,209275,2,0.4 P,0,208425,209275,A M,0,208466,208508,452.69,173.3911,446.3801,205.7822 M,0,208508,208549,446.3801,205.7822,444.8372,237.8122 M,0,208549,208591,444.8372,237.8122,438.8938,270.2726 M,0,208591,208633,438.8938,270.2726,432.9503,302.7329 M,0,208633,208675,432.9503,302.7329,427.0069,335.1933
Sprite,Background,Centre,"sb\spotlight.png",0,0 C,0,208758,,233,164,255 M,0,208758,208799,475,421,471.0074,388.47 F,2,208758,209608,1,0 S,2,208758,209608,2,0.4 P,0,208758,209608,A M,0,208799,208841,471.0074,388.47,454.7087,360.0492 M,0,208841,208882,454.7087,360.0492,428.6662,340.1884 M,0,208882,208924,428.6662,340.1884,396.9672,331.994 M,0,208924,208966,396.9672,331.994,364.5827,336.7431 M,0,208966,209008,364.5827,336.7431,336.5206,353.6203
Sprite,Background,Centre,"sb\spotlight.png",0,0 C,0,209092,,196,94,234 M,0,209092,209133,232,367,240.5791,398.8653 F,2,209092,209942,1,0 S,2,209092,209942,2,0.4 P,0,209092,209942,A M,0,209133,209175,240.5791,398.8653,249.0173,407.2323 M,0,209175,209216,249.0173,407.2323,257.2137,375.2664 M,0,209216,209258,257.2137,375.2664,265.4101,343.3005 M,0,209258,209300,265.4101,343.3005,273.6065,311.3346 M,0,209300,209342,273.6065,311.3346,281.8029,279.3687
Sprite,Background,Centre,"sb\spotlight.png",0,0 C,0,209425,,115,63,237 M,0,209425,209466,186,233,218.359,226.8546 F,2,209425,210275,1,0 S,2,209425,210275,2,0.4 P,0,209425,210275,A M,0,209466,209508,218.359,226.8546,247.5669,211.876 M,0,209508,209549,247.5669,211.876,270.9667,188.6805 M,0,209549,209591,270.9667,188.6805,295.2141,166.4232 M,0,209591,209633,295.2141,166.4232,325.0393,152.6218 M,0,209633,209675,325.0393,152.6218,357.4229,146.524
Sprite,Background,Centre,"sb\spotlight.png",361,298 C,0,228592,,115,63,237 F,2,228592,229142,1,0 S,2,228592,229142,2,0.4 P,0,228592,229142,A
Sprite,Background,Centre,"sb\spotlight.png",335,304 C,0,228675,,115,63,237 F,2,228675,229225,1,0 S,2,228675,229225,2,0.4 P,0,228675,229225,A
Sprite,Background,Centre,"sb\spotlight.png",308,305 C,0,228758,,115,63,237 F,2,228758,229308,1,0 S,2,228758,229308,2,0.4 P,0,228758,229308,A
Sprite,Background,Centre,"sb\spotlight.png",282,297 C,0,228842,,115,63,237 F,2,228842,229392,1,0 S,2,228842,229392,2,0.4 P,0,228842,229392,A
Sprite,Background,Centre,"sb\spotlight.png",261,281 C,0,228925,,115,63,237 F,2,228925,229475,1,0 S,2,228925,229475,2,0.4 P,0,228925,229475,A
Sprite,Background,Centre,"sb\spotlight.png",252,256 C,0,229008,,115,63,237 F,2,229008,229558,1,0 S,2,229008,229558,2,0.4 P,0,229008,229558,A
Sprite,Background,Centre,"sb\spotlight.png",230,227 C,0,229092,,111,129,255 F,2,229092,229642,1,0 S,2,229092,229642,2,0.4 P,0,229092,229642,A
Sprite,Background,Centre,"sb\spotlight.png",196,215 C,0,229175,,111,129,255 F,2,229175,229725,1,0 S,2,229175,229725,2,0.4 P,0,229175,229725,A
Sprite,Background,Centre,"sb\spotlight.png",160,215 C,0,229258,,111,129,255 F,2,229258,229808,1,0 S,2,229258,229808,2,0.4 P,0,229258,229808,A
Sprite,Background,Centre,"sb\spotlight.png",127,228 C,0,229342,,111,129,255 F,2,229342,229892,1,0 S,2,229342,229892,2,0.4 P,0,229342,229892,A
Sprite,Background,Centre,"sb\spotlight.png",106,256 C,0,229425,,233,164,255 F,2,229425,229975,1,0 S,2,229425,229975,2,0.4 P,0,229425,229975,A
Sprite,Background,Centre,"sb\spotlight.png",71,216 C,0,229508,,233,164,255 F,2,229508,230058,1,0 S,2,229508,230058,2,0.4 P,0,229508,230058,A
Sprite,Background,Centre,"sb\spotlight.png",66,162 C,0,229592,,233,164,255 F,2,229592,230142,1,0 S,2,229592,230142,2,0.4 P,0,229592,230142,A
Sprite,Background,Centre,"sb\spotlight.png",91,116 C,0,229675,,233,164,255 F,2,229675,230225,1,0 S,2,229675,230225,2,0.4 P,0,229675,230225,A
Sprite,Background,Centre,"sb\spotlight.png",0,0 C,0,184425,,196,94,234 M,0,184425,184466,461,241,457.7013,260.5209 F,2,184425,185171,1,0 S,2,184425,185171,2,0.4 P,0,184425,185171,A M,0,184466,184508,457.7013,260.5209,455.152,280.1529 M,0,184508,184549,455.152,280.1529,453.2941,299.8631 M,0,184549,184591,453.2941,299.8631,452.3026,319.6357
Sprite,Background,Centre,"sb\spotlight.png",0,0 C,0,184758,,196,94,234 M,0,184758,184799,296,406,296.5135,386.2104 F,2,184758,185504,1,0 S,2,184758,185504,2,0.4 P,0,184758,185504,A M,0,184799,184841,296.5135,386.2104,298.026,366.4734 M,0,184841,184882,298.026,366.4734,300.5334,346.8391 M,0,184882,184924,300.5334,346.8391,303.9343,327.3374
Sprite,Background,Centre,"sb\spotlight.png",207,138 C,0,185092,,115,63,237 F,2,185092,185672,1,0 S,2,185092,185672,2,0.4 P,0,185092,185672,A
Sprite,Background,Centre,"sb\spotlight.png",179,139 C,0,185175,,115,63,237 F,2,185175,185755,1,0 S,2,185175,185755,2,0.4 P,0,185175,185755,A
Sprite,Background,Centre,"sb\spotlight.png",153,148 C,0,185258,,115,63,237 F,2,185258,185838,1,0 S,2,185258,185838,2,0.4 P,0,185258,185838,A
Sprite,Background,Centre,"sb\spotlight.png",132,166 C,0,185342,,115,63,237 F,2,185342,185922,1,0 S,2,185342,185922,2,0.4 P,0,185342,185922,A
Sprite,Background,Centre,"sb\spotlight.png",120,191 C,0,185425,,115,63,237 F,2,185425,186005,1,0 S,2,185425,186005,2,0.4 P,0,185425,186005,A
Sprite,Background,Centre,"sb\spotlight.png",114,218 C,0,185508,,115,63,237 F,2,185508,186088,1,0 S,2,185508,186088,2,0.4 P,0,185508,186088,A
Sprite,Background,Centre,"sb\spotlight.png",117,245 C,0,185592,,115,63,237 F,2,185592,186172,1,0 S,2,185592,186172,2,0.4 P,0,185592,186172,A
Sprite,Background,Centre,"sb\spotlight.png",124,271 C,0,185675,,115,63,237 F,2,185675,186255,1,0 S,2,185675,186255,2,0.4 P,0,185675,186255,A
Sprite,Background,Centre,"sb\spotlight.png",0,0 C,0,185758,,115,63,237 M,0,185758,185799,142,291,165.5693,285.5112 F,2,185758,186421,1,0 S,2,185758,186421,2,0.4 P,0,185758,186421,A M,0,185799,185841,165.5693,285.5112,189.1387,280.0225
Sprite,Background,Centre,"sb\spotlight.png",286,122 C,0,185925,,111,129,255 F,2,185925,186505,1,0 S,2,185925,186505,2,0.4 P,0,185925,186505,A
Sprite,Background,Centre,"sb\spotlight.png",318,129 C,0,186008,,111,129,255 F,2,186008,186588,1,0 S,2,186008,186588,2,0.4 P,0,186008,186588,A
Sprite,Background,Centre,"sb\spotlight.png",351,136 C,0,186092,,111,129,255 F,2,186092,186672,1,0 S,2,186092,186672,2,0.4 P,0,186092,186672,A
Sprite,Background,Centre,"sb\spotlight.png",383,144 C,0,186175,,111,129,255 F,2,186175,186755,1,0 S,2,186175,186755,2,0.4 P,0,186175,186755,A
Sprite,Background,Centre,"sb\spotlight.png",0,0 C,0,186258,,111,129,255 M,0,186258,186299,415,153,438.3473,159.3674 F,2,186258,186921,1,0 S,2,186258,186921,2,0.4 P,0,186258,186921,A M,0,186299,186341,438.3473,159.3674,461.6946,165.7349
Sprite,Background,Centre,"sb\spotlight.png",572,315 C,0,186425,,233,164,255 F,2,186425,187005,1,0 S,2,186425,187005,2,0.4 P,0,186425,187005,A
Sprite,Background,Centre,"sb\spotlight.png",524,291 C,0,186508,,233,164,255 F,2,186508,187088,1,0 S,2,186508,187088,2,0.4 P,0,186508,187088,A
Sprite,Background,Centre,"sb\spotlight.png",470,295 C,0,186592,,233,164,255 F,2,186592,187172,1,0 S,2,186592,187172,2,0.4 P,0,186592,187172,A
Sprite,Background,Centre,"sb\spotlight.png",427,327 C,0,186675,,233,164,255 F,2,186675,187255,1,0 S,2,186675,187255,2,0.4 P,0,186675,187255,A
Sprite,Background,Centre,"sb\spotlight.png",404,374 C,0,186758,,233,164,255 F,2,186758,187338,1,0 S,2,186758,187338,2,0.4 P,0,186758,187338,A
Sprite,Background,Centre,"sb\spotlight.png",359,403 C,0,186842,,233,164,255 F,2,186842,187422,1,0 S,2,186842,187422,2,0.4 P,0,186842,187422,A
Sprite,Background,Centre,"sb\spotlight.png",306,399 C,0,186925,,233,164,255 F,2,186925,187505,1,0 S,2,186925,187505,2,0.4 P,0,186925,187505,A
Sprite,Background,Centre,"sb\spotlight.png",266,364 C,0,187008,,233,164,255 F,2,187008,187588,1,0 S,2,187008,187588,2,0.4 P,0,187008,187588,A
Sprite,Background,Centre,"sb\spotlight.png",0,0 C,0,187092,,233,164,255 M,0,187092,187133,244,314,248.4869,290.2196 F,2,187092,187755,1,0 S,2,187092,187755,2,0.4 P,0,187092,187755,A M,0,187133,187175,248.4869,290.2196,252.9737,266.4392
Sprite,Background,Centre,"sb\spotlight.png",226,72 C,0,187258,,196,94,234 F,2,187258,187838,1,0 S,2,187258,187838,2,0.4 P,0,187258,187838,A
Sprite,Background,Centre,"sb\spotlight.png",175,56 C,0,187342,,196,94,234 F,2,187342,187922,1,0 S,2,187342,187922,2,0.4 P,0,187342,187922,A
Sprite,Background,Centre,"sb\spotlight.png",123,64 C,0,187425,,196,94,234 F,2,187425,188005,1,0 S,2,187425,188005,2,0.4 P,0,187425,188005,A
Sprite,Background,Centre,"sb\spotlight.png",79,92 C,0,187508,,196,94,234 F,2,187508,188088,1,0 S,2,187508,188088,2,0.4 P,0,187508,188088,A
Sprite,Background,Centre,"sb\spotlight.png",67,144 C,0,187592,,196,94,234 F,2,187592,188172,1,0 S,2,187592,188172,2,0.4 P,0,187592,188172,A
Sprite,Background,Centre,"sb\spotlight.png",78,195 C,0,187675,,196,94,234 F,2,187675,188255,1,0 S,2,187675,188255,2,0.4 P,0,187675,188255,A
Sprite,Background,Centre,"sb\spotlight.png",113,235 C,0,187758,,115,63,237 F,2,187758,188338,1,0 S,2,187758,188338,2,0.4 P,0,187758,188338,A
Sprite,Background,Centre,"sb\spotlight.png",172,258 C,0,187842,,115,63,237 F,2,187842,188422,1,0 S,2,187842,188422,2,0.4 P,0,187842,188422,A
Sprite,Background,Centre,"sb\spotlight.png",231,235 C,0,187925,,115,63,237 F,2,187925,188505,1,0 S,2,187925,188505,2,0.4 P,0,187925,188505,A
Sprite,Background,Centre,"sb\spotlight.png",266,182 C,0,188008,,115,63,237 F,2,188008,188588,1,0 S,2,188008,188588,2,0.4 P,0,188008,188588,A
Sprite,Background,Centre,"sb\spotlight.png",326,160 C,0,188092,,115,63,237 F,2,188092,188672,1,0 S,2,188092,188672,2,0.4 P,0,188092,188672,A
Sprite,Background,Centre,"sb\spotlight.png",389,168 C,0,188175,,115,63,237 F,2,188175,188755,1,0 S,2,188175,188755,2,0.4 P,0,188175,188755,A
Sprite,Background,Centre,"sb\spotlight.png",436,209 C,0,188258,,115,63,237 F,2,188258,188838,1,0 S,2,188258,188838,2,0.4 P,0,188258,188838,A
Sprite,Background,Centre,"sb\spotlight.png",449,271 C,0,188342,,115,63,237 F,2,188342,188922,1,0 S,2,188342,188922,2,0.4 P,0,188342,188922,A
Sprite,Background,Centre,"sb\spotlight.png",434,331 C,0,188425,,111,129,255 F,2,188425,189005,1,0 S,2,188425,189005,2,0.4 P,0,188425,189005,A
Sprite,Background,Centre,"sb\spotlight.png",166,163 C,0,188592,,111,129,255 F,2,188592,189172,1,0 S,2,188592,189172,2,0.4 P,0,188592,189172,A
Sprite,Background,Centre,"sb\ring.png",434,331 C,0,188425,,111,129,255 F,2,188425,188925,1,0 S,2,188425,188925,0.7,0.14 P,0,188425,188925,A
Sprite,Background,Centre,"sb\ring.png",166,163 C,0,188592,,111,129,255 F,2,188592,189092,1,0 S,2,188592,189092,0.7,0.14 P,0,188592,189092,A
Sprite,Background,Centre,"sb\spotlight.png",0,0 C,0,196425,,196,94,234 M,0,196425,196466,445,179,408.1531,184.8289 F,2,196425,197275,1,0 S,2,196425,197275,2,0.4 P,0,196425,197275,A M,0,196466,196508,408.1531,184.8289,371.1991,180.1658 M,0,196508,196549,371.1991,180.1658,337.5171,164.2491 M,0,196549,196591,337.5171,164.2491,309.3124,139.8193 M,0,196591,196633,309.3124,139.8193,334.3527,144.6849 M,0,196633,196675,334.3527,144.6849,371.3879,148.5659
Sprite,Background,Centre,"sb\spotlight.png",0,0 C,0,196758,,115,63,237 M,0,196758,196799,464,309,476.9088,274.0003 F,2,196758,197608,1,0 S,2,196758,197608,2,0.4 P,0,196758,197608,A M,0,196799,196841,476.9088,274.0003,499.0913,244.0835 M,0,196841,196882,499.0913,244.0835,529.5641,222.6605 M,0,196882,196924,529.5641,222.6605,564.7771,210.3215 M,0,196924,196966,564.7771,210.3215,548.0725,229.8867 M,0,196966,197008,548.0725,229.8867,526.3049,260.1183
Sprite,Background,Centre,"sb\spotlight.png",0,0 C,0,197092,,111,129,255 M,0,197092,197133,341,270,364.7423,298.7658 F,2,197092,197942,1,0 S,2,197092,197942,2,0.4 P,0,197092,197942,A M,0,197133,197175,364.7423,298.7658,379.1719,333.094 M,0,197175,197216,379.1719,333.094,381.983,370.2386 M,0,197216,197258,381.983,370.2386,374.7048,406.8381 M,0,197258,197300,374.7048,406.8381,366.0699,380.8239 M,0,197300,197342,366.0699,380.8239,350.3028,347.0875
Sprite,Background,Centre,"sb\spotlight.png",231,204 C,0,197425,,233,164,255 F,2,197425,198025,1,0 S,2,197425,198025,2,0.4 P,0,197425,198025,A
Sprite,Background,Centre,"sb\spotlight.png",98,345 C,0,197592,,196,94,234 F,2,197592,198192,1,0 S,2,197592,198192,2,0.4 P,0,197592,198192,A
Sprite,Background,Centre,"sb\spotlight.png",0,0 C,0,87092,,196,94,234 M,0,87092,87133,428,278,449.1057,247.2412 F,2,87092,87842,1,0 S,2,87092,87842,2,0.4 P,0,87092,87842,A M,0,87133,87175,449.1057,247.2412,460.6896,211.8447 M,0,87175,87217,460.6896,211.8447,460.5966,174.5934 M,0,87217,87258,460.5966,174.5934,450.425,138.6928 M,0,87258,87300,450.425,138.6928,443.9684,163.9265 M,0,87300,87342,443.9684,163.9265,431.5089,199.0264
Sprite,Background,Centre,"sb\spotlight.png",0,0 C,0,87425,,115,63,237 M,0,87425,87466,333,330,348.9226,363.7395 F,2,87425,88175,1,0 S,2,87425,88175,2,0.4 P,0,87425,88175,A M,0,87466,87508,348.9226,363.7395,373.3283,391.8955 M,0,87508,87550,373.3283,391.8955,404.9421,411.6353 M,0,87550,87591,404.9421,411.6353,440.5915,422.6823 M,0,87591,87633,440.5915,422.6823,423.0978,407.5875 M,0,87633,87675,423.0978,407.5875,398.7127,379.4838
Sprite,Background,Centre,"sb\spotlight.png",0,0 C,0,87758,,111,129,255 M,0,87758,87799,325,213,287.8264,209.8485 F,2,87758,88508,1,0 S,2,87758,88508,2,0.4 P,0,87758,88508,A M,0,87799,87841,287.8264,209.8485,251.3164,217.1985 M,0,87841,87883,251.3164,217.1985,219.047,235.7923 M,0,87883,87924,219.047,235.7923,193.1906,262.6866 M,0,87924,87966,193.1906,262.6866,219.3166,254.2277 M,0,87966,88008,219.3166,254.2277,256.1888,249.2744
Sprite,Background,Centre,"sb\spotlight.png",396,133 C,0,88092,,233,164,255 F,2,88092,88592,1,0 S,2,88092,88592,2,0.4 P,0,88092,88592,A
Sprite,Background,Centre,"sb\spotlight.png",178,71 C,0,88258,,196,94,234 F,2,88258,88758,1,0 S,2,88258,88758,2,0.4 P,0,88258,88758,A
//Storyboard Layer 1 (Fail)
//Storyboard Layer 2 (Pass)
//Storyboard Layer 3 (Foreground)
//Storyboard Layer 4 (Overlay)
//Storyboard Sound Samples

[TimingPoints]
425,333.333333333333,4,2,1,30,1,0
1758,-200,4,2,1,30,0,0
8424,-166.666666666667,4,2,1,30,0,0
9091,-200,4,2,1,30,0,0
17091,-166.666666666667,4,2,1,30,0,0
17758,-200,4,2,1,30,0,0
23091,-142.857142857143,4,2,1,30,0,0
31758,-250,4,2,1,50,0,0
32424,-100,4,2,1,50,0,0
45758,-111.111111111111,4,2,1,50,0,0
48424,-100,4,2,1,50,0,0
56258,-100,4,2,1,65,0,0
61758,-66.6666666666667,4,2,1,70,0,1
62008,-66.6666666666667,4,2,1,5,0,1
62092,-90.9090909090909,4,2,1,70,0,1
64425,-66.6666666666667,4,2,1,70,0,1
64675,-66.6666666666667,4,2,1,5,0,1
64758,-90.9090909090909,4,2,1,70,0,1
67092,-76.9230769230769,4,2,1,70,0,1
67342,-76.9230769230769,4,2,1,5,0,1
67425,-66.6666666666667,4,2,1,70,0,1
67758,-90.9090909090909,4,2,1,70,0,1
68675,-90.9090909090909,4,2,1,5,0,1
68758,-66.6666666666667,4,2,1,70,0,1
69842,-66.6666666666667,4,2,1,5,0,1
69925,-90.9090909090909,4,2,1,70,0,1
71258,-90.9090909090909,4,2,1,70,0,0
71758,-90.9090909090909,4,2,1,70,0,1
71924,-90.9090909090909,4,2,1,70,0,0
72424,-66.6666666666667,4,2,1,70,0,1
72675,-66.6666666666667,4,2,1,5,0,1
72758,-90.9090909090909,4,2,1,70,0,1
75092,-66.6666666666667,4,2,1,70,0,1
75342,-66.6666666666667,4,2,1,5,0,1
75425,-90.9090909090909,4,2,1,70,0,1
76258,-66.6666666666667,4,2,1,70,0,1
76508,-66.6666666666667,4,2,1,5,0,1
76592,-66.6666666666667,4,2,1,70,0,1
77758,-90.9090909090909,4,2,1,60,0,0
79092,-133.333333333333,4,2,1,60,0,0
80424,-133.333333333333,4,2,1,70,0,1
81924,-133.333333333333,4,2,1,70,0,0
83092,-111.111111111111,4,2,1,70,0,0
85758,-100,4,2,1,70,0,0
87092,-58.8235294117647,4,2,1,70,0,0
87342,-58.8235294117647,4,2,1,5,0,0
87425,-58.8235294117647,4,2,1,70,0,0
87675,-58.8235294117647,4,2,1,5,0,0
87758,-58.8235294117647,4,2,1,70,0,0
88008,-58.8235294117647,4,2,1,5,0,0
88092,-58.8235294117647,4,2,1,70,0,0
88425,-90.9090909090909,4,2,1,70,0,0
93758,-90.9090909090909,4,2,1,50,0,0
98758,-200,4,2,1,50,0,0
103758,-100,4,2,1,50,0,0
104425,-66.6666666666667,4,2,1,50,0,0
104758,-100,4,2,1,50,0,0
109758,-66.6666666666667,4,2,1,70,0,0
110008,-66.6666666666667,4,2,1,5,0,0
110092,-66.6666666666667,4,2,1,70,0,0
110342,-66.6666666666667,4,2,1,5,0,0
110425,-66.6666666666667,4,2,1,70,0,0
110675,-66.6666666666667,4,2,1,5,0,0
110758,-66.6666666666667,4,2,1,70,0,0
111008,-66.6666666666667,4,2,1,5,0,0
111092,-100,4,2,1,50,0,0
112425,-100,4,2,1,60,0,0
113758,-100,4,2,1,65,0,0
115091,-66.6666666666667,4,2,1,70,0,1
115342,-66.6666666666667,4,2,1,5,0,1
115425,-90.9090909090909,4,2,1,70,0,1
117758,-66.6666666666667,4,2,1,70,0,1
118008,-66.6666666666667,4,2,1,5,0,1
118092,-90.9090909090909,4,2,1,70,0,1
120425,-76.9230769230769,4,2,1,70,0,1
120675,-76.9230769230769,4,2,1,5,0,1
120758,-66.6666666666667,4,2,1,70,0,1
121092,-90.9090909090909,4,2,1,70,0,1
122008,-90.9090909090909,4,2,1,5,0,1
122092,-66.6666666666667,4,2,1,70,0,1
123175,-66.6666666666667,4,2,1,5,0,1
123258,-90.9090909090909,4,2,1,70,0,1
124591,-90.9090909090909,4,2,1,70,0,0
125091,-90.9090909090909,4,2,1,70,0,1
125258,-90.9090909090909,4,2,1,70,0,0
125758,-66.6666666666667,4,2,1,70,0,1
126008,-66.6666666666667,4,2,1,5,0,1
126092,-90.9090909090909,4,2,1,70,0,1
128425,-66.6666666666667,4,2,1,70,0,1
128675,-66.6666666666667,4,2,1,5,0,1
128758,-90.9090909090909,4,2,1,70,0,1
129592,-66.6666666666667,4,2,1,70,0,1
129842,-66.6666666666667,4,2,1,5,0,1
129925,-90.9090909090909,4,2,1,70,0,1
131091,-90.9090909090909,4,2,1,60,0,0
132425,-133.333333333333,4,2,1,60,0,0
132869,-90.9090909090909,4,2,1,60,0,0
133758,-133.333333333333,4,2,1,60,0,1
135258,-133.333333333333,4,2,1,60,0,0
135592,-133.333333333333,4,2,1,40,0,0
136425,-200,4,2,1,40,0,0
140425,-111.111111111111,4,2,1,50,0,0
141092,-111.111111111111,4,2,1,60,0,0
141758,-90.9090909090909,4,2,1,60,0,0
147092,-111.111111111111,4,2,1,60,0,0
150342,-111.111111111111,4,2,1,5,0,0
150424,-90.9090909090909,4,2,1,60,0,0
156675,-90.9090909090909,4,2,1,5,0,0
156758,-66.6666666666667,4,2,1,60,0,0
157092,-90.9090909090909,4,2,1,60,0,0
157758,-111.111111111111,4,2,1,60,0,0
159592,-58.8235294117647,4,2,1,60,0,0
160425,-90.9090909090909,4,2,1,60,0,0
167925,-133.333333333333,4,2,1,40,0,0
170924,-66.6666666666667,4,2,1,70,0,1
171175,-66.6666666666667,4,2,1,5,0,1
171258,-90.9090909090909,4,2,1,70,0,1
172591,-66.6666666666667,4,2,1,70,0,0
173091,-66.6666666666667,4,2,1,70,0,1
173258,-66.6666666666667,4,2,1,70,0,0
173758,-66.6666666666667,4,2,1,70,0,1
174008,-66.6666666666667,4,2,1,5,0,1
174092,-90.9090909090909,4,2,1,70,0,1
177591,-66.6666666666667,4,2,1,70,0,1
177842,-66.6666666666667,4,2,1,5,0,1
177925,-90.9090909090909,4,2,1,70,0,1
179174,-90.9090909090909,4,2,1,70,0,0
181092,-133.333333333333,4,2,1,70,0,0
181758,-133.333333333333,4,2,1,70,0,1
182925,-90.9090909090909,4,2,1,70,0,1
183758,-90.9090909090909,4,2,1,70,0,0
184425,-111.111111111111,4,2,1,70,0,0
185758,-90.9090909090909,4,2,1,70,0,0
187091,-90.9090909090909,4,2,1,70,0,1
188591,-90.9090909090909,4,2,1,70,0,0
189925,-333.333333333333,4,2,1,30,0,0
192425,-90.9090909090909,4,2,1,70,0,0
196425,-58.8235294117647,4,2,1,70,0,0
196675,-58.8235294117647,4,2,1,5,0,0
196758,-58.8235294117647,4,2,1,70,0,0
197008,-58.8235294117647,4,2,1,5,0,0
197092,-58.8235294117647,4,2,1,70,0,0
197342,-58.8235294117647,4,2,1,5,0,0
197425,-58.8235294117647,4,2,1,70,0,0
197758,-90.9090909090909,4,2,1,70,0,0
203092,-133.333333333333,4,2,1,50,0,0
205592,-66.6666666666667,4,2,1,70,0,0
205842,-66.6666666666667,4,2,1,5,0,0
205925,-90.9090909090909,4,2,1,70,0,0
208425,-66.6666666666667,4,2,1,70,0,0
208675,-66.6666666666667,4,2,1,5,0,0
208758,-66.6666666666667,4,2,1,70,0,0
209008,-66.6666666666667,4,2,1,5,0,0
209092,-66.6666666666667,4,2,1,70,0,0
209342,-66.6666666666667,4,2,1,5,0,0
209425,-66.6666666666667,4,2,1,70,0,0
209675,-66.6666666666667,4,2,1,5,0,0
209758,-90.9090909090909,4,2,1,70,0,0
213758,-66.6666666666667,4,2,1,70,0,1
214008,-66.6666666666667,4,2,1,5,0,1
214092,-90.9090909090909,4,2,1,70,0,1
217758,-58.8235294117647,4,2,1,70,0,1
218758,-90.9090909090909,4,2,1,70,0,1
223091,-90.9090909090909,4,2,1,70,0,0
224425,-100,4,2,1,70,0,0
230425,-200,4,2,1,40,0,0
231425,315.78947368421,4,2,1,40,1,0
231740,365.853658536585,4,2,1,40,1,0
232105,320.855614973262,4,2,1,40,1,0
232425,348.837209302325,4,2,1,40,1,0
232425,-200,4,2,1,40,0,0
233471,394.736842105263,4,2,1,40,1,0
233865,361.44578313253,4,2,1,40,1,0
233865,-200,4,2,1,40,0,0
234226,379.746835443037,4,2,1,40,1,0
234605,397.350993377483,4,2,1,40,1,0
234605,-200,4,2,1,40,0,0
235201,517.241379310344,4,2,1,40,1,0
235459,465.116279069768,4,2,1,40,1,0
235459,-200,4,2,1,40,0,0
236156,517.241379310345,4,2,1,40,1,0
238483,-100,4,2,1,5,0,0

[Colours]
Combo1 : 111,129,255
Combo2 : 233,164,255
Combo3 : 196,94,234
Combo4 : 115,63,237

[HitObjects]
436,61,1758,6,0,P|404:59|355:139,1,132,2|0,0:0|0:0,0:0:0:0:
341,211,2424,2,0,P|328:182|259:176,1,88,2|0,0:0|0:0,0:0:0:0:
160,351,3091,6,0,P|128:353|79:273,1,132,2|0,0:0|0:0,0:0:0:0:
69,203,3758,2,0,P|56:232|-13:238,1,88,2|0,0:0|0:0,0:0:0:0:
116,64,4424,6,0,B|224:76|155:128|280:145,1,176,2|2,0:0|0:0,0:0:0:0:
323,93,5424,1,2,0:0:0:0:
455,223,5758,6,0,P|409:232|357:255,1,88,2|0,0:0|0:0,0:0:0:0:
232,350,6424,5,2,0:0:0:0:
192,288,6758,1,2,0:0:0:0:
354,166,7091,6,0,P|402:163|451:271,1,176,2|2,0:0|0:0,0:0:0:0:
454,263,8424,6,0,P|377:274|297:308,1,158.399995166016,2|0,0:0|0:0,0:0:0:0:
243,261,9091,2,0,P|228:223|245:175,1,88,2|0,0:0|0:0,0:0:0:0:
324,21,9758,6,0,P|343:60|428:79,1,132,2|0,0:0|0:0,0:0:0:0:
505,93,10424,2,0,P|471:108|450:156,1,88,2|0,0:0|0:0,0:0:0:0:
351,295,11091,6,0,B|252:275|312:224|199:214,1,176,2|2,0:0|0:0,0:0:0:0:
202,214,12091,1,2,0:0:0:0:
57,330,12424,6,0,P|38:285|65:146,1,176,2|2,0:0|0:0,0:0:0:0:
54,162,13424,1,2,0:0:0:0:
187,31,13758,6,0,P|232:35|269:120,1,132,2|0,0:0|0:0,0:0:0:0:
268,180,14424,2,0,P|290:154|351:145,1,88,2|0,0:0|0:0,0:0:0:0:
448,275,15091,6,0,B|348:284|399:342|276:342,1,176,2|2,0:0|0:0,0:0:0:0:
240,281,16091,1,2,0:0:0:0:
345,183,16424,6,0,P|340:151|341:83,1,88,2|0,0:0|0:0,0:0:0:0:
206,26,17091,2,0,P|174:30|124:104,1,105.599996777344,2|0,0:0|0:0,0:0:0:0:
7,224,17758,6,0,P|51:226|149:257,1,132,2|0,0:0|0:0,0:0:0:0:
199,210,18424,2,0,P|214:184|206:128,1,88,2|0,0:0|0:0,0:0:0:0:
347,23,19091,6,0,P|389:18|442:90,1,132,2|0,0:0|0:0,0:0:0:0:
439,163,19758,2,0,P|468:129|525:133,1,88,2|0,0:0|0:0,0:0:0:0:
431,314,20424,6,0,P|393:302|286:298,1,132,2|0,0:0|0:0,0:0:0:0:
250,239,21091,1,2,0:0:0:0:
344,146,21424,1,2,0:0:0:0:
287,87,21758,6,0,B|220:95|242:139|165:145,1,132,2|0,0:0|0:0,0:0:0:0:
106,107,22424,2,0,P|94:83|121:14,1,88,2|0,0:0|0:0,0:0:0:0:
184,13,22924,2,0,L|186:-4,2,14.6666666666667,8|8|8,0:0|0:0|0:0,0:0:0:0:
185,28,23091,6,0,P|233:32|305:59,1,123.199996240234,10|0,0:0|0:0,0:0:0:0:
407,125,23591,6,0,L|434:118,2,20.5333327067057,8|8|8,0:0|0:0|0:0,0:0:0:0:
390,130,23758,6,0,P|379:96|393:28,2,92.3999971801759,10|2|2,0:0|0:0|0:0,0:0:0:0:
467,202,24424,6,0,P|427:209|357:238,1,102.666663533529,2|0,0:0|0:0,0:0:0:0:
359,240,24758,2,0,L|365:271,5,20.5333327067057,10|8|8|8|8|8,0:0|0:0|0:0|0:0|0:0|0:0,0:0:0:0:
357,228,25091,5,10,0:0:0:0:
246,166,25258,2,0,P|243:196|240:227,1,61.5999981201172,8|2,0:0|0:0,0:0:0:0:
290,323,25591,6,0,L|285:349,2,20.5333327067057,8|8|8,0:0|0:0|0:0,0:0:0:0:
293,310,25758,6,0,P|258:313|173:349,1,123.199996240234,10|0,0:0|0:0,0:0:0:0:
89,303,26202,6,0,L|61:297,3,20.5333327067057,8|8|8|8,0:0|0:0|0:0|0:0,0:0:0:0:
101,314,26424,6,0,P|121:274|110:189,1,123.199996240234,10|2,0:0|0:0,0:0:0:0:
196,125,26869,6,0,L|191:156,3,20.5333327067057,8|8|8|8,0:0|0:0|0:0|0:0,0:0:0:0:
185,105,27091,6,0,B|197:99|118:51|73:137|100:230|187:204|276:265|231:29|430:102,1,431.199986840821,10|0,0:0|0:0,0:0:0:0:
405,95,28341,1,2,0:0:0:0:
405,95,28424,1,2,0:0:0:0:
491,249,29424,5,0,0:0:0:0:
396,342,29591,5,2,3:2:0:0:
396,342,29674,1,2,3:2:0:0:
396,342,29758,1,2,1:2:0:0:
363,315,29924,5,2,0:2:0:0:
377,232,30147,5,2,0:2:0:0:
451,171,30369,5,2,0:2:0:0:
490,97,30591,5,2,0:2:0:0:
423,35,30841,5,2,0:2:0:0:
405,32,30924,6,0,L|398:2,2,20.5333327067057,2|2|2,0:3|3:0|0:3,0:0:0:0:
385,31,31091,6,0,P|352:33|197:80,1,184.799994360352,6|2,1:2|0:0,0:0:0:0:
104,151,31758,6,0,P|143:157|206:192,1,105.6,0|0,1:2|0:0,0:0:0:0:
331,145,32424,6,0,B|344:101|344:101|333:58,1,88,4|0,1:2|0:0,0:0:0:0:
202,188,32758,2,0,B|207:243|208:293|209:293,1,88,0|0,1:0|0:0,0:0:0:0:
350,351,33091,2,0,P|397:333|435:327,1,88,0|0,1:2|0:0,0:0:0:0:
506,193,33424,5,2,1:2:0:0:
506,193,33508,1,2,0:0:0:0:
506,193,33591,2,0,L|456:181,1,44,0|2,0:0|0:0,0:0:0:0:
267,101,33758,2,0,P|273:53|386:38,1,176,2|0,1:2|1:0,0:0:0:0:
448,180,34258,5,0,1:2:0:0:
448,180,34341,1,0,1:2:0:0:
448,180,34424,1,2,1:2:0:0:
372,207,34591,1,0,1:0:0:0:
290,302,34758,6,0,P|346:311|395:336,1,88,10|0,0:0|0:0,0:0:0:0:
202,148,35091,6,0,B|134:168|134:168|120:195|120:195|27:223,1,176,6|2,1:2|0:0,0:0:0:0:
194,315,35591,1,2,1:2:0:0:
129,357,35758,2,0,P|116:311|134:267,1,88,8|0,0:0|0:0,0:0:0:0:
278,160,36091,2,0,P|269:216|266:261,1,88,2|2,0:0|1:2,0:0:0:0:
270,263,36341,1,0,0:0:0:0:
270,263,36424,1,0,1:0:0:0:
117,139,36591,6,0,P|133:84|249:70,1,176,8|2,0:0|1:2,0:0:0:0:
354,176,37091,1,8,0:0:0:0:
405,233,37258,2,0,P|452:221|495:216,1,88,0|2,1:0|0:0,0:0:0:0:
321,102,37591,5,0,1:2:0:0:
321,102,37674,1,0,1:2:0:0:
321,102,37758,1,2,1:2:0:0:
399,63,37924,2,0,P|392:119|388:167,1,88,0|2,1:0|0:0,0:0:0:0:
256,272,38258,1,2,1:2:0:0:
317,319,38424,2,0,P|335:275|321:231,1,88,8|0,0:0|1:0,0:0:0:0:
231,127,38758,2,0,P|183:145|142:151,1,88,2|2,0:0|0:0,0:0:0:0:
7,263,39091,5,0,1:0:0:0:
71,148,39258,2,0,P|75:200|78:247,1,88,10|2,0:0|0:0,0:0:0:0:
226,296,39591,1,0,1:0:0:0:
85,380,39758,2,0,P|40:366|-10:366,1,88,10|0,0:0|1:0,0:0:0:0:
152,238,40091,5,0,1:0:0:0:
152,238,40258,1,10,0:0:0:0:
275,368,40424,6,0,B|351:354|351:354|366:332|366:332|458:317,1,176,6|2,1:2|0:0,0:0:0:0:
280,216,40924,1,2,1:2:0:0:
343,175,41091,2,0,P|358:226|338:268,1,88,8|0,0:0|0:0,0:0:0:0:
197,376,41424,2,0,P|194:321|189:283,1,88,2|2,0:0|0:0,0:0:0:0:
189,288,41758,5,0,1:0:0:0:
87,177,41924,2,0,B|33:195|-6:199|-7:199,1,88,8|2,0:0|0:0,0:0:0:0:
163,57,42258,1,2,1:2:0:0:
97,19,42424,2,0,P|84:61|100:105,1,88,8|0,0:0|1:0,0:0:0:0:
219,215,42758,2,0,P|223:162|233:113,1,88,2|2,0:0|0:0,0:0:0:0:
394,34,43091,5,0,1:0:0:0:
304,130,43258,1,0,1:0:0:0:
204,24,43424,2,0,P|251:40|293:42,1,88,2|2,0:0|0:0,0:0:0:0:
411,173,43758,5,4,1:2:0:0:
512,62,43924,2,0,P|463:71|442:114,1,88,2|0,1:2|0:0,0:0:0:0:
366,277,44258,5,0,1:0:0:0:
366,277,44341,1,0,1:0:0:0:
366,277,44424,2,0,P|413:283|461:296,1,88,4|0,1:2|0:0,0:0:0:0:
469,299,44674,1,0,1:0:0:0:
469,299,44758,1,8,0:0:0:0:
341,139,44924,5,0,1:0:0:0:
341,139,45008,1,0,1:0:0:0:
341,139,45091,1,0,1:0:0:0:
268,165,45258,1,0,1:0:0:0:
273,237,45424,1,8,0:0:0:0:
273,237,45591,1,2,0:0:0:0:
156,347,45758,6,0,B|59:340|112:285|-5:284,1,158.399995166016,4|0,1:2|1:0,0:0:0:0:
107,164,46258,1,2,0:0:0:0:
160,106,46424,2,0,P|206:118|245:123,1,79.1999975830079,0|0,1:2|0:0,0:0:0:0:
120,241,46758,5,2,1:2:0:0:
38,116,46924,1,8,0:0:0:0:
183,193,47091,6,0,P|175:253|169:371,1,158.399995166016,0|0,1:0|1:0,0:0:0:0:
344,268,47591,5,2,0:0:0:0:
330,198,47758,1,0,1:0:0:0:
261,177,47924,1,0,1:0:0:0:
206,308,48091,6,0,P|255:317|298:337,1,79.1999975830079,2|0,1:2|0:0,0:0:0:0:
471,240,48424,6,0,P|454:197|479:56,1,176,6|2,1:2|1:2,0:0:0:0:
269,10,48924,5,0,1:0:0:0:
269,10,49008,1,8,0:0:0:0:
269,10,49091,2,0,B|174:21|211:75|92:83,1,176,4|2,1:2|1:2,0:0:0:0:
242,218,49591,5,2,1:2:0:0:
242,218,49674,1,8,0:0:0:0:
242,218,49758,2,0,P|301:228|343:248,1,88,4|0,1:2|0:0,0:0:0:0:
494,321,50091,1,2,1:2:0:0:
477,326,50174,1,0,1:2:0:0:
460,333,50258,1,2,1:2:0:0:
445,343,50341,1,0,1:2:0:0:
429,351,50424,5,8,0:0:0:0:
398,301,50536,5,8,0:0:0:0:
419,246,50647,5,8,0:0:0:0:
466,211,50758,5,8,0:0:0:0:
497,161,50870,5,8,0:0:0:0:
476,106,50981,5,8,0:0:0:0:
425,77,51091,5,8,0:0:0:0:
103,93,56258,6,0,L|122:146,1,44,2|0,1:2|1:0,0:0:0:0:
180,298,56425,5,8,0:0:0:0:
260,120,56592,1,0,1:0:0:0:
85,236,56758,1,0,1:0:0:0:
327,358,56925,5,8,0:0:0:0:
191,172,57092,1,0,1:0:0:0:
67,358,57258,1,0,1:0:0:0:
315,196,57425,5,8,0:0:0:0:
77,67,57592,1,0,1:0:0:0:
197,276,57758,1,0,1:0:0:0:
320,59,57925,5,8,0:0:0:0:
91,194,58092,1,0,1:0:0:0:
344,274,58258,1,0,1:0:0:0:
158,56,58425,5,8,0:0:0:0:
308,349,58592,1,0,1:0:0:0:
320,59,58758,5,10,0:0:0:0:
186,362,58925,1,2,1:2:0:0:
186,362,59008,1,0,1:0:0:0:
186,362,59092,6,0,P|116:340|101:233,1,176,2|0,1:2|1:0,0:0:0:0:
253,136,59592,1,2,1:2:0:0:
93,48,59758,1,2,1:2:0:0:
213,216,59925,1,0,1:0:0:0:
322,44,60092,1,0,1:0:0:0:
121,167,60258,1,2,1:2:0:0:
322,274,60425,5,2,1:2:0:0:
353,288,60508,1,0,1:0:0:0:
388,291,60592,1,0,1:0:0:0:
420,278,60675,1,0,1:0:0:0:
446,254,60758,1,0,1:0:0:0:
455,219,60842,1,0,1:0:0:0:
453,183,60925,1,2,1:2:0:0:
435,152,61008,1,0,1:0:0:0:
410,126,61092,5,2,1:2:0:0:
357,118,61175,1,0,1:0:0:0:
308,138,61258,1,0,1:0:0:0:
282,184,61342,1,0,1:0:0:0:
254,228,61425,1,8,0:0:0:0:
202,238,61508,1,0,1:0:0:0:
154,214,61592,2,0,P|148:191|156:167,1,44,0|0,1:0|1:0,1:0:0:0:
353,288,61758,6,0,B|279:315|279:315|258:342|258:342|156:379|156:373,1,198.000007553101,6|0,1:2|0:0,0:0:0:0:
121,324,62092,6,0,P|102:273|127:226,1,96.8000029541017,10|2,0:0|0:0,0:0:0:0:
127,227,62342,1,8,0:0:0:0:
127,227,62425,1,2,1:2:0:0:
286,69,62592,1,2,0:0:0:0:
107,139,62758,5,10,0:2:0:0:
107,139,62842,1,0,1:2:0:0:
107,139,62925,2,0,B|220:154|144:224|288:238,1,193.600005908203,2|0,1:2|1:0,0:0:0:0:
395,80,63425,2,0,P|339:102|325:145,1,96.8000029541017,10|2,0:0|0:0,0:0:0:0:
322,153,63675,1,8,0:0:0:0:
322,153,63758,1,0,1:0:0:0:
417,285,63925,5,2,1:2:0:0:
510,163,64092,1,10,0:0:0:0:
327,292,64258,5,2,1:2:0:0:
327,292,64342,1,0,1:0:0:0:
327,292,64425,2,0,P|256:305|122:362,1,198.000007553101,6|0,1:2|0:0,0:0:0:0:
78,308,64758,6,0,P|61:263|80:211,1,96.8000029541017,10|2,0:0|0:0,0:0:0:0:
257,92,65092,1,2,1:2:0:0:
147,249,65258,1,2,1:2:0:0:
45,88,65425,1,10,0:2:0:0:
262,221,65592,6,0,B|355:214|319:131|462:140,1,193.600005908203,2|0,1:2|1:0,0:0:0:0:
238,22,66092,5,10,0:0:0:0:
404,223,66258,2,0,P|394:278|387:332,1,96.8000029541017,2|0,1:2|1:0,0:0:0:0:
180,203,66592,2,0,P|196:161|244:145,1,96.8000029541017,2|8,1:2|0:0,0:0:0:0:
210,355,66925,5,2,0:0:0:0:
210,355,67008,1,2,0:0:0:0:
210,355,67092,2,0,P|148:347|116:229,1,171.599992144776,6|0,1:2|0:0,0:0:0:0:
89,237,67425,6,0,B|100:176|100:176|107:170|107:170|121:93,1,132.000005035401,12|2,0:0|0:0,0:0:0:0:
294,71,67758,1,2,1:2:0:0:
243,127,67925,1,0,1:2:0:0:
122,20,68092,6,0,P|182:39|224:42,1,96.8000029541017,10|2,0:0|1:2,0:0:0:0:
375,215,68425,6,0,P|436:201|444:107,1,145.200004431152,0|0,1:2|0:0,0:0:0:0:
447,113,68758,6,0,B|387:127|387:127|379:134|379:134|304:152,1,132.000005035401,12|0,0:2|0:0,0:0:0:0:
315,168,69008,1,0,1:0:0:0:
315,168,69092,1,2,1:2:0:0:
136,263,69258,1,0,1:2:0:0:
311,338,69425,1,10,0:0:0:0:
236,368,69592,6,0,P|213:301|250:162,1,198.000007553101,6|0,1:2|0:0,0:0:0:0:
248,162,69925,1,2,1:2:0:0:
398,13,70092,1,10,0:2:0:0:
173,126,70258,1,2,1:2:0:0:
398,200,70425,1,2,1:2:0:0:
195,12,70592,1,2,1:2:0:0:
311,271,70758,6,0,P|320:191|337:144,1,96.8000029541017,8|2,0:2|1:2,0:2:0:0:
483,49,71092,5,8,0:2:0:0:
217,199,71258,1,8,0:2:0:0:
18,22,71758,5,8,0:0:0:0:
290,168,71924,1,8,0:0:0:0:
63,330,72092,5,8,0:0:0:0:
21,318,72175,1,8,0:0:0:0:
0,279,72258,1,8,0:0:0:0:
0,235,72342,1,8,0:0:0:0:
25,198,72425,6,0,B|114:224|114:224|124:247|124:247|229:283,1,198.000007553101,4|0,2:2|0:0,0:0:0:0:
278,257,72758,6,0,P|299:213|282:156,1,96.8000029541017,10|2,0:0|0:0,0:0:0:0:
282,153,73008,1,8,0:0:0:0:
282,153,73092,1,2,1:2:0:0:
161,341,73258,1,2,1:2:0:0:
88,139,73425,1,10,0:0:0:0:
261,339,73592,6,0,B|359:339|328:256|465:270,1,193.600005908203,2|0,1:2|1:0,0:0:0:0:
268,74,74092,2,0,P|213:99|206:159,1,96.8000029541017,10|2,0:0|0:0,0:0:0:0:
202,156,74342,1,8,0:0:0:0:
202,156,74425,1,0,1:0:0:0:
354,260,74592,5,2,1:2:0:0:
188,348,74758,1,10,0:0:0:0:
332,163,74924,5,2,1:2:0:0:
332,163,75008,1,0,1:2:0:0:
332,163,75092,2,0,B|392:125|459:160|459:160|472:195|521:221,1,198.000007553101,4|0,1:2|0:0,0:0:0:0:
473,282,75425,6,0,P|412:296|360:321,1,96.8000029541017,10|2,0:0|0:0,0:0:0:0:
361,322,75675,1,8,0:0:0:0:
361,322,75758,1,2,1:2:0:0:
177,150,75925,1,2,1:2:0:0:
357,242,76092,1,10,0:0:0:0:
128,370,76258,6,0,P|122:271|108:173,1,198.000007553101,6|0,1:2|0:0,0:0:0:0:
108,173,76592,1,0,1:0:0:0:
43,342,76758,1,10,0:0:0:0:
194,264,76925,5,2,1:2:0:0:
213,260,77008,1,0,1:0:0:0:
232,255,77092,1,0,1:0:0:0:
307,132,77258,5,2,1:2:0:0:
288,127,77342,1,0,1:0:0:0:
269,123,77425,1,0,1:0:0:0:
186,186,77592,1,2,0:0:0:0:
357,343,77758,6,0,P|426:337|458:226,1,193.600005908203,4|0,1:2|0:0,0:0:0:0:
460,231,78258,1,0,1:0:0:0:
317,52,78425,6,0,P|272:68|213:76,1,96.8000029541017,2|0,1:2|0:0,0:0:0:0:
74,187,78758,5,2,1:2:0:0:
21,139,78925,1,2,0:0:0:0:
47,71,79092,2,0,P|100:82|114:108,1,66.0000025177003,2|2,1:2|1:2,0:0:0:0:
165,219,79425,5,2,0:0:0:0:
165,219,79508,1,2,0:0:0:0:
165,219,79591,1,2,1:2:0:0:
165,219,79675,1,2,0:0:0:0:
165,219,79758,2,0,P|156:255|146:298,1,66.0000025177003,2|0,1:2|1:0,0:0:0:0:
149,299,80008,1,2,0:0:0:0:
149,299,80092,1,8,0:0:0:0:
259,172,80258,5,0,1:2:0:0:
259,172,80342,1,0,1:2:0:0:
259,172,80424,1,6,1:2:0:0:
34,278,80592,1,0,1:0:0:0:
269,381,80758,1,0,1:0:0:0:
62,140,80925,5,8,0:0:0:0:
303,271,81092,1,0,1:0:0:0:
58,382,81258,1,0,1:0:0:0:
288,191,81425,5,10,0:0:0:0:
334,191,81508,1,2,0:0:0:0:
373,215,81592,1,2,1:2:0:0:
394,255,81675,1,2,1:2:0:0:
394,301,81758,5,10,0:2:0:0:
155,129,81925,1,8,0:0:0:0:
159,138,82925,5,0,1:0:0:0:
159,138,83008,1,8,0:0:0:0:
159,138,83092,2,0,B|241:136|208:78|320:82,1,158.399995166016,2|0,1:2|1:0,0:0:0:0:
446,190,83592,5,2,0:0:0:0:
503,136,83758,2,0,P|505:96|391:61,1,158.399995166016,2|0,1:2|1:0,0:0:0:0:
292,158,84258,5,2,1:2:0:0:
292,158,84342,1,8,0:0:0:0:
292,158,84425,2,0,P|298:211|301:330,1,158.399995166016,0|0,1:2|1:0,0:0:0:0:
373,155,84925,5,2,0:0:0:0:
242,273,85092,5,2,1:2:0:0:
171,245,85258,1,0,1:0:0:0:
101,126,85425,5,0,1:0:0:0:
171,98,85592,1,0,1:2:0:0:
160,320,85758,6,0,P|110:305|61:301,1,88,4|0,1:2|1:0,0:0:0:0:
57,298,86008,1,8,0:0:0:0:
57,298,86092,1,0,1:0:0:0:
214,172,86258,5,2,1:2:0:0:
230,165,86342,1,0,1:2:0:0:
247,162,86425,1,2,1:2:0:0:
264,162,86508,1,0,1:2:0:0:
281,166,86592,1,0,1:2:0:0:
296,175,86675,1,0,1:2:0:0:
308,187,86758,1,8,0:2:0:0:
317,202,86842,1,0,1:2:0:0:
330,213,86925,1,2,1:2:0:0:
346,220,87008,1,0,1:2:0:0:
364,222,87092,6,0,B|420:158|384:77|384:77|380:136|355:159,1,224.40000428009,6|0,1:2|0:0,0:0:0:0:
269,274,87425,6,0,B|296:354|384:368|384:368|335:342|324:297,1,224.40000428009,6|0,1:2|0:0,0:0:0:0:
261,157,87758,6,0,B|177:140|126:211|126:211|171:186|210:196,1,224.40000428009,6|0,1:2|0:0,0:0:0:0:
332,77,88092,5,6,1:2:0:0:
114,15,88258,5,0,1:0:0:0:
114,15,88342,1,8,0:0:0:0:
114,15,88425,2,0,P|120:87|120:228,1,193.600005908203,6|8,1:2|0:0,0:0:0:0:
12,345,88925,1,2,1:2:0:0:
12,345,89008,1,8,0:0:0:0:
12,345,89091,1,0,1:2:0:0:
187,241,89258,1,0,1:0:0:0:
9,188,89425,1,8,0:0:0:0:
165,325,89592,5,2,1:2:0:0:
165,325,89675,1,8,0:0:0:0:
165,325,89758,2,0,P|227:317|257:273,1,96.8000029541017,2|0,1:2|1:0,0:0:0:0:
395,171,90092,1,8,0:0:0:0:
450,237,90258,5,2,1:2:0:0:
450,237,90342,1,8,0:0:0:0:
450,237,90425,2,0,P|394:244|339:263,1,96.8000029541017,2|0,1:2|1:0,0:0:0:0:
205,166,90758,2,0,P|188:115|213:61,1,96.8000029541017,8|2,0:0|1:2,0:0:0:0:
259,30,91008,5,8,0:0:0:0:
259,30,91091,2,0,B|308:-15|366:30|366:30|385:74|432:84,1,193.600005908203,6|8,1:2|0:0,0:0:0:0:
267,220,91592,1,2,0:0:0:0:
452,325,91758,6,0,B|470:279|470:279|453:226,1,96.8000029541017,2|0,1:2|0:0,0:0:0:0:
270,117,92092,2,0,P|275:187|270:234,1,96.8000029541017,8|0,0:0|1:0,0:0:0:0:
275,225,92342,1,8,0:0:0:0:
275,225,92425,1,2,1:2:0:0:
82,312,92592,5,0,1:2:0:0:
114,291,92675,1,0,1:2:0:0:
152,286,92758,1,2,1:2:0:0:
188,298,92842,1,0,1:2:0:0:
214,325,92925,1,0,1:2:0:0:
241,351,93008,1,0,1:2:0:0:
279,357,93092,5,2,1:2:0:0:
317,353,93175,1,0,1:2:0:0:
351,335,93258,1,0,1:2:0:0:
371,301,93342,1,0,1:2:0:0:
369,257,93425,5,2,1:2:0:0:
355,261,93508,1,0,1:0:0:0:
340,264,93592,2,0,L|278:281,1,48.4000014770508,0|0,1:2|1:0,0:0:0:0:
59,210,93758,5,4,1:2:0:0:
64,189,94092,1,0,1:0:0:0:
69,170,94425,1,0,1:2:0:0:
74,149,94759,1,0,1:0:0:0:
237,28,94925,5,4,0:2:0:0:
19,48,95092,5,0,1:0:0:0:
38,53,95425,1,0,1:0:0:0:
57,57,95758,1,0,1:0:0:0:
75,61,96092,1,0,1:0:0:0:
224,240,96425,5,4,1:2:0:0:
243,235,96758,1,0,1:0:0:0:
262,231,97091,1,0,1:0:0:0:
280,227,97425,1,0,1:0:0:0:
92,130,97592,5,4,0:0:0:0:
252,42,97758,5,0,1:2:0:0:
271,47,98091,1,0,1:0:0:0:
290,51,98424,1,0,1:0:0:0:
308,55,98758,2,0,L|367:72,1,44,4|0,1:2|0:0,0:0:0:0:
494,122,99092,5,4,1:2:0:0:
489,141,99425,1,0,1:0:0:0:
484,159,99758,1,0,1:0:0:0:
479,177,100092,1,0,1:0:0:0:
387,339,100258,5,4,0:2:0:0:
266,180,100425,5,0,1:0:0:0:
287,185,100758,1,0,1:0:0:0:
353,251,100925,2,0,L|389:241,2,22,0|0|0,1:0|1:0|1:0,0:0:0:0:
250,349,101258,5,0,1:0:0:0:
188,312,101425,1,0,1:0:0:0:
190,238,101592,1,0,1:0:0:0:
351,114,101758,5,4,1:2:0:0:
370,119,102091,1,0,1:0:0:0:
389,123,102424,1,0,1:0:0:0:
407,127,102758,1,0,1:0:0:0:
268,274,102925,6,0,P|230:281|136:327,1,132,4|2,1:2|0:0,0:0:0:0:
35,125,103758,5,0,1:2:0:0:
35,125,103842,1,0,1:2:0:0:
35,125,103925,1,0,1:2:0:0:
35,125,104008,1,8,0:0:0:0:
35,125,104092,2,0,L|79:139,1,44,0|0,1:2|1:2,0:2:0:0:
271,202,104258,1,0,1:0:0:0:
209,252,104425,6,0,P|192:198|223:113,1,132.000005035401,4|0,1:2|0:0,0:0:0:0:
372,47,104758,1,8,0:0:0:0:
296,42,104925,1,0,1:0:0:0:
299,54,105008,1,0,1:0:0:0:
302,66,105092,1,0,1:0:0:0:
477,174,105258,5,2,1:2:0:0:
319,275,105425,1,10,0:0:0:0:
315,198,105592,6,0,B|419:210|346:278|501:284,1,176,2|0,1:2|1:0,0:0:0:0:
297,375,106092,1,8,0:0:0:0:
243,325,106258,1,0,1:0:0:0:
246,313,106342,1,0,1:0:0:0:
249,301,106425,5,2,1:2:0:0:
158,194,106592,1,2,1:2:0:0:
319,275,106758,1,10,1:2:0:0:
142,361,106925,6,0,P|95:355|68:231,1,176,6|2,1:2|1:2,0:0:0:0:
219,123,107425,1,10,0:0:0:0:
27,32,107592,5,2,1:2:0:0:
27,32,107675,1,0,1:0:0:0:
27,32,107758,1,2,1:2:0:0:
145,100,107924,1,2,1:2:0:0:
16,163,108092,1,10,0:0:0:0:
200,37,108258,6,0,B|275:58|275:58|284:81|284:81|383:110,1,176,6|0,1:2|1:0,0:0:0:0:
487,224,108758,2,0,P|437:237|399:257,1,88,8|0,0:0|1:0,0:0:0:0:
393,268,109008,5,0,1:0:0:0:
393,268,109092,1,2,1:2:0:0:
355,198,109258,1,0,1:0:0:0:
477,80,109425,5,0,1:0:0:0:
461,153,109592,1,0,1:0:0:0:
316,266,109758,6,0,B|236:246|236:246|233:234|233:234|119:206,1,198.000007553101,4|0,1:2|0:0,0:0:0:0:
26,261,110092,6,0,P|92:235|80:110,1,198.000007553101,4|0,1:2|0:0,0:0:0:0:
30,183,110425,6,0,B|139:181|91:104|222:110,1,198.000007553101,4|0,1:2|0:0,0:0:0:0:
294,63,110758,6,0,B|261:19|261:19|298:223,1,198.000007553101,4|0,1:2|0:0,0:0:0:0:
384,244,111092,6,0,P|439:224|443:115,1,176,4|2,1:2|0:0,0:0:0:0:
346,10,111592,5,0,1:0:0:0:
346,10,111675,1,0,1:0:0:0:
346,10,111758,2,0,P|299:27|254:34,1,88,2|0,1:2|1:0,0:0:0:0:
175,175,112092,2,0,P|218:182|259:198,1,88,10|0,0:2|1:0,0:0:0:0:
386,344,112425,5,0,1:0:0:0:
210,258,112592,1,0,1:0:0:0:
398,179,112758,1,0,1:0:0:0:
203,77,112925,1,0,1:0:0:0:
348,263,113092,1,0,1:0:0:0:
473,69,113258,5,2,1:2:0:0:
259,198,113425,1,2,1:2:0:0:
476,332,113592,5,2,1:2:0:0:
505,299,113675,1,0,1:2:0:0:
511,255,113758,1,2,1:2:0:0:
499,212,113842,1,0,1:2:0:0:
467,181,113925,1,2,1:2:0:0:
423,174,114008,1,0,1:2:0:0:
380,186,114092,1,2,1:2:0:0:
353,220,114175,1,0,1:2:0:0:
348,263,114258,2,0,L|356:323,1,44,2|0,1:2|1:0,0:0:0:0:
173,201,114425,5,2,1:2:0:0:
179,166,114508,1,0,1:0:0:0:
187,131,114592,2,0,L|195:88,1,44,2|0,1:2|1:0,0:0:0:0:
281,299,114758,5,2,1:2:0:0:
226,318,114842,1,0,1:0:0:0:
171,335,114925,1,0,1:0:0:0:
116,353,115008,1,0,1:0:0:0:
62,368,115092,6,0,P|38:310|85:165,1,198.000007553101,4|0,1:2|0:0,0:0:0:0:
95,104,115425,6,0,P|151:127|187:130,1,96.8000029541017,10|2,0:0|0:0,0:0:0:0:
203,132,115675,1,8,0:0:0:0:
203,132,115758,1,2,1:2:0:0:
374,249,115925,1,2,1:2:0:0:
180,340,116092,1,10,0:0:0:0:
348,156,116258,6,0,P|409:150|457:276,1,193.600005908203,2|0,1:2|1:0,0:0:0:0:
288,358,116758,2,0,P|287:301|281:253,1,96.8000029541017,10|2,0:0|0:0,0:0:0:0:
284,248,117008,1,8,0:0:0:0:
284,248,117092,1,0,1:0:0:0:
175,83,117258,5,2,0:0:0:0:
350,160,117425,1,8,0:0:0:0:
178,259,117592,5,2,1:2:0:0:
178,259,117675,1,0,1:0:0:0:
178,259,117758,2,0,B|58:258|125:178|-43:189,1,198.000007553101,6|0,1:2|0:0,0:0:0:0:
0,111,118092,6,0,P|28:70|80:68,1,96.8000029541017,10|2,0:0|0:0,0:0:0:0:
98,73,118342,1,8,0:0:0:0:
98,73,118425,1,2,1:2:0:0:
253,209,118592,1,2,1:2:0:0:
330,26,118758,1,10,0:0:0:0:
154,180,118925,6,0,B|161:237|166:392,1,193.600005908203,2|0,1:2|1:0,0:0:0:0:
334,250,119425,2,0,P|308:206|257:206,1,96.8000029541017,10|2,0:0|0:0,0:0:0:0:
253,209,119675,1,8,0:0:0:0:
253,209,119758,1,0,1:2:0:0:
90,361,119925,5,2,1:2:0:0:
60,357,120008,1,0,1:2:0:0:
36,339,120092,1,2,1:2:0:0:
18,314,120175,1,0,1:2:0:0:
8,287,120258,1,2,1:2:0:0:
9,258,120342,1,0,1:2:0:0:
14,230,120425,6,0,P|73:237|200:296,1,171.599992144776,4|0,1:2|0:0,0:0:0:0:
192,292,120758,6,0,B|250:277|250:277|254:270|254:270|320:253,1,132.000005035401,12|2,0:2|0:0,0:0:0:0:
386,102,121092,1,2,1:2:0:0:
315,163,121258,1,0,1:0:0:0:
442,289,121425,6,0,P|444:241|454:194,1,96.8000029541017,10|2,0:0|1:2,0:0:0:0:
320,29,121758,6,0,P|253:47|229:114,1,145.200004431152,0|0,1:0|0:0,0:0:0:0:
221,125,122092,6,0,B|233:184|233:184|241:191|241:191|255:276,1,132.000005035401,12|2,0:2|0:0,0:0:0:0:
257,269,122342,1,0,1:0:0:0:
257,269,122425,1,2,1:2:0:0:
144,166,122592,1,0,1:0:0:0:
348,239,122758,1,10,0:0:0:0:
176,353,122925,6,0,B|96:334|96:334|86:309|86:309|-6:289,1,198.000007553101,4|0,1:2|0:0,0:0:0:0:
0,304,123258,1,2,1:2:0:0:
219,192,123425,1,10,0:0:0:0:
8,66,123592,1,0,1:0:0:0:
139,245,123758,1,2,1:2:0:0:
248,48,123925,1,2,1:2:0:0:
44,214,124092,5,8,0:0:0:0:
62,219,124175,1,0,1:0:0:0:
82,226,124258,1,2,1:2:0:0:
102,234,124342,1,0,1:0:0:0:
122,240,124425,5,8,0:0:0:0:
393,109,124592,1,8,0:0:0:0:
492,361,125092,5,8,0:0:0:0:
218,203,125258,1,8,0:0:0:0:
445,41,125425,5,8,0:0:0:0:
490,56,125508,1,8,0:0:0:0:
512,99,125592,1,8,0:0:0:0:
505,146,125675,1,8,0:0:0:0:
479,183,125758,6,0,B|361:176|434:88|263:99,1,198.000007553101,4|0,1:2|0:0,0:0:0:0:
237,89,126092,2,0,P|220:38|237:-4,1,96.8000029541017,10|2,0:0|0:0,0:0:0:0:
250,0,126342,1,8,0:0:0:0:
250,0,126425,1,2,1:2:0:0:
70,106,126591,5,2,1:2:0:0:
266,184,126758,1,10,0:0:0:0:
63,302,126924,6,0,P|77:248|201:231,1,193.600005908203,2|0,1:2|1:2,0:0:0:0:
368,340,127425,2,0,P|310:354|259:373,1,96.8000029541017,10|2,0:0|0:0,0:0:0:0:
260,370,127675,1,8,0:0:0:0:
260,370,127758,1,0,1:0:0:0:
69,294,127924,5,2,1:2:0:0:
264,187,128091,1,10,0:0:0:0:
131,369,128258,5,2,1:2:0:0:
131,369,128342,1,0,1:2:0:0:
131,369,128425,2,0,P|154:299|117:160,1,198.000007553101,4|0,1:2|0:0,0:0:0:0:
173,113,128758,6,0,P|233:130|247:177,1,96.8000029541017,10|0,0:0|0:0,0:0:0:0:
253,180,129008,1,8,0:0:0:0:
253,180,129092,1,2,1:2:0:0:
359,358,129258,1,2,1:2:0:0:
457,182,129425,1,10,0:0:0:0:
262,290,129592,6,0,B|181:316|181:316|164:344|164:344|62:374,1,198.000007553101,6|0,1:2|0:0,0:0:0:0:
87,366,129925,1,0,1:0:0:0:
0,206,130092,5,2,1:2:0:0:
8,208,130175,1,0,1:2:0:0:
16,210,130258,1,2,1:2:0:0:
25,212,130342,1,0,1:2:0:0:
33,215,130425,1,0,1:2:0:0:
41,217,130508,1,0,1:2:0:0:
50,220,130592,1,2,1:2:0:0:
58,223,130675,1,0,1:2:0:0:
67,226,130758,1,8,0:2:0:0:
125,178,130925,5,2,0:0:0:0:
251,370,131092,6,0,P|308:358|319:235,1,193.600005908203,4|2,1:0|0:0,0:0:0:0:
256,175,131536,6,0,P|261:142|262:102,1,64.5333353027344,2|2,0:0|0:0,0:0:0:0:
324,46,131758,6,0,P|379:56|399:115,1,96.8000029541017,10|2,0:0|1:2,0:0:0:0:
472,250,132092,5,2,0:0:0:0:
509,191,132258,1,2,0:0:0:0:
461,133,132425,5,0,1:2:0:0:
325,238,132592,2,0,P|334:301|333:329,1,66.0000025177003,0|2,1:2|0:0,0:0:0:0:
412,332,132870,6,0,P|406:301|401:253,1,64.5333353027344,2|2,0:0|0:0,0:0:0:0:
270,188,133092,6,0,P|227:209|149:234,1,96.8000029541017,10|0,0:0|0:0,0:0:0:0:
166,232,133342,1,2,0:0:0:0:
166,232,133425,1,8,0:2:0:0:
7,48,133592,5,0,1:0:0:0:
7,48,133675,1,0,1:0:0:0:
7,48,133758,1,6,1:2:0:0:
230,117,133925,1,0,1:0:0:0:
3,230,134092,1,0,1:0:0:0:
217,31,134258,5,8,0:0:0:0:
328,241,134425,1,0,1:0:0:0:
99,141,134592,1,0,1:0:0:0:
335,25,134758,5,10,0:0:0:0:
383,35,134842,1,2,0:0:0:0:
417,70,134925,1,2,1:2:0:0:
427,118,135008,1,2,0:0:0:0:
411,165,135092,5,14,1:2:0:0:
153,335,135258,1,12,0:0:0:0:
153,335,135592,5,0,1:0:0:0:
248,234,135758,5,8,0:0:0:0:
278,226,135870,6,0,P|316:236|330:258,1,44.0000016784669,8|8,0:0|0:0,0:0:0:0:
357,333,136092,5,0,1:0:0:0:
385,344,136203,6,0,P|423:334|437:312,1,44.0000016784669,0|0,1:0|1:0,0:0:0:0:
503,266,136425,6,0,B|451:194|465:51|465:51|473:99|512:140,1,308,4|0,1:2|0:0,0:0:0:0:
398,232,137758,6,0,P|351:222|328:190,1,88,6|2,1:2|0:0,0:0:0:0:
218,268,138425,2,0,P|188:230|191:190,1,88,6|2,1:2|0:0,0:0:0:0:
258,38,139092,6,0,B|330:49|289:85|390:99,1,132,6|0,1:2|0:0,0:0:0:0:
433,44,139758,1,2,0:0:0:0:
491,146,139925,6,0,L|523:138,2,22,0|0|0,1:0|0:0|0:0,0:0:0:0:
337,329,140425,6,0,P|321:280|351:158,1,158.399995166016,4|0,1:2|1:0,0:0:0:0:
403,215,140925,1,2,0:0:0:0:
247,345,141092,5,10,0:0:0:0:
193,359,141175,1,10,0:0:0:0:
138,351,141258,1,10,0:0:0:0:
94,315,141342,1,10,0:0:0:0:
70,264,141425,1,10,0:0:0:0:
76,209,141508,1,10,0:0:0:0:
111,165,141592,1,10,0:0:0:0:
160,139,141675,1,2,0:0:0:0:
215,140,141758,6,0,B|291:162|291:162|303:193|303:193|400:222,1,193.600005908203,6|8,1:2|0:0,0:0:0:0:
216,289,142258,5,2,0:2:0:0:
212,264,142342,1,10,0:2:0:0:
219,241,142425,1,2,1:2:0:0:
290,275,142592,1,0,1:0:0:0:
160,365,142758,2,0,P|100:352|52:351,1,96.8000029541017,8|0,0:0|1:0,0:0:0:0:
20,291,143008,5,0,1:0:0:0:
20,291,143092,2,0,B|8:244|8:244|26:189,1,96.8000029541017,6|0,1:2|1:0,0:0:0:0:
228,25,143425,2,0,P|219:85|212:135,1,96.8000029541017,10|0,0:0|0:0,0:0:0:0:
131,181,143675,5,8,0:0:0:0:
131,181,143758,2,0,P|137:133|145:85,1,96.8000029541017,2|0,1:2|1:0,0:0:0:0:
332,214,144092,1,10,0:0:0:0:
129,342,144258,5,0,1:0:0:0:
129,342,144342,1,0,1:0:0:0:
129,342,144425,2,0,P|144:304|215:292,1,96.8000029541017,2|0,1:2|1:2,0:2:0:0:
250,186,144675,6,0,P|290:179|336:235,1,96.8000029541017,2|0,1:2|0:2,0:2:0:0:
434,156,144925,6,0,P|448:169|463:203,1,48.4000014770508,10|0,0:2|0:2,0:2:0:0:
405,329,145092,6,0,P|358:336|299:356,1,96.8000029541017,2|0,1:2|1:2,0:2:0:0:
161,210,145425,5,2,1:2:0:0:
144,180,145508,1,2,1:2:0:0:
140,146,145592,1,2,1:2:0:0:
150,113,145675,1,2,1:2:0:0:
171,86,145758,2,0,B|277:103|212:169|347:179,1,193.600005908203,2|8,1:2|0:0,0:0:0:0:
477,53,146258,5,0,1:0:0:0:
477,53,146342,1,8,0:0:0:0:
477,53,146425,2,0,P|421:71|403:111,1,96.8000029541017,2|0,1:2|1:0,0:0:0:0:
286,81,146675,6,0,P|272:116|277:145,2,48.4000014770508,2|0|0,1:2|1:2|0:0,0:0:0:0:
155,165,146925,6,0,P|178:194|206:204,1,48.4000014770508,2|0,1:2|1:2,0:0:0:0:
351,265,147092,6,0,P|295:275|170:332,1,158.399995166016,4|0,1:2|0:0,0:0:0:0:
47,229,147592,1,0,1:0:0:0:
47,229,147675,1,0,1:0:0:0:
47,229,147758,2,0,B|37:190|37:190|49:140,1,79.1999975830079,4|2,1:2|0:0,0:0:0:0:
155,44,148092,5,2,0:0:0:0:
217,85,148258,1,2,0:0:0:0:
210,158,148425,6,0,P|165:172|128:197,1,79.1999975830079,2|8,1:2|0:0,0:0:0:0:
34,301,148758,5,0,0:0:0:0:
35,227,148925,2,0,P|72:237|107:257,1,79.1999975830079,2|8,1:2|0:0,0:0:0:0:
227,350,149258,5,0,1:0:0:0:
294,301,149425,2,0,P|310:261|291:212,1,79.1999975830079,2|8,0:0|0:0,0:0:0:0:
401,77,149758,6,0,P|450:87|469:118,1,79.1999975830079,2|0,1:2|1:0,0:0:0:0:
480,231,150092,2,0,P|429:241|339:282,1,118.799996374512,2|0,0:0|0:0,0:0:0:0:
302,227,150424,6,0,B|285:184|285:184|297:129,1,96.8000029541017,6|0,1:2|0:0,0:0:0:0:
475,307,150758,2,0,L|469:361,2,48.4000014770508,2|0|0,1:2|1:0|1:0,0:0:0:0:
290,301,151092,5,6,1:2:0:0:
485,228,151258,1,0,1:2:0:0:
235,183,151425,5,8,0:0:0:0:
473,302,151592,1,2,1:2:0:0:
473,302,151675,1,2,0:0:0:0:
473,302,151758,1,10,0:2:0:0:
221,365,151925,1,0,1:0:0:0:
387,190,152092,5,10,0:0:0:0:
384,214,152175,1,2,0:0:0:0:
382,238,152258,1,2,1:2:0:0:
380,262,152342,1,10,0:0:0:0:
378,286,152425,2,0,P|323:265|170:259,1,193.600005908203,6|8,1:2|0:0,0:0:0:0:
46,141,152925,5,2,1:2:0:0:
46,141,153008,1,0,1:0:0:0:
46,141,153091,2,0,P|103:154|119:189,1,96.8000029541017,2|0,1:2|0:0,0:0:0:0:
51,325,153425,2,0,P|50:266|45:225,1,96.8000029541017,8|2,0:0|0:0,0:0:0:0:
183,43,153758,6,0,B|296:59|219:112|384:141,1,193.600005908203,2|8,1:2|0:0,0:0:0:0:
476,24,154258,5,2,1:2:0:0:
476,24,154342,1,0,1:2:0:0:
476,24,154425,2,0,P|422:42|407:85,1,96.8000029541017,2|0,1:2|0:0,0:0:0:0:
269,167,154758,2,0,P|276:227|276:277,1,96.8000029541017,10|2,0:0|0:0,0:0:0:0:
483,308,155091,6,0,B|412:330|412:330|390:363|390:363|295:389,1,193.600005908203,6|8,1:2|0:0,0:0:0:0:
181,247,155592,1,2,1:2:0:0:
181,247,155674,1,2,0:0:0:0:
181,247,155758,2,0,P|239:262|277:263,1,96.8000029541017,2|0,1:2|0:0,0:0:0:0:
462,141,156092,1,8,0:0:0:0:
349,301,156258,5,2,1:2:0:0:
349,301,156342,1,0,1:2:0:0:
349,301,156425,2,0,P|365:240|336:142,1,145.200004431152,2|0,1:2|0:0,0:0:0:0:
334,154,156758,6,0,B|337:93|337:93|331:87|331:87|336:24,1,132.000005035401,14|0,0:2|0:0,0:0:0:0:
161,213,157092,6,0,P|105:207|68:77,1,193.600005908203,2|10,1:2|0:0,0:0:0:0:
254,23,157592,5,0,1:0:0:0:
254,23,157675,1,0,1:0:0:0:
254,23,157758,2,0,P|249:92|245:214,1,158.399995166016,4|0,1:2|1:0,0:0:0:0:
135,299,158258,1,0,1:0:0:0:
188,358,158425,2,0,P|233:347|289:348,1,79.1999975830079,8|0,0:0|0:0,0:0:0:0:
391,208,158758,5,0,1:0:0:0:
510,371,158925,2,0,P|464:371|415:269,1,158.399995166016,2|0,1:2|1:2,0:0:0:0:
272,154,159425,1,2,0:0:0:0:
269,232,159592,5,0,1:0:0:0:
269,232,159675,1,0,1:0:0:0:
269,232,159758,2,0,B|344:226|312:178|421:167,1,149.600002853394,6|0,1:2|0:0,0:0:0:0:
284,8,160008,6,0,B|251:75|309:72|264:172,1,149.600002853394,6|0,1:2|0:0,0:0:0:0:
418,91,160258,6,0,B|387:70|377:83|342:50,1,74.8000014266968
159,6,160425,6,0,P|102:-2|51:114,1,193.600005908203,4|0,1:2|1:0,0:0:0:0:
225,217,160925,1,0,1:0:0:0:
34,310,161092,1,0,1:0:0:0:
165,136,161258,1,0,1:0:0:0:
272,317,161425,1,8,0:0:0:0:
17,195,161592,1,0,1:0:0:0:
270,39,161758,5,2,1:2:0:0:
305,34,161842,1,0,1:2:0:0:
340,40,161925,1,2,1:2:0:0:
366,65,162008,1,0,1:2:0:0:
382,98,162092,1,2,1:2:0:0:
385,133,162175,1,0,1:2:0:0:
373,167,162258,1,2,1:2:0:0:
343,192,162342,1,0,1:2:0:0:
295,215,162425,5,2,1:2:0:0:
240,195,162508,1,0,1:2:0:0:
205,146,162592,1,2,1:2:0:0:
149,131,162675,1,0,1:2:0:0:
95,151,162758,5,10,1:2:0:0:
58,203,162842,1,8,0:0:0:0:
64,265,162925,1,10,1:2:0:0:
104,312,163008,1,8,0:0:0:0:
165,326,163092,5,2,1:2:0:0:
398,73,167925,6,0,L|436:65,2,33.0000012588501,0|0|0,1:0|0:0|0:0,0:0:0:0:
346,135,168258,1,0,1:0:0:0:
238,33,168425,5,4,1:2:0:0:
263,40,168758,1,0,1:0:0:0:
288,48,169092,1,0,1:0:0:0:
312,57,169425,1,0,1:0:0:0:
450,141,169758,5,0,1:0:0:0:
383,162,169925,2,0,L|379:129,2,33.0000012588501,0|0|0,1:0|1:0|1:0,0:0:0:0:
401,235,170258,1,0,1:0:0:0:
401,235,170425,1,0,1:0:0:0:
497,299,170592,5,0,1:0:0:0:
475,367,170758,1,0,1:0:0:0:
298,238,170925,6,0,B|216:260|216:260|203:292|203:292|101:320,1,198.000007553101,6|0,1:2|0:0,0:0:0:0:
116,303,171258,1,2,1:2:0:0:
306,156,171425,1,2,1:2:0:0:
306,156,171508,1,0,1:0:0:0:
306,156,171592,1,2,1:2:0:0:
77,124,171758,1,10,0:0:0:0:
291,15,171925,5,10,0:0:0:0:
94,217,172091,2,0,P|32:203|-21:198,1,96.8000029541017,8|2,0:0|1:2,0:0:0:0:
158,36,172424,5,8,0:0:0:0:
267,354,172592,1,8,0:0:0:0:
509,181,173092,5,8,0:0:0:0:
193,310,173258,1,8,0:0:0:0:
334,31,173425,5,8,0:0:0:0:
385,38,173508,1,8,0:0:0:0:
427,70,173592,1,8,0:0:0:0:
436,121,173675,1,8,0:0:0:0:
421,171,173758,6,0,B|309:157|386:92|227:96,1,198.000007553101,4|0,1:2|0:0,0:0:0:0:
222,95,174091,5,10,0:0:0:0:
42,197,174258,1,2,1:2:0:0:
237,206,174425,5,10,0:0:0:0:
23,88,174592,1,2,1:2:0:0:
243,83,174758,5,8,0:0:0:0:
18,212,174925,1,2,1:2:0:0:
258,218,175092,5,8,0:2:0:0:
0,76,175258,1,0,1:0:0:0:
274,6,175425,5,10,0:2:0:0:
185,281,175592,1,2,1:2:0:0:
178,3,175758,5,8,0:0:0:0:
273,311,175925,1,2,1:2:0:0:
374,6,176092,5,10,0:0:0:0:
128,193,176258,1,2,1:2:0:0:
386,313,176425,6,0,P|446:298|496:296,1,96.8000029541017,8|0,0:0|0:0,0:0:0:0:
315,163,176758,5,10,0:2:0:0:
204,354,176925,1,2,1:2:0:0:
426,202,177092,5,10,0:2:0:0:
181,93,177258,2,2,L|185:154,1,48.4000014770508,10|8,0:2|0:2,0:2:0:0:
305,338,177425,2,0,L|301:289,1,48.4000014770508,10|8,0:0|0:0,0:0:0:0:
110,79,177591,6,0,P|44:88|25:215,1,198.000007553101,6|0,1:2|0:0,0:0:0:0:
15,201,177925,1,0,1:0:0:0:
160,342,178092,1,10,0:0:0:0:
88,367,178258,5,2,1:2:0:0:
88,351,178342,1,0,1:0:0:0:
89,336,178425,1,0,1:0:0:0:
208,244,178591,5,2,1:2:0:0:
208,260,178674,1,8,0:0:0:0:
207,275,178759,1,0,1:0:0:0:
148,196,178925,1,2,1:2:0:0:
334,292,179092,6,0,B|226:298|272:366|153:374,1,193.600005908203,4|0,1:2|0:0,0:0:0:0:
164,372,179592,1,0,1:0:0:0:
36,217,179758,2,0,P|91:238|105:276,1,96.8000029541017,8|2,0:0|0:0,0:0:0:0:
213,146,180092,1,2,0:0:0:0:
161,92,180258,5,2,1:2:0:0:
161,92,180342,1,0,1:2:0:0:
161,92,180425,1,0,1:2:0:0:
284,183,180592,1,0,1:0:0:0:
341,129,180758,5,2,0:0:0:0:
341,129,180842,1,2,0:0:0:0:
341,129,180925,1,2,1:2:0:0:
341,129,181008,1,2,1:2:0:0:
341,129,181092,2,0,P|334:86|334:53,1,66.0000025177003,10|0,0:0|0:0,0:0:0:0:
336,51,181342,1,2,0:0:0:0:
336,51,181425,1,0,1:0:0:0:
146,159,181592,5,2,1:2:0:0:
146,159,181675,1,8,0:0:0:0:
146,159,181758,1,2,1:2:0:0:
341,244,181925,1,0,1:0:0:0:
230,82,182092,1,8,0:0:0:0:
133,293,182258,5,0,1:0:0:0:
133,293,182342,1,0,1:0:0:0:
133,293,182425,1,0,1:0:0:0:
337,158,182592,1,0,1:0:0:0:
107,86,182758,1,8,0:0:0:0:
276,317,182925,6,0,B|330:271|397:298|397:298|416:328|457:335,1,193.600005908203,0|0,1:2|1:2,0:0:0:0:
327,157,183425,5,8,0:0:0:0:
313,161,183508,1,0,1:2:0:0:
299,165,183592,1,0,1:2:0:0:
285,170,183675,1,0,1:2:0:0:
271,175,183758,6,0,L|205:198,2,64.5333353027344,2|2|2,1:2|0:0|0:0,0:0:0:0:
303,80,184092,5,8,0:0:0:0:
346,76,184175,1,0,1:0:0:0:
383,99,184258,1,2,1:2:0:0:
401,138,184342,1,0,1:0:0:0:
397,185,184425,2,0,P|390:235|388:277,1,79.1999975830079,6|0,1:2|0:0,0:0:0:0:
232,350,184758,2,0,P|234:310|240:271,1,79.1999975830079,0|0,1:2|1:1,0:0:0:0:
143,82,185092,5,2,1:2:0:0:
115,83,185175,1,0,1:2:0:0:
89,92,185258,1,0,1:2:0:0:
68,110,185342,1,2,1:2:0:0:
56,135,185425,1,0,1:2:0:0:
50,162,185508,1,0,1:2:0:0:
53,189,185592,1,2,1:2:0:0:
60,215,185675,1,0,1:2:0:0:
78,235,185758,2,0,L|151:218,1,48.4000014770508,6|0,1:2|0:0,0:0:0:0:
222,66,185925,5,0,1:0:0:0:
254,73,186008,1,0,1:0:0:0:
287,80,186092,1,0,1:0:0:0:
319,88,186175,1,0,1:0:0:0:
351,97,186258,2,0,L|406:112,1,48.4000014770508,0|0,1:0|0:0,0:0:0:0:
508,259,186425,5,2,1:2:0:0:
460,235,186508,1,0,1:2:0:0:
406,239,186592,1,0,1:2:0:0:
363,271,186675,1,2,1:2:0:0:
340,318,186758,1,0,1:2:0:0:
295,347,186842,1,0,1:2:0:0:
242,343,186925,1,2,1:2:0:0:
202,308,187008,1,0,1:2:0:0:
180,258,187092,2,0,L|190:205,1,48.4000014770508,6|0,1:2|1:2,1:2:0:0:
162,16,187258,5,0,1:0:0:0:
111,0,187342,1,0,1:0:0:0:
59,8,187425,1,0,1:0:0:0:
15,36,187508,1,0,1:0:0:0:
3,88,187592,1,0,1:0:0:0:
14,139,187675,1,0,1:0:0:0:
49,179,187758,5,8,0:0:0:0:
108,202,187842,1,8,0:0:0:0:
167,179,187925,1,8,0:0:0:0:
202,126,188008,1,8,0:0:0:0:
262,104,188092,1,8,0:0:0:0:
325,112,188175,1,8,0:0:0:0:
372,153,188258,1,8,0:0:0:0:
385,215,188342,1,8,0:0:0:0:
370,275,188425,5,12,0:0:0:0:
102,107,188592,1,8,0:0:0:0:
102,107,189925,6,0,B|226:102|141:19|303:21|303:21|268:41|259:66,1,290.399991137696,2|2,0:0|0:0,0:0:0:0:
115,301,192425,6,0,P|45:286|43:155,1,193.600005908203,2|8,1:2|0:0,0:0:0:0:
183,63,192925,1,2,0:0:0:0:
107,25,193092,2,0,P|112:96|113:135,1,96.8000029541017,2|0,1:2|0:0,0:0:0:0:
262,196,193425,2,0,P|263:147|267:99,1,96.8000029541017,8|2,0:2|0:0,0:0:0:0:
106,205,193758,6,0,B|224:212|148:280|292:290,1,193.600005908203,2|8,1:2|0:0,0:0:0:0:
413,170,194258,1,2,1:2:0:0:
413,170,194342,1,8,0:0:0:0:
413,170,194425,2,0,P|468:182|486:231,1,96.8000029541017,2|0,1:2|0:0,0:0:0:0:
371,354,194758,2,0,P|368:300|363:253,1,96.8000029541017,10|0,0:0|0:0,0:0:0:0:
226,70,195092,6,0,B|178:30|110:53|110:53|90:84|39:92,1,193.600005908203,2|8,1:2|0:0,0:0:0:0:
236,210,195592,1,2,0:0:0:0:
166,269,195758,2,0,P|164:210|160:165,1,96.8000029541017,0|0,1:0|0:0,0:0:0:0:
281,7,196092,5,10,0:0:0:0:
329,8,196175,1,8,0:0:0:0:
372,28,196258,1,8,0:0:0:0:
391,72,196342,1,8,0:0:0:0:
381,123,196425,6,0,B|299:146|241:79|241:79|296:101|327:88,1,224.40000428009,6|0,1:2|0:0,0:0:0:0:
400,253,196758,6,0,B|420:170|507:153|507:153|461:190|456:224,1,224.40000428009,6|0,1:2|0:0,0:0:0:0:
277,214,197092,6,0,B|338:272|309:356|309:356|300:298|273:277,1,224.40000428009,6|0,1:2|0:0,0:0:0:0:
167,148,197425,5,12,0:0:0:0:
34,289,197592,5,0,1:0:0:0:
34,289,197675,1,0,1:0:0:0:
34,289,197758,2,0,P|109:296|222:336,1,193.600005908203,2|8,1:2|0:0,0:0:0:0:
366,176,198258,1,2,0:0:0:0:
285,379,198425,2,0,P|302:327|267:178,1,193.600005908203,2|8,1:2|0:0,0:0:0:0:
410,7,198925,5,0,0:0:0:0:
476,71,199092,2,0,P|425:81|369:101,1,96.8000029541017,0|0,1:2|0:0,0:0:0:0:
277,193,199425,2,0,P|323:202|370:217,1,96.8000029541017,8|0,0:0|0:0,0:0:0:0:
383,222,199675,1,8,0:0:0:0:
383,222,199758,1,0,1:0:0:0:
512,319,199925,1,0,0:0:0:0:
451,370,200092,2,0,P|434:323|464:251,1,96.8000029541017,8|0,0:0|0:0,0:0:0:0:
298,102,200425,6,0,B|188:110|234:179|120:191,1,193.600005908203,0|8,1:2|0:0,0:0:0:0:
2,70,200925,1,0,0:0:0:0:
87,31,201092,2,0,P|77:94|72:149,1,96.8000029541017,0|0,1:0|0:0,0:0:0:0:
183,264,201425,5,10,0:2:0:0:
0,153,201592,1,0,1:0:0:0:
242,91,201758,5,6,1:2:0:0:
0,234,201925,1,0,1:0:0:0:
227,335,202092,5,10,0:0:0:0:
256,329,202175,1,0,1:0:0:0:
286,322,202258,1,0,1:0:0:0:
317,315,202342,1,0,1:0:0:0:
347,309,202425,2,0,L|414:295,1,48.4000014770508,10|0,0:0|0:0,0:0:0:0:
287,161,202592,5,0,1:0:0:0:
287,161,202675,1,0,1:0:0:0:
287,161,202758,2,0,L|269:219,1,48.4000014770508,10|0,0:0|0:0,0:0:0:0:
466,353,202925,5,8,0:0:0:0:
466,353,203008,1,8,0:0:0:0:
466,353,203092,2,0,P|456:297|443:202,1,132.000005035401,4|0,1:2|0:0,0:0:0:0:
322,91,203592,1,0,1:0:0:0:
374,34,203758,2,0,P|416:48|429:79,1,66.0000025177003,8|2,0:0|0:0,0:0:0:0:
308,187,204092,1,2,0:0:0:0:
245,138,204258,6,0,B|170:153|200:186|122:196,1,132.000005035401,2|8,1:2|0:0,0:0:0:0:
80,130,204758,1,0,0:0:0:0:
119,64,204925,1,0,1:0:0:0:
242,212,205092,5,10,0:0:0:0:
66,308,205258,1,2,1:2:0:0:
242,212,205425,1,2,0:0:0:0:
120,384,205592,6,0,P|140:336|121:184,1,198.000007553101,6|0,1:2|0:0,0:0:0:0:
127,194,205925,1,2,1:2:0:0:
240,44,206091,1,2,0:0:0:0:
47,159,206258,1,2,1:2:0:0:
245,210,206425,1,10,0:0:0:0:
54,310,206592,1,2,1:2:0:0:
200,140,206758,1,10,0:0:0:0:
318,337,206925,6,0,B|413:331|376:259|516:270,1,193.600005908203,6|0,1:2|0:0,0:0:0:0:
337,152,207425,5,8,0:0:0:0:
322,149,207508,1,0,1:0:0:0:
307,145,207592,1,0,1:0:0:0:
293,141,207675,1,0,1:0:0:0:
278,138,207758,1,2,1:2:0:0:
258,61,207925,1,0,0:0:0:0:
415,8,208092,5,10,2:0:0:0:
395,85,208259,1,0,1:2:0:0:
395,85,208342,1,0,1:0:0:0:
395,85,208425,6,0,B|380:162|380:162|383:170|383:170|357:312,1,198.000007553101,6|0,1:2|0:0,0:0:0:0:
411,365,208758,6,0,P|387:300|268:302,1,198.000007553101,6|0,1:2|0:0,0:0:0:0:
168,311,209092,6,0,B|182:363|182:363|222:207,1,198.000007553101,6|0,1:2|0:0,0:0:0:0:
122,177,209425,6,0,B|230:167|181:90|323:89,1,198.000007553101,6|0,1:2|0:0,0:0:0:0:
400,176,209758,6,0,P|461:164|455:23,1,193.600005908203,2|10,1:2|0:0,0:0:0:0:
299,0,210258,1,0,1:0:0:0:
299,0,210342,1,0,1:0:0:0:
299,0,210425,2,0,P|305:60|307:109,1,96.8000029541017,2|0,1:2|0:0,0:0:0:0:
479,214,210758,1,10,0:0:0:0:
299,312,210925,5,2,1:2:0:0:
299,312,211008,1,2,1:2:0:0:
299,312,211092,2,0,B|228:296|228:296|208:264|208:264|123:244,1,193.600005908203,0|8,1:2|0:0,0:0:0:0:
96,52,211592,2,0,P|155:69|164:121,1,96.8000029541017,0|0,1:0|0:0,0:0:0:0:
22,227,211925,1,0,1:0:0:0:
196,354,212092,6,0,B|218:308|218:308|201:246,1,96.8000029541017,10|8,0:0|0:0,0:0:0:0:
202,252,212342,1,8,0:0:0:0:
202,252,212425,1,2,1:2:0:0:
363,106,212592,6,0,L|349:167,1,48.4000014770508,8|8,0:0|0:0,0:0:0:0:
307,309,212758,1,2,1:2:0:0:
161,178,212925,5,0,1:2:0:0:
202,165,213008,1,0,1:2:0:0:
245,172,213092,1,2,1:2:0:0:
276,202,213175,1,0,1:2:0:0:
310,227,213258,1,0,1:2:0:0:
351,241,213342,1,0,1:2:0:0:
412,227,213425,5,8,0:0:0:0:
454,180,213508,1,8,0:0:0:0:
464,117,213592,1,8,0:0:0:0:
433,62,213675,1,8,0:0:0:0:
367,48,213758,6,0,P|376:140|379:280,1,198.000007553101,6|0,1:2|0:0,0:0:0:0:
379,245,214092,1,8,0:0:0:0:
464,117,214258,1,2,0:0:0:0:
320,288,214425,2,0,P|263:275|239:229,1,96.8000029541017,2|0,1:2|0:0,0:0:0:0:
128,97,214758,5,8,0:0:0:0:
133,77,214842,1,0,1:2:0:0:
136,57,214925,1,2,1:2:0:0:
258,157,215092,6,0,B|157:163|193:241|74:246,1,193.600005908203,0|8,1:2|0:0,0:0:0:0:
272,350,215592,1,0,1:0:0:0:
272,350,215675,1,8,0:0:0:0:
272,350,215758,2,0,P|329:362|383:389,1,96.8000029541017,0|0,1:0|0:0,0:0:0:0:
236,170,216092,5,10,0:0:0:0:
49,352,216258,1,2,0:0:0:0:
109,138,216425,6,0,P|115:211|112:253,1,96.8000029541017,2|0,1:2|0:0,0:0:0:0:
289,105,216758,5,8,0:0:0:0:
109,21,216925,1,0,1:0:0:0:
241,166,217092,5,0,1:0:0:0:
339,8,217258,1,0,1:0:0:0:
133,144,217425,5,10,0:0:0:0:
133,144,217508,1,8,0:0:0:0:
133,144,217592,2,0,L|71:126,1,48.4000014770508,8|8,0:0|0:0,0:0:0:0:
330,282,217758,6,0,B|368:241|446:252|446:252|412:270|403:287,1,149.600002853394,6|0,0:0|1:0,0:0:0:0:
330,144,218008,5,0,1:0:0:0:
330,144,218092,2,0,B|275:131|246:58|246:58|278:78|297:78,1,149.600002853394,6|0,1:2|1:0,0:0:0:0:
215,220,218342,5,0,1:0:0:0:
215,220,218425,2,0,B|231:273|182:335|182:335|184:297|174:280,1,149.600002853394,6|0,1:2|1:0,0:0:0:0:
27,197,218675,5,0,1:0:0:0:
27,197,218758,2,0,L|43:128,1,48.4000014770508,6|0,1:2|1:0,0:0:0:0:
185,39,218925,5,0,1:0:0:0:
185,39,219008,1,0,1:0:0:0:
185,39,219092,2,0,B|298:58|219:119|381:134,1,193.600005908203,2|8,1:2|0:0,0:0:0:0:
512,251,219592,1,2,0:0:0:0:
342,354,219758,2,0,B|325:309|325:309|341:255|342:255,1,96.8000029541017,2|0,1:2|0:0,0:0:0:0:
457,91,220092,2,0,P|444:172|441:219,1,96.8000029541017,10|0,0:0|0:0,0:0:0:0:
262,315,220424,6,0,B|210:274|149:288|149:288|121:322|67:320,1,193.600005908203,0|8,1:2|0:0,0:0:0:0:
6,141,220925,1,0,1:0:0:0:
6,141,221008,1,0,1:0:0:0:
6,141,221092,2,0,P|64:156|77:201,1,96.8000029541017,0|0,1:2|0:0,0:0:0:0:
222,372,221425,5,10,0:0:0:0:
365,193,221592,1,2,0:0:0:0:
502,369,221758,6,0,B|380:355|461:294|294:300,1,193.600005908203,0|8,1:2|0:0,0:0:0:0:
203,146,222258,1,0,0:0:0:0:
71,331,222424,2,0,P|120:314|179:307,1,96.8000029541017,0|0,1:2|0:2,1:2:0:0:
304,131,222758,5,10,0:0:0:0:
120,240,222925,1,2,1:2:0:0:
120,240,223008,1,0,1:0:0:0:
120,240,223092,1,2,1:2:0:0:
320,298,223258,1,0,1:0:0:0:
141,156,223425,5,10,0:2:0:0:
92,159,223508,1,0,1:2:0:0:
52,187,223592,1,2,1:2:0:0:
41,234,223675,1,0,1:2:0:0:
50,281,223758,1,0,1:2:0:0:
217,193,223925,1,2,1:2:0:0:
36,106,224092,1,10,0:0:0:0:
129,246,224258,5,0,1:2:0:0:
129,246,224342,1,0,1:2:0:0:
129,246,224425,2,0,P|125:172|123:49,1,176,4|2,1:2|1:2,0:0:0:0:
302,18,224925,1,2,1:2:0:0:
352,84,225092,5,2,1:2:0:0:
181,121,225258,1,2,0:2:0:0:
197,49,225425,5,2,1:2:0:0:
337,178,225592,1,10,0:2:0:0:
266,207,225758,6,0,P|254:156|273:120,1,88,0|0,1:2|0:0,0:0:0:0:
389,236,226092,1,2,1:2:0:0:
441,285,226258,2,0,P|435:342|435:384,1,88,2|0,0:0|1:2,0:0:0:0:
310,279,226592,2,0,B|257:298|223:304|224:304,1,88,2|0,0:0|1:0,0:0:0:0:
54,363,226925,1,2,0:0:0:0:
88,296,227092,6,0,P|134:305|151:343,1,88,4|0,1:2|0:0,0:0:0:0:
279,209,227425,1,2,1:2:0:0:
205,188,227592,2,0,L|207:242,1,44,0|8,1:0|0:0,0:0:0:0:
321,361,227758,6,0,P|382:351|397:239,1,176,6|0,1:2|1:0,0:0:0:0:
302,94,228258,6,0,L|351:109,1,44,2|8,1:2|0:0,0:0:0:0:
461,152,228425,1,0,1:0:0:0:
297,242,228592,5,0,1:2:0:0:
271,248,228675,1,0,1:2:0:0:
244,249,228758,1,2,1:2:0:0:
218,241,228842,1,0,1:2:0:0:
197,225,228925,1,0,1:2:0:0:
188,200,229008,1,0,1:2:0:0:
166,171,229092,5,2,1:2:0:0:
132,159,229175,1,0,1:2:0:0:
96,159,229258,1,0,1:2:0:0:
63,172,229342,1,0,1:2:0:0:
42,200,229425,5,10,0:0:0:0:
7,160,229508,1,8,0:0:0:0:
2,106,229592,1,8,0:0:0:0:
27,60,229675,1,8,0:0:0:0:
77,42,229758,1,8,0:0:0:0:
268,175,230425,6,0,P|283:135|264:79,1,88,2|2,0:0|0:0,0:0:0:0:
272,92,230925,1,2,0:0:0:0:
419,10,231425,5,2,0:0:0:0:
489,43,231740,1,2,0:0:0:0:
485,121,232105,1,2,0:0:0:0:
388,221,232425,6,0,B|281:214|342:160|223:157,1,176,2|0,0:0|0:0,0:0:0:0:
81,65,233471,5,2,0:0:0:0:
139,13,233865,2,0,P|172:20|196:74,1,88,2|2,0:0|0:0,0:0:0:0:
340,18,234605,6,0,P|373:67|334:140,1,132,2|2,0:0|0:0,0:0:0:0:
261,187,235459,6,0,B|338:196|294:235|398:244,1,132,2|2,0:0|0:0,0:0:0:0:
427,189,236414,1,2,0:0:0:0:
256,192,236543,12,0,238483,0:0:0:0:
