osu file format v14

[General]
AudioFilename: audio.mp3
AudioLeadIn: 0
PreviewTime: 163347
Countdown: 0
SampleSet: Soft
StackLeniency: 0.7
Mode: 0
LetterboxInBreaks: 0
EpilepsyWarning: 1
WidescreenStoryboard: 1

[Editor]
Bookmarks: 56424,115091,163091
DistanceSpacing: 1.4
BeatDivisor: 4
GridSize: 16
TimelineZoom: 1.5

[Metadata]
Title:Starcast
TitleUnicode:Starcast
Artist:Ishihara Kaori
ArtistUnicode:石原夏織
Creator:Saggin
Version:AF's Insane
Source:
Tags:japanese pop jpop j-pop gfmrt affirmation heto
BeatmapID:3380672
BeatmapSetID:1632709

[Difficulty]
HPDrainRate:4.8
CircleSize:3.8
OverallDifficulty:8.1
ApproachRate:9
SliderMultiplier:0.999999999999999
SliderTickRate:1

[Events]
//Background and Video events
0,0,"bg.jpg",0,0
//Break Periods
2,51758,55658
//Storyboard Layer 0 (Background)
Sprite,Background,Centre,"bg.jpg",320,240 F,0,0,1424,0
Sprite,Background,Centre,"sb\blur.jpg",320,240 F,0,1429,1763,0,1 S,0,1429,1763,0.46 F,0,1763,27096,1 S,0,1763,27096,0.46
Sprite,Background,Centre,"sb\blur.jpg",320,240 F,0,27096,28430,1,0 S,0,27096,28430,0.46 F,0,56430,61091,1 S,0,56430,61091,0.46
Sprite,Background,Centre,"sb\blur.jpg",320,240 F,0,61091,61758,1,0 S,0,61091,61758,0.46
Sprite,Background,Centre,"sb\blur.jpg",320,240 F,0,32424,51091,1 S,0,32424,51091,0.46
Sprite,Background,Centre,"sb\blur.jpg",320,240 F,0,61758,83091,1 S,0,61758,83091,0.46
Sprite,Background,Centre,"sb\blur.jpg",320,240 F,0,61758,82758,0.3 S,0,61758,82758,0.46 F,0,82758,83091,0.3,0 S,0,82758,83091,0.46
Sprite,Background,Centre,"sb\blur.jpg",320,240 F,0,83091,93091,1 S,0,83091,93091,0.46
Sprite,Background,Centre,"sb\blur.jpg",320,240 F,0,93091,93758,1,0 S,0,93091,93758,0.46
Sprite,Background,Centre,"sb\blur.jpg",320,240 F,0,115091,136425,1 S,0,115091,136425,0.46
Sprite,Background,Centre,"sb\blur.jpg",320,240 F,0,115091,136425,0.3 S,0,115091,136425,0.46
Sprite,Background,Centre,"sb\blur.jpg",320,240 F,0,72425,73591,0.33,0 S,0,72425,73591,0.46,0.49
Sprite,Background,Centre,"sb\blur.jpg",320,240 F,0,125758,126925,0.33,0 S,0,125758,126925,0.46,0.49
Sprite,Background,Centre,"sb\blur.jpg",320,240 F,0,104425,114425,1 S,0,104425,114425,0.46
Sprite,Background,Centre,"sb\blur.jpg",320,240 F,0,114425,115091,1,0 S,0,114425,115091,0.46
Sprite,Background,Centre,"sb\blur.jpg",320,240 F,0,141758,162425,1 S,0,141758,162425,0.46
Sprite,Background,Centre,"sb\blur.jpg",320,240 F,0,162425,163091,1,0 S,0,162425,163091,0.46
Sprite,Background,Centre,"sb\st.png",150,130 F,0,164425,165091,1,0 S,0,164425,165091,0,0.8 R,0,164425,165091,0,0.3
Sprite,Background,Centre,"sb\st.png",124,120 F,0,164425,165091,1,0 S,0,164425,165091,0,0.4 R,0,164425,165091,0,-0.24444
Sprite,Background,Centre,"sb\st.png",137,110 F,0,164425,165091,1,0 S,0,164425,165091,0,0.2 R,0,164425,165091,0,0.5
Sprite,Background,Centre,"sb\st.png",130,138 F,0,164425,165091,1,0 S,0,164425,165091,0,0.2 R,0,164425,165091,0,0.4
Sprite,Background,Centre,"sb\st.png",580,340 F,0,165091,165758,1,0 S,0,165091,165758,0,0.8 R,0,165091,165758,0,0.3
Sprite,Background,Centre,"sb\st.png",600,330 F,0,165091,165758,1,0 S,0,165091,165758,0,0.4 R,0,165091,165758,0,-0.24444
Sprite,Background,Centre,"sb\st.png",567,320 F,0,165091,165758,1,0 S,0,165091,165758,0,0.2 R,0,165091,165758,0,0.5
Sprite,Background,Centre,"sb\st.png",557,348 F,0,165091,165758,1,0 S,0,165091,165758,0,0.2 R,0,165091,165758,0,0.4
Sprite,Background,Centre,"sb\st.png",180,400 F,0,165758,166425,1,0 S,0,165758,166425,0,0.8 R,0,165758,166425,0,0.3
Sprite,Background,Centre,"sb\st.png",154,390 F,0,165758,166425,1,0 S,0,165758,166425,0,0.4 R,0,165758,166425,0,-0.24444
Sprite,Background,Centre,"sb\st.png",167,380 F,0,165758,166425,1,0 S,0,165758,166425,0,0.2 R,0,165758,166425,0,0.5
Sprite,Background,Centre,"sb\st.png",160,408 F,0,165758,166425,1,0 S,0,165758,166425,0,0.2 R,0,165758,166425,0,0.4
Sprite,Background,Centre,"sb\st.png",550,240 F,0,167091,167758,1,0 S,0,167091,167758,0,0.8 R,0,167091,167758,0,0.3
Sprite,Background,Centre,"sb\st.png",570,230 F,0,167091,167758,1,0 S,0,167091,167758,0,0.4 R,0,167091,167758,0,-0.24444
Sprite,Background,Centre,"sb\st.png",537,220 F,0,167091,167758,1,0 S,0,167091,167758,0,0.2 R,0,167091,167758,0,0.5
Sprite,Background,Centre,"sb\st.png",527,248 F,0,167091,167758,1,0 S,0,167091,167758,0,0.2 R,0,167091,167758,0,0.4
Sprite,Background,Centre,"sb\st.png",150,130 F,0,167758,168425,1,0 S,0,167758,168425,0,0.8 R,0,167758,168425,0,0.3
Sprite,Background,Centre,"sb\st.png",124,120 F,0,167758,168425,1,0 S,0,167758,168425,0,0.4 R,0,167758,168425,0,-0.24444
Sprite,Background,Centre,"sb\st.png",137,110 F,0,167758,168425,1,0 S,0,167758,168425,0,0.2 R,0,167758,168425,0,0.5
Sprite,Background,Centre,"sb\st.png",130,138 F,0,167758,168425,1,0 S,0,167758,168425,0,0.2 R,0,167758,168425,0,0.4
Sprite,Background,Centre,"sb\blur.jpg",320,240 F,0,173758,191758,1 S,0,173758,191758,0.46
Sprite,Background,Centre,"sb\blur.jpg",320,240 F,0,173758,191091,0.3 S,0,173758,191091,0.46
Sprite,Background,Centre,"sb\blur.jpg",320,240 F,0,191091,191758,0.3,0 S,0,191091,191758,0.46
Sprite,Background,Centre,"sb\blur.jpg",320,240 F,0,192425,213091,1 S,0,192425,213091,0.46
Sprite,Background,Centre,"sb\blur.jpg",320,240 F,0,213091,213758,1,0 S,0,213091,213758,0.46
Sprite,Background,Centre,"sb\blur.jpg",320,240 F,0,224425,229091,1 S,0,224425,229091,0.46
Sprite,Background,Centre,"sb\blur.jpg",320,240 F,0,229091,229758,1,0 S,0,229091,229758,0.46
Sprite,Background,Centre,"bg.jpg",320,240 F,0,213758,224091,1 S,0,213758,224091,0.46
Sprite,Background,Centre,"bg.jpg",320,240 F,0,213758,224091,0.5 S,0,213758,224091,0.46
Sprite,Background,Centre,"bg.jpg",320,240 F,0,224091,224425,1,0 S,0,224091,224425,0.46
Sprite,Background,Centre,"bg.jpg",320,240 F,0,224091,224425,0.5,0 S,0,224091,224425,0.46
Sprite,Background,Centre,"sb\blur.jpg",320,240 F,0,224091,224425,0,1 S,0,224091,224425,0.46
Sprite,Background,Centre,"sb\w.jpg",320,240 F,0,93758,102925,1 S,0,93758,102925,0.46
Sprite,Background,Centre,"sb\w.jpg",320,240 F,0,104425,105425,1,0 S,0,104425,105425,0.46
Sprite,Background,Centre,"sb\w.jpg",320,240 F,0,102925,103758,1,0 S,0,102925,103758,0.46
Sprite,Background,Centre,"sb\cir2.png",0,0 L,1758,4 F,1,0,1097,0,0.1490196 M,2,0,5485,241.2213,87.39697,245.8975,-12.49364 F,2,4388,5485,0.1490196,0 S,0,1758,,0.2 R,0,1758,,-1.524017 C,0,1758,,173,173,173
Sprite,Background,Centre,"sb\cir2.png",0,0 L,2179,4 F,1,0,1097,0,0.1490196 M,2,0,5485,-59.97821,307.3235,-60.98739,207.3286 F,2,4388,5485,0.1490196,0 S,0,2179,,0.2 R,0,2179,,-1.580888 C,0,2179,,166,166,166
Sprite,Background,Centre,"sb\cir2.png",0,0 L,3023,4 F,1,0,1097,0,0.1490196 M,2,0,5485,-94.16296,520.4745,-102.3504,420.8102 F,2,4388,5485,0.1490196,0 S,0,3023,,0.2 R,0,3023,,-1.652763 C,0,3023,,254,254,254
Sprite,Background,Centre,"sb\cir2.png",0,0 L,3445,4 F,1,0,1097,0,0.1490196 M,2,0,5485,195.8945,243.7221,201.4228,143.8751 F,2,4388,5485,0.1490196,0 S,0,3445,,0.2 R,0,3445,,-1.515485 C,0,3445,,254,254,254
Sprite,Background,Centre,"sb\cir2.png",0,0 L,3867,4 F,1,0,1097,0,0.1490196 M,2,0,5485,622.6436,513.1205,623.1023,413.1216 F,2,4388,5485,0.1490196,0 S,0,3867,,0.2 R,0,3867,,-1.566209 C,0,3867,,217,217,217
Sprite,Background,Centre,"sb\cir2.png",0,0 L,4289,4 F,1,0,1097,0,0.1490196 M,2,0,5485,185.9737,411.9718,180.5157,312.1208 F,2,4388,5485,0.1490196,0 S,0,4289,,0.2 R,0,4289,,-1.625403 C,0,4289,,186,186,186
Sprite,Background,Centre,"sb\cir2.png",0,0 L,4711,4 F,1,0,1097,0,0.1490196 M,2,0,5485,614.8433,421.9373,619.4312,322.0426 F,2,4388,5485,0.1490196,0 S,0,4711,,0.2 R,0,4711,,-1.5249 C,0,4711,,206,206,206
Sprite,Background,Centre,"sb\cir2.png",0,0 L,5555,4 F,1,0,1097,0,0.1490196 M,2,0,5485,265.728,310.1802,261.775,210.2583 F,2,4388,5485,0.1490196,0 S,0,5555,,0.2 R,0,5555,,-1.610337 C,0,5555,,230,230,230
Sprite,Background,Centre,"sb\cir2.png",0,0 L,6821,4 F,1,0,1097,0,0.1490196 M,2,0,5485,91.10857,253.942,85.78632,154.0837 F,2,4388,5485,0.1490196,0 S,0,6821,,0.2 R,0,6821,,-1.624044 C,0,6821,,234,234,234
Sprite,Background,Centre,"sb\t.png",0,0 L,61058,3 F,1,0,1200,0,0.4220503 M,21,0,6000,625.8998,-60.46068,-3105.627,1867.156 F,2,4800,6000,0.4220503,0 S,0,61058,,0.4 R,0,61058,,2.664773 C,0,61058,,173,173,173
Sprite,Background,Centre,"sb\t.png",0,0 L,61229,3 F,1,0,1200,0,0.4220503 M,21,0,6000,558.1299,-10.9772,-3057.799,2125.622 F,2,4800,6000,0.4220503,0 S,0,61229,,0.4 R,0,61229,,2.607902 C,0,61229,,166,166,166
Sprite,Background,Centre,"sb\t.png",0,0 L,61400,3 F,1,0,1200,0,0.4220503 M,21,0,6000,621.9869,79.40395,-3062.962,2094.633 F,2,4800,6000,0.4220503,0 S,0,61400,,0.4 R,0,61400,,2.641147 C,0,61400,,253,253,253
Sprite,Background,Centre,"sb\t.png",0,0 L,61572,3 F,1,0,1200,0,0.4220503 M,21,0,6000,720.0608,35.85012,-3084.989,1813.938 F,2,4800,6000,0.4220503,0 S,0,61572,,0.4 R,0,61572,,2.704448 C,0,61572,,181,181,181
Sprite,Background,Centre,"sb\t.png",0,0 L,61743,3 F,1,0,1200,0,0.4220503 M,21,0,6000,671.8254,-55.66415,-3132.155,1724.711 F,2,4800,6000,0.4220503,0 S,0,61743,,0.4 R,0,61743,,2.703847 C,0,61743,,231,231,231
Sprite,Background,Centre,"sb\t.png",0,0 L,61915,3 F,1,0,1200,0,0.4220503 M,21,0,6000,552.2032,5.700592,-3151.908,1985.489 F,2,4800,6000,0.4220503,0 S,0,61915,,0.4 R,0,61915,,2.65074 C,0,61915,,161,161,161
Sprite,Background,Centre,"sb\t.png",0,0 L,62086,3 F,1,0,1200,0,0.4220503 M,21,0,6000,661.3213,75.92912,-2899.382,2303.348 F,2,4800,6000,0.4220503,0 S,0,62086,,0.4 R,0,62086,,2.582594 C,0,62086,,211,211,211
Sprite,Background,Centre,"sb\t.png",0,0 L,62258,3 F,1,0,1200,0,0.4220503 M,21,0,6000,639.2766,4.361458,-2953.635,2179.445 F,2,4800,6000,0.4220503,0 S,0,62258,,0.4 R,0,62258,,2.597225 C,0,62258,,251,251,251
Sprite,Background,Centre,"sb\t.png",0,0 L,62429,3 F,1,0,1200,0,0.4220503 M,21,0,6000,561.8859,17.54616,-2927.823,2354.623 F,2,4800,6000,0.4220503,0 S,0,62429,,0.4 R,0,62429,,2.551489 C,0,62429,,246,246,246
Sprite,Background,Centre,"sb\t.png",0,0 L,62600,3 F,1,0,1200,0,0.4220503 M,21,0,6000,652.5059,-30.20537,-2969.016,2096.901 F,2,4800,6000,0.4220503,0 S,0,62600,,0.4 R,0,62600,,2.610525 C,0,62600,,190,190,190
Sprite,Background,Centre,"sb\t.png",0,0 L,62772,3 F,1,0,1200,0,0.4220503 M,21,0,6000,573.559,60.85391,-3106.869,2084.329 F,2,4800,6000,0.4220503,0 S,0,62772,,0.4 R,0,62772,,2.638908 C,0,62772,,175,175,175
Sprite,Background,Centre,"sb\t.png",0,0 L,62943,3 F,1,0,1200,0,0.4220503 M,21,0,6000,696.9661,-36.64741,-3023.524,1912.186 F,2,4800,6000,0.4220503,0 S,0,62943,,0.4 R,0,62943,,2.659078 C,0,62943,,217,217,217
Sprite,Background,Centre,"sb\t.png",0,0 L,63115,3 F,1,0,1200,0,0.4220503 M,21,0,6000,608.2336,-9.716318,-3165.21,1834.497 F,2,4800,6000,0.4220503,0 S,0,63115,,0.4 R,0,63115,,2.686998 C,0,63115,,147,147,147
Sprite,Background,Centre,"sb\t.png",0,0 L,63286,3 F,1,0,1200,0,0.4220503 M,21,0,6000,657.6111,-11.52077,-3031.36,1996.337 F,2,4800,6000,0.4220503,0 S,0,63286,,0.4 R,0,63286,,2.643147 C,0,63286,,165,165,165
Sprite,Background,Centre,"sb\t.png",0,0 L,63458,3 F,1,0,1200,0,0.4220503 M,21,0,6000,700.4424,19.98929,-2991.36,2022.635 F,2,4800,6000,0.4220503,0 S,0,63458,,0.4 R,0,63458,,2.644559 C,0,63458,,234,234,234
Sprite,Background,Centre,"sb\t.png",0,0 L,63629,3 F,1,0,1200,0,0.4220503 M,21,0,6000,699.905,65.53491,-3014.805,2025.363 F,2,4800,6000,0.4220503,0 S,0,63629,,0.4 R,0,63629,,2.656121 C,0,63629,,247,247,247
Sprite,Background,Centre,"sb\t.png",0,0 L,63800,3 F,1,0,1200,0,0.4220503 M,21,0,6000,661.1953,77.65532,-2990.972,2151.703 F,2,4800,6000,0.4220503,0 S,0,63800,,0.4 R,0,63800,,2.625114 C,0,63800,,224,224,224
Sprite,Background,Centre,"sb\t.png",0,0 L,63972,3 F,1,0,1200,0,0.4220503 M,21,0,6000,557.448,36.20821,-3187.838,1936.954 F,2,4800,6000,0.4220503,0 S,0,63972,,0.4 R,0,63972,,2.67196 C,0,63972,,228,228,228
Sprite,Background,Centre,"sb\t.png",0,0 L,64143,3 F,1,0,1200,0,0.4220503 M,21,0,6000,683.1661,1.305038,-2962.463,2086.824 F,2,4800,6000,0.4220503,0 S,0,64143,,0.4 R,0,64143,,2.621971 C,0,64143,,183,183,183
Sprite,Background,Centre,"sb\t.png",0,0 L,64315,3 F,1,0,1200,0,0.4220503 M,21,0,6000,619.355,99.36817,-2912.024,2372.991 F,2,4800,6000,0.4220503,0 S,0,64315,,0.4 R,0,64315,,2.569564 C,0,64315,,175,175,175
Sprite,Background,Centre,"sb\t.png",0,0 L,64486,3 F,1,0,1200,0,0.4220503 M,21,0,6000,584.895,-32.85382,-3099.257,1983.832 F,2,4800,6000,0.4220503,0 S,0,64486,,0.4 R,0,64486,,2.640752 C,0,64486,,162,162,162
Sprite,Background,Centre,"sb\t.png",0,0 L,64658,3 F,1,0,1200,0,0.4220503 M,21,0,6000,658.9224,9.946331,-3116.046,1851.036 F,2,4800,6000,0.4220503,0 S,0,64658,,0.4 R,0,64658,,2.687825 C,0,64658,,157,157,157
Sprite,Background,Centre,"sb\t.png",0,0 L,64829,3 F,1,0,1200,0,0.4220503 M,21,0,6000,655.4368,43.71571,-3021.468,2073.585 F,2,4800,6000,0.4220503,0 S,0,64829,,0.4 R,0,64829,,2.63717 C,0,64829,,193,193,193
Sprite,Background,Centre,"sb\t.png",0,0 L,65000,3 F,1,0,1200,0,0.4220503 M,21,0,6000,682.2751,79.40011,-2980.366,2134.895 F,2,4800,6000,0.4220503,0 S,0,65000,,0.4 R,0,65000,,2.630187 C,0,65000,,221,221,221
Sprite,Background,Centre,"sb\t.png",0,0 L,65172,3 F,1,0,1200,0,0.4220503 M,21,0,6000,692.0428,21.7263,-3066.84,1895.439 F,2,4800,6000,0.4220503,0 S,0,65172,,0.4 R,0,65172,,2.679165 C,0,65172,,197,197,197
Sprite,Background,Centre,"sb\t.png",0,0 L,65343,3 F,1,0,1200,0,0.4220503 M,21,0,6000,613.4035,-64.61391,-3189.616,1717.812 F,2,4800,6000,0.4220503,0 S,0,65343,,0.4 R,0,65343,,2.703308 C,0,65343,,210,210,210
Sprite,Background,Centre,"sb\t.png",0,0 L,65515,3 F,1,0,1200,0,0.4220503 M,21,0,6000,625.8683,82.89746,-3022.958,2162.818 F,2,4800,6000,0.4220503,0 S,0,65515,,0.4 R,0,65515,,2.623506 C,0,65515,,198,198,198
Sprite,Background,Centre,"sb\t.png",0,0 L,65686,3 F,1,0,1200,0,0.4220503 M,21,0,6000,555.2244,22.03983,-3122.845,2049.799 F,2,4800,6000,0.4220503,0 S,0,65686,,0.4 R,0,65686,,2.637744 C,0,65686,,234,234,234
Sprite,Background,Centre,"sb\t.png",0,0 L,65858,3 F,1,0,1200,0,0.4220503 M,21,0,6000,567.0576,70.27576,-2927.433,2400.197 F,2,4800,6000,0.4220503,0 S,0,65858,,0.4 R,0,65858,,2.553538 C,0,65858,,213,213,213
Sprite,Background,Centre,"sb\t.png",0,0 L,66029,3 F,1,0,1200,0,0.4220503 M,21,0,6000,674.121,-45.15211,-2988.477,2010.419 F,2,4800,6000,0.4220503,0 S,0,66029,,0.4 R,0,66029,,2.630166 C,0,66029,,186,186,186
Sprite,Background,Centre,"sb\t.png",0,0 L,66200,3 F,1,0,1200,0,0.4220503 M,21,0,6000,603.1151,-8.532541,-3202.483,1768.381 F,2,4800,6000,0.4220503,0 S,0,66200,,0.4 R,0,66200,,2.704757 C,0,66200,,158,158,158
Sprite,Background,Centre,"sb\t.png",0,0 L,66372,3 F,1,0,1200,0,0.4220503 M,21,0,6000,630.906,102.3068,-3031.098,2158.937 F,2,4800,6000,0.4220503,0 S,0,66372,,0.4 R,0,66372,,2.629877 C,0,66372,,203,203,203
Sprite,Background,Centre,"sb\t.png",0,0 L,66543,3 F,1,0,1200,0,0.4220503 M,21,0,6000,662.6481,15.31855,-2979.402,2107.082 F,2,4800,6000,0.4220503,0 S,0,66543,,0.4 R,0,66543,,2.620257 C,0,66543,,239,239,239
Sprite,Background,Centre,"sb\t.png",0,0 L,66715,3 F,1,0,1200,0,0.4220503 M,21,0,6000,595.3223,-33.28509,-3061.204,2033.067 F,2,4800,6000,0.4220503,0 S,0,66715,,0.4 R,0,66715,,2.62722 C,0,66715,,254,254,254
Sprite,Background,Centre,"sb\t.png",0,0 L,66886,3 F,1,0,1200,0,0.4220503 M,21,0,6000,630.7156,41.6567,-2993.955,2163.392 F,2,4800,6000,0.4220503,0 S,0,66886,,0.4 R,0,66886,,2.612008 C,0,66886,,177,177,177
Sprite,Background,Centre,"sb\cir2.png",0,0 L,1758,4 F,1,0,1097,0,0.125 M,0,0,5485,455.3087,80.49884,456.4252,-19.49493 F,2,4388,5485,0.125,0 S,0,1758,,0.1 R,0,1758,,-1.559631 C,0,1758,,160,160,160
Sprite,Background,Centre,"sb\cir2.png",0,0 L,2215,4 F,1,0,1097,0,0.125 M,0,0,5485,609.857,557.1859,608.9654,457.1899 F,2,4388,5485,0.125,0 S,0,2215,,0.1 R,0,2215,,-1.579712 C,0,2215,,230,230,230
Sprite,Background,Centre,"sb\cir2.png",0,0 L,3129,4 F,1,0,1097,0,0.125 M,0,0,5485,-41.05103,334.5649,-40.55447,234.5662 F,2,4388,5485,0.125,0 S,0,3129,,0.1 R,0,3129,,-1.565831 C,0,3129,,201,201,201
Sprite,Background,Centre,"sb\cir2.png",0,0 L,3586,4 F,1,0,1097,0,0.125 M,0,0,5485,377.1336,82.50879,374.4878,-17.45621 F,2,4388,5485,0.125,0 S,0,3586,,0.1 R,0,3586,,-1.597257 C,0,3586,,216,216,216
Sprite,Background,Centre,"sb\cir2.png",0,0 L,4043,4 F,1,0,1097,0,0.125 M,0,0,5485,185.2391,496.6422,178.2463,396.887 F,2,4388,5485,0.125,0 S,0,4043,,0.1 R,0,4043,,-1.640781 C,0,4043,,176,176,176
Sprite,Background,Centre,"sb\cir2.png",0,0 L,4500,4 F,1,0,1097,0,0.125 M,0,0,5485,167.5488,265.657,170.4079,165.6979 F,2,4388,5485,0.125,0 S,0,4500,,0.1 R,0,4500,,-1.542202 C,0,4500,,245,245,245
Sprite,Background,Centre,"sb\cir2.png",0,0 L,4957,4 F,1,0,1097,0,0.125 M,0,0,5485,362.3599,487.0543,369.9677,387.3441 F,2,4388,5485,0.125,0 S,0,4957,,0.1 R,0,4957,,-1.494645 C,0,4957,,172,172,172
Sprite,Background,Centre,"sb\cir2.png",0,0 L,5415,4 F,1,0,1097,0,0.125 M,0,0,5485,483.2927,478.6547,484.6176,378.6635 F,2,4388,5485,0.125,0 S,0,5415,,0.1 R,0,5415,,-1.557547 C,0,5415,,187,187,187
Sprite,Background,Centre,"sb\cir2.png",0,0 L,5872,4 F,1,0,1097,0,0.125 M,0,0,5485,287.423,394.9072,284.2353,294.958 F,2,4388,5485,0.125,0 S,0,5872,,0.1 R,0,5872,,-1.602679 C,0,5872,,202,202,202
Sprite,Background,Centre,"sb\cir2.png",0,0 L,6329,4 F,1,0,1097,0,0.125 M,0,0,5485,-41.78629,363.9212,-35.24961,264.1351 F,2,4388,5485,0.125,0 S,0,6329,,0.1 R,0,6329,,-1.505383 C,0,6329,,207,207,207
Sprite,Background,Centre,"sb\cir2.png",0,0 L,61458,3 F,1,0,1173,0,0.14 M,2,0,5866,285.1136,578.1082,282.5237,528.1754 F,2,4693,5866,0.14,0 S,0,61458,,0.24 R,0,61458,,-1.622616 C,0,61458,,216,216,216
Sprite,Background,Centre,"sb\cir2.png",0,0 L,61909,3 F,1,0,1173,0,0.14 M,2,0,5866,66.89442,542.5632,98.99876,504.2316 F,2,4693,5866,0.14,0 S,0,61909,,0.24 R,0,61909,,-0.8735791 C,0,61909,,225,225,225
Sprite,Background,Centre,"sb\cir2.png",0,0 L,62360,3 F,1,0,1173,0,0.14 M,2,0,5866,479.9941,480.6508,466.0528,432.6338 F,2,4693,5866,0.14,0 S,0,62360,,0.24 R,0,62360,,-1.853367 C,0,62360,,216,216,216
Sprite,Background,Centre,"sb\cir2.png",0,0 L,62811,3 F,1,0,1173,0,0.14 M,2,0,5866,164.3271,269.1732,173.3369,219.9916 F,2,4693,5866,0.14,0 S,0,62811,,0.24 R,0,62811,,-1.389611 C,0,62811,,222,222,222
Sprite,Background,Centre,"sb\cir2.png",0,0 L,63263,3 F,1,0,1173,0,0.14 M,2,0,5866,400.2027,407.0645,374.812,363.9912 F,2,4693,5866,0.14,0 S,0,63263,,0.24 R,0,63263,,-2.103442 C,0,63263,,236,236,236
Sprite,Background,Centre,"sb\cir2.png",0,0 L,64165,3 F,1,0,1173,0,0.14 M,2,0,5866,450.8075,107.3458,455.2237,57.54117 F,2,4693,5866,0.14,0 S,0,64165,,0.24 R,0,64165,,-1.482357 C,0,64165,,222,222,222
Sprite,Background,Centre,"sb\cir2.png",0,0 L,64616,3 F,1,0,1173,0,0.14 M,2,0,5866,680.9153,479.0359,704.0547,434.7125 F,2,4693,5866,0.14,0 S,0,64616,,0.24 R,0,64616,,-1.089659 C,0,64616,,146,146,146
Sprite,Background,Centre,"sb\cir2.png",0,0 L,65068,3 F,1,0,1173,0,0.14 M,2,0,5866,-4.71405,418.8177,-22.18006,371.9675 F,2,4693,5866,0.14,0 S,0,65068,,0.24 R,0,65068,,-1.927642 C,0,65068,,217,217,217
Sprite,Background,Centre,"sb\cir2.png",0,0 L,65970,3 F,1,0,1173,0,0.14 M,2,0,5866,162.8052,198.0754,143.274,152.0479 F,2,4693,5866,0.14,0 S,0,65970,,0.24 R,0,65970,,-1.972105 C,0,65970,,211,211,211
Sprite,Background,Centre,"sb\cir2.png",0,0 L,66873,3 F,1,0,1173,0,0.14 M,2,0,5866,159.3671,541.4958,191.8297,503.4672 F,2,4693,5866,0.14,0 S,0,66873,,0.24 R,0,66873,,-0.8641944 C,0,66873,,252,252,252
Sprite,Background,Centre,"sb\cir2.png",0,0 L,61458,3 F,1,0,1173,0,0.1372549 M,2,0,5866,317.6049,192.9351,292.5594,149.6601 F,2,4693,5866,0.1372549,0 S,0,61458,,0.14 R,0,61458,,-2.095444 C,0,61458,,146,146,146
Sprite,Background,Centre,"sb\cir2.png",0,0 L,62240,3 F,1,0,1173,0,0.1372549 M,2,0,5866,290.6286,486.8226,310.8721,441.1039 F,2,4693,5866,0.1372549,0 S,0,62240,,0.14 R,0,62240,,-1.153958 C,0,62240,,177,177,177
Sprite,Background,Centre,"sb\cir2.png",0,0 L,62631,3 F,1,0,1173,0,0.1372549 M,2,0,5866,37.23477,429.4399,20.25419,382.4117 F,2,4693,5866,0.1372549,0 S,0,62631,,0.14 R,0,62631,,-1.9173 C,0,62631,,171,171,171
Sprite,Background,Centre,"sb\cir2.png",0,0 L,63022,3 F,1,0,1173,0,0.1372549 M,2,0,5866,270.0275,326.4883,239.5468,286.8534 F,2,4693,5866,0.1372549,0 S,0,63022,,0.14 R,0,63022,,-2.22637 C,0,63022,,193,193,193
Sprite,Background,Centre,"sb\cir2.png",0,0 L,63413,3 F,1,0,1173,0,0.1372549 M,2,0,5866,239.6563,68.98648,263.2365,24.89597 F,2,4693,5866,0.1372549,0 S,0,63413,,0.14 R,0,63413,,-1.079687 C,0,63413,,247,247,247
Sprite,Background,Centre,"sb\cir2.png",0,0 L,64195,3 F,1,0,1173,0,0.1372549 M,2,0,5866,410.3955,429.1461,377.2525,391.709 F,2,4693,5866,0.1372549,0 S,0,64195,,0.14 R,0,64195,,-2.295428 C,0,64195,,241,241,241
Sprite,Background,Centre,"sb\cir2.png",0,0 L,64586,3 F,1,0,1173,0,0.1372549 M,2,0,5866,151.1508,126.5798,165.5256,78.69068 F,2,4693,5866,0.1372549,0 S,0,64586,,0.14 R,0,64586,,-1.279185 C,0,64586,,177,177,177
Sprite,Background,Centre,"sb\cir2.png",0,0 L,65369,3 F,1,0,1173,0,0.1372549 M,2,0,5866,573.6206,373.6756,539.2562,337.3563 F,2,4693,5866,0.1372549,0 S,0,65369,,0.14 R,0,65369,,-2.328544 C,0,65369,,189,189,189
Sprite,Background,Centre,"sb\cir2.png",0,0 L,65760,3 F,1,0,1173,0,0.1372549 M,2,0,5866,-35.30576,473.861,-25.92684,424.7485 F,2,4693,5866,0.1372549,0 S,0,65760,,0.14 R,0,65760,,-1.3821 C,0,65760,,246,246,246
Sprite,Background,Centre,"sb\cir2.png",0,0 L,66151,3 F,1,0,1173,0,0.1372549 M,2,0,5866,66.80893,296.6523,35.80802,257.4229 F,2,4693,5866,0.1372549,0 S,0,66151,,0.14 R,0,66151,,-2.239562 C,0,66151,,167,167,167
Sprite,Background,Centre,"sb\cir2.png",0,0 L,115391,3 F,1,0,1135,0,0.1333333 M,2,0,5678,317.6049,192.9351,292.5594,149.6601 F,2,4542,5678,0.1333333,0 S,0,115391,,0.14 R,0,115391,,-2.095444 C,0,115391,,146,146,146
Sprite,Background,Centre,"sb\cir2.png",0,0 L,116148,3 F,1,0,1135,0,0.1333333 M,2,0,5678,290.6286,486.8226,310.8721,441.1039 F,2,4542,5678,0.1333333,0 S,0,116148,,0.14 R,0,116148,,-1.153958 C,0,116148,,177,177,177
Sprite,Background,Centre,"sb\cir2.png",0,0 L,116526,3 F,1,0,1135,0,0.1333333 M,2,0,5678,37.23477,429.4399,20.25419,382.4117 F,2,4542,5678,0.1333333,0 S,0,116526,,0.14 R,0,116526,,-1.9173 C,0,116526,,171,171,171
Sprite,Background,Centre,"sb\cir2.png",0,0 L,116905,3 F,1,0,1135,0,0.1333333 M,2,0,5678,270.0275,326.4883,239.5468,286.8534 F,2,4542,5678,0.1333333,0 S,0,116905,,0.14 R,0,116905,,-2.22637 C,0,116905,,193,193,193
Sprite,Background,Centre,"sb\cir2.png",0,0 L,117283,3 F,1,0,1135,0,0.1333333 M,2,0,5678,239.6563,68.98648,263.2365,24.89597 F,2,4542,5678,0.1333333,0 S,0,117283,,0.14 R,0,117283,,-1.079687 C,0,117283,,247,247,247
Sprite,Background,Centre,"sb\cir2.png",0,0 L,118040,3 F,1,0,1135,0,0.1333333 M,2,0,5678,410.3955,429.1461,377.2525,391.709 F,2,4542,5678,0.1333333,0 S,0,118040,,0.14 R,0,118040,,-2.295428 C,0,118040,,241,241,241
Sprite,Background,Centre,"sb\cir2.png",0,0 L,118419,3 F,1,0,1135,0,0.1333333 M,2,0,5678,151.1508,126.5798,165.5256,78.69068 F,2,4542,5678,0.1333333,0 S,0,118419,,0.14 R,0,118419,,-1.279185 C,0,118419,,177,177,177
Sprite,Background,Centre,"sb\cir2.png",0,0 L,119176,3 F,1,0,1135,0,0.1333333 M,2,0,5678,573.6206,373.6756,539.2562,337.3563 F,2,4542,5678,0.1333333,0 S,0,119176,,0.14 R,0,119176,,-2.328544 C,0,119176,,189,189,189
Sprite,Background,Centre,"sb\cir2.png",0,0 L,119554,3 F,1,0,1135,0,0.1333333 M,2,0,5678,-35.30576,473.861,-25.92684,424.7485 F,2,4542,5678,0.1333333,0 S,0,119554,,0.14 R,0,119554,,-1.3821 C,0,119554,,246,246,246
Sprite,Background,Centre,"sb\cir2.png",0,0 L,119933,3 F,1,0,1135,0,0.1333333 M,2,0,5678,66.80893,296.6523,35.80802,257.4229 F,2,4542,5678,0.1333333,0 S,0,119933,,0.14 R,0,119933,,-2.239562 C,0,119933,,167,167,167
Sprite,Background,Centre,"sb\cir2.png",0,0 L,115391,3 F,1,0,1135,0,0.1372549 M,2,0,5678,285.1136,578.1082,282.5237,528.1754 F,2,4542,5678,0.1372549,0 S,0,115391,,0.24 R,0,115391,,-1.622616 C,0,115391,,216,216,216
Sprite,Background,Centre,"sb\cir2.png",0,0 L,115827,3 F,1,0,1135,0,0.1372549 M,2,0,5678,66.89442,542.5632,98.99876,504.2316 F,2,4542,5678,0.1372549,0 S,0,115827,,0.24 R,0,115827,,-0.8735791 C,0,115827,,225,225,225
Sprite,Background,Centre,"sb\cir2.png",0,0 L,116264,3 F,1,0,1135,0,0.1372549 M,2,0,5678,479.9941,480.6508,466.0528,432.6338 F,2,4542,5678,0.1372549,0 S,0,116264,,0.24 R,0,116264,,-1.853367 C,0,116264,,216,216,216
Sprite,Background,Centre,"sb\cir2.png",0,0 L,116701,3 F,1,0,1135,0,0.1372549 M,2,0,5678,164.3271,269.1732,173.3369,219.9916 F,2,4542,5678,0.1372549,0 S,0,116701,,0.24 R,0,116701,,-1.389611 C,0,116701,,222,222,222
Sprite,Background,Centre,"sb\cir2.png",0,0 L,117138,3 F,1,0,1135,0,0.1372549 M,2,0,5678,400.2027,407.0645,374.812,363.9912 F,2,4542,5678,0.1372549,0 S,0,117138,,0.24 R,0,117138,,-2.103442 C,0,117138,,236,236,236
Sprite,Background,Centre,"sb\cir2.png",0,0 L,118011,3 F,1,0,1135,0,0.1372549 M,2,0,5678,450.8075,107.3458,455.2237,57.54117 F,2,4542,5678,0.1372549,0 S,0,118011,,0.24 R,0,118011,,-1.482357 C,0,118011,,222,222,222
Sprite,Background,Centre,"sb\cir2.png",0,0 L,118448,3 F,1,0,1135,0,0.1372549 M,2,0,5678,680.9153,479.0359,704.0547,434.7125 F,2,4542,5678,0.1372549,0 S,0,118448,,0.24 R,0,118448,,-1.089659 C,0,118448,,146,146,146
Sprite,Background,Centre,"sb\cir2.png",0,0 L,118885,3 F,1,0,1135,0,0.1372549 M,2,0,5678,-4.71405,418.8177,-22.18006,371.9675 F,2,4542,5678,0.1372549,0 S,0,118885,,0.24 R,0,118885,,-1.927642 C,0,118885,,217,217,217
Sprite,Background,Centre,"sb\cir2.png",0,0 L,119758,3 F,1,0,1135,0,0.1372549 M,2,0,5678,162.8052,198.0754,143.274,152.0479 F,2,4542,5678,0.1372549,0 S,0,119758,,0.24 R,0,119758,,-1.972105 C,0,119758,,211,211,211
Sprite,Background,Centre,"sb\cir2.png",0,0 L,120632,3 F,1,0,1135,0,0.1372549 M,2,0,5678,159.3671,541.4958,191.8297,503.4672 F,2,4542,5678,0.1372549,0 S,0,120632,,0.24 R,0,120632,,-0.8641944 C,0,120632,,252,252,252
Sprite,Background,Centre,"sb\t.png",0,0 L,114691,2 F,1,0,1763,0,0.4220503 M,21,0,8817,625.8998,-60.46068,-3105.627,1867.156 F,2,7053,8817,0.4220503,0 S,0,114691,,0.4 R,0,114691,,2.664773 C,0,114691,,173,173,173
Sprite,Background,Centre,"sb\t.png",0,0 L,114942,2 F,1,0,1763,0,0.4220503 M,21,0,8817,558.1299,-10.9772,-3057.799,2125.622 F,2,7053,8817,0.4220503,0 S,0,114942,,0.4 R,0,114942,,2.607902 C,0,114942,,166,166,166
Sprite,Background,Centre,"sb\t.png",0,0 L,115194,2 F,1,0,1763,0,0.4220503 M,21,0,8817,621.9869,79.40395,-3062.962,2094.633 F,2,7053,8817,0.4220503,0 S,0,115194,,0.4 R,0,115194,,2.641147 C,0,115194,,253,253,253
Sprite,Background,Centre,"sb\t.png",0,0 L,115446,2 F,1,0,1763,0,0.4220503 M,21,0,8817,720.0608,35.85012,-3084.989,1813.938 F,2,7053,8817,0.4220503,0 S,0,115446,,0.4 R,0,115446,,2.704448 C,0,115446,,181,181,181
Sprite,Background,Centre,"sb\t.png",0,0 L,115698,2 F,1,0,1763,0,0.4220503 M,21,0,8817,671.8254,-55.66415,-3132.155,1724.711 F,2,7053,8817,0.4220503,0 S,0,115698,,0.4 R,0,115698,,2.703847 C,0,115698,,231,231,231
Sprite,Background,Centre,"sb\t.png",0,0 L,115950,2 F,1,0,1763,0,0.4220503 M,21,0,8817,552.2032,5.700592,-3151.908,1985.489 F,2,7053,8817,0.4220503,0 S,0,115950,,0.4 R,0,115950,,2.65074 C,0,115950,,161,161,161
Sprite,Background,Centre,"sb\t.png",0,0 L,116202,2 F,1,0,1763,0,0.4220503 M,21,0,8817,661.3213,75.92912,-2899.382,2303.348 F,2,7053,8817,0.4220503,0 S,0,116202,,0.4 R,0,116202,,2.582594 C,0,116202,,211,211,211
Sprite,Background,Centre,"sb\t.png",0,0 L,116454,2 F,1,0,1763,0,0.4220503 M,21,0,8817,639.2766,4.361458,-2953.635,2179.445 F,2,7053,8817,0.4220503,0 S,0,116454,,0.4 R,0,116454,,2.597225 C,0,116454,,251,251,251
Sprite,Background,Centre,"sb\t.png",0,0 L,116706,2 F,1,0,1763,0,0.4220503 M,21,0,8817,561.8859,17.54616,-2927.823,2354.623 F,2,7053,8817,0.4220503,0 S,0,116706,,0.4 R,0,116706,,2.551489 C,0,116706,,246,246,246
Sprite,Background,Centre,"sb\t.png",0,0 L,116958,2 F,1,0,1763,0,0.4220503 M,21,0,8817,652.5059,-30.20537,-2969.016,2096.901 F,2,7053,8817,0.4220503,0 S,0,116958,,0.4 R,0,116958,,2.610525 C,0,116958,,190,190,190
Sprite,Background,Centre,"sb\t.png",0,0 L,117210,2 F,1,0,1763,0,0.4220503 M,21,0,8817,573.559,60.85391,-3106.869,2084.329 F,2,7053,8817,0.4220503,0 S,0,117210,,0.4 R,0,117210,,2.638908 C,0,117210,,175,175,175
Sprite,Background,Centre,"sb\t.png",0,0 L,117462,2 F,1,0,1763,0,0.4220503 M,21,0,8817,696.9661,-36.64741,-3023.524,1912.186 F,2,7053,8817,0.4220503,0 S,0,117462,,0.4 R,0,117462,,2.659078 C,0,117462,,217,217,217
Sprite,Background,Centre,"sb\t.png",0,0 L,117713,2 F,1,0,1763,0,0.4220503 M,21,0,8817,608.2336,-9.716318,-3165.21,1834.497 F,2,7053,8817,0.4220503,0 S,0,117713,,0.4 R,0,117713,,2.686998 C,0,117713,,147,147,147
Sprite,Background,Centre,"sb\t.png",0,0 L,117965,2 F,1,0,1763,0,0.4220503 M,21,0,8817,657.6111,-11.52077,-3031.36,1996.337 F,2,7053,8817,0.4220503,0 S,0,117965,,0.4 R,0,117965,,2.643147 C,0,117965,,165,165,165
Sprite,Background,Centre,"sb\t.png",0,0 L,118217,2 F,1,0,1763,0,0.4220503 M,21,0,8817,700.4424,19.98929,-2991.36,2022.635 F,2,7053,8817,0.4220503,0 S,0,118217,,0.4 R,0,118217,,2.644559 C,0,118217,,234,234,234
Sprite,Background,Centre,"sb\t.png",0,0 L,118469,2 F,1,0,1763,0,0.4220503 M,21,0,8817,699.905,65.53491,-3014.805,2025.363 F,2,7053,8817,0.4220503,0 S,0,118469,,0.4 R,0,118469,,2.656121 C,0,118469,,247,247,247
Sprite,Background,Centre,"sb\t.png",0,0 L,118721,2 F,1,0,1763,0,0.4220503 M,21,0,8817,661.1953,77.65532,-2990.972,2151.703 F,2,7053,8817,0.4220503,0 S,0,118721,,0.4 R,0,118721,,2.625114 C,0,118721,,224,224,224
Sprite,Background,Centre,"sb\t.png",0,0 L,118973,2 F,1,0,1763,0,0.4220503 M,21,0,8817,557.448,36.20821,-3187.838,1936.954 F,2,7053,8817,0.4220503,0 S,0,118973,,0.4 R,0,118973,,2.67196 C,0,118973,,228,228,228
Sprite,Background,Centre,"sb\t.png",0,0 L,119225,2 F,1,0,1763,0,0.4220503 M,21,0,8817,683.1661,1.305038,-2962.463,2086.824 F,2,7053,8817,0.4220503,0 S,0,119225,,0.4 R,0,119225,,2.621971 C,0,119225,,183,183,183
Sprite,Background,Centre,"sb\t.png",0,0 L,119477,2 F,1,0,1763,0,0.4220503 M,21,0,8817,619.355,99.36817,-2912.024,2372.991 F,2,7053,8817,0.4220503,0 S,0,119477,,0.4 R,0,119477,,2.569564 C,0,119477,,175,175,175
Sprite,Background,Centre,"sb\t.png",0,0 L,119729,2 F,1,0,1763,0,0.4220503 M,21,0,8817,584.895,-32.85382,-3099.257,1983.832 F,2,7053,8817,0.4220503,0 S,0,119729,,0.4 R,0,119729,,2.640752 C,0,119729,,162,162,162
Sprite,Background,Centre,"sb\t.png",0,0 L,119981,2 F,1,0,1763,0,0.4220503 M,21,0,8817,658.9224,9.946331,-3116.046,1851.036 F,2,7053,8817,0.4220503,0 S,0,119981,,0.4 R,0,119981,,2.687825 C,0,119981,,157,157,157
Sprite,Background,Centre,"sb\t.png",0,0 L,120233,2 F,1,0,1763,0,0.4220503 M,21,0,8817,655.4368,43.71571,-3021.468,2073.585 F,2,7053,8817,0.4220503,0 S,0,120233,,0.4 R,0,120233,,2.63717 C,0,120233,,193,193,193
Sprite,Background,Centre,"sb\t.png",0,0 L,120485,2 F,1,0,1763,0,0.4220503 M,21,0,8817,682.2751,79.40011,-2980.366,2134.895 F,2,7053,8817,0.4220503,0 S,0,120485,,0.4 R,0,120485,,2.630187 C,0,120485,,221,221,221
Sprite,Background,Centre,"sb\t.png",0,0 L,120736,2 F,1,0,1763,0,0.4220503 M,21,0,8817,692.0428,21.7263,-3066.84,1895.439 F,2,7053,8817,0.4220503,0 S,0,120736,,0.4 R,0,120736,,2.679165 C,0,120736,,197,197,197
Sprite,Background,Centre,"sb\t.png",0,0 L,120988,2 F,1,0,1763,0,0.4220503 M,21,0,8817,613.4035,-64.61391,-3189.616,1717.812 F,2,7053,8817,0.4220503,0 S,0,120988,,0.4 R,0,120988,,2.703308 C,0,120988,,210,210,210
Sprite,Background,Centre,"sb\t.png",0,0 L,121240,2 F,1,0,1763,0,0.4220503 M,21,0,8817,625.8683,82.89746,-3022.958,2162.818 F,2,7053,8817,0.4220503,0 S,0,121240,,0.4 R,0,121240,,2.623506 C,0,121240,,198,198,198
Sprite,Background,Centre,"sb\t.png",0,0 L,121492,2 F,1,0,1763,0,0.4220503 M,21,0,8817,555.2244,22.03983,-3122.845,2049.799 F,2,7053,8817,0.4220503,0 S,0,121492,,0.4 R,0,121492,,2.637744 C,0,121492,,234,234,234
Sprite,Background,Centre,"sb\t.png",0,0 L,121744,2 F,1,0,1763,0,0.4220503 M,21,0,8817,567.0576,70.27576,-2927.433,2400.197 F,2,7053,8817,0.4220503,0 S,0,121744,,0.4 R,0,121744,,2.553538 C,0,121744,,213,213,213
Sprite,Background,Centre,"sb\t.png",0,0 L,121996,2 F,1,0,1763,0,0.4220503 M,21,0,8817,674.121,-45.15211,-2988.477,2010.419 F,2,7053,8817,0.4220503,0 S,0,121996,,0.4 R,0,121996,,2.630166 C,0,121996,,186,186,186
Sprite,Background,Centre,"sb\t.png",0,0 L,122248,2 F,1,0,1763,0,0.4220503 M,21,0,8817,603.1151,-8.532541,-3202.483,1768.381 F,2,7053,8817,0.4220503,0 S,0,122248,,0.4 R,0,122248,,2.704757 C,0,122248,,158,158,158
Sprite,Background,Centre,"sb\t.png",0,0 L,122500,2 F,1,0,1763,0,0.4220503 M,21,0,8817,630.906,102.3068,-3031.098,2158.937 F,2,7053,8817,0.4220503,0 S,0,122500,,0.4 R,0,122500,,2.629877 C,0,122500,,203,203,203
Sprite,Background,Centre,"sb\t.png",0,0 L,122752,2 F,1,0,1763,0,0.4220503 M,21,0,8817,662.6481,15.31855,-2979.402,2107.082 F,2,7053,8817,0.4220503,0 S,0,122752,,0.4 R,0,122752,,2.620257 C,0,122752,,239,239,239
Sprite,Background,Centre,"sb\t.png",0,0 L,123004,2 F,1,0,1763,0,0.4220503 M,21,0,8817,595.3223,-33.28509,-3061.204,2033.067 F,2,7053,8817,0.4220503,0 S,0,123004,,0.4 R,0,123004,,2.62722 C,0,123004,,254,254,254
Sprite,Background,Centre,"sb\t.png",0,0 L,123256,2 F,1,0,1763,0,0.4220503 M,21,0,8817,630.7156,41.6567,-2993.955,2163.392 F,2,7053,8817,0.4220503,0 S,0,123256,,0.4 R,0,123256,,2.612008 C,0,123256,,177,177,177
Sprite,Background,Centre,"sb\cir2.png",0,0 L,213425,1 F,1,0,1155,0,0.1849999 M,2,0,5775,338.6049,192.9351,318.2245,-56.23285 F,2,4620,5775,0.1849999,0 S,0,213425,,0.2 R,0,213425,,-1.652408 C,0,213425,,146,146,146
Sprite,Background,Centre,"sb\cir2.png",0,0 L,214387,1 F,1,0,1155,0,0.1849999 M,2,0,5775,311.6286,486.8226,327.8276,237.3479 F,2,4620,5775,0.1849999,0 S,0,214387,,0.2 R,0,214387,,-1.505955 C,0,214387,,177,177,177
Sprite,Background,Centre,"sb\cir2.png",0,0 L,214868,1 F,1,0,1155,0,0.1849999 M,2,0,5775,58.23477,429.4399,44.76613,179.803 F,2,4620,5775,0.1849999,0 S,0,214868,,0.2 R,0,214868,,-1.624697 C,0,214868,,171,171,171
Sprite,Background,Centre,"sb\cir2.png",0,0 L,215350,1 F,1,0,1155,0,0.1849999 M,2,0,5775,291.0275,326.4883,265.5772,77.78711 F,2,4620,5775,0.1849999,0 S,0,215350,,0.2 R,0,215350,,-1.672774 C,0,215350,,193,193,193
Sprite,Background,Centre,"sb\cir2.png",0,0 L,215831,1 F,1,0,1155,0,0.1849999 M,2,0,5775,260.6563,68.98648,279.7364,-180.2844 F,2,4620,5775,0.1849999,0 S,0,215831,,0.2 R,0,215831,,-1.494401 C,0,215831,,247,247,247
Sprite,Background,Centre,"sb\cir2.png",0,0 L,216312,1 F,1,0,1155,0,0.1849999 M,2,0,5775,575.0931,639.274,601.0375,390.6239 F,2,4620,5775,0.1849999,0 S,0,216312,,0.2 R,0,216312,,-1.466832 C,0,216312,,145,145,145
Sprite,Background,Centre,"sb\cir2.png",0,0 L,216793,1 F,1,0,1155,0,0.1849999 M,2,0,5775,531.7328,501.2225,553.0651,252.1342 F,2,4620,5775,0.1849999,0 S,0,216793,,0.2 R,0,216793,,-1.485363 C,0,216793,,227,227,227
Sprite,Background,Centre,"sb\cir2.png",0,0 L,217275,1 F,1,0,1155,0,0.1849999 M,2,0,5775,256.9932,332.8164,228.9842,84.39035 F,2,4620,5775,0.1849999,0 S,0,217275,,0.2 R,0,217275,,-1.683068 C,0,217275,,189,189,189
Sprite,Background,Centre,"sb\cir2.png",0,0 L,217756,1 F,1,0,1155,0,0.1849999 M,2,0,5775,-87.23831,445.5435,-83.8148,195.5669 F,2,4620,5775,0.1849999,0 S,0,217756,,0.2 R,0,217756,,-1.557102 C,0,217756,,215,215,215
Sprite,Background,Centre,"sb\cir2.png",0,0 L,218237,1 F,1,0,1155,0,0.1849999 M,2,0,5775,152.3781,678.2619,161.0771,428.4133 F,2,4620,5775,0.1849999,0 S,0,218237,,0.2 R,0,218237,,-1.535994 C,0,218237,,157,157,157
Sprite,Background,Centre,"sb\cir2.png",0,0 L,218718,1 F,1,0,1155,0,0.1849999 M,2,0,5775,549.3753,256.4785,545.2441,6.512634 F,2,4620,5775,0.1849999,0 S,0,218718,,0.2 R,0,218718,,-1.587322 C,0,218718,,209,209,209
Sprite,Background,Centre,"sb\cir2.png",0,0 L,213425,1 F,1,0,1155,0,0.1843137 M,2,0,5775,306.1136,578.1082,304.0984,328.1163 F,2,4620,5775,0.1843137,0 S,0,213425,,0.1 R,0,213425,,-1.578857 C,0,213425,,216,216,216
Sprite,Background,Centre,"sb\cir2.png",0,0 L,213837,1 F,1,0,1155,0,0.1843137 M,2,0,5775,87.89442,542.5632,114.9553,294.0321 F,2,4620,5775,0.1843137,0 S,0,213837,,0.1 R,0,213837,,-1.46234 C,0,213837,,225,225,225
Sprite,Background,Centre,"sb\cir2.png",0,0 L,214250,1 F,1,0,1155,0,0.1843137 M,2,0,5775,500.9941,480.6508,490.0088,230.8923 F,2,4620,5775,0.1843137,0 S,0,214250,,0.1 R,0,214250,,-1.614752 C,0,214250,,216,216,216
Sprite,Background,Centre,"sb\cir2.png",0,0 L,214662,1 F,1,0,1155,0,0.1843137 M,2,0,5775,185.3271,269.1732,192.3723,19.27246 F,2,4620,5775,0.1843137,0 S,0,214662,,0.1 R,0,214662,,-1.542612 C,0,214662,,222,222,222
Sprite,Background,Centre,"sb\cir2.png",0,0 L,215075,1 F,1,0,1155,0,0.1843137 M,2,0,5775,421.2027,407.0645,400.5124,157.9222 F,2,4620,5775,0.1843137,0 S,0,215075,,0.1 R,0,215075,,-1.653652 C,0,215075,,236,236,236
Sprite,Background,Centre,"sb\cir2.png",0,0 L,215900,1 F,1,0,1155,0,0.1843137 M,2,0,5775,471.8075,107.3458,475.2467,-142.6306 F,2,4620,5775,0.1843137,0 S,0,215900,,0.1 R,0,215900,,-1.557039 C,0,215900,,222,222,222
Sprite,Background,Centre,"sb\cir2.png",0,0 L,216312,1 F,1,0,1155,0,0.1843137 M,2,0,5775,701.9153,479.0359,720.6087,229.7358 F,2,4620,5775,0.1843137,0 S,0,216312,,0.1 R,0,216312,,-1.495953 C,0,216312,,146,146,146
Sprite,Background,Centre,"sb\cir2.png",0,0 L,216725,1 F,1,0,1155,0,0.1843137 M,2,0,5775,16.28595,418.8177,2.415731,169.2027 F,2,4620,5775,0.1843137,0 S,0,216725,,0.1 R,0,216725,,-1.626306 C,0,216725,,217,217,217
Sprite,Background,Centre,"sb\cir2.png",0,0 L,217137,1 F,1,0,1155,0,0.1843137 M,2,0,5775,105.4994,617.3163,116.211,367.5459 F,2,4620,5775,0.1843137,0 S,0,217137,,0.1 R,0,217137,,-1.527937 C,0,217137,,198,198,198
Sprite,Background,Centre,"sb\cir2.png",0,0 L,217550,1 F,1,0,1155,0,0.1843137 M,2,0,5775,313.1888,682.6771,314.7924,432.6823 F,2,4620,5775,0.1843137,0 S,0,217550,,0.1 R,0,217550,,-1.564382 C,0,217550,,199,199,199
Sprite,Background,Centre,"sb\cir2.png",0,0 L,217962,1 F,1,0,1155,0,0.1843137 M,2,0,5775,214.9331,210.243,193.9003,-38.87068 F,2,4620,5775,0.1843137,0 S,0,217962,,0.1 R,0,217962,,-1.655027 C,0,217962,,145,145,145
Sprite,Background,Centre,"sb\cir2.png",0,0 L,218375,1 F,1,0,1155,0,0.1843137 M,2,0,5775,580.6235,398.9571,589.1129,149.1013 F,2,4620,5775,0.1843137,0 S,0,218375,,0.1 R,0,218375,,-1.536832 C,0,218375,,185,185,185
Sprite,Background,Centre,"sb\cir2.png",0,0 L,218787,1 F,1,0,1155,0,0.1843137 M,2,0,5775,330.7578,559.5472,319.2717,309.8112 F,2,4620,5775,0.1843137,0 S,0,218787,,0.1 R,0,218787,,-1.616757 C,0,218787,,184,184,184
Sprite,Background,Centre,"sb\cir2.png",0,0 L,173458,2 F,1,0,1256,0,0.2232594 M,2,0,6283,317.6049,192.9351,292.5594,149.6601 F,2,5026,6283,0.2232594,0 S,0,173458,,0.14 R,0,173458,,-2.095444 C,0,173458,,146,146,146
Sprite,Background,Centre,"sb\cir2.png",0,0 L,174295,2 F,1,0,1256,0,0.2232594 M,2,0,6283,290.6286,486.8226,310.8721,441.1039 F,2,5026,6283,0.2232594,0 S,0,174295,,0.14 R,0,174295,,-1.153958 C,0,174295,,177,177,177
Sprite,Background,Centre,"sb\cir2.png",0,0 L,174714,2 F,1,0,1256,0,0.2232594 M,2,0,6283,37.23477,429.4399,20.25419,382.4117 F,2,5026,6283,0.2232594,0 S,0,174714,,0.14 R,0,174714,,-1.9173 C,0,174714,,171,171,171
Sprite,Background,Centre,"sb\cir2.png",0,0 L,175133,2 F,1,0,1256,0,0.2232594 M,2,0,6283,270.0275,326.4883,239.5468,286.8534 F,2,5026,6283,0.2232594,0 S,0,175133,,0.14 R,0,175133,,-2.22637 C,0,175133,,193,193,193
Sprite,Background,Centre,"sb\cir2.png",0,0 L,175552,2 F,1,0,1256,0,0.2232594 M,2,0,6283,239.6563,68.98648,263.2365,24.89597 F,2,5026,6283,0.2232594,0 S,0,175552,,0.14 R,0,175552,,-1.079687 C,0,175552,,247,247,247
Sprite,Background,Centre,"sb\cir2.png",0,0 L,176390,2 F,1,0,1256,0,0.2232594 M,2,0,6283,410.3955,429.1461,377.2525,391.709 F,2,5026,6283,0.2232594,0 S,0,176390,,0.14 R,0,176390,,-2.295428 C,0,176390,,241,241,241
Sprite,Background,Centre,"sb\cir2.png",0,0 L,176809,2 F,1,0,1256,0,0.2232594 M,2,0,6283,151.1508,126.5798,165.5256,78.69068 F,2,5026,6283,0.2232594,0 S,0,176809,,0.14 R,0,176809,,-1.279185 C,0,176809,,177,177,177
Sprite,Background,Centre,"sb\cir2.png",0,0 L,177647,2 F,1,0,1256,0,0.2232594 M,2,0,6283,573.6206,373.6756,539.2562,337.3563 F,2,5026,6283,0.2232594,0 S,0,177647,,0.14 R,0,177647,,-2.328544 C,0,177647,,189,189,189
Sprite,Background,Centre,"sb\cir2.png",0,0 L,178065,2 F,1,0,1256,0,0.2232594 M,2,0,6283,-35.30576,473.861,-25.92684,424.7485 F,2,5026,6283,0.2232594,0 S,0,178065,,0.14 R,0,178065,,-1.3821 C,0,178065,,246,246,246
Sprite,Background,Centre,"sb\cir2.png",0,0 L,178484,2 F,1,0,1256,0,0.2232594 M,2,0,6283,66.80893,296.6523,35.80802,257.4229 F,2,5026,6283,0.2232594,0 S,0,178484,,0.14 R,0,178484,,-2.239562 C,0,178484,,167,167,167
Sprite,Background,Centre,"sb\t.png",0,0 L,213425,1 F,1,0,1155,0,1 M,2,0,5775,251.2213,87.39697,267.5822,-162.0671 F,2,4620,5775,1,0 S,0,213425,,0.4 R,0,213425,,-1.505306 C,0,213425,,173,173,173
Sprite,Background,Centre,"sb\t.png",0,0 L,213521,1 F,1,0,1155,0,1 M,2,0,5775,-49.97821,307.3235,-53.51025,57.34848 F,2,4620,5775,1,0 S,0,213521,,0.4 R,0,213521,,-1.584925 C,0,213521,,166,166,166
Sprite,Background,Centre,"sb\t.png",0,0 L,213617,1 F,1,0,1155,0,1 M,2,0,5775,233.8305,709.0175,241.9327,459.1488 F,2,4620,5775,1,0 S,0,213617,,0.4 R,0,213617,,-1.538382 C,0,213617,,253,253,253
Sprite,Background,Centre,"sb\t.png",0,0 L,213713,1 F,1,0,1155,0,1 M,2,0,5775,669.7146,515.445,699.8998,267.274 F,2,4620,5775,1,0 S,0,213713,,0.4 R,0,213713,,-1.44976 C,0,213713,,181,181,181
Sprite,Background,Centre,"sb\t.png",0,0 L,213810,1 F,1,0,1155,0,1 M,2,0,5775,455.335,108.7149,485.3112,-139.4815 F,2,4620,5775,1,0 S,0,213810,,0.4 R,0,213810,,-1.450602 C,0,213810,,231,231,231
Sprite,Background,Centre,"sb\t.png",0,0 L,213906,1 F,1,0,1155,0,1 M,2,0,5775,-76.31876,381.4471,-64.86167,131.7097 F,2,4620,5775,1,0 S,0,213906,,0.4 R,0,213906,,-1.524952 C,0,213906,,161,161,161
Sprite,Background,Centre,"sb\t.png",0,0 L,214002,1 F,1,0,1155,0,1 M,2,0,5775,408.6503,693.5739,396.2653,443.8808 F,2,4620,5775,1,0 S,0,214002,,0.4 R,0,214002,,-1.620357 C,0,214002,,211,211,211
Sprite,Background,Centre,"sb\t.png",0,0 L,214098,1 F,1,0,1155,0,1 M,2,0,5775,310.6739,375.4954,303.4059,125.601 F,2,4620,5775,1,0 S,0,214098,,0.4 R,0,214098,,-1.599872 C,0,214098,,251,251,251
Sprite,Background,Centre,"sb\t.png",0,0 L,214195,1 F,1,0,1155,0,1 M,2,0,5775,-33.28488,434.0941,-56.52782,185.1768 F,2,4620,5775,1,0 S,0,214195,,0.4 R,0,214195,,-1.663903 C,0,214195,,246,246,246
Sprite,Background,Centre,"sb\t.png",0,0 L,214291,1 F,1,0,1155,0,1 M,2,0,5775,369.4705,221.865,366.8566,-28.12131 F,2,4620,5775,1,0 S,0,214291,,0.4 R,0,214291,,-1.581252 C,0,214291,,190,190,190
Sprite,Background,Centre,"sb\t.png",0,0 L,214387,1 F,1,0,1155,0,1 M,2,0,5775,18.59546,626.5729,25.91445,376.6801 F,2,4620,5775,1,0 S,0,214387,,0.4 R,0,214387,,-1.541516 C,0,214387,,175,175,175
Sprite,Background,Centre,"sb\t.png",0,0 L,214483,1 F,1,0,1155,0,1 M,2,0,5775,567.0715,193.2337,581.4432,-56.35284 F,2,4620,5775,1,0 S,0,214483,,0.4 R,0,214483,,-1.513278 C,0,214483,,217,217,217
Sprite,Background,Centre,"sb\t.png",0,0 L,214580,1 F,1,0,1155,0,1 M,2,0,5775,172.7051,312.9275,196.8189,64.09314 F,2,4620,5775,1,0 S,0,214580,,0.4 R,0,214580,,-1.474191 C,0,214580,,147,147,147
Sprite,Background,Centre,"sb\t.png",0,0 L,214676,1 F,1,0,1155,0,1 M,2,0,5775,392.1607,304.9077,400.9624,55.06262 F,2,4620,5775,1,0 S,0,214676,,0.4 R,0,214676,,-1.535582 C,0,214676,,165,165,165
Sprite,Background,Centre,"sb\t.png",0,0 L,214772,1 F,1,0,1155,0,1 M,2,0,5775,582.5221,444.9524,591.8176,195.1252 F,2,4620,5775,1,0 S,0,214772,,0.4 R,0,214772,,-1.533606 C,0,214772,,234,234,234
Sprite,Background,Centre,"sb\t.png",0,0 L,214868,1 F,1,0,1155,0,1 M,2,0,5775,580.1335,647.3774,593.4716,397.7334 F,2,4620,5775,1,0 S,0,214868,,0.4 R,0,214868,,-1.517419 C,0,214868,,247,247,247
Sprite,Background,Centre,"sb\t.png",0,0 L,214965,1 F,1,0,1155,0,1 M,2,0,5775,408.0904,701.2458,410.5824,451.2582 F,2,4620,5775,1,0 S,0,214965,,0.4 R,0,214965,,-1.560828 C,0,214965,,224,224,224
Sprite,Background,Centre,"sb\t.png",0,0 L,215061,1 F,1,0,1155,0,1 M,2,0,5775,-53.00873,517.0364,-34.13853,267.7496 F,2,4620,5775,1,0 S,0,215061,,0.4 R,0,215061,,-1.495244 C,0,215061,,228,228,228
Sprite,Background,Centre,"sb\t.png",0,0 L,215157,1 F,1,0,1155,0,1 M,2,0,5775,505.738,361.9113,507.1299,111.9151 F,2,4620,5775,1,0 S,0,215157,,0.4 R,0,215157,,-1.565229 C,0,215157,,183,183,183
Sprite,Background,Centre,"sb\t.png",0,0 L,215350,1 F,1,0,1155,0,1 M,2,0,5775,345.4503,541.5753,353.0619,291.6912 F,2,4620,5775,1,0 S,0,215350,,0.4 R,0,215350,,-1.540345 C,0,215350,,214,214,214
Sprite,Background,Centre,"sb\t.png",0,0 L,215446,1 F,1,0,1155,0,1 M,2,0,5775,474.0694,362.3546,500.2098,113.725 F,2,4620,5775,1,0 S,0,215446,,0.4 R,0,215446,,-1.466043 C,0,215446,,247,247,247
Sprite,Background,Centre,"sb\t.png",0,0 L,215542,1 F,1,0,1155,0,1 M,2,0,5775,251.7499,334.5422,230.3408,85.46062 F,2,4620,5775,1,0 S,0,215542,,0.4 R,0,215542,,-1.656538 C,0,215542,,223,223,223
Sprite,Background,Centre,"sb\t.png",0,0 L,215638,1 F,1,0,1155,0,1 M,2,0,5775,573.0721,363.53,551.5996,114.4539 F,2,4620,5775,1,0 S,0,215638,,0.4 R,0,215638,,-1.656792 C,0,215638,,208,208,208
Sprite,Background,Centre,"sb\t.png",0,0 L,216023,1 F,1,0,1155,0,1 M,2,0,5775,553.2667,427.5196,554.6558,177.5234 F,2,4620,5775,1,0 S,0,216023,,0.4 R,0,216023,,-1.56524 C,0,216023,,210,210,210
Sprite,Background,Centre,"sb\t.png",0,0 L,216120,1 F,1,0,1155,0,1 M,2,0,5775,211.3681,426.1741,197.9693,176.5334 F,2,4620,5775,1,0 S,0,216120,,0.4 R,0,216120,,-1.624417 C,0,216120,,239,239,239
Sprite,Background,Centre,"sb\t.png",0,0 L,216216,1 F,1,0,1155,0,1 M,2,0,5775,207.1832,360.7548,221.9776,111.1929 F,2,4620,5775,1,0 S,0,216216,,0.4 R,0,216216,,-1.511584 C,0,216216,,248,248,248
Sprite,Background,Centre,"sb\t.png",0,0 L,216312,1 F,1,0,1155,0,1 M,2,0,5775,532.964,689.9016,540.013,440.001 F,2,4620,5775,1,0 S,0,216312,,0.4 R,0,216312,,-1.542597 C,0,216312,,218,218,218
Sprite,Background,Centre,"sb\t.png",0,0 L,216408,1 F,1,0,1155,0,1 M,2,0,5775,154.4479,374.4529,135.1962,125.1952 F,2,4620,5775,1,0 S,0,216408,,0.4 R,0,216408,,-1.647879 C,0,216408,,176,176,176
Sprite,Background,Centre,"sb\t.png",0,0 L,216505,1 F,1,0,1155,0,1 M,2,0,5775,606.5964,439.532,579.9789,190.953 F,2,4620,5775,1,0 S,0,216505,,0.4 R,0,216505,,-1.677469 C,0,216505,,241,241,241
Sprite,Background,Centre,"sb\t.png",0,0 L,216601,1 F,1,0,1155,0,1 M,2,0,5775,12.47836,311.6227,13.47813,61.62469 F,2,4620,5775,1,0 S,0,216601,,0.4 R,0,216601,,-1.566797 C,0,216601,,143,143,143
Sprite,Background,Centre,"sb\t.png",0,0 L,216697,1 F,1,0,1155,0,1 M,2,0,5775,147.6552,432.1517,166.7964,182.8855 F,2,4620,5775,1,0 S,0,216697,,0.4 R,0,216697,,-1.494156 C,0,216697,,209,209,209
Sprite,Background,Centre,"sb\t.png",0,0 L,216793,1 F,1,0,1155,0,1 M,2,0,5775,-5.094208,338.0428,25.04245,89.86583 F,2,4620,5775,1,0 S,0,216793,,0.4 R,0,216793,,-1.449956 C,0,216793,,170,170,170
Sprite,Background,Centre,"sb\t.png",0,0 L,216890,1 F,1,0,1155,0,1 M,2,0,5775,33.41608,504.4477,16.10007,255.0481 F,2,4620,5775,1,0 S,0,216890,,0.4 R,0,216890,,-1.640116 C,0,216890,,193,193,193
Sprite,Background,Centre,"sb\t.png",0,0 L,216986,1 F,1,0,1155,0,1 M,2,0,5775,461.0412,662.1523,458.0529,412.1702 F,2,4620,5775,1,0 S,0,216986,,0.4 R,0,216986,,-1.58275 C,0,216986,,207,207,207
Sprite,Background,Centre,"sb\t.png",0,0 L,217082,1 F,1,0,1155,0,1 M,2,0,5775,377.5882,280.2346,402.8123,31.51038 F,2,4620,5775,1,0 S,0,217082,,0.4 R,0,217082,,-1.469728 C,0,217082,,216,216,216
Sprite,Background,Centre,"sb\t.png",0,0 L,217178,1 F,1,0,1155,0,1 M,2,0,5775,692.9225,352.8719,663.4783,104.6118 F,2,4620,5775,1,0 S,0,217178,,0.4 R,0,217178,,-1.688847 C,0,217178,,178,178,178
Sprite,Background,Centre,"sb\t.png",0,0 L,217275,1 F,1,0,1155,0,1 M,2,0,5775,605.1683,382.1844,621.7839,132.7371 F,2,4620,5775,1,0 S,0,217275,,0.4 R,0,217275,,-1.504285 C,0,217275,,202,202,202
Sprite,Background,Centre,"sb\t.png",0,0 L,217371,1 F,1,0,1155,0,1 M,2,0,5775,676.8499,385.9443,705.6727,137.6114 F,2,4620,5775,1,0 S,0,217371,,0.4 R,0,217371,,-1.455248 C,0,217371,,178,178,178
Sprite,Background,Centre,"sb\t.png",0,0 L,217467,1 F,1,0,1155,0,1 M,2,0,5775,439.8814,343.4008,463.2368,94.49414 F,2,4620,5775,1,0 S,0,217467,,0.4 R,0,217467,,-1.477238 C,0,217467,,233,233,233
Sprite,Background,Centre,"sb\t.png",0,0 L,217563,1 F,1,0,1155,0,1 M,2,0,5775,68.47583,424.0795,98.44272,175.882 F,2,4620,5775,1,0 S,0,217563,,0.4 R,0,217563,,-1.45064 C,0,217563,,230,230,230
Sprite,Background,Centre,"sb\t.png",0,0 L,217660,1 F,1,0,1155,0,1 M,2,0,5775,432.8276,566.8434,432.6148,316.8435 F,2,4620,5775,1,0 S,0,217660,,0.4 R,0,217660,,-1.571647 C,0,217660,,178,178,178
Sprite,Background,Centre,"sb\t.png",0,0 L,217756,1 F,1,0,1155,0,1 M,2,0,5775,232.1249,627.8414,249.4642,378.4434 F,2,4620,5775,1,0 S,0,217756,,0.4 R,0,217756,,-1.501384 C,0,217756,,222,222,222
Sprite,Background,Centre,"sb\t.png",0,0 L,217852,1 F,1,0,1155,0,1 M,2,0,5775,3.333984,327.1157,-6.374613,77.30429 F,2,4620,5775,1,0 S,0,217852,,0.4 R,0,217852,,-1.60964 C,0,217852,,184,184,184
Sprite,Background,Centre,"sb\t.png",0,0 L,217948,1 F,1,0,1155,0,1 M,2,0,5775,547.7949,210.9269,571.7127,-37.92636 F,2,4620,5775,1,0 S,0,217948,,0.4 R,0,217948,,-1.474979 C,0,217948,,175,175,175
Sprite,Background,Centre,"sb\t.png",0,0 L,218045,1 F,1,0,1155,0,1 M,2,0,5775,279.3707,719.1991,260.8117,469.8889 F,2,4620,5775,1,0 S,0,218045,,0.4 R,0,218045,,-1.645101 C,0,218045,,195,195,195
Sprite,Background,Centre,"sb\t.png",0,0 L,218141,1 F,1,0,1155,0,1 M,2,0,5775,158.4628,272.7189,150.4601,22.84697 F,2,4620,5775,1,0 S,0,218141,,0.4 R,0,218141,,-1.602812 C,0,218141,,254,254,254
Sprite,Background,Centre,"sb\t.png",0,0 L,218237,1 F,1,0,1155,0,1 M,2,0,5775,291.8693,434.0668,321.3315,185.8089 F,2,4620,5775,1,0 S,0,218237,,0.4 R,0,218237,,-1.452673 C,0,218237,,153,153,153
Sprite,Background,Centre,"sb\t.png",0,0 L,218333,1 F,1,0,1155,0,1 M,2,0,5775,321.8448,325.3323,302.9817,76.04491 F,2,4620,5775,1,0 S,0,218333,,0.4 R,0,218333,,-1.646321 C,0,218333,,184,184,184
Sprite,Background,Centre,"sb\t.png",0,0 L,218430,1 F,1,0,1155,0,1 M,2,0,5775,291.2236,318.0432,311.9586,68.90456 F,2,4620,5775,1,0 S,0,218430,,0.4 R,0,218430,,-1.487761 C,0,218430,,209,209,209
Sprite,Background,Centre,"sb\t.png",0,0 L,218622,1 F,1,0,1155,0,1 M,2,0,5775,-55.33444,568.6957,-36.83189,319.3813 F,2,4620,5775,1,0 S,0,218622,,0.4 R,0,218622,,-1.496718 C,0,218622,,190,190,190
Sprite,Background,Centre,"sb\t.png",0,0 L,218718,1 F,1,0,1155,0,1 M,2,0,5775,350.9609,187.7245,359.9493,-62.11389 F,2,4620,5775,1,0 S,0,218718,,0.4 R,0,218718,,-1.534835 C,0,218718,,207,207,207
Sprite,Background,Centre,"sb\t.png",0,0 L,218815,1 F,1,0,1155,0,1 M,2,0,5775,572.0657,613.7911,601.9661,365.5856 F,2,4620,5775,1,0 S,0,218815,,0.4 R,0,218815,,-1.450908 C,0,218815,,201,201,201
Sprite,Background,Centre,"sb\t.png",0,0 L,218911,1 F,1,0,1155,0,1 M,2,0,5775,316.5988,458.6045,320.109,208.6292 F,2,4620,5775,1,0 S,0,218911,,0.4 R,0,218911,,-1.556755 C,0,218911,,188,188,188
Sprite,Background,Centre,"sb\t.png",0,0 L,219007,1 F,1,0,1155,0,1 M,2,0,5775,457.0601,275.0519,474.5553,25.66484 F,2,4620,5775,1,0 S,0,219007,,0.4 R,0,219007,,-1.500758 C,0,219007,,237,237,237
Sprite,Background,Centre,"sb\t.png",0,0 L,219103,1 F,1,0,1155,0,1 M,2,0,5775,25.49539,370.9805,4.926979,121.828 F,2,4620,5775,1,0 S,0,219103,,0.4 R,0,219103,,-1.653163 C,0,219103,,207,207,207
Sprite,Background,Centre,"sb\st.png",0,0 L,93258,1 F,1,0,1966,0,1 M,0,0,9833,900,110,-7099.913,72.57726 F,2,7866,9833,1,0 S,0,93258,,0.8 R,0,93258,,3.146271 C,0,93258,,20,20,20
Sprite,Background,Centre,"sb\st.png",0,0 L,93565,1 F,1,0,1966,0,1 M,0,0,9833,900,110,-7099.996,118.0731 F,2,7866,9833,1,0 S,0,93565,,0.8 R,0,93565,,3.140584 C,0,93565,,17,17,17
Sprite,Background,Centre,"sb\st.png",0,0 L,93872,1 F,1,0,1966,0,1 M,0,0,9833,900,110,-7099.979,91.47705 F,2,7866,9833,1,0 S,0,93872,,0.8 R,0,93872,,3.143908 C,0,93872,,120,120,120
Sprite,Background,Centre,"sb\st.png",0,0 L,94179,1 F,1,0,1966,0,1 M,0,0,9833,900,110,-7099.702,40.83779 F,2,7866,9833,1,0 S,0,94179,,0.8 R,0,94179,,3.150238 C,0,94179,,28,28,28
Sprite,Background,Centre,"sb\st.png",0,0 L,94487,1 F,1,0,1966,0,1 M,0,0,9833,900,110,-7099.706,41.31842 F,2,7866,9833,1,0 S,0,94487,,0.8 R,0,94487,,3.150178 C,0,94487,,104,104,104
Sprite,Background,Centre,"sb\st.png",0,0 L,94794,1 F,1,0,1966,0,1 M,0,0,9833,900,110,-7099.958,83.80382 F,2,7866,9833,1,0 S,0,94794,,0.8 R,0,94794,,3.144867 C,0,94794,,8,8,8
Sprite,Background,Centre,"sb\st.png",0,0 L,95101,1 F,1,0,1966,0,1 M,0,0,9833,900,110,-7099.95,138.3215 F,2,7866,9833,1,0 S,0,95101,,0.8 R,0,95101,,3.138052 C,0,95101,,40,40,40
Sprite,Background,Centre,"sb\st.png",0,0 L,95408,1 F,1,0,1966,0,1 M,0,0,9833,900,110,-7099.983,126.6142 F,2,7866,9833,1,0 S,0,95408,,0.8 R,0,95408,,3.139516 C,0,95408,,124,124,124
Sprite,Background,Centre,"sb\st.png",0,0 L,95716,1 F,1,0,1966,0,1 M,0,0,9833,900,110,-7099.824,163.2025 F,2,7866,9833,1,0 S,0,95716,,0.8 R,0,95716,,3.134942 C,0,95716,,119,119,119
Sprite,Background,Centre,"sb\st.png",0,0 L,96023,1 F,1,0,1966,0,1 M,0,0,9833,900,110,-7099.998,115.975 F,2,7866,9833,1,0 S,0,96023,,0.8 R,0,96023,,3.140846 C,0,96023,,30,30,30
Sprite,Background,Centre,"sb\st.png",0,0 L,96330,1 F,1,0,1966,0,1 M,0,0,9833,900,110,-7099.983,93.26996 F,2,7866,9833,1,0 S,0,96330,,0.8 R,0,96330,,3.143684 C,0,96330,,21,21,21
Sprite,Background,Centre,"sb\st.png",0,0 L,96638,1 F,1,0,1966,0,1 M,0,0,9833,900,110,-7099.933,77.13196 F,2,7866,9833,1,0 S,0,96638,,0.8 R,0,96638,,3.145701 C,0,96638,,50,50,50
Sprite,Background,Centre,"sb\st.png",0,0 L,96945,1 F,1,0,1966,0,1 M,0,0,9833,900,110,-7099.81,54.79916 F,2,7866,9833,1,0 S,0,96945,,0.8 R,0,96945,,3.148493 C,0,96945,,6,6,6
Sprite,Background,Centre,"sb\st.png",0,0 L,97252,1 F,1,0,1966,0,1 M,0,0,9833,900,110,-7099.975,89.87679 F,2,7866,9833,1,0 S,0,97252,,0.8 R,0,97252,,3.144108 C,0,97252,,16,16,16
Sprite,Background,Centre,"sb\st.png",0,0 L,97559,1 F,1,0,1966,0,1 M,0,0,9833,900,110,-7099.972,88.74765 F,2,7866,9833,1,0 S,0,97559,,0.8 R,0,97559,,3.144249 C,0,97559,,70,70,70
Sprite,Background,Centre,"sb\st.png",0,0 L,97867,1 F,1,0,1966,0,1 M,0,0,9833,900,110,-7099.942,79.49896 F,2,7866,9833,1,0 S,0,97867,,0.8 R,0,97867,,3.145405 C,0,97867,,129,129,129
Sprite,Background,Centre,"sb\st.png",0,0 L,98174,1 F,1,0,1966,0,1 M,0,0,9833,900,110,-7099.999,104.304 F,2,7866,9833,1,0 S,0,98174,,0.8 R,0,98174,,3.142305 C,0,98174,,82,82,82
Sprite,Background,Centre,"sb\st.png",0,0 L,98481,1 F,1,0,1966,0,1 M,0,0,9833,900,110,-7099.884,66.82668 F,2,7866,9833,1,0 S,0,98481,,0.8 R,0,98481,,3.146989 C,0,98481,,61,61,61
Sprite,Background,Centre,"sb\st.png",0,0 L,98789,1 F,1,0,1966,0,1 M,0,0,9833,900,110,-7100,106.8197 F,2,7866,9833,1,0 S,0,98789,,0.8 R,0,98789,,3.14199 C,0,98789,,30,30,30
Sprite,Background,Centre,"sb\st.png",0,0 L,99096,1 F,1,0,1966,0,1 M,0,0,9833,900,110,-7099.907,148.7431 F,2,7866,9833,1,0 S,0,99096,,0.8 R,0,99096,,3.13675 C,0,99096,,9,9,9
Sprite,Background,Centre,"sb\st.png",0,0 L,99403,1 F,1,0,1966,0,1 M,0,0,9833,900,110,-7099.98,91.79176 F,2,7866,9833,1,0 S,0,99403,,0.8 R,0,99403,,3.143869 C,0,99403,,15,15,15
Sprite,Background,Centre,"sb\st.png",0,0 L,99710,1 F,1,0,1966,0,1 M,0,0,9833,900,110,-7099.806,54.13542 F,2,7866,9833,1,0 S,0,99710,,0.8 R,0,99710,,3.148576 C,0,99710,,8,8,8
Sprite,Background,Centre,"sb\st.png",0,0 L,100018,1 F,1,0,1966,0,1 M,0,0,9833,900,110,-7099.986,94.66041 F,2,7866,9833,1,0 S,0,100018,,0.8 R,0,100018,,3.14351 C,0,100018,,32,32,32
Sprite,Background,Centre,"sb\st.png",0,0 L,100325,1 F,1,0,1966,0,1 M,0,0,9833,900,110,-7099.995,100.247 F,2,7866,9833,1,0 S,0,100325,,0.8 R,0,100325,,3.142812 C,0,100325,,81,81,81
Sprite,Background,Centre,"sb\st.png",0,0 L,100632,1 F,1,0,1966,0,1 M,0,0,9833,900,110,-7099.851,61.06467 F,2,7866,9833,1,0 S,0,100632,,0.8 R,0,100632,,3.14771 C,0,100632,,41,41,41
Sprite,Background,Centre,"sb\st.png",0,0 L,100940,1 F,1,0,1966,0,1 M,0,0,9833,900,110,-7099.709,41.74947 F,2,7866,9833,1,0 S,0,100940,,0.8 R,0,100940,,3.150124 C,0,100940,,61,61,61
Sprite,Background,Centre,"sb\st.png",0,0 L,101247,1 F,1,0,1966,0,1 M,0,0,9833,900,110,-7099.999,105.5895 F,2,7866,9833,1,0 S,0,101247,,0.8 R,0,101247,,3.142144 C,0,101247,,41,41,41
Sprite,Background,Centre,"sb\st.png",0,0 L,101554,1 F,1,0,1966,0,1 M,0,0,9833,900,110,-7099.985,94.20074 F,2,7866,9833,1,0 S,0,101554,,0.8 R,0,101554,,3.143568 C,0,101554,,106,106,106
Sprite,Background,Centre,"sb\st.png",0,0 L,101861,1 F,1,0,1966,0,1 M,0,0,9833,900,110,-7099.834,161.5641 F,2,7866,9833,1,0 S,0,101861,,0.8 R,0,101861,,3.135147 C,0,101861,,54,54,54
Sprite,Background,Centre,"sb\st.png",0,0 L,102169,1 F,1,0,1966,0,1 M,0,0,9833,900,110,-7099.995,100.2623 F,2,7866,9833,1,0 S,0,102169,,0.8 R,0,102169,,3.14281 C,0,102169,,25,25,25
Sprite,Background,Centre,"sb\st.png",0,0 L,102476,1 F,1,0,1966,0,1 M,0,0,9833,900,110,-7099.7,40.58984 F,2,7866,9833,1,0 S,0,102476,,0.8 R,0,102476,,3.150269 C,0,102476,,6,6,6
Sprite,Background,Centre,"sb\st.png",0,0 L,102783,1 F,1,0,1966,0,1 M,0,0,9833,900,110,-7099.995,100.4931 F,2,7866,9833,1,0 S,0,102783,,0.8 R,0,102783,,3.142781 C,0,102783,,48,48,48
Sprite,Background,Centre,"sb\st.png",0,0 L,93258,1 F,1,0,1966,0,1 M,0,0,9833,-250,400,7749.913,437.4235 F,2,7866,9833,1,0 S,0,93258,,0.8 R,0,93258,,6.287863 C,0,93258,,20,20,20
Sprite,Background,Centre,"sb\st.png",0,0 L,93565,1 F,1,0,1966,0,1 M,0,0,9833,-250,400,7749.996,391.9257 F,2,7866,9833,1,0 S,0,93565,,0.8 R,0,93565,,6.282176 C,0,93565,,17,17,17
Sprite,Background,Centre,"sb\st.png",0,0 L,93872,1 F,1,0,1966,0,1 M,0,0,9833,-250,400,7749.979,418.5217 F,2,7866,9833,1,0 S,0,93872,,0.8 R,0,93872,,6.285501 C,0,93872,,120,120,120
Sprite,Background,Centre,"sb\st.png",0,0 L,94179,1 F,1,0,1966,0,1 M,0,0,9833,-250,400,7749.702,469.1648 F,2,7866,9833,1,0 S,0,94179,,0.8 R,0,94179,,6.291831 C,0,94179,,28,28,28
Sprite,Background,Centre,"sb\st.png",0,0 L,94487,1 F,1,0,1966,0,1 M,0,0,9833,-250,400,7749.706,468.6842 F,2,7866,9833,1,0 S,0,94487,,0.8 R,0,94487,,6.291771 C,0,94487,,104,104,104
Sprite,Background,Centre,"sb\st.png",0,0 L,94794,1 F,1,0,1966,0,1 M,0,0,9833,-250,400,7749.958,426.1969 F,2,7866,9833,1,0 S,0,94794,,0.8 R,0,94794,,6.28646 C,0,94794,,8,8,8
Sprite,Background,Centre,"sb\st.png",0,0 L,95101,1 F,1,0,1966,0,1 M,0,0,9833,-250,400,7749.95,371.6812 F,2,7866,9833,1,0 S,0,95101,,0.8 R,0,95101,,6.279645 C,0,95101,,40,40,40
Sprite,Background,Centre,"sb\st.png",0,0 L,95408,1 F,1,0,1966,0,1 M,0,0,9833,-250,400,7749.983,383.3846 F,2,7866,9833,1,0 S,0,95408,,0.8 R,0,95408,,6.281108 C,0,95408,,124,124,124
Sprite,Background,Centre,"sb\st.png",0,0 L,95716,1 F,1,0,1966,0,1 M,0,0,9833,-250,400,7749.824,346.7982 F,2,7866,9833,1,0 S,0,95716,,0.8 R,0,95716,,6.276535 C,0,95716,,119,119,119
Sprite,Background,Centre,"sb\st.png",0,0 L,96023,1 F,1,0,1966,0,1 M,0,0,9833,-250,400,7749.998,394.0238 F,2,7866,9833,1,0 S,0,96023,,0.8 R,0,96023,,6.282438 C,0,96023,,30,30,30
Sprite,Background,Centre,"sb\st.png",0,0 L,96330,1 F,1,0,1966,0,1 M,0,0,9833,-250,400,7749.983,416.7326 F,2,7866,9833,1,0 S,0,96330,,0.8 R,0,96330,,6.285277 C,0,96330,,21,21,21
Sprite,Background,Centre,"sb\st.png",0,0 L,96638,1 F,1,0,1966,0,1 M,0,0,9833,-250,400,7749.933,432.8687 F,2,7866,9833,1,0 S,0,96638,,0.8 R,0,96638,,6.287294 C,0,96638,,50,50,50
Sprite,Background,Centre,"sb\st.png",0,0 L,96945,1 F,1,0,1966,0,1 M,0,0,9833,-250,400,7749.81,455.1996 F,2,7866,9833,1,0 S,0,96945,,0.8 R,0,96945,,6.290085 C,0,96945,,6,6,6
Sprite,Background,Centre,"sb\st.png",0,0 L,97252,1 F,1,0,1966,0,1 M,0,0,9833,-250,400,7749.975,420.1201 F,2,7866,9833,1,0 S,0,97252,,0.8 R,0,97252,,6.2857 C,0,97252,,16,16,16
Sprite,Background,Centre,"sb\st.png",0,0 L,97559,1 F,1,0,1966,0,1 M,0,0,9833,-250,400,7749.972,421.2492 F,2,7866,9833,1,0 S,0,97559,,0.8 R,0,97559,,6.285841 C,0,97559,,70,70,70
Sprite,Background,Centre,"sb\st.png",0,0 L,97867,1 F,1,0,1966,0,1 M,0,0,9833,-250,400,7749.942,430.4998 F,2,7866,9833,1,0 S,0,97867,,0.8 R,0,97867,,6.286998 C,0,97867,,129,129,129
Sprite,Background,Centre,"sb\st.png",0,0 L,98174,1 F,1,0,1966,0,1 M,0,0,9833,-250,400,7749.999,405.6967 F,2,7866,9833,1,0 S,0,98174,,0.8 R,0,98174,,6.283897 C,0,98174,,82,82,82
Sprite,Background,Centre,"sb\st.png",0,0 L,98481,1 F,1,0,1966,0,1 M,0,0,9833,-250,400,7749.884,443.1721 F,2,7866,9833,1,0 S,0,98481,,0.8 R,0,98481,,6.288582 C,0,98481,,61,61,61
Sprite,Background,Centre,"sb\st.png",0,0 L,98789,1 F,1,0,1966,0,1 M,0,0,9833,-250,400,7750,403.1829 F,2,7866,9833,1,0 S,0,98789,,0.8 R,0,98789,,6.283583 C,0,98789,,30,30,30
Sprite,Background,Centre,"sb\st.png",0,0 L,99096,1 F,1,0,1966,0,1 M,0,0,9833,-250,400,7749.907,361.2557 F,2,7866,9833,1,0 S,0,99096,,0.8 R,0,99096,,6.278342 C,0,99096,,9,9,9
Sprite,Background,Centre,"sb\st.png",0,0 L,99403,1 F,1,0,1966,0,1 M,0,0,9833,-250,400,7749.98,418.2089 F,2,7866,9833,1,0 S,0,99403,,0.8 R,0,99403,,6.285461 C,0,99403,,15,15,15
Sprite,Background,Centre,"sb\st.png",0,0 L,99710,1 F,1,0,1966,0,1 M,0,0,9833,-250,400,7749.806,455.8672 F,2,7866,9833,1,0 S,0,99710,,0.8 R,0,99710,,6.290169 C,0,99710,,8,8,8
Sprite,Background,Centre,"sb\st.png",0,0 L,100018,1 F,1,0,1966,0,1 M,0,0,9833,-250,400,7749.986,415.3403 F,2,7866,9833,1,0 S,0,100018,,0.8 R,0,100018,,6.285103 C,0,100018,,32,32,32
Sprite,Background,Centre,"sb\st.png",0,0 L,100325,1 F,1,0,1966,0,1 M,0,0,9833,-250,400,7749.995,409.7518 F,2,7866,9833,1,0 S,0,100325,,0.8 R,0,100325,,6.284404 C,0,100325,,81,81,81
Sprite,Background,Centre,"sb\st.png",0,0 L,100632,1 F,1,0,1966,0,1 M,0,0,9833,-250,400,7749.851,448.936 F,2,7866,9833,1,0 S,0,100632,,0.8 R,0,100632,,6.289302 C,0,100632,,41,41,41
Sprite,Background,Centre,"sb\st.png",0,0 L,100940,1 F,1,0,1966,0,1 M,0,0,9833,-250,400,7749.709,468.2493 F,2,7866,9833,1,0 S,0,100940,,0.8 R,0,100940,,6.291717 C,0,100940,,61,61,61
Sprite,Background,Centre,"sb\st.png",0,0 L,101247,1 F,1,0,1966,0,1 M,0,0,9833,-250,400,7749.999,404.4112 F,2,7866,9833,1,0 S,0,101247,,0.8 R,0,101247,,6.283737 C,0,101247,,41,41,41
Sprite,Background,Centre,"sb\st.png",0,0 L,101554,1 F,1,0,1966,0,1 M,0,0,9833,-250,400,7749.985,415.798 F,2,7866,9833,1,0 S,0,101554,,0.8 R,0,101554,,6.28516 C,0,101554,,106,106,106
Sprite,Background,Centre,"sb\st.png",0,0 L,101861,1 F,1,0,1966,0,1 M,0,0,9833,-250,400,7749.834,348.4385 F,2,7866,9833,1,0 S,0,101861,,0.8 R,0,101861,,6.27674 C,0,101861,,54,54,54
Sprite,Background,Centre,"sb\st.png",0,0 L,102169,1 F,1,0,1966,0,1 M,0,0,9833,-250,400,7749.995,409.7365 F,2,7866,9833,1,0 S,0,102169,,0.8 R,0,102169,,6.284402 C,0,102169,,25,25,25
Sprite,Background,Centre,"sb\st.png",0,0 L,102476,1 F,1,0,1966,0,1 M,0,0,9833,-250,400,7749.7,469.4089 F,2,7866,9833,1,0 S,0,102476,,0.8 R,0,102476,,6.291862 C,0,102476,,6,6,6
Sprite,Background,Centre,"sb\st.png",0,0 L,102783,1 F,1,0,1966,0,1 M,0,0,9833,-250,400,7749.995,409.5076 F,2,7866,9833,1,0 S,0,102783,,0.8 R,0,102783,,6.284374 C,0,102783,,48,48,48
Sprite,Background,Centre,"sb\cir2.png",0,0 L,173458,2 F,1,0,1256,0,0.1333333 M,2,0,6283,444.3087,80.49884,449.3248,30.75109 F,2,5026,6283,0.1333333,0 S,0,173458,,0.24 R,0,173458,,-1.470305 C,0,173458,,160,160,160
Sprite,Background,Centre,"sb\cir2.png",0,0 L,173941,2 F,1,0,1256,0,0.1333333 M,2,0,6283,598.857,557.1859,594.8491,507.3468 F,2,5026,6283,0.1333333,0 S,0,173941,,0.24 R,0,173941,,-1.65104 C,0,173941,,230,230,230
Sprite,Background,Centre,"sb\cir2.png",0,0 L,174908,2 F,1,0,1256,0,0.1333333 M,2,0,6283,-52.05103,334.5649,-49.81727,284.6149 F,2,5026,6283,0.1333333,0 S,0,174908,,0.24 R,0,174908,,-1.526106 C,0,174908,,201,201,201
Sprite,Background,Centre,"sb\cir2.png",0,0 L,175391,2 F,1,0,1256,0,0.1333333 M,2,0,6283,366.1336,82.50879,354.3384,33.91996 F,2,5026,6283,0.1333333,0 S,0,175391,,0.24 R,0,175391,,-1.808945 C,0,175391,,216,216,216
Sprite,Background,Centre,"sb\cir2.png",0,0 L,175874,2 F,1,0,1256,0,0.1333333 M,2,0,6283,174.2391,496.6422,144.7874,456.2368 F,2,5026,6283,0.1333333,0 S,0,175874,,0.24 R,0,175874,,-2.20066 C,0,175874,,176,176,176
Sprite,Background,Centre,"sb\cir2.png",0,0 L,176358,2 F,1,0,1256,0,0.1333333 M,2,0,6283,156.5488,265.657,169.2749,217.3036 F,2,5026,6283,0.1333333,0 S,0,176358,,0.24 R,0,176358,,-1.313444 C,0,176358,,245,245,245
Sprite,Background,Centre,"sb\cir2.png",0,0 L,176841,2 F,1,0,1256,0,0.1333333 M,2,0,6283,351.3599,487.0543,383.0076,448.3448 F,2,5026,6283,0.1333333,0 S,0,176841,,0.24 R,0,176841,,-0.8854333 C,0,176841,,172,172,172
Sprite,Background,Centre,"sb\cir2.png",0,0 L,177324,2 F,1,0,1256,0,0.1333333 M,2,0,6283,472.2927,478.6547,478.2408,429.0097 F,2,5026,6283,0.1333333,0 S,0,177324,,0.24 R,0,177324,,-1.451553 C,0,177324,,187,187,187
Sprite,Background,Centre,"sb\cir2.png",0,0 L,177808,2 F,1,0,1256,0,0.1333333 M,2,0,6283,276.423,394.9072,262.2719,346.9516 F,2,5026,6283,0.1333333,0 S,0,177808,,0.24 R,0,177808,,-1.857741 C,0,177808,,202,202,202
Sprite,Background,Centre,"sb\cir2.png",0,0 L,178291,2 F,1,0,1256,0,0.1333333 M,2,0,6283,-52.78629,363.9212,-25.02144,322.3386 F,2,5026,6283,0.1333333,0 S,0,178291,,0.24 R,0,178291,,-0.9820764 C,0,178291,,207,207,207
Sprite,Background,Centre,"sb\cir2.png",0,0 L,179258,2 F,1,0,1256,0,0.1333333 M,2,0,6283,219.1138,576.2415,205.1618,528.2275 F,2,5026,6283,0.1333333,0 S,0,179258,,0.24 R,0,179258,,-1.85359 C,0,179258,,217,217,217
Sprite,Background,Centre,"sb\g.png",320,240 L,61758,3 F,0,0,3500,1 S,0,0,3500,0.46 R,0,0,3500,0,0.035 F,0,3500,7000,1 S,0,3500,7000,0.46 R,0,3500,7000,0.035,0 F,0,82758,83091,1,0
Sprite,Background,Centre,"sb\g.png",320,240 L,115091,3 F,0,0,3500,1 S,0,0,3500,0.46 R,0,0,3500,0,0.035 F,0,3500,7000,1 S,0,3500,7000,0.46 R,0,3500,7000,0.035,0 F,0,136091,136425,1,0
Sprite,Background,Centre,"sb\g.png",320,240 F,0,213758,224091,1 S,0,213758,224091,0.46
Sprite,Background,Centre,"sb\g.png",320,240 F,0,213758,224091,0.2 S,0,213758,224091,0.46
Sprite,Background,Centre,"sb\g.png",320,240 F,0,224091,224425,1,0 S,0,224091,224425,0.46
Sprite,Background,Centre,"sb\g.png",320,240 F,0,224091,224425,0.2,0 S,0,224091,224425,0.46
Sprite,Background,Centre,"sb\g.png",320,240 F,0,173758,191091,1 S,0,173758,191091,0.46
Sprite,Background,Centre,"sb\g.png",320,240 F,0,191091,191758,1,0 S,0,191091,191758,0.46
Sprite,Background,Centre,"sb\h.png",320,240 R,0,191758,,1.570796 F,0,191758,192091,1 V,1,191758,192091,1,5,0,5
Sprite,Background,Centre,"sb\w.jpg",320,240 F,0,32424,33424,1,0 S,0,32424,33424,0.46 F,0,50424,51091,0,1 S,0,50424,51091,0.46 F,0,51091,56424,1 S,0,51091,56424,0.46 F,0,56424,57424,1,0 S,0,56424,57424,0.46 F,0,61758,62924,1,0 S,0,61758,62924,0.46 F,0,115091,116258,1,0 S,0,115091,116258,0.46 F,0,135758,136425,0,1 S,0,135758,136425,0.46 F,0,136425,141091,1 S,0,136425,141091,0.46
Sprite,Background,Centre,"sb\w.jpg",320,240 F,0,192425,193591,1,0 S,0,192425,193591,0.46
Sprite,Background,Centre,"sb\w.jpg",320,240 F,0,213758,214925,1,0 S,0,213758,214925,0.46
Sprite,Background,Centre,"sb\w.jpg",320,240 F,0,141091,141758,1,0 S,0,141091,141758,0.46
Sprite,Background,Centre,"sb\w.jpg",320,240 F,0,141758,142925,1,0 S,0,141758,142925,0.46
Sprite,Background,Centre,"sb\w.jpg",320,240 F,0,173758,174925,1,0 S,0,173758,174925,0.46
Sprite,Background,Centre,"sb\w.jpg",320,240 F,0,229091,229758,0,1 S,0,229091,229758,0.46
Sprite,Background,Centre,"sb\w.jpg",320,240 F,0,229758,238224,1 S,0,229758,238224,0.46
Sprite,Background,Centre,"sb\w.jpg",320,240 F,0,238224,238742,1,0 S,0,238224,238742,0.46
Sprite,Background,Centre,"sb\b.png",320,240 F,0,0,245471,0.45 S,0,0,245471,0.64
Sprite,Background,Centre,"sb\spotlight.png",105,251 C,0,71091,,196,94,234 F,2,71091,71741,1,0 S,2,71091,71741,2,0.4
Sprite,Background,Centre,"sb\spotlight.png",370,264 C,0,71258,,196,94,234 F,2,71258,71908,1,0 S,2,71258,71908,2,0.4
Sprite,Background,Centre,"sb\spotlight.png",105,251 C,0,71758,,115,63,237 F,2,71758,72408,1,0 S,2,71758,72408,2,0.4
Sprite,Background,Centre,"sb\spotlight.png",370,264 C,0,71924,,115,63,237 F,2,71924,72574,1,0 S,2,71924,72574,2,0.4
Sprite,Background,Centre,"sb\spotlight.png",0,0 C,0,80424,,115,63,237 M,0,80424,80465,303,263,311.7752,278.035 F,2,80424,81190,1,0 S,2,80424,81190,2.2,0.44 M,0,80465,80507,311.7752,278.035,317.3575,294.4537 M,0,80507,80549,317.3575,294.4537,319.0479,311.7131 M,0,80549,80590,319.0479,311.7131,317.2008,329.0223
Sprite,Background,Centre,"sb\spotlight.png",234,313 C,0,80758,,115,63,237 F,2,80758,81358,1,0 S,2,80758,81358,2.2,0.44
Sprite,Background,Centre,"sb\spotlight.png",0,0 C,0,80924,,111,129,255 M,0,80924,80965,338,186,346.5792,170.8516 F,2,80924,81690,1,0 S,2,80924,81690,2.2,0.44 M,0,80965,81007,346.5792,170.8516,357.9416,157.7494 M,0,81007,81049,357.9416,157.7494,371.9784,147.5631 M,0,81049,81090,371.9784,147.5631,387.841,140.3926
Sprite,Background,Centre,"sb\spotlight.png",415,220 C,0,81258,,111,129,255 F,2,81258,81858,1,0 S,2,81258,81858,2.2,0.44
Sprite,Background,Centre,"sb\spotlight.png",0,0 C,0,81424,,233,164,255 M,0,81424,81465,253,193,235.5825,192.5784 F,2,81424,82190,1,0 S,2,81424,82190,2.2,0.44 M,0,81465,81507,235.5825,192.5784,218.5841,189.0231 M,0,81507,81549,218.5841,189.0231,202.6956,182.0106 M,0,81549,81590,202.6956,182.0106,188.347,172.1295
Sprite,Background,Centre,"sb\spotlight.png",338,186 C,0,81758,,196,94,234 F,2,81758,82358,1,0 S,2,81758,82358,2.2,0.44
Sprite,Background,Centre,"sb\spotlight.png",263,393 C,0,81924,,196,94,234 F,2,81924,82524,1,0 S,2,81924,82524,2.2,0.44
Sprite,Background,Centre,"sb\spotlight.png",0,0 C,0,60424,,196,94,234 M,0,60424,60465,358,336,338.0992,334.0099 F,2,60424,61244,1,0 S,2,60424,61244,1.9,0.38 M,0,60465,60507,338.0992,334.0099,318.1985,332.0198 M,0,60507,60548,318.1985,332.0198,338.0992,334.0099 M,0,60548,60590,338.0992,334.0099,358,336 M,0,60590,60632,358,336,338.0992,334.0099 M,0,60632,60674,338.0992,334.0099,318.1985,332.0198
Sprite,Background,Centre,"sb\spotlight.png",0,0 C,0,60758,,196,94,234 M,0,60758,60799,238,352,218.0993,350.0099 F,2,60758,61578,1,0 S,2,60758,61578,1.9,0.38 M,0,60799,60841,218.0993,350.0099,198.1985,348.0198 M,0,60841,60882,198.1985,348.0198,218.0993,350.0099 M,0,60882,60924,218.0993,350.0099,238,352 M,0,60924,60966,238,352,218.0993,350.0099 M,0,60966,61008,218.0993,350.0099,198.1985,348.0198
Sprite,Background,Centre,"sb\spotlight.png",118,368 C,0,61091,,196,94,234 F,2,61091,61661,1,0 S,2,61091,61661,1.9,0.38
Sprite,Background,Centre,"sb\spotlight.png",117,348 C,0,61174,,196,94,234 F,2,61174,61744,1,0 S,2,61174,61744,1.9,0.38
Sprite,Background,Centre,"sb\spotlight.png",116,328 C,0,61258,,196,94,234 F,2,61258,61828,1,0 S,2,61258,61828,1.9,0.38
Sprite,Background,Centre,"sb\spotlight.png",116,308 C,0,61341,,196,94,234 F,2,61341,61911,1,0 S,2,61341,61911,1.9,0.38
Sprite,Background,Centre,"sb\spotlight.png",115,288 C,0,61424,,196,94,234 F,2,61424,61994,1,0 S,2,61424,61994,1.9,0.38
Sprite,Background,Centre,"sb\spotlight.png",114,268 C,0,61508,,196,94,234 F,2,61508,62078,1,0 S,2,61508,62078,1.9,0.38
Sprite,Background,Centre,"sb\spotlight.png",114,248 C,0,61591,,196,94,234 F,2,61591,62161,1,0 S,2,61591,62161,1.9,0.38
Sprite,Background,Centre,"sb\spotlight.png",113,228 C,0,61674,,196,94,234 F,2,61674,62244,1,0 S,2,61674,62244,1.9,0.38
Sprite,Background,Centre,"sb\spotlight.png",243,86 C,0,113758,,115,63,237 F,2,113758,114328,1,0 S,2,113758,114328,1.9,0.38
Sprite,Background,Centre,"sb\spotlight.png",319,207 C,0,113924,,115,63,237 F,2,113924,114494,1,0 S,2,113924,114494,1.9,0.38
Sprite,Background,Centre,"sb\spotlight.png",0,0 C,0,114091,,115,63,237 M,0,114091,114132,176,212,162.3282,210.5352 F,2,114091,114911,1,0 S,2,114091,114911,1.9,0.38 M,0,114132,114174,162.3282,210.5352,148.6565,209.0703 M,0,114174,114216,148.6565,209.0703,162.3282,210.5352 M,0,114216,114257,162.3282,210.5352,176,212 M,0,114257,114299,176,212,162.3282,210.5352 M,0,114299,114341,162.3282,210.5352,148.6565,209.0703
Sprite,Background,Centre,"sb\spotlight.png",0,0 C,0,114424,,115,63,237 M,0,114424,114465,108,202,99.5926,212.8802 F,2,114424,115244,1,0 S,2,114424,115244,1.9,0.38 M,0,114465,114507,99.5926,212.8802,91.1852,223.7603 M,0,114507,114549,91.1852,223.7603,99.5926,212.8802 M,0,114549,114590,99.5926,212.8802,108,202 M,0,114590,114632,108,202,99.5926,212.8802 M,0,114632,114674,99.5926,212.8802,91.1852,223.7603
Sprite,Background,Centre,"sb\spotlight.png",0,0 C,0,114758,,115,63,237 M,0,114758,114799,65,255,70.53766,267.5856 F,2,114758,115578,1,0 S,2,114758,115578,1.9,0.38 M,0,114799,114841,70.53766,267.5856,76,280 M,0,114841,114883,76,280,70.53766,267.5856 M,0,114883,114924,70.53766,267.5856,65,255 M,0,114924,114966,65,255,70.53766,267.5856 M,0,114966,115008,70.53766,267.5856,76,280
Sprite,Background,Centre,"sb\ring.png",0,0 C,0,56424,,111,129,255 M,0,56424,56465,163,119,155.9399,137.6251 F,2,56424,57190,1,0 S,2,56424,57190,0.7,0.14 M,0,56465,56507,155.9399,137.6251,153.3596,157.342 M,0,56507,56548,153.3596,157.342,155.385,177.1035 M,0,56548,56590,155.385,177.1035,161,195
Sprite,Background,Centre,"sb\ring.png",269,229 C,0,56758,,111,129,255 F,2,56758,57358,1,0 S,2,56758,57358,0.7,0.14
Sprite,Background,Centre,"sb\ring.png",0,0 C,0,56924,,233,164,255 M,0,56924,56965,121,266,139.6251,273.0601 F,2,56924,57690,1,0 S,2,56924,57690,0.7,0.14 M,0,56965,57007,139.6251,273.0601,159.342,275.6404 M,0,57007,57048,159.342,275.6404,179.1035,273.615 M,0,57048,57090,179.1035,273.615,197,268
Sprite,Background,Centre,"sb\ring.png",232,158 C,0,57258,,233,164,255 F,2,57258,57858,1,0 S,2,57258,57858,0.7,0.14
Sprite,Background,Centre,"sb\ring.png",0,0 C,0,57424,,196,94,234 M,0,57424,57465,268,307,275.0601,288.3749 F,2,57424,58190,1,0 S,2,57424,58190,0.7,0.14 M,0,57465,57507,275.0601,288.3749,277.6404,268.658 M,0,57507,57548,277.6404,268.658,275.615,248.8965 M,0,57548,57590,275.615,248.8965,270,231
Sprite,Background,Centre,"sb\ring.png",161,196 C,0,57758,,196,94,234 F,2,57758,58358,1,0 S,2,57758,58358,0.7,0.14
Sprite,Background,Centre,"sb\ring.png",0,0 C,0,57924,,115,63,237 M,0,57924,57965,310,160,291.3749,152.9399 F,2,57924,58690,1,0 S,2,57924,58690,0.7,0.14 M,0,57965,58007,291.3749,152.9399,271.658,150.3596 M,0,58007,58048,271.658,150.3596,251.8965,152.385 M,0,58048,58090,251.8965,152.385,234,158
Sprite,Background,Centre,"sb\ring.png",198,267 C,0,58258,,115,63,237 F,2,58258,58858,1,0 S,2,58258,58858,0.7,0.14
Sprite,Background,Centre,"sb\ring.png",0,0 C,0,58424,,111,129,255 M,0,58424,58465,163,119,155.9399,137.6251 F,2,58424,59190,1,0 S,2,58424,59190,0.7,0.14 M,0,58465,58507,155.9399,137.6251,153.3596,157.342 M,0,58507,58548,153.3596,157.342,155.385,177.1035 M,0,58548,58590,155.385,177.1035,161,195
Sprite,Background,Centre,"sb\spotlight.png",0,0 C,0,133758,,111,129,255 M,0,133758,133799,123,258,140.4314,259.5483 F,2,133758,134424,1,0 S,2,133758,134424,2,0.4 M,0,133799,133841,140.4314,259.5483,157.8647,261.0748 M,0,133841,133882,157.8647,261.0748,175.2999,262.5792 M,0,133882,133924,175.2999,262.5792,192,264
Sprite,Background,Centre,"sb\spotlight.png",282,313 C,0,134091,,111,129,255 F,2,134091,134591,1,0 S,2,134091,134591,2,0.4
Sprite,Background,Centre,"sb\spotlight.png",0,0 C,0,134258,,233,164,255 M,0,134258,134299,447,150,429.5686,151.5484 F,2,134258,134924,1,0 S,2,134258,134924,2,0.4 M,0,134299,134341,429.5686,151.5484,412.1353,153.0748 M,0,134341,134382,412.1353,153.0748,394.7001,154.5793 M,0,134382,134424,394.7001,154.5793,378,156
Sprite,Background,Centre,"sb\spotlight.png",241,141 C,0,134591,,233,164,255 F,2,134591,135091,1,0 S,2,134591,135091,2,0.4
Sprite,Background,Centre,"sb\spotlight.png",0,0 C,0,134758,,196,94,234 M,0,134758,134799,402,314,403.5484,296.5686 F,2,134758,135424,1,0 S,2,134758,135424,2,0.4 M,0,134799,134841,403.5484,296.5686,405.0748,279.1353 M,0,134841,134882,405.0748,279.1353,406.5793,261.7001 M,0,134882,134924,406.5793,261.7001,408,245
Sprite,Background,Centre,"sb\spotlight.png",506,76 C,0,135091,,115,63,237 F,2,135091,135591,1,0 S,2,135091,135591,2,0.4
Sprite,Background,Centre,"sb\spotlight.png",302,222 C,0,135258,,115,63,237 F,2,135258,135758,1,0 S,2,135258,135758,2,0.4
Sprite,Background,Centre,"sb\spotlight.png",302,222 C,0,135591,,111,129,255 F,2,135591,136091,1,0 S,2,135591,136091,2,0.4
Sprite,Background,Centre,"sb\spotlight.png",437,314 C,0,124424,,115,63,237 F,2,124424,125074,1,0 S,2,124424,125074,2,0.4
Sprite,Background,Centre,"sb\spotlight.png",211,296 C,0,124591,,115,63,237 F,2,124591,125241,1,0 S,2,124591,125241,2,0.4
Sprite,Background,Centre,"sb\spotlight.png",437,314 C,0,125091,,111,129,255 F,2,125091,125741,1,0 S,2,125091,125741,2,0.4
Sprite,Background,Centre,"sb\spotlight.png",211,296 C,0,125258,,111,129,255 F,2,125258,125908,1,0 S,2,125258,125908,2,0.4
Sprite,Background,Centre,"sb\spotlight.png",292,381 C,0,217758,,111,129,255 F,2,217758,218318,1,0 S,2,217758,218318,2,0.4
Sprite,Background,Centre,"sb\spotlight.png",199,284 C,0,217924,,111,129,255 F,2,217924,218484,1,0 S,2,217924,218484,2,0.4
Sprite,Background,Centre,"sb\spotlight.png",199,284 C,0,218008,,111,129,255 F,2,218008,218568,1,0 S,2,218008,218568,2,0.4
Sprite,Background,Centre,"sb\spotlight.png",199,284 C,0,218091,,111,129,255 F,2,218091,218651,1,0 S,2,218091,218651,2,0.4
Sprite,Background,Centre,"sb\spotlight.png",337,212 C,0,218258,,111,129,255 F,2,218258,218818,1,0 S,2,218258,218818,2,0.4
Sprite,Background,Centre,"sb\spotlight.png",337,212 C,0,218341,,111,129,255 F,2,218341,218901,1,0 S,2,218341,218901,2,0.4
Sprite,Background,Centre,"sb\spotlight.png",337,212 C,0,218424,,111,129,255 F,2,218424,218984,1,0 S,2,218424,218984,2,0.4
Sprite,Background,Centre,"sb\spotlight.png",475,284 C,0,218591,,111,129,255 F,2,218591,219151,1,0 S,2,218591,219151,2,0.4
Sprite,Background,Centre,"sb\spotlight.png",475,284 C,0,218674,,111,129,255 F,2,218674,219234,1,0 S,2,218674,219234,2,0.4
Sprite,Background,Centre,"sb\spotlight.png",475,284 C,0,218758,,111,129,255 F,2,218758,219318,1,0 S,2,218758,219318,2,0.4
Sprite,Background,Centre,"sb\spotlight.png",380,429 C,0,218924,,111,129,255 F,2,218924,219484,1,0 S,2,218924,219484,2,0.4
Sprite,Background,Centre,"sb\spotlight.png",380,429 C,0,219008,,111,129,255 F,2,219008,219568,1,0 S,2,219008,219568,2,0.4
Sprite,Background,Centre,"sb\spotlight.png",0,0 C,0,109758,,111,129,255 M,0,109758,109799,199,305,196.5307,318.5026 F,2,109758,110524,1,0 S,2,109758,110524,2.3,0.46 M,0,109799,109841,196.5307,318.5026,195.3613,332.1711 M,0,109841,109883,195.3613,332.1711,195.4754,345.8783 M,0,109883,109924,195.4754,345.8783,196.9334,359.5389
Sprite,Background,Centre,"sb\spotlight.png",0,0 C,0,110091,,111,129,255 M,0,110091,110132,361,279,374.5965,280.9276 F,2,110091,110857,1,0 S,2,110091,110857,2.3,0.46 M,0,110132,110174,374.5965,280.9276,388.2946,281.9845 M,0,110174,110216,388.2946,281.9845,402.0123,281.3628 M,0,110216,110257,402.0123,281.3628,415,280
Sprite,Background,Centre,"sb\spotlight.png",0,0 C,0,110425,,111,129,255 M,0,110425,110466,334,117,335.9026,103.399 F,2,110425,111191,1,0 S,2,110425,111191,2.3,0.46 M,0,110466,110508,335.9026,103.399,336.7108,89.69489 M,0,110508,110550,336.7108,89.69489,336.4345,75.9776 M,0,110550,110591,336.4345,75.9776,335.0409,62.30676
Sprite,Background,Centre,"sb\spotlight.png",0,0 C,0,110758,,111,129,255 M,0,110758,110799,172,143,158.4974,140.5307 F,2,110758,111524,1,0 S,2,110758,111524,2.3,0.46 M,0,110799,110841,158.4974,140.5307,144.8289,139.3613 M,0,110841,110883,144.8289,139.3613,131.1217,139.4754 M,0,110883,110924,131.1217,139.4754,117.4611,140.9334
Sprite,Background,Centre,"sb\spotlight.png",0,0 C,0,111091,,233,164,255 M,0,111091,111132,199,306,212.7131,307.0065 F,2,111091,112024,1,0 S,2,111091,112024,2.3,0.46 M,0,111132,111174,212.7131,307.0065,226.4262,308.0129 M,0,111174,111216,226.4262,308.0129,240.1393,309.0194 M,0,111216,111257,240.1393,309.0194,253.8525,310.0259 M,0,111257,111299,253.8525,310.0259,267.5656,311.0323 M,0,111299,111341,267.5656,311.0323,281.2787,312.0388 M,0,111341,111382,281.2787,312.0388,294.9918,313.0453 M,0,111382,111424,294.9918,313.0453,308,314
Sprite,Background,Centre,"sb\spotlight.png",0,0 C,0,159758,,233,164,255 M,0,159758,159799,322,243,339.0103,238.8895 F,2,159758,160858,1,0 S,2,159758,160858,2,0.4 M,0,159799,159841,339.0103,238.8895,356.0458,234.8844 M,0,159841,159882,356.0458,234.8844,373.1058,230.9853 M,0,159882,159924,373.1058,230.9853,390.1897,227.192 M,0,159924,159966,390.1897,227.192,407.2968,223.5048 M,0,159966,160007,407.2968,223.5048,424,220 M,0,160007,160049,424,220,407.2968,223.5048 M,0,160049,160091,407.2968,223.5048,390.1897,227.192 M,0,160091,160132,390.1897,227.192,373.1058,230.9853 M,0,160132,160174,373.1058,230.9853,356.0458,234.8844 M,0,160174,160216,356.0458,234.8844,339.0103,238.8895 M,0,160216,160258,339.0103,238.8895,322,243
Sprite,Background,Centre,"sb\spotlight.png",0,0 C,0,160424,,196,94,234 M,0,160424,160465,245,395,229.7563,386.5399 F,2,160424,161357,1,0 S,2,160424,161357,2,0.4 M,0,160465,160507,229.7563,386.5399,217.0947,374.5876 M,0,160507,160548,217.0947,374.5876,207.7933,359.8912 M,0,160548,160590,207.7933,359.8912,202.4218,343.3663 M,0,160590,160632,202.4218,343.3663,201.3065,326.0397 M,0,160632,160673,201.3065,326.0397,204.5108,308.9866 M,0,160673,160715,204.5108,308.9866,211.8316,293.2637 M,0,160715,160757,211.8316,293.2637,222.5068,279.5175
Sprite,Background,Centre,"sb\spotlight.png",303,169 C,0,160924,,196,94,234 F,2,160924,161524,1,0 S,2,160924,161524,2,0.4
Sprite,Background,Centre,"sb\spotlight.png",0,0 C,0,161091,,196,94,234 M,0,161091,161132,336,274,331.5101,290.9114 F,2,161091,161857,1,0 S,2,161091,161857,2,0.4 M,0,161132,161174,331.5101,290.9114,328.002,308.0532 M,0,161174,161215,328.002,308.0532,325.4873,325.3682 M,0,161215,161257,325.4873,325.3682,324,342
Sprite,Background,Centre,"sb\spotlight.png",0,0 C,0,161424,,196,94,234 M,0,161424,161465,211,210,212.6869,227.4169 F,2,161424,162190,1,0 S,2,161424,162190,2,0.4 M,0,161465,161507,212.6869,227.4169,215.1314,244.7435 M,0,161507,161548,215.1314,244.7435,218.3288,261.9469 M,0,161548,161590,218.3288,261.9469,222,278
Sprite,Background,Centre,"sb\spotlight.png",0,0 C,0,161758,,115,63,237 M,0,161758,161799,349,369,366.0348,364.9918 F,2,161758,162608,1,0 S,2,161758,162608,2,0.4 M,0,161799,161841,366.0348,364.9918,383,361 M,0,161841,161882,383,361,366.0348,364.9918 M,0,161882,161924,366.0348,364.9918,349,369 M,0,161924,161966,349,369,366.0348,364.9918 M,0,161966,162008,366.0348,364.9918,383,361
Sprite,Background,Centre,"sb\spotlight.png",0,0 C,0,162091,,115,63,237 M,0,162091,162132,471,306,453.94,302.1006 F,2,162091,162941,1,0 S,2,162091,162941,2,0.4 M,0,162132,162174,453.94,302.1006,436.8799,298.2011 M,0,162174,162215,436.8799,298.2011,453.94,302.1006 M,0,162215,162257,453.94,302.1006,471,306 M,0,162257,162299,471,306,453.94,302.1006 M,0,162299,162341,453.94,302.1006,436.8799,298.2011
Sprite,Background,Centre,"sb\spotlight.png",0,0 C,0,162424,,115,63,237 M,0,162424,162465,323,259,340.0348,254.9918 F,2,162424,163274,1,0 S,2,162424,163274,2,0.4 M,0,162465,162507,340.0348,254.9918,357,251 M,0,162507,162548,357,251,340.0348,254.9918 M,0,162548,162590,340.0348,254.9918,323,259 M,0,162590,162632,323,259,340.0348,254.9918 M,0,162632,162674,340.0348,254.9918,357,251
Sprite,Background,Centre,"sb\spotlight.png",0,0 C,0,162758,,115,63,237 M,0,162758,162799,483,196,465.94,192.1006 F,2,162758,163608,1,0 S,2,162758,163608,2,0.4 M,0,162799,162841,465.94,192.1006,448.8799,188.2011 M,0,162841,162882,448.8799,188.2011,465.94,192.1006 M,0,162882,162924,465.94,192.1006,483,196 M,0,162924,162966,483,196,465.94,192.1006 M,0,162966,163008,465.94,192.1006,448.8799,188.2011
Sprite,Background,Centre,"sb\spotlight.png",0,0 C,0,173758,,196,94,234 M,0,173758,173799,357,301,354.4102,281.1686 F,2,173758,174524,1,0 S,2,173758,174524,2,0.4 M,0,173799,173841,354.4102,281.1686,352.0547,261.3081 M,0,173841,173882,352.0547,261.3081,349.9317,241.4215 M,0,173882,173924,349.9317,241.4215,348.046,221.5108
Sprite,Background,Centre,"sb\spotlight.png",204,160 C,0,174091,,115,63,237 F,2,174091,174691,1,0 S,2,174091,174691,2,0.4
Sprite,Background,Centre,"sb\spotlight.png",348,221 C,0,174258,,115,63,237 F,2,174258,174858,1,0 S,2,174258,174858,2,0.4
Sprite,Background,Centre,"sb\spotlight.png",266,86 C,0,174424,,115,63,237 F,2,174424,175024,1,0 S,2,174424,175024,2,0.4
Sprite,Background,Centre,"sb\spotlight.png",255,243 C,0,174591,,115,63,237 F,2,174591,175191,1,0 S,2,174591,175191,2,0.4
Sprite,Background,Centre,"sb\spotlight.png",355,124 C,0,174758,,115,63,237 F,2,174758,175358,1,0 S,2,174758,175358,2,0.4
Sprite,Background,Centre,"sb\spotlight.png",204,160 C,0,174924,,115,63,237 F,2,174924,175524,1,0 S,2,174924,175524,2,0.4
Sprite,Background,Centre,"sb\spotlight.png",0,0 C,0,175091,,111,129,255 M,0,175091,175132,348,221,367.9426,219.4854 F,2,175091,175857,1,0 S,2,175091,175857,2,0.4 M,0,175132,175174,367.9426,219.4854,387.8851,217.9707 M,0,175174,175215,387.8851,217.9707,407.8277,216.4561 M,0,175215,175257,407.8277,216.4561,427,215
Sprite,Background,Centre,"sb\spotlight.png",0,0 C,0,175424,,111,129,255 M,0,175424,175465,204,160,184.056,158.5042 F,2,175424,176190,1,0 S,2,175424,176190,2,0.4 M,0,175465,175507,184.056,158.5042,164.112,157.0084 M,0,175507,175548,164.112,157.0084,144.168,155.5126 M,0,175548,175590,144.168,155.5126,124.2241,154.0168
Sprite,Background,Centre,"sb\spotlight.png",355,124 C,0,175758,,111,129,255 F,2,175758,176358,1,0 S,2,175758,176358,2,0.4
Sprite,Background,Centre,"sb\spotlight.png",255,243 C,0,175924,,111,129,255 F,2,175924,176524,1,0 S,2,175924,176524,2,0.4
Sprite,Background,Centre,"sb\spotlight.png",266,86 C,0,176091,,111,129,255 F,2,176091,176691,1,0 S,2,176091,176691,2,0.4
Sprite,Background,Centre,"sb\spotlight.png",348,221 C,0,176258,,111,129,255 F,2,176258,176858,1,0 S,2,176258,176858,2,0.4
Sprite,Background,Centre,"sb\spotlight.png",0,0 C,0,176424,,233,164,255 M,0,176424,176465,204,160,184.056,158.5042 F,2,176424,177190,1,0 S,2,176424,177190,2,0.4 M,0,176465,176507,184.056,158.5042,164.112,157.0084 M,0,176507,176548,164.112,157.0084,144.168,155.5126 M,0,176548,176590,144.168,155.5126,124.2241,154.0168
Sprite,Background,Centre,"sb\spotlight.png",255,243 C,0,176758,,196,94,234 F,2,176758,177358,1,0 S,2,176758,177358,2,0.4
Sprite,Background,Centre,"sb\spotlight.png",266,86 C,0,176924,,196,94,234 F,2,176924,177524,1,0 S,2,176924,177524,2,0.4
Sprite,Background,Centre,"sb\spotlight.png",109,75 C,0,177091,,196,94,234 F,2,177091,177691,1,0 S,2,177091,177691,2,0.4
Sprite,Background,Centre,"sb\spotlight.png",98,232 C,0,177258,,196,94,234 F,2,177258,177858,1,0 S,2,177258,177858,2,0.4
Sprite,Background,Centre,"sb\spotlight.png",98,232 C,0,177341,,196,94,234 F,2,177341,177941,1,0 S,2,177341,177941,2,0.4
Sprite,Background,Centre,"sb\spotlight.png",0,0 C,0,177424,,196,94,234 M,0,177424,177465,98,232,99.02429,251.9738 F,2,177424,178107,1,0 S,2,177424,178107,2,0.4 M,0,177465,177507,99.02429,251.9738,100,271
Sprite,Background,Centre,"sb\spotlight.png",0,0 C,0,177591,,115,63,237 M,0,177591,177632,212,319,210.995,299.0253 F,2,177591,178524,1,0 S,2,177591,178524,2,0.4 M,0,177632,177674,210.995,299.0253,209.99,279.0505 M,0,177674,177715,209.99,279.0505,208.9849,259.0758 M,0,177715,177757,208.9849,259.0758,207.9799,239.1011 M,0,177757,177799,207.9799,239.1011,206.9749,219.1263 M,0,177799,177840,206.9749,219.1263,205.9699,199.1516 M,0,177840,177882,205.9699,199.1516,204.9649,179.1769 M,0,177882,177924,204.9649,179.1769,204,160
Sprite,Background,Centre,"sb\spotlight.png",266,86 C,0,178091,,115,63,237 F,2,178091,178691,1,0 S,2,178091,178691,2,0.4
Sprite,Background,Centre,"sb\spotlight.png",0,0 C,0,178258,,115,63,237 M,0,178258,178299,348,221,346.9757,240.9738 F,2,178258,179024,1,0 S,2,178258,179024,2,0.4 M,0,178299,178341,346.9757,240.9738,346,260 M,0,178341,178382,346,260,346.9757,240.9738 M,0,178382,178424,346.9757,240.9738,348,221
Sprite,Background,Centre,"sb\spotlight.png",0,0 C,0,178591,,115,63,237 M,0,178591,178632,203,159,183.0262,157.9757 F,2,178591,179357,1,0 S,2,178591,179357,2,0.4 M,0,178632,178674,183.0262,157.9757,164,157 M,0,178674,178715,164,157,183.0262,157.9757 M,0,178715,178757,183.0262,157.9757,203,159
Sprite,Background,Centre,"sb\spotlight.png",355,124 C,0,178924,,115,63,237 F,2,178924,179524,1,0 S,2,178924,179524,2,0.4
Sprite,Background,Centre,"sb\cir2.png",0,0 L,213425,1 F,1,0,1155,0,0.1843137 M,2,0,5775,192.5463,626.2764,178.0746,376.6956 F,2,4620,5775,0.1843137,0 S,0,213425,,0.3 R,0,213425,,-1.628715 C,0,213425,,198,198,198
Sprite,Background,Centre,"sb\cir2.png",0,0 L,214250,1 F,1,0,1155,0,0.1843137 M,2,0,5775,442.7677,378.4437,470.2377,129.9575 F,2,4620,5775,0.1843137,0 S,0,214250,,0.3 R,0,214250,,-1.460694 C,0,214250,,163,163,163
Sprite,Background,Centre,"sb\cir2.png",0,0 L,215075,1 F,1,0,1155,0,0.1843137 M,2,0,5775,545.7351,407.7375,519.511,159.1167 F,2,4620,5775,0.1843137,0 S,0,215075,,0.3 R,0,215075,,-1.675886 C,0,215075,,213,213,213
Sprite,Background,Centre,"sb\cir2.png",0,0 L,215900,1 F,1,0,1155,0,0.1843137 M,2,0,5775,529.8906,767.0104,505.2118,518.2315 F,2,4620,5775,0.1843137,0 S,0,215900,,0.3 R,0,215900,,-1.669673 C,0,215900,,169,169,169
Sprite,Background,Centre,"sb\cir2.png",0,0 L,216725,1 F,1,0,1155,0,0.1843137 M,2,0,5775,196.4061,457.8456,216.9646,208.6923 F,2,4620,5775,0.1843137,0 S,0,216725,,0.3 R,0,216725,,-1.488469 C,0,216725,,164,164,164
Sprite,Background,Centre,"sb\cir2.png",0,0 L,217550,1 F,1,0,1155,0,0.1843137 M,2,0,5775,295.5433,252.2164,312.9792,2.825119 F,2,4620,5775,0.1843137,0 S,0,217550,,0.3 R,0,217550,,-1.500996 C,0,217550,,148,148,148
Sprite,Background,Centre,"sb\cir2.png",0,0 L,218375,1 F,1,0,1155,0,0.1843137 M,2,0,5775,648.5551,517.3031,636.818,267.5787 F,2,4620,5775,0.1843137,0 S,0,218375,,0.3 R,0,218375,,-1.617762 C,0,218375,,205,205,205
Sprite,Background,Centre,"sb\spotlight.png",0,0 C,0,213091,,111,129,255 M,0,213091,213132,349,149,348.0022,134.0332 F,2,213091,213891,1,0 S,2,213091,213891,2,0.4 M,0,213132,213174,348.0022,134.0332,347.0044,119.0664 M,0,213174,213215,347.0044,119.0664,348.0022,134.0332 M,0,213215,213257,348.0022,134.0332,349,149 M,0,213257,213299,349,149,348.0022,134.0332 M,0,213299,213341,348.0022,134.0332,347.0044,119.0664
Sprite,Background,Centre,"sb\spotlight.png",0,0 C,0,213424,,111,129,255 M,0,213424,213465,347,248,361.9644,246.968 F,2,213424,214224,1,0 S,2,213424,214224,2,0.4 M,0,213465,213507,361.9644,246.968,376,246 M,0,213507,213548,376,246,361.9644,246.968 M,0,213548,213590,361.9644,246.968,347,248 M,0,213590,213632,347,248,361.9644,246.968 M,0,213632,213674,361.9644,246.968,376,246
Sprite,Background,Centre,"sb\spotlight.png",0,0 C,0,208424,,111,129,255 M,0,208424,208465,233,329,227.1332,342.7467 F,2,208424,209190,1,0 S,2,208424,209190,2,0.4 M,0,208465,208507,227.1332,342.7467,223.3092,357.1623 M,0,208507,208548,223.3092,357.1623,222.0021,372.0368 M,0,208548,208590,222.0021,372.0368,223,386
Sprite,Background,Centre,"sb\spotlight.png",0,0 C,0,208758,,111,129,255 M,0,208758,208799,272,194,258.4331,187.7421 F,2,208758,209524,1,0 S,2,208758,209524,2,0.4 M,0,208799,208841,258.4331,187.7421,244.1288,183.5388 M,0,208841,208882,244.1288,183.5388,229.2806,181.9051 M,0,208882,208924,229.2806,181.9051,214.3444,182.9573
Sprite,Background,Centre,"sb\spotlight.png",0,0 C,0,209091,,111,129,255 M,0,209091,209132,408,233,413.744,219.1975 F,2,209091,209857,1,0 S,2,209091,209857,2,0.4 M,0,209132,209174,413.744,219.1975,417.5611,204.7716 M,0,209174,209215,417.5611,204.7716,418.9913,189.8961 M,0,209215,209257,418.9913,189.8961,418,175
Sprite,Background,Centre,"sb\spotlight.png",0,0 C,0,209424,,111,129,255 M,0,209424,209465,369,369,382.7467,374.8668 F,2,209424,210190,1,0 S,2,209424,210190,2,0.4 M,0,209465,209507,382.7467,374.8668,397.1623,378.6908 M,0,209507,209548,397.1623,378.6908,412.0368,379.9979 M,0,209548,209590,412.0368,379.9979,426,379
Sprite,Background,Centre,"sb\spotlight.png",0,0 C,0,228758,,111,129,255 M,0,228758,228799,213,312,213.4997,297.0083 F,2,228758,229558,1,0 S,2,228758,229558,2,0.4 M,0,228799,228841,213.4997,297.0083,213.9995,282.0167 M,0,228841,228882,213.9995,282.0167,213.4997,297.0083 M,0,228882,228924,213.4997,297.0083,213,312 M,0,228924,228966,213,312,213.4997,297.0083 M,0,228966,229008,213.4997,297.0083,213.9995,282.0167
Sprite,Background,Centre,"sb\spotlight.png",0,0 C,0,229091,,111,129,255 M,0,229091,229132,208,272,208.4997,257.0083 F,2,229091,229891,1,0 S,2,229091,229891,2,0.4 M,0,229132,229174,208.4997,257.0083,208.9995,242.0166 M,0,229174,229215,208.9995,242.0166,208.4997,257.0083 M,0,229215,229257,208.4997,257.0083,208,272 M,0,229257,229299,208,272,208.4997,257.0083 M,0,229299,229341,208.4997,257.0083,208.9995,242.0166
Sprite,Background,Centre,"sb\spotlight.png",0,0 C,0,229424,,111,129,255 M,0,229424,229465,203,232,203.4997,217.0083 F,2,229424,230224,1,0 S,2,229424,230224,2,0.4 M,0,229465,229507,203.4997,217.0083,203.9995,202.0166 M,0,229507,229548,203.9995,202.0166,203.4997,217.0083 M,0,229548,229590,203.4997,217.0083,203,232 M,0,229590,229632,203,232,203.4997,217.0083 M,0,229632,229674,203.4997,217.0083,203.9995,202.0166
Sprite,Background,Centre,"sb\spotlight.png",0,0 C,0,184424,,111,129,255 M,0,184424,184465,292,186,291.1198,203.4778 F,2,184424,185337,1,0 S,2,184424,185337,2,0.4 M,0,184465,184507,291.1198,203.4778,290.2396,220.9557 M,0,184507,184548,290.2396,220.9557,289.3595,238.4335 M,0,184548,184590,289.3595,238.4335,288.4793,255.9114 M,0,184590,184632,288.4793,255.9114,287.5991,273.3893 M,0,184632,184673,287.5991,273.3893,286.7189,290.8671 M,0,184673,184715,286.7189,290.8671,285.8387,308.345 M,0,184715,184757,285.8387,308.345,285,325
Sprite,Background,Centre,"sb\spotlight.png",441,396 C,0,184924,,111,129,255 F,2,184924,185504,1,0 S,2,184924,185504,2,0.4
Sprite,Background,Centre,"sb\spotlight.png",398,285 C,0,185091,,111,129,255 F,2,185091,185671,1,0 S,2,185091,185671,2,0.4
Sprite,Background,Centre,"sb\spotlight.png",286,326 C,0,185258,,111,129,255 F,2,185258,185838,1,0 S,2,185258,185838,2,0.4
Sprite,Background,Centre,"sb\spotlight.png",330,439 C,0,185424,,111,129,255 F,2,185424,186004,1,0 S,2,185424,186004,2,0.4
Sprite,Background,Centre,"sb\spotlight.png",441,396 C,0,185591,,111,129,255 F,2,185591,186171,1,0 S,2,185591,186171,2,0.4
Sprite,Background,Centre,"sb\spotlight.png",0,0 C,0,185758,,233,164,255 M,0,185758,185799,398,285,380.5161,285.7493 F,2,185758,186504,1,0 S,2,185758,186504,2,0.4 M,0,185799,185841,380.5161,285.7493,363.0321,286.4986 M,0,185841,185882,363.0321,286.4986,345.5482,287.2479 M,0,185882,185924,345.5482,287.2479,328.0642,287.9973
Sprite,Background,Centre,"sb\spotlight.png",0,0 C,0,186091,,233,164,255 M,0,186091,186132,129,327,111.5285,326.0016 F,2,186091,186921,1,0 S,2,186091,186921,2,0.4 M,0,186132,186174,111.5285,326.0016,94.05701,325.0033 M,0,186174,186215,94.05701,325.0033,111.5285,326.0016 M,0,186215,186257,111.5285,326.0016,129,327 M,0,186257,186299,129,327,111.5285,326.0016 M,0,186299,186341,111.5285,326.0016,94.05701,325.0033
Sprite,Background,Centre,"sb\spotlight.png",0,0 C,0,186424,,233,164,255 M,0,186424,186465,207,296,216.0037,280.9939 F,2,186424,187254,1,0 S,2,186424,187254,2,0.4 M,0,186465,186507,216.0037,280.9939,225,266 M,0,186507,186548,225,266,216.0037,280.9939 M,0,186548,186590,216.0037,280.9939,207,296 M,0,186590,186632,207,296,216.0037,280.9939 M,0,186632,186674,216.0037,280.9939,225,266
Sprite,Background,Centre,"sb\spotlight.png",0,0 C,0,186758,,233,164,255 M,0,186758,186799,194,379,202.0262,394.5509 F,2,186758,187588,1,0 S,2,186758,187588,2,0.4 M,0,186799,186841,202.0262,394.5509,210,410 M,0,186841,186882,210,410,202.0262,394.5509 M,0,186882,186924,202.0262,394.5509,194,379 M,0,186924,186966,194,379,202.0262,394.5509 M,0,186966,187008,202.0262,394.5509,210,410
Sprite,Background,Centre,"sb\spotlight.png",0,0 C,0,187091,,196,94,234 M,0,187091,187132,140,242,140.4998,224.5071 F,2,187091,187921,1,0 S,2,187091,187921,2,0.4 M,0,187132,187174,140.4998,224.5071,140.9996,207.0143 M,0,187174,187215,140.9996,207.0143,140.4998,224.5071 M,0,187215,187257,140.4998,224.5071,140,242 M,0,187257,187299,140,242,140.4998,224.5071 M,0,187299,187341,140.4998,224.5071,140.9996,207.0143
Sprite,Background,Centre,"sb\spotlight.png",0,0 C,0,187424,,196,94,234 M,0,187424,187465,225,266,225.4998,248.5071 F,2,187424,188254,1,0 S,2,187424,188254,2,0.4 M,0,187465,187507,225.4998,248.5071,225.9996,231.0143 M,0,187507,187548,225.9996,231.0143,225.4998,248.5071 M,0,187548,187590,225.4998,248.5071,225,266 M,0,187590,187632,225,266,225.4998,248.5071 M,0,187632,187674,225.4998,248.5071,225.9996,231.0143
Sprite,Background,Centre,"sb\spotlight.png",0,0 C,0,187758,,196,94,234 M,0,187758,187799,310,242,310.4998,224.5071 F,2,187758,188588,1,0 S,2,187758,188588,2,0.4 M,0,187799,187841,310.4998,224.5071,310.9996,207.0143 M,0,187841,187882,310.9996,207.0143,310.4998,224.5071 M,0,187882,187924,310.4998,224.5071,310,242 M,0,187924,187966,310,242,310.4998,224.5071 M,0,187966,188008,310.4998,224.5071,310.9996,207.0143
Sprite,Background,Centre,"sb\spotlight.png",0,0 C,0,188091,,196,94,234 M,0,188091,188132,395,266,395.4998,248.5071 F,2,188091,188921,1,0 S,2,188091,188921,2,0.4 M,0,188132,188174,395.4998,248.5071,395.9996,231.0143 M,0,188174,188215,395.9996,231.0143,395.4998,248.5071 M,0,188215,188257,395.4998,248.5071,395,266 M,0,188257,188299,395,266,395.4998,248.5071 M,0,188299,188341,395.4998,248.5071,395.9996,231.0143
Sprite,Background,Centre,"sb\spotlight.png",480,242 C,0,188424,,115,63,237 F,2,188424,189004,1,0 S,2,188424,189004,2,0.4
Sprite,Background,Centre,"sb\spotlight.png",311,207 C,0,188591,,115,63,237 F,2,188591,189171,1,0 S,2,188591,189171,2,0.4
Sprite,Background,Centre,"sb\ring.png",480,242 C,0,188424,,115,63,237 F,2,188424,188924,1,0 S,2,188424,188924,0.7,0.14
Sprite,Background,Centre,"sb\ring.png",311,207 C,0,188591,,115,63,237 F,2,188591,189091,1,0 S,2,188591,189091,0.7,0.14
Sprite,Background,Centre,"sb\spotlight.png",0,0 C,0,196424,,115,63,237 M,0,196424,196465,442,207,442.507,224.4927 F,2,196424,197190,1,0 S,2,196424,197190,2,0.4 M,0,196465,196507,442.507,224.4927,443.0141,241.9853 M,0,196507,196548,443.0141,241.9853,443.5211,259.478 M,0,196548,196590,443.5211,259.478,444,276
Sprite,Background,Centre,"sb\spotlight.png",0,0 C,0,196758,,115,63,237 M,0,196758,196799,382,66,399.4835,65.23985 F,2,196758,197524,1,0 S,2,196758,197524,2,0.4 M,0,196799,196841,399.4835,65.23985,416.967,64.4797 M,0,196841,196882,416.967,64.4797,434.4504,63.71954 M,0,196882,196924,434.4504,63.71954,451,63
Sprite,Background,Centre,"sb\spotlight.png",0,0 C,0,197091,,115,63,237 M,0,197091,197132,241,126,240.2507,108.5161 F,2,197091,197857,1,0 S,2,197091,197857,2,0.4 M,0,197132,197174,240.2507,108.5161,239.5014,91.0321 M,0,197174,197215,239.5014,91.0321,238.7521,73.54815 M,0,197215,197257,238.7521,73.54815,238.0027,56.06419
Sprite,Background,Centre,"sb\spotlight.png",0,0 C,0,197424,,115,63,237 M,0,197424,197465,301,267,283.5071,267.4998 F,2,197424,198190,1,0 S,2,197424,198190,2,0.4 M,0,197465,197507,283.5071,267.4998,266.0143,267.9996 M,0,197507,197548,266.0143,267.9996,248.5214,268.4994 M,0,197548,197590,248.5214,268.4994,231.0285,268.9992
Sprite,Background,Centre,"sb\spotlight.png",0,0 C,0,87091,,115,63,237 M,0,87091,87132,423,264,437.9464,262.7333 F,2,87091,87757,1,0 S,2,87091,87757,2,0.4 M,0,87132,87174,437.9464,262.7333,452.8929,261.4667 M,0,87174,87216,452.8929,261.4667,467.8393,260.2001 M,0,87216,87257,467.8393,260.2001,482,259
Sprite,Background,Centre,"sb\spotlight.png",0,0 C,0,87424,,115,63,237 M,0,87424,87465,342,288,333.5653,275.5961 F,2,87424,88090,1,0 S,2,87424,88090,2,0.4 M,0,87465,87507,333.5653,275.5961,325.1307,263.1922 M,0,87507,87549,325.1307,263.1922,316.696,250.7883 M,0,87549,87590,316.696,250.7883,308.2614,238.3844
Sprite,Background,Centre,"sb\spotlight.png",0,0 C,0,87758,,115,63,237 M,0,87758,87799,403,346,396.1911,359.3656 F,2,87758,88424,1,0 S,2,87758,88424,2,0.4 M,0,87799,87841,396.1911,359.3656,389.3822,372.7312 M,0,87841,87883,389.3822,372.7312,382.5733,386.0968 M,0,87883,87924,382.5733,386.0968,376,399
Sprite,Background,Centre,"sb\spotlight.png",308,238 C,0,88091,,115,63,237 F,2,88091,88591,1,0 S,2,88091,88591,2,0.4
Sprite,Background,Centre,"sb\spotlight.png",208,300 C,0,88258,,115,63,237 F,2,88258,88758,1,0 S,2,88258,88758,2,0.4
//Storyboard Layer 1 (Fail)
//Storyboard Layer 2 (Pass)
//Storyboard Layer 3 (Foreground)
//Storyboard Layer 4 (Overlay)
//Storyboard Sound Samples

[TimingPoints]
425,333.333333333333,4,2,1,30,1,0
1758,-166.666666666667,4,2,1,30,0,0
7590,-166.666666666667,4,2,1,5,0,0
7758,-166.666666666667,4,2,1,30,0,0
12924,-166.666666666667,4,2,1,5,0,0
13091,-166.666666666667,4,2,1,30,0,0
22924,-128.205128205128,4,2,1,30,0,0
31758,-128.205128205128,4,2,1,50,0,0
32424,-71.4285714285714,4,2,1,50,0,0
35091,-90.9090909090909,4,2,1,50,0,0
56258,-90.9090909090909,4,2,1,65,0,0
56424,-62.5,4,2,1,65,0,0
61758,-62.5,4,2,1,70,0,0
62008,-62.5,4,2,1,5,0,0
62092,-62.5,4,2,1,70,0,0
64675,-62.5,4,2,1,5,0,0
64758,-62.5,4,2,1,70,0,0
67342,-62.5,4,2,1,5,0,0
67425,-62.5,4,2,1,70,0,0
68591,-62.5,4,2,1,5,0,0
68675,-62.5,4,2,1,5,0,0
68758,-62.5,4,2,1,70,0,0
69842,-62.5,4,2,1,5,0,0
69925,-62.5,4,2,1,70,0,0
72675,-62.5,4,2,1,5,0,0
72758,-62.5,4,2,1,70,0,0
75342,-62.5,4,2,1,5,0,0
75425,-62.5,4,2,1,70,0,0
76508,-62.5,4,2,1,5,0,0
76592,-62.5,4,2,1,70,0,0
77758,-71.4285714285714,4,2,1,60,0,0
80424,-71.4285714285714,4,2,1,70,0,0
83091,-83.3333333333333,4,2,1,70,0,0
87342,-83.3333333333333,4,2,1,5,0,0
87425,-83.3333333333333,4,2,1,70,0,0
87675,-83.3333333333333,4,2,1,5,0,0
87758,-83.3333333333333,4,2,1,70,0,0
88008,-83.3333333333333,4,2,1,5,0,0
88092,-83.3333333333333,4,2,1,70,0,0
93758,-83.3333333333333,4,2,1,50,0,0
100424,-90.9090909090909,4,2,1,50,0,0
109758,-90.9090909090909,4,2,1,70,0,0
109924,-90.9090909090909,4,2,1,5,0,0
110008,-90.9090909090909,4,2,1,5,0,0
110092,-90.9090909090909,4,2,1,70,0,0
110257,-90.9090909090909,4,2,1,5,0,0
110342,-90.9090909090909,4,2,1,5,0,0
110425,-90.9090909090909,4,2,1,70,0,0
110591,-90.9090909090909,4,2,1,5,0,0
110675,-90.9090909090909,4,2,1,5,0,0
110758,-90.9090909090909,4,2,1,70,0,0
110924,-90.9090909090909,4,2,1,5,0,0
111008,-90.9090909090909,4,2,1,5,0,0
111091,-90.9090909090909,4,2,1,50,0,0
112424,-90.9090909090909,4,2,1,60,0,0
113758,-90.9090909090909,4,2,1,65,0,0
115091,-62.5,4,2,1,70,0,0
115342,-62.5,4,2,1,5,0,0
115425,-62.5,4,2,1,70,0,0
118008,-62.5,4,2,1,5,0,0
118092,-62.5,4,2,1,70,0,0
120675,-62.5,4,2,1,5,0,0
120758,-62.5,4,2,1,70,0,0
121924,-62.5,4,2,1,5,0,0
122008,-62.5,4,2,1,5,0,0
122092,-62.5,4,2,1,70,0,0
123175,-62.5,4,2,1,5,0,0
123258,-62.5,4,2,1,70,0,0
126008,-62.5,4,2,1,5,0,0
126092,-62.5,4,2,1,70,0,0
128675,-62.5,4,2,1,5,0,0
128758,-62.5,4,2,1,70,0,0
129842,-62.5,4,2,1,5,0,0
129925,-62.5,4,2,1,70,0,0
131091,-71.4285714285714,4,2,1,60,0,0
132924,-71.4285714285714,4,2,1,5,0,0
133091,-71.4285714285714,4,2,1,60,0,0
135591,-71.4285714285714,4,2,1,40,0,0
140424,-71.4285714285714,4,2,1,50,0,0
141091,-83.3333333333333,4,2,1,60,0,0
141758,-71.4285714285714,4,2,1,60,0,0
145924,-71.4285714285714,4,2,1,5,0,0
146091,-71.4285714285714,4,2,1,60,0,0
147091,-83.3333333333333,4,2,1,60,0,0
150425,-83.3333333333333,4,2,1,60,0,0
151091,-71.4285714285714,4,2,1,60,0,0
156758,-71.4285714285714,4,2,1,60,0,0
166591,-100,4,2,1,60,0,0
167925,-100,4,2,1,40,0,0
168424,-100,4,2,1,40,0,0
170924,-71.4285714285714,4,2,1,70,0,0
171175,-71.4285714285714,4,2,1,5,0,0
171258,-71.4285714285714,4,2,1,70,0,0
173758,-62.5,4,2,1,70,0,0
173924,-62.5,4,2,1,5,0,0
174008,-62.5,4,2,1,5,0,0
174092,-62.5,4,2,1,70,0,0
177842,-62.5,4,2,1,5,0,0
177925,-62.5,4,2,1,70,0,0
179091,-83.3333333333333,4,2,1,70,0,0
181758,-71.4285714285714,4,2,1,70,0,0
189925,-71.4285714285714,4,2,1,30,0,0
192425,-71.4285714285714,4,2,1,70,0,0
196590,-71.4285714285714,4,2,1,5,0,0
196675,-71.4285714285714,4,2,1,5,0,0
196758,-71.4285714285714,4,2,1,70,0,0
196924,-71.4285714285714,4,2,1,5,0,0
197008,-71.4285714285714,4,2,1,5,0,0
197092,-71.4285714285714,4,2,1,70,0,0
197257,-71.4285714285714,4,2,1,5,0,0
197342,-71.4285714285714,4,2,1,5,0,0
197425,-71.4285714285714,4,2,1,70,0,0
198590,-71.4285714285714,4,2,1,5,0,0
198758,-71.4285714285714,4,2,1,70,0,0
203091,-83.3333333333333,4,2,1,50,0,0
205591,-83.3333333333333,4,2,1,70,0,0
205842,-83.3333333333333,4,2,1,5,0,0
205925,-83.3333333333333,4,2,1,70,0,0
208590,-83.3333333333333,4,2,1,5,0,0
208675,-83.3333333333333,4,2,1,5,0,0
208758,-83.3333333333333,4,2,1,70,0,0
208924,-83.3333333333333,4,2,1,5,0,0
209008,-83.3333333333333,4,2,1,5,0,0
209092,-83.3333333333333,4,2,1,70,0,0
209257,-83.3333333333333,4,2,1,5,0,0
209342,-83.3333333333333,4,2,1,5,0,0
209425,-83.3333333333333,4,2,1,70,0,0
209590,-83.3333333333333,4,2,1,5,0,0
209675,-83.3333333333333,4,2,1,5,0,0
209758,-83.3333333333333,4,2,1,70,0,0
211257,-83.3333333333333,4,2,1,5,0,0
211424,-83.3333333333333,4,2,1,70,0,0
213758,-71.4285714285714,4,2,1,70,0,0
214008,-71.4285714285714,4,2,1,5,0,0
214092,-71.4285714285714,4,2,1,70,0,0
215257,-71.4285714285714,4,2,1,5,0,0
215424,-71.4285714285714,4,2,1,70,0,0
225424,-83.3333333333333,4,2,1,70,0,0
230424,-100,4,2,1,40,0,0
231425,315.78947368421,4,2,1,40,1,0
231740,365.853658536585,4,2,1,40,1,0
232105,320.855614973262,4,2,1,40,1,0
232425,348.837209302325,4,2,1,40,1,0
233471,394.736842105263,4,2,1,40,1,0
233865,361.44578313253,4,2,1,40,1,0
234226,379.746835443037,4,2,1,40,1,0
234605,397.350993377483,4,2,1,40,1,0
235201,517.241379310344,4,2,1,40,1,0
235459,465.116279069768,4,2,1,40,1,0
236156,517.241379310345,4,2,1,40,1,0
238483,-100,4,2,1,5,0,0

[Colours]
Combo1 : 111,129,255
Combo2 : 233,164,255
Combo3 : 196,94,234
Combo4 : 115,63,237

[HitObjects]
110,185,1758,6,0,P|154:185|192:162,1,89.9999999999997,2|0,0:0|0:0,0:0:0:0:
197,152,2424,2,0,P|186:179|185:209,1,59.9999999999998,2|0,0:0|0:0,0:0:0:0:
271,268,3091,2,0,P|296:231|298:187,1,89.9999999999997,2|0,0:0|0:0,0:0:0:0:
297,175,3758,2,0,L|356:181,1,59.9999999999998,2|0,0:0|0:0,0:0:0:0:
447,90,4424,6,0,L|327:76,1,120,2|2,0:0|0:0,0:0:0:0:
262,24,5424,1,2,0:0:0:0:
183,57,5758,2,0,P|181:86|186:116,1,59.9999999999998,2|0,0:0|0:0,0:0:0:0:
108,145,6424,2,0,P|120:172|140:194,1,59.9999999999998,2|2,0:0|0:0,0:0:0:0:
244,255,7091,6,0,P|287:248|321:275,1,89.9999999999997,2|0,0:0|0:0,0:0:0:0:
328,286,7758,2,0,P|325:256|322:226,1,59.9999999999998,2|0,0:0|0:0,0:0:0:0:
356,124,8424,2,0,P|400:129|445:135,1,89.9999999999997,2|0,0:0|0:0,0:0:0:0:
455,141,9091,2,0,P|426:143|397:151,1,59.9999999999998,2|0,0:0|0:0,0:0:0:0:
260,155,9758,6,0,P|282:117|279:73,1,89.9999999999997,2|0,0:0|0:0,0:0:0:0:
273,63,10424,2,0,L|213:71,1,59.9999999999998,2|0,0:0|0:0,0:0:0:0:
98,88,11091,2,0,P|107:60|131:43,1,59.9999999999998,2|0,0:0|0:0,0:0:0:0:
198,93,11758,2,0,P|188:120|164:137,1,59.9999999999998,2|2,0:0|0:0,0:0:0:0:
101,239,12424,6,0,P|139:217|183:223,1,89.9999999999997,2|0,0:0|0:0,0:0:0:0:
193,230,13091,2,0,P|188:259|188:289,1,59.9999999999998,2|2,0:0|0:0,0:0:0:0:
289,342,13758,2,0,P|308:302|301:258,1,89.9999999999997,2|0,0:0|0:0,0:0:0:0:
296,248,14424,2,0,P|325:250|355:253,1,59.9999999999998,2|0,0:0|0:0,0:0:0:0:
461,143,15091,6,0,P|401:135|341:131,1,120,2|2,0:0|0:0,0:0:0:0:
270,176,16091,1,2,0:0:0:0:
206,121,16424,2,0,P|208:91|210:61,1,59.9999999999998,2|0,0:0|0:0,0:0:0:0:
126,58,17091,2,0,P|123:87|121:117,1,59.9999999999998,2|0,0:0|0:0,0:0:0:0:
69,184,17758,6,0,P|109:205|125:246,1,89.9999999999997,2|0,0:0|0:0,0:0:0:0:
120,257,18424,2,0,P|149:263|179:262,1,59.9999999999998,2|0,0:0|0:0,0:0:0:0:
278,199,19091,2,0,P|274:243|271:288,1,89.9999999999997,2|0,0:0|0:0,0:0:0:0:
276,300,19758,2,0,P|305:304|335:299,1,59.9999999999998,2|0,0:0|0:0,0:0:0:0:
435,171,20424,6,0,P|400:143|356:145,1,89.9999999999997,2|0,0:0|0:0,0:0:0:0:
345,150,21091,1,2,0:0:0:0:
277,100,21424,1,2,0:0:0:0:
211,153,21758,2,0,L|151:148,1,59.9999999999998,2|0,0:0|0:0,0:0:0:0:
123,227,22424,2,0,L|182:231,1,59.9999999999998,2|0,0:0|0:0,0:0:0:0:
218,231,22924,6,0,L|216:218,3,13,8|8|8|10,0:0|0:0|0:0|0:0,0:0:0:0:
302,296,23591,2,0,L|300:308,3,13,8|8|8|10,0:0|0:0|0:0|0:0,0:0:0:0:
410,166,24758,2,0,L|408:178,5,13,10|8|8|8|8|8,0:0|0:0|0:0|0:0|0:0|0:0,0:0:0:0:
406,188,25091,2,0,L|444:186,1,39,10|8,0:0|0:0,0:0:0:0:
327,118,25591,6,0,L|325:106,3,13,8|8|8|10,0:0|0:0|0:0|0:0,0:0:0:0:
264,199,26258,2,0,L|262:211,3,13,8|8|8|10,0:0|0:0|0:0|0:0,0:0:0:0:
210,125,26924,2,0,L|208:113,3,13,8|8|8|10,0:0|0:0|0:0|0:0,0:0:0:0:
106,293,28341,2,0,L|109:273,1,19.5000006546021,2|2,0:0|0:0,0:0:0:0:
110,274,29758,5,2,1:2:0:0:
110,274,31091,1,6,1:2:0:0:
251,336,31758,1,0,1:2:0:0:
424,279,32424,6,0,P|461:222|443:156,1,140,4|0,1:2|1:0,0:0:0:0:
443,156,33091,2,0,P|477:163|511:166,1,70,0|0,1:2|0:0,0:0:0:0:
338,124,33424,2,0,P|345:158|348:192,1,70,2|0,1:2|0:0,0:0:0:0:
348,192,33674,1,2,0:0:0:0:
348,192,33758,6,0,B|309:189|277:210|292:219|259:240|221:238,1,140,2|0,1:2|1:0,0:0:0:0:
66,190,34258,1,0,1:2:0:0:
87,162,34424,1,2,1:2:0:0:
120,153,34591,1,0,1:0:0:0:
152,166,34758,1,10,0:0:0:0:
80,298,35091,6,0,P|75:243|65:189,1,110,6|2,1:2|0:0,0:0:0:0:
56,112,35591,1,2,1:2:0:0:
56,112,35758,2,0,P|46:166|40:220,1,110,8|2,0:0|0:0,0:0:0:0:
211,334,36424,1,0,1:0:0:0:
269,284,36591,2,0,P|323:295|374:316,1,110,8|2,0:0|1:2,0:0:0:0:
451,323,37091,2,0,P|424:328|397:334,1,54.9999999999999,8|0,0:0|1:0,0:0:0:0:
454,168,37758,5,2,1:2:0:0:
392,122,37924,2,0,P|337:113|284:100,1,110,0|2,1:0|1:2,0:0:0:0:
226,152,38424,2,0,P|232:178|236:205,1,54.9999999999999,8|0,0:0|1:0,0:0:0:0:
174,367,39091,1,0,1:0:0:0:
134,301,39258,2,0,P|142:246|155:193,1,110,10|0,0:0|1:0,0:0:0:0:
95,143,39758,1,10,0:0:0:0:
145,84,39924,2,0,P|199:75|254:70,1,110,0|10,1:0|0:0,0:0:0:0:
381,54,40424,6,0,P|350:100|350:154,1,110,6|2,1:2|0:0,0:0:0:0:
367,229,40924,1,2,1:2:0:0:
367,229,41091,2,0,P|366:174|336:129,1,110,8|2,0:0|0:0,0:0:0:0:
347,314,41758,1,0,1:0:0:0:
289,263,41924,2,0,P|241:236|187:239,1,110,8|2,0:0|1:2,0:0:0:0:
116,267,42424,2,0,P|143:266|168:256,1,54.9999999999999,8|0,0:0|1:0,0:0:0:0:
161,62,43091,5,0,1:0:0:0:
98,15,43258,2,0,P|68:59|77:112,1,110,0|2,1:0|0:0,0:0:0:0:
133,166,43758,2,0,L|187:161,1,54.9999999999999,4|2,1:2|1:2,0:0:0:0:
440,24,44424,2,0,P|434:50|431:78,1,54.9999999999999,4|0,1:2|0:0,0:0:0:0:
351,163,44758,2,0,P|356:136|359:108,1,54.9999999999999,8|0,0:0|1:0,0:0:0:0:
315,46,45091,1,0,1:0:0:0:
238,54,45258,1,0,1:0:0:0:
161,62,45424,1,8,0:0:0:0:
31,261,45758,5,4,1:2:0:0:
37,262,46091,1,0,1:0:0:0:
44,263,46424,1,0,1:2:0:0:
50,263,46758,2,0,L|104:261,1,54.9999999999999,2|8,1:2|0:0,0:0:0:0:
182,362,47091,5,0,1:0:0:0:
181,355,47424,1,0,1:0:0:0:
180,348,47758,2,0,L|125:346,1,54.9999999999999,0|0,1:0|1:0,0:0:0:0:
179,341,48091,2,0,L|124:339,1,54.9999999999999,2|0,1:2|0:0,0:0:0:0:
249,220,48424,6,0,P|299:241|336:281,1,110,6|2,1:2|1:2,0:0:0:0:
428,359,48924,1,0,1:0:0:0:
425,362,49008,1,8,0:0:0:0:
423,365,49091,2,0,P|416:310|431:258,1,110,4|2,1:2|1:2,0:0:0:0:
453,141,49591,1,2,1:2:0:0:
457,141,49674,1,8,0:0:0:0:
461,141,49758,2,0,P|416:173|363:186,1,110,4|2,1:2|1:2,0:0:0:0:
211,48,50424,5,8,0:0:0:0:
222,38,50536,2,0,L|220:74,1,36.6666666666666,8|8,0:0|0:0,0:0:0:0:
127,149,50758,1,8,0:0:0:0:
138,159,50869,2,0,L|136:122,1,36.6666666666666,8|8,0:0|0:0,0:0:0:0:
82,41,51091,5,8,0:0:0:0:
99,63,56258,5,2,1:2:0:0:
99,63,56341,1,0,1:0:0:0:
99,63,56424,6,0,P|89:101|97:139,1,79.9999999999999,8|0,0:0|1:0,0:0:0:0:
205,173,56758,1,0,1:0:0:0:
57,210,56924,6,0,P|95:220|133:212,1,79.9999999999999,8|0,0:0|1:0,0:0:0:0:
168,102,57258,1,0,1:0:0:0:
204,251,57424,6,0,P|214:213|206:175,1,79.9999999999999,8|0,0:0|1:0,0:0:0:0:
97,140,57758,1,0,1:0:0:0:
246,104,57924,6,0,P|208:94|170:102,1,79.9999999999999,8|0,0:0|1:0,0:0:0:0:
134,211,58258,1,0,1:0:0:0:
99,63,58424,6,0,P|89:101|97:139,1,79.9999999999999,8|0,0:0|1:0,0:0:0:0:
204,250,58758,2,0,P|214:211|205:172,1,79.9999999999999,10|2,0:0|1:2,0:0:0:0:
135,293,59091,6,0,L|294:280,1,160,2|0,1:2|1:0,0:0:0:0:
367,247,59591,1,2,1:2:0:0:
358,325,59758,1,2,1:2:0:0:
303,202,59924,1,0,1:0:0:0:
288,357,60091,1,0,1:0:0:0:
423,296,60258,1,2,1:2:0:0:
294,280,60424,6,0,L|254:276,3,40,2|0|0|0,1:2|1:0|1:0|1:0,0:0:0:0:
174,296,60758,2,0,L|134:292,3,40,0|0|2|0,1:0|1:0|1:2|1:0,0:0:0:0:
54,312,61091,1,2,1:2:0:0:
53,292,61174,1,0,1:0:0:0:
52,272,61258,1,0,1:0:0:0:
52,252,61341,1,0,1:0:0:0:
51,232,61424,1,8,0:0:0:0:
50,212,61508,1,0,1:0:0:0:
50,192,61591,1,0,1:0:0:0:
49,172,61674,1,0,1:0:0:0:
49,151,61758,6,0,P|97:92|173:101,1,160,6|10,1:2|0:0,0:0:0:0:
243,206,62258,1,2,0:0:0:0:
243,206,62341,1,8,0:0:0:0:
243,206,62424,2,0,L|249:127,1,79.9999999999999,2|2,1:2|0:0,0:0:0:0:
175,250,62758,1,10,0:2:0:0:
247,288,62924,6,0,L|406:277,1,160,2|0,1:2|1:0,0:0:0:0:
469,226,63424,1,10,0:0:0:0:
393,197,63591,2,0,L|353:199,2,40,2|8|0,0:0|0:0|1:0,0:0:0:0:
482,305,63924,2,0,L|476:384,1,79.9999999999999,2|10,1:2|0:0,0:0:0:0:
475,220,64258,1,2,1:2:0:0:
472,223,64341,1,0,1:0:0:0:
469,226,64424,6,0,L|480:67,1,160,6|10,1:2|0:0,0:0:0:0:
427,4,64924,1,2,0:0:0:0:
323,77,65091,2,0,P|362:88|400:81,1,79.9999999999999,2|2,1:2|1:2,0:0:0:0:
480,66,65424,1,10,0:2:0:0:
356,231,65591,6,0,P|304:173|228:185,1,160,2|0,1:2|1:0,0:0:0:0:
196,258,66091,1,10,0:0:0:0:
277,249,66258,2,0,L|275:288,2,40,2|0|0,1:2|0:0|1:0,0:0:0:0:
226,104,66591,2,0,L|229:184,1,79.9999999999999,2|8,1:2|0:0,0:0:0:0:
132,305,66924,1,2,0:0:0:0:
132,305,67008,1,2,0:0:0:0:
132,305,67091,6,0,L|126:145,1,160,6|12,1:2|0:0,0:0:0:0:
64,94,67591,1,2,0:0:0:0:
67,91,67674,1,0,0:0:0:0:
69,88,67758,2,0,P|102:66|142:66,1,79.9999999999999,2|0,1:2|1:2,0:0:0:0:
202,118,68091,1,10,0:0:0:0:
361,138,68258,6,0,P|329:68|254:55,1,160,2|0,1:2|0:0,0:0:0:0:
126,145,68758,1,12,0:2:0:0:
283,171,68924,2,0,L|281:132,2,40,0|0|2,0:0|1:0|1:2,0:0:0:0:
225,312,69258,2,0,L|229:232,1,79.9999999999999,0|10,1:2|0:0,0:0:0:0:
390,254,69591,6,0,P|358:183|282:171,1,160,6|2,1:2|1:2,0:0:0:0:
154,257,70091,1,10,0:2:0:0:
99,140,70258,1,2,1:2:0:0:
124,331,70424,1,2,1:2:0:0:
168,178,70591,1,2,1:2:0:0:
75,267,70758,1,8,0:2:0:0:
229,232,70924,1,2,1:2:0:0:
41,195,71091,5,8,0:2:0:0:
306,208,71258,1,8,0:2:0:0:
41,195,71758,5,8,0:0:0:0:
306,208,71924,1,8,0:0:0:0:
124,331,72091,5,8,0:0:0:0:
124,321,72174,1,8,0:0:0:0:
124,311,72258,1,8,0:0:0:0:
124,301,72341,1,8,0:0:0:0:
125,292,72424,6,0,L|284:301,1,160,4|10,2:2|0:0,0:0:0:0:
420,288,72924,1,2,0:0:0:0:
420,288,73008,1,8,0:0:0:0:
420,288,73091,2,0,P|389:262|351:256,1,79.9999999999999,2|2,1:2|1:2,0:0:0:0:
357,335,73424,1,10,0:0:0:0:
281,217,73591,6,0,L|290:57,1,160,2|0,1:2|1:0,0:0:0:0:
222,15,74091,1,10,0:0:0:0:
149,52,74258,2,0,L|109:49,2,40,2|8|0,0:0|0:0|1:0,0:0:0:0:
290,57,74591,2,0,L|369:52,1,79.9999999999999,2|10,1:2|0:0,0:0:0:0:
180,131,74924,1,2,1:2:0:0:
183,128,75008,1,0,1:2:0:0:
186,125,75091,6,0,L|176:284,1,160,4|10,1:2|0:0,0:0:0:0:
224,348,75591,1,2,0:0:0:0:
334,280,75758,2,0,L|254:275,1,79.9999999999999,2|2,1:2|1:2,0:0:0:0:
175,284,76091,1,10,0:0:0:0:
378,344,76258,6,0,P|411:276|371:210,1,160,6|0,1:2|1:0,0:0:0:0:
254,274,76758,1,10,0:0:0:0:
378,344,76924,1,2,1:2:0:0:
381,347,77008,1,0,1:0:0:0:
384,350,77091,2,0,L|423:347,1,40,0|0,1:0|0:0,0:0:0:0:
370,209,77258,2,0,L|331:206,1,40,2|0,1:2|1:0,0:0:0:0:
254,274,77424,1,0,1:0:0:0:
254,274,77758,6,0,L|243:134,1,140,4|0,1:2|0:0,0:0:0:0:
215,55,78258,1,0,1:0:0:0:
160,118,78424,2,0,L|170:257,1,140,2|2,1:2|1:2,0:0:0:0:
199,337,78924,1,2,0:0:0:0:
254,274,79091,5,2,1:2:0:0:
170,257,79258,2,0,L|30:267,1,140,2|2,1:2|1:2,0:0:0:0:
36,182,79758,2,0,L|105:176,1,70,2|0,1:2|1:0,0:0:0:0:
199,337,80091,2,0,L|129:342,1,70,8|0,0:0|1:2,0:0:0:0:
239,207,80424,6,0,P|254:239|253:274,1,70,6|0,1:2|1:0,0:0:0:0:
170,257,80758,1,0,1:0:0:0:
274,130,80924,6,0,P|294:101|325:84,1,70,8|0,0:0|1:0,0:0:0:0:
351,164,81258,1,0,1:0:0:0:
189,137,81424,6,0,P|153:133|123:115,1,70,10|2,0:0|1:2,0:0:0:0:
274,130,81758,5,10,0:2:0:0:
199,337,81924,1,8,0:0:0:0:
274,130,82924,5,0,1:0:0:0:
274,130,83008,1,8,0:0:0:0:
274,130,83091,6,0,L|393:134,1,120,2|0,1:2|1:0,0:0:0:0:
456,78,83591,1,2,0:0:0:0:
456,78,83758,2,0,P|478:132|458:187,1,120,2|0,1:2|1:0,0:0:0:0:
398,246,84258,1,2,1:2:0:0:
398,246,84341,1,8,0:0:0:0:
398,246,84424,6,0,L|279:242,1,120,0|0,1:2|1:0,0:0:0:0:
208,193,84924,2,0,P|195:219|194:249,1,60,2|2,0:0|1:2,0:0:0:0:
111,263,85258,2,0,P|120:291|140:313,1,60,0|0,1:0|1:0,0:0:0:0:
207,192,85758,6,0,L|203:73,1,120,4|0,1:2|1:0,0:0:0:0:
265,15,86258,1,2,1:2:0:0:
327,70,86424,2,0,L|325:99,3,30,2|0|0|0,1:2|1:2|1:2|1:2,0:0:0:0:
343,139,86758,2,0,L|341:168,3,30,8|0|2|0,0:2|1:2|1:2|1:2,0:0:0:0:
359,208,87091,6,0,L|418:203,1,59.9999981689453,6|0,1:2|0:0,0:0:0:0:
278,232,87424,2,0,L|244:182,1,59.9999981689453,6|0,1:2|0:0,0:0:0:0:
339,290,87758,2,0,L|312:343,1,59.9999981689453,6|0,1:2|0:0,0:0:0:0:
244,182,88091,1,6,1:2:0:0:
144,244,88258,1,0,1:0:0:0:
144,244,88341,1,8,0:0:0:0:
144,244,88424,6,0,L|148:125,1,120,6|8,1:2|0:0,0:0:0:0:
126,41,88924,1,2,1:2:0:0:
126,41,89008,1,8,0:0:0:0:
126,41,89091,2,0,P|155:38|184:47,1,60,0|0,1:2|1:0,0:0:0:0:
289,121,89424,2,0,P|260:124|231:115,1,60,8|2,0:0|1:2,0:0:0:0:
349,59,89758,6,0,P|366:82|372:112,1,60,2|0,1:2|1:0,0:0:0:0:
337,188,90091,1,8,0:0:0:0:
444,251,90258,1,2,1:2:0:0:
444,251,90341,1,8,0:0:0:0:
444,251,90424,2,0,L|385:256,1,60,2|0,1:2|1:0,0:0:0:0:
337,188,90758,1,8,0:0:0:0:
228,320,90924,1,2,1:2:0:0:
228,320,91008,1,8,0:0:0:0:
228,320,91091,6,0,L|348:331,1,120,6|8,1:2|0:0,0:0:0:0:
384,256,91591,1,2,0:0:0:0:
415,381,91758,2,0,P|428:355|431:325,1,60,2|0,1:2|0:0,0:0:0:0:
390,159,92091,2,0,P|376:185|373:215,1,60,8|0,0:0|1:0,0:0:0:0:
384,256,92341,1,8,0:0:0:0:
384,256,92424,6,0,L|354:253,3,30,2|0|0|0,1:2|0:0|1:2|1:2,0:0:0:0:
312,248,92758,2,0,L|282:245,3,30,2|0|0|0,1:2|1:2|1:2|1:2,0:0:0:0:
240,240,93091,2,0,L|210:237,3,30,2|0|0|0,1:2|1:2|1:2|1:2,0:0:0:0:
168,232,93424,2,0,L|138:229,3,30,2|0|0|0,1:2|1:0|1:2|1:0,0:0:0:0:
100,217,93758,5,4,1:2:0:0:
100,223,94091,1,0,1:0:0:0:
100,230,94424,1,0,1:2:0:0:
101,237,94758,1,0,1:0:0:0:
185,341,94924,1,4,0:2:0:0:
261,240,95091,5,0,1:0:0:0:
254,240,95424,1,0,1:0:0:0:
247,240,95758,1,0,1:0:0:0:
240,240,96091,1,0,1:0:0:0:
112,132,96424,5,4,1:2:0:0:
119,132,96758,1,0,1:0:0:0:
126,132,97091,1,0,1:0:0:0:
133,132,97424,1,0,1:0:0:0:
247,55,97591,1,4,0:0:0:0:
310,159,97758,5,0,1:2:0:0:
310,166,98091,1,0,1:0:0:0:
310,173,98424,1,0,1:0:0:0:
383,67,98758,1,4,1:2:0:0:
456,189,99091,5,4,1:2:0:0:
449,189,99424,1,0,1:0:0:0:
442,189,99758,1,0,1:0:0:0:
435,189,100091,1,0,1:0:0:0:
341,263,100258,1,4,0:2:0:0:
244,221,100424,6,0,P|201:254|187:306,1,110,0|0,1:0|1:0,0:0:0:0:
266,353,100924,1,0,1:0:0:0:
266,353,101008,1,0,1:0:0:0:
266,353,101091,2,0,L|268:298,1,54.9999999999999,0|0,1:0|1:0,0:0:0:0:
328,241,101424,2,0,L|330:186,1,54.9999999999999,0|0,1:0|1:0,0:0:0:0:
287,97,101758,5,4,1:2:0:0:
280,97,102091,1,0,1:0:0:0:
273,98,102424,1,0,1:0:0:0:
266,98,102758,1,0,1:0:0:0:
180,157,102924,5,4,1:2:0:0:
455,219,103424,1,2,0:0:0:0:
278,303,103758,1,0,1:2:0:0:
298,320,103841,1,0,1:2:0:0:
325,324,103924,1,0,1:2:0:0:
350,314,104008,1,8,0:0:0:0:
367,292,104091,2,0,L|363:237,1,54.9999999999999,0|0,1:2|1:0,0:2:0:0:
338,84,104424,6,0,P|304:125|303:180,1,110,4|8,1:2|0:0,0:0:0:0:
381,155,104924,2,0,L|408:153,2,27.5,0|0|0,1:0|1:0|1:0,0:0:0:0:
363,237,105258,2,0,L|417:233,1,54.9999999999999,2|10,1:2|0:0,0:0:0:0:
282,262,105591,6,0,L|172:254,1,110,2|0,1:2|1:0,0:0:0:0:
97,289,106091,1,8,0:0:0:0:
100,151,106258,1,0,1:0:0:0:
100,151,106341,1,0,1:0:0:0:
100,151,106424,2,0,L|104:206,1,54.9999999999999,2|2,1:2|1:2,0:0:0:0:
172,254,106758,1,10,1:2:0:0:
161,96,106924,6,0,P|113:69|60:78,1,110,6|2,1:2|1:2,0:0:0:0:
178,176,107424,2,0,L|232:172,1,54.9999999999999,10|2,0:0|1:2,0:0:0:0:
375,196,107758,1,2,1:2:0:0:
311,143,107924,1,2,1:2:0:0:
297,224,108091,1,10,0:0:0:0:
389,115,108258,6,0,P|407:63|391:12,1,110,6|0,1:2|1:0,0:0:0:0:
297,223,108758,2,0,P|292:251|297:278,1,54.9999999999999,8|0,0:0|1:0,0:0:0:0:
322,311,109008,1,0,1:0:0:0:
322,311,109091,2,0,L|376:307,2,54.9999999999999,2|0|0,1:2|1:0|1:0,0:0:0:0:
135,249,109758,6,0,P|131:277|133:304,1,55.0000016784668,4|0,1:2|0:0,0:0:0:0:
297,223,110091,2,0,P|324:226|351:224,1,55.0000016784668,4|0,1:2|0:0,0:0:0:0:
270,61,110425,2,0,P|273:33|271:6,1,55.0000016784668,4|0,1:2|0:0,0:0:0:0:
108,87,110758,2,0,P|80:83|53:85,1,55.0000016784668,4|0,1:2|0:0,0:0:0:0:
135,250,111091,6,0,L|244:258,1,110,4|2,1:2|0:0,0:0:0:0:
319,292,111591,2,0,L|346:289,2,27.5,0|0|2,1:0|1:0|1:2,0:0:0:0:
251,339,111924,1,0,1:0:0:0:
313,211,112091,1,10,0:2:0:0:
312,211,112424,6,0,P|336:162|326:109,1,110,0|0,1:0|1:0,0:0:0:0:
253,67,112924,1,0,1:0:0:0:
255,151,113091,1,0,1:0:0:0:
324,25,113258,1,2,1:2:0:0:
183,113,113424,1,2,1:2:0:0:
326,109,113591,1,2,1:2:0:0:
179,30,113758,5,2,1:2:0:0:
255,151,113924,1,2,1:2:0:0:
112,156,114091,2,0,L|84:153,3,27.5,2|0|2|0,1:2|1:2|1:2|1:0,0:0:0:0:
44,146,114424,2,0,L|27:168,3,27.5,2|0|2|0,1:2|1:0|1:2|1:0,0:0:0:0:
1,199,114758,2,0,L|12:224,3,27.5,2|0|0|0,1:2|1:0|1:0|1:0,0:0:0:0:
36,258,115091,6,0,B|77:244|119:258|105:271|147:285|189:271,1,160,4|10,1:2|0:0,0:0:0:0:
287,167,115591,1,2,0:0:0:0:
287,167,115674,1,8,0:0:0:0:
287,167,115758,2,0,P|247:162|208:151,1,79.9999999999999,2|2,1:2|1:2,0:0:0:0:
360,246,116091,1,10,0:0:0:0:
415,188,116258,6,0,P|459:250|434:322,1,160,2|0,1:2|1:0,0:0:0:0:
292,364,116758,1,10,0:0:0:0:
320,248,116924,2,0,L|359:245,2,40,2|8|0,0:0|0:0|1:0,0:0:0:0:
213,332,117258,2,0,L|217:252,1,79.9999999999999,2|8,0:0|0:0,0:0:0:0:
310,88,117591,1,2,1:2:0:0:
310,88,117674,1,0,1:0:0:0:
310,88,117758,6,0,L|319:247,1,160,6|10,1:2|0:0,0:0:0:0:
396,148,118258,1,2,0:0:0:0:
237,174,118424,2,0,P|197:166|157:161,1,79.9999999999999,2|2,1:2|1:2,0:0:0:0:
310,88,118758,1,10,0:0:0:0:
396,148,118924,6,0,P|425:219|390:288,1,160,2|0,1:2|1:0,0:0:0:0:
256,209,119424,1,10,0:0:0:0:
187,281,119591,2,0,L|147:278,2,40,2|8|0,0:0|0:0|1:2,0:0:0:0:
303,347,119924,1,2,1:2:0:0:
308,328,120008,1,0,1:2:0:0:
309,308,120091,1,2,1:2:0:0:
263,170,120258,1,2,1:2:0:0:
257,189,120341,1,0,1:2:0:0:
256,209,120424,6,0,P|250:129|208:62,1,160,4|12,1:2|0:2,0:0:0:0:
91,88,120924,2,0,L|51:84,2,40,2|0|2,0:0|0:0|1:2,0:0:0:0:
168,174,121258,2,0,L|88:181,1,79.9999999999999,0|10,1:0|0:0,0:0:0:0:
29,307,121591,6,0,B|69:281|69:281|179:303,1,160,2|0,1:2|0:0,0:0:0:0:
288,368,122091,1,12,0:2:0:0:
374,259,122258,2,0,L|375:298,2,40,2|0|2,0:0|1:0|1:2,0:0:0:0:
221,207,122591,2,0,P|260:210|299:203,1,79.9999999999999,0|10,1:0|0:0,0:0:0:0:
477,332,122924,6,0,P|449:261|373:258,1,160,4|2,1:2|1:2,0:0:0:0:
275,357,123424,1,10,0:0:0:0:
299,203,123591,1,0,1:0:0:0:
376,345,123758,1,2,1:2:0:0:
359,143,123924,1,2,1:2:0:0:
217,297,124091,1,8,0:0:0:0:
217,145,124258,1,2,1:2:0:0:
373,258,124424,5,8,0:0:0:0:
147,240,124591,1,8,0:0:0:0:
373,258,125091,5,8,0:0:0:0:
147,240,125258,1,8,0:0:0:0:
215,125,125424,5,8,0:0:0:0:
216,135,125508,1,8,0:0:0:0:
217,145,125591,1,8,0:0:0:0:
218,155,125674,1,8,0:0:0:0:
220,165,125758,6,0,P|270:107|346:120,1,160,4|10,1:2|0:0,0:0:0:0:
452,248,126258,1,2,0:0:0:0:
452,248,126341,1,8,0:0:0:0:
452,248,126424,2,0,P|412:255|372:257,1,79.9999999999999,2|2,1:2|1:2,0:0:0:0:
305,213,126758,1,10,0:0:0:0:
138,277,126924,6,0,B|181:274|218:298|201:307|238:331|284:329,1,160,2|0,1:2|1:2,0:0:0:0:
372,257,127424,1,10,0:0:0:0:
466,352,127591,2,0,L|468:312,2,40,2|8|0,0:0|0:0|1:0,0:0:0:0:
512,210,127924,2,0,P|513:170|506:130,1,79.9999999999999,2|10,1:2|0:0,0:0:0:0:
305,213,128258,1,2,1:2:0:0:
305,213,128341,1,0,1:2:0:0:
305,212,128424,6,0,P|352:152|424:173,1,160,4|10,1:2|0:0,0:0:0:0:
471,1,128924,1,0,0:0:0:0:
496,92,129091,2,0,P|456:84|417:76,1,79.9999999999999,2|2,1:2|1:2,0:0:0:0:
314,19,129424,1,10,0:0:0:0:
221,101,129591,6,0,P|229:180|238:260,1,160,6|0,1:2|1:0,0:0:0:0:
330,127,130091,1,2,1:2:0:0:
379,249,130258,1,2,1:2:0:0:
379,249,130341,1,0,1:2:0:0:
379,249,130424,2,0,L|339:242,1,40,0|0,1:2|1:2,0:0:0:0:
193,299,130591,2,0,L|233:292,1,40,2|0,1:2|1:2,0:0:0:0:
315,345,130758,1,8,0:2:0:0:
315,345,131091,6,0,P|380:360|432:317,1,140,4|2,1:0|0:0,0:0:0:0:
371,178,131591,2,0,P|375:213|378:248,1,70,0|10,0:0|0:0,0:0:0:0:
505,281,131924,2,0,P|497:211|491:141,1,140,2|2,1:2|0:0,0:0:0:0:
430,25,132424,5,0,1:2:0:0:
383,94,132591,2,0,P|314:102|258:64,1,140,0|0,1:2|0:0,0:0:0:0:
188,17,133091,2,0,P|179:50|178:85,1,70,10|0,0:0|0:0,0:0:0:0:
218,257,133424,2,0,P|226:223|227:188,1,70,8|0,0:2|1:0,0:0:0:0:
59,202,133758,6,0,P|93:205|128:208,1,70,6|0,1:2|1:0,0:0:0:0:
218,257,134091,1,0,1:0:0:0:
383,94,134258,6,0,P|349:97|314:100,1,70,8|0,0:0|1:0,0:0:0:0:
177,85,134591,1,0,1:0:0:0:
338,258,134758,6,0,P|341:224|344:189,1,70,10|2,0:0|1:2,0:0:0:0:
442,20,135091,5,14,1:2:0:0:
238,166,135258,1,12,0:0:0:0:
238,166,135591,5,0,1:0:0:0:
145,66,135758,2,0,L|147:19,2,46.6666666666666,8|8|8,0:0|0:0|0:0,0:0:0:0:
69,114,136091,2,0,L|66:67,2,46.6666666666666,0|0|0,1:0|1:0|1:0,0:0:0:0:
156,178,136424,5,4,1:2:0:0:
238,166,137758,1,6,1:2:0:0:
228,274,138424,1,6,1:2:0:0:
218,382,139091,5,6,1:2:0:0:
300,370,140424,1,4,1:2:0:0:
366,288,141091,6,0,L|366:258,3,30,10|10|10|10,0:0|0:0|0:0|0:0,0:0:0:0:
362,247,141424,2,0,L|362:217,3,30,10|10|10|2,0:0|0:0|0:0|0:0,0:0:0:0:
358,205,141758,6,0,P|313:256|246:248,1,140,6|8,1:2|0:0,0:0:0:0:
120,207,142258,1,2,0:2:0:0:
120,207,142341,1,10,0:2:0:0:
120,207,142424,2,0,P|152:194|185:181,1,70,2|0,1:2|1:0,0:0:0:0:
191,319,142758,2,0,P|158:331|125:344,1,70,8|0,0:0|1:0,0:0:0:0:
113,350,143008,1,0,1:0:0:0:
101,356,143091,6,0,P|41:324|36:257,1,140,6|10,1:2|0:0,0:0:0:0:
107,140,143591,1,0,0:0:0:0:
107,140,143674,1,8,0:0:0:0:
107,140,143758,2,0,P|120:171|119:206,1,70,2|0,1:2|1:0,0:0:0:0:
234,315,144091,2,0,P|232:280|245:248,1,70,10|0,0:0|1:0,0:0:0:0:
255,238,144341,1,0,1:0:0:0:
266,228,144424,6,0,L|370:235,2,105,2|2|10,1:2|1:2|0:2,0:2:0:0:
203,171,145091,2,0,B|200:133|221:102|241:119|261:88|259:51,1,140,2|2,1:2|1:2,0:2:0:0:
344,9,145591,1,2,1:2:0:0:
351,24,145674,1,2,1:2:0:0:
352,41,145758,6,0,P|386:39|421:34,1,70,2|0,1:2|0:0,0:0:0:0:
507,178,146091,2,0,P|461:127|394:130,1,140,8|2,0:0|1:2,0:0:0:0:
316,198,146591,1,0,1:0:0:0:
316,198,146674,1,2,1:2:0:0:
316,198,146758,2,0,L|317:232,3,35,0|0|2|0,1:2|0:0|1:2|1:2,0:0:0:0:
313,244,147091,6,0,P|371:256|430:266,1,120,4|0,1:2|0:0,0:0:0:0:
509,237,147591,1,0,1:0:0:0:
509,237,147674,1,0,1:0:0:0:
509,237,147758,1,4,1:2:0:0:
293,347,148424,5,2,1:2:0:0:
222,300,148591,2,0,B|189:298|163:315|178:332|151:350|119:348,1,120,8|2,0:0|1:2,0:0:0:0:
43,310,149091,2,0,P|46:280|51:250,1,60,8|0,0:0|1:0,0:0:0:0:
113,38,149591,6,0,P|116:67|121:97,1,60,8|2,0:0|1:2,0:0:0:0:
131,180,149924,2,0,P|189:173|228:129,1,120,0|0,1:0|1:0,0:0:0:0:
231,118,150341,1,0,1:0:0:0:
234,107,150424,2,0,P|263:112|293:117,1,60,6|0,1:2|0:0,0:0:0:0:
389,29,150758,2,0,P|383:58|378:88,1,60,2|0,1:2|1:0,0:0:0:0:
378,100,151008,1,0,0:0:0:0:
378,112,151091,6,0,P|412:119|446:125,1,70,6|0,1:2|1:2,0:0:0:0:
348,232,151424,2,0,P|313:224|279:218,1,70,8|2,0:0|1:2,0:0:0:0:
435,287,151758,2,0,P|441:252|448:218,1,70,10|0,0:2|1:0,0:0:0:0:
288,92,152091,1,10,0:0:0:0:
289,100,152174,1,2,0:0:0:0:
291,109,152258,1,2,1:2:0:0:
293,117,152341,1,10,0:0:0:0:
294,126,152424,6,0,P|242:82|175:92,1,140,6|8,1:2|0:0,0:0:0:0:
71,179,152924,1,2,1:2:0:0:
71,179,153008,1,0,1:0:0:0:
71,179,153091,2,0,P|63:109|54:40,1,140,2|8,1:2|0:0,0:0:0:0:
153,219,153591,1,2,0:0:0:0:
87,291,153758,6,0,P|153:310|212:348,1,140,2|8,1:2|0:0,0:0:0:0:
310,254,154258,1,2,1:2:0:0:
415,310,154424,2,0,L|412:344,3,35,2|0|0|0,1:2|0:0|0:0|0:0,0:0:0:0:
403,356,154758,2,0,P|437:350|472:345,1,70,10|2,0:0|0:0,0:0:0:0:
310,254,155091,6,0,P|321:184|331:115,1,140,6|8,1:2|0:0,0:0:0:0:
444,33,155591,1,2,1:2:0:0:
444,33,155674,1,2,0:0:0:0:
444,33,155758,2,0,P|456:99|412:150,1,140,2|8,1:2|0:0,0:0:0:0:
271,54,156258,6,0,L|267:19,2,35,2|0|2,1:2|1:2|1:2,0:0:0:0:
221,143,156591,1,0,1:0:0:0:
221,143,156674,1,0,1:0:0:0:
221,143,156758,2,0,P|267:95|331:115,1,140,14|2,0:2|1:2,0:0:0:0:
416,243,157258,1,0,0:0:0:0:
303,210,157424,2,0,P|306:244|311:279,1,70,10|0,0:0|1:0,0:0:0:0:
318,292,157674,1,0,1:0:0:0:
325,305,157758,5,4,1:2:0:0:
252,369,157924,2,0,P|182:358|113:348,1,140,0|0,0:0|1:0,0:0:0:0:
22,245,158424,2,0,P|91:234|160:224,1,140,8|0,0:0|1:0,0:0:0:0:
235,169,158924,6,0,P|249:101|222:37,2,140,2|0|0,1:2|1:2|1:0,0:0:0:0:
247,178,159674,1,0,1:0:0:0:
258,187,159758,2,0,P|309:175|360:164,2,105,6|6|0,1:2|1:2|0:0,0:0:0:0:
181,339,160424,6,0,P|138:287|159:223,1,140,4|0,1:2|1:0,0:0:0:0:
239,113,160924,1,0,1:0:0:0:
272,218,161091,2,0,P|264:252|260:286,1,70,0|0,1:0|1:0,0:0:0:0:
147,154,161424,2,0,P|151:188|158:222,1,70,8|0,0:0|1:0,0:0:0:0:
285,313,161758,6,0,L|319:305,3,35,2|0|2|0,1:2|1:2|1:2|1:2,0:0:0:0:
407,250,162091,2,0,L|372:242,3,35,2|0|2|0,1:2|1:2|1:2|1:2,0:0:0:0:
259,203,162424,2,0,L|293:195,3,35,2|0|2|0,1:2|1:2|1:2|1:2,0:0:0:0:
419,140,162758,2,0,L|384:132,3,35,10|8|10|8,1:2|0:0|1:2|0:0,0:0:0:0:
291,86,163091,5,2,1:2:0:0:
172,71,164424,5,0,0:0:0:0:
291,86,165091,1,0,0:0:0:0:
218,181,165758,1,0,0:0:0:0:
376,276,166591,6,0,L|425:273,2,50
320,333,167091,5,0,0:0:0:0:
201,318,167758,1,0,0:0:0:0:
82,303,168424,5,4,1:2:0:0:
82,303,168758,1,0,1:0:0:0:
82,303,169091,1,0,1:0:0:0:
82,303,169424,1,0,1:0:0:0:
201,318,169758,5,0,1:0:0:0:
201,318,170091,1,0,1:0:0:0:
201,318,170424,2,0,L|197:268,1,50,0|0,1:0|1:0,0:0:0:0:
191,187,170758,1,0,1:0:0:0:
340,286,170924,6,0,P|407:293|462:251,1,140,6|2,1:2|1:2,0:0:0:0:
427,128,171424,1,2,1:2:0:0:
304,163,171591,1,2,1:2:0:0:
340,286,171758,1,10,0:0:0:0:
463,251,171924,1,10,0:0:0:0:
427,128,172091,2,0,L|431:58,1,70,8|2,0:0|1:2,0:0:0:0:
506,172,172424,5,8,0:0:0:0:
191,187,172591,1,8,0:0:0:0:
506,172,173091,5,8,0:0:0:0:
191,187,173258,1,8,0:0:0:0:
293,282,173424,5,8,0:0:0:0:
293,273,173508,1,8,0:0:0:0:
294,264,173591,1,8,0:0:0:0:
295,255,173674,1,8,0:0:0:0:
293,245,173758,6,0,P|288:205|284:165,1,79.9999999999999,4|0,1:2|0:0,0:0:0:0:
140,104,174091,5,10,0:0:0:0:
284,165,174258,1,2,1:2:0:0:
202,30,174424,1,10,0:0:0:0:
191,187,174591,1,2,1:2:0:0:
291,68,174758,1,8,0:0:0:0:
140,104,174924,1,2,1:2:0:0:
284,165,175091,6,0,L|363:159,1,79.9999999999999,8|0,0:2|1:0,0:0:0:0:
140,104,175424,2,0,L|60:98,1,79.9999999999999,10|2,0:2|1:2,0:0:0:0:
291,68,175758,1,8,0:0:0:0:
191,187,175924,1,2,1:2:0:0:
202,30,176091,1,10,0:0:0:0:
284,165,176258,1,2,1:2:0:0:
140,104,176424,6,0,L|60:98,1,79.9999999999999,8|0,0:0|0:0,0:0:0:0:
191,187,176758,5,10,0:2:0:0:
202,30,176924,1,2,1:2:0:0:
45,19,177091,1,10,0:2:0:0:
34,176,177258,1,10,0:2:0:0:
34,176,177341,1,8,0:2:0:0:
34,176,177424,2,0,L|36:215,1,40,10|8,0:0|0:0,0:0:0:0:
148,263,177591,6,0,L|140:104,1,160,6|0,1:2|1:0,0:0:0:0:
202,30,178091,1,10,0:0:0:0:
284,165,178258,2,0,L|282:204,2,40,2|0|0,1:2|1:0|1:0,0:0:0:0:
139,103,178591,2,0,L|100:101,2,40,2|8|0,1:2|0:0|1:0,0:0:0:0:
291,68,178924,1,2,1:2:0:0:
291,68,179091,6,0,P|336:104|394:99,1,120,4|0,1:2|0:0,0:0:0:0:
460,46,179591,1,0,1:0:0:0:
472,128,179758,2,0,L|470:247,1,120,8|2,0:0|0:0,0:0:0:0:
297,364,180424,5,0,1:2:0:0:
297,364,180591,2,0,P|273:310|290:253,1,120,0|2,1:0|1:2,0:0:0:0:
352,196,181091,2,0,P|375:249|358:306,1,120,10|0,0:0|1:0,0:0:0:0:
224,199,181591,1,2,1:2:0:0:
224,199,181674,1,8,0:0:0:0:
224,199,181758,6,0,L|228:130,1,70,2|0,1:2|1:0,0:0:0:0:
290,253,182091,2,0,L|150:246,1,140,8|0,0:0|1:0,0:0:0:0:
228,130,182591,2,0,L|224:199,1,70,0|8,1:0|0:0,0:0:0:0:
85,300,182924,6,0,P|66:235|101:177,1,140,0|0,1:2|1:2,0:0:0:0:
228,130,183424,2,0,L|297:133,1,70,8|0,0:0|1:2,0:0:0:0:
125,43,183758,2,0,L|78:40,3,46.6666666666666,2|2|2|8,1:2|0:0|0:0|0:0,0:0:0:0:
228,130,184258,1,2,1:2:0:0:
228,130,184341,1,0,1:0:0:0:
228,130,184424,6,0,L|221:269,1,140,6|0,1:2|1:2,0:0:0:0:
377,340,184924,1,0,1:1:0:0:
334,229,185091,1,2,1:2:0:0:
222,270,185258,1,0,1:2:0:0:
266,383,185424,1,0,1:2:0:0:
377,340,185591,1,2,1:2:0:0:
334,229,185758,6,0,L|264:232,1,70,6|0,1:2|1:0,0:0:0:0:
65,271,186091,2,0,L|30:269,3,35,0|0|0|0,1:0|1:0|1:0|0:0,0:0:0:0:
143,240,186424,2,0,L|161:210,3,35,2|0|0|2,1:2|1:2|1:2|1:2,0:0:0:0:
130,323,186758,2,0,L|146:354,3,35,0|0|2|0,1:2|1:2|1:2|1:2,0:0:0:0:
76,186,187091,6,0,L|77:151,3,35,6|0|0|0,1:2|1:2|1:0|1:0,1:2:0:0:
161,210,187424,2,0,L|162:175,3,35,0|0|0|0,1:0|1:0|1:0|1:0,0:0:0:0:
246,186,187758,2,0,L|247:151,3,35,8|8|8|8,0:0|0:0|0:0|0:0,0:0:0:0:
331,210,188091,2,0,L|332:175,3,35,8|8|8|8,0:0|0:0|0:0|0:0,0:0:0:0:
416,186,188424,5,12,0:0:0:0:
247,151,188591,1,8,0:0:0:0:
256,192,189758,12,2,191758,0:0:0:0:
239,59,192424,6,0,L|234:198,1,140,2|8,1:2|0:0,0:0:0:0:
302,347,192924,1,2,0:0:0:0:
302,347,193091,2,0,P|334:287|311:223,1,140,2|8,1:2|0:2,0:0:0:0:
110,275,193591,1,2,0:0:0:0:
110,275,193674,1,0,0:0:0:0:
110,275,193758,6,0,L|250:280,1,140,2|8,1:2|0:0,0:0:0:0:
381,221,194258,1,2,1:2:0:0:
381,221,194341,1,8,0:0:0:0:
381,221,194424,2,0,L|311:223,1,70,2|0,1:2|0:0,0:0:0:0:
239,59,194758,2,0,L|236:128,1,70,10|0,0:0|0:0,0:0:0:0:
110,275,195091,6,0,P|83:212|111:150,1,140,2|8,1:2|0:0,0:0:0:0:
237,211,195591,1,2,0:0:0:0:
237,211,195758,2,0,L|167:213,1,70,0|0,1:0|0:0,0:0:0:0:
372,104,196091,2,0,L|370:138,3,35,10|8|8|8,0:0|0:0|0:0|0:0,0:0:0:0:
378,151,196424,6,0,L|380:220,1,70,6|0,1:2|0:0,0:0:0:0:
318,10,196758,2,0,L|387:7,1,70,6|0,1:2|0:0,0:0:0:0:
177,70,197091,2,0,L|174:0,1,70,6|0,1:2|0:0,0:0:0:0:
237,211,197424,2,0,L|167:213,1,70,12|0,0:0|1:0,0:0:0:0:
153,215,197674,1,0,1:0:0:0:
138,218,197758,6,0,L|277:222,1,140,2|8,1:2|0:0,0:0:0:0:
336,340,198258,1,2,0:0:0:0:
336,340,198424,2,0,P|346:306|343:272,1,70,2|0,1:2|0:0,0:0:0:0:
361,122,198758,2,0,P|350:155|354:190,1,70,8|0,0:0|0:0,0:0:0:0:
482,275,199091,6,0,L|343:271,1,140,0|8,1:2|0:0,0:0:0:0:
207,224,199591,1,0,0:0:0:0:
207,224,199674,1,8,0:0:0:0:
207,224,199758,2,0,L|277:222,1,70,0|0,1:0|0:0,0:0:0:0:
423,191,200091,2,0,L|353:189,1,70,8|0,0:0|0:0,0:0:0:0:
148,163,200424,6,0,P|121:225|150:287,1,140,0|8,1:2|0:0,0:0:0:0:
277,222,200924,1,0,0:0:0:0:
277,222,201091,2,0,L|207:224,1,70,0|0,1:0|0:0,0:0:0:0:
67,270,201424,1,10,0:2:0:0:
178,369,201591,1,0,1:0:0:0:
178,369,201674,1,0,0:0:0:0:
178,369,201758,6,0,L|176:299,1,70,6|0,1:2|1:0,0:0:0:0:
271,124,202091,2,0,L|273:194,1,70,10|0,0:0|1:0,0:0:0:0:
275,208,202341,1,0,1:0:0:0:
277,222,202424,2,0,P|311:225|344:214,1,70,10|0,0:0|1:0,0:0:0:0:
148,163,202758,2,0,P|113:159|80:170,1,70,10|8,0:0|0:0,0:0:0:0:
69,178,203008,1,8,0:0:0:0:
58,187,203091,6,0,L|61:67,1,120,4|0,1:2|0:0,0:0:0:0:
117,4,203591,1,0,1:0:0:0:
143,84,203758,2,0,P|202:86|244:46,1,120,8|2,0:0|0:0,0:0:0:0:
401,147,204258,6,0,P|358:107|300:110,1,120,2|8,1:2|0:0,0:0:0:0:
242,171,204758,2,0,L|243:230,1,60,0|0,0:0|1:0,0:0:0:0:
246,315,205091,1,10,0:0:0:0:
246,315,205258,1,2,1:2:0:0:
51,277,205591,6,0,L|170:273,1,120,6|2,1:2|1:2,0:0:0:0:
246,315,206091,2,0,L|305:313,1,60,2|2,0:0|1:2,0:0:0:0:
303,229,206424,1,10,0:0:0:0:
303,229,206591,2,0,L|243:230,1,60,2|10,1:2|0:0,0:0:0:0:
376,267,206924,6,0,P|382:208|350:159,1,120,6|0,1:2|0:0,0:0:0:0:
235,101,207424,1,8,0:0:0:0:
243,230,207591,1,0,1:0:0:0:
243,230,207674,1,0,1:0:0:0:
243,230,207758,2,0,L|303:229,1,60,2|0,1:2|0:0,0:0:0:0:
350,159,208091,1,10,2:0:0:0:
169,273,208424,6,0,P|159:301|159:330,1,60,6|0,1:2|0:0,0:0:0:0:
208,138,208758,2,0,P|179:127|150:127,1,60,6|0,1:2|0:0,0:0:0:0:
344,177,209091,2,0,P|354:148|354:119,1,60,6|0,1:2|0:0,0:0:0:0:
305,313,209424,2,0,P|333:323|362:323,1,60,6|0,1:2|0:0,0:0:0:0:
169,273,209758,6,0,L|49:276,1,120,2|10,1:2|0:0,0:0:0:0:
248,245,210258,1,0,1:0:0:0:
248,245,210341,1,0,1:0:0:0:
247,244,210424,2,0,P|252:274|247:303,1,60,2|0,1:2|0:0,0:0:0:0:
184,190,210758,1,10,0:0:0:0:
313,191,210924,1,2,1:2:0:0:
313,191,211008,1,2,1:2:0:0:
313,191,211091,6,0,L|372:186,1,60,0|0,1:2|0:0,0:0:0:0:
185,61,211424,5,8,0:0:0:0:
184,190,211591,1,0,1:0:0:0:
313,191,211758,1,0,0:0:0:0:
314,62,211924,1,0,1:0:0:0:
185,61,212091,1,10,0:0:0:0:
184,190,212258,1,8,0:0:0:0:
184,190,212341,1,8,0:0:0:0:
184,190,212424,6,0,L|185:219,3,30,2|0|8|8,1:2|0:0|0:0|0:0,0:0:0:0:
186,91,212758,2,0,L|156:92,3,30,2|0|0|0,1:2|0:0|1:2|1:2,0:0:0:0:
285,93,213091,2,0,L|283:63,3,30,2|0|0|0,1:2|1:2|1:2|1:2,0:0:0:0:
283,192,213424,2,0,L|312:190,3,30,8|8|8|8,0:0|0:0|0:0|0:0,0:0:0:0:
273,202,213758,6,0,L|283:62,1,140,6|8,1:2|0:0,0:0:0:0:
195,235,214258,1,2,0:0:0:0:
195,235,214424,2,0,P|247:280|315:274,1,140,2|8,1:2|0:0,0:0:0:0:
373,150,214924,1,2,1:2:0:0:
373,150,215091,6,0,L|378:220,1,70,0|0,1:2|0:0,0:0:0:0:
282,62,215424,2,0,L|287:131,1,70,8|0,0:0|1:0,0:0:0:0:
280,144,215674,1,8,0:0:0:0:
273,156,215758,2,0,L|133:146,1,140,0|10,1:0|0:0,0:0:0:0:
60,108,216258,1,2,0:0:0:0:
16,268,216424,6,0,P|68:223|136:229,1,140,2|8,1:2|0:0,0:0:0:0:
99,370,216924,1,0,1:0:0:0:
99,370,217091,2,0,L|94:301,1,70,0|0,1:0|1:0,0:0:0:0:
219,230,217424,2,0,L|214:299,1,70,10|8,0:0|0:0,0:0:0:0:
221,312,217674,1,8,0:0:0:0:
228,325,217758,5,6,0:0:0:0:
135,228,217924,1,0,1:0:0:0:
135,228,218008,1,0,1:0:0:0:
135,228,218091,1,6,1:2:0:0:
273,156,218258,1,0,1:0:0:0:
273,156,218341,1,0,1:0:0:0:
273,156,218424,1,6,1:2:0:0:
411,228,218591,1,0,1:0:0:0:
411,228,218674,1,0,1:0:0:0:
411,228,218758,1,6,1:2:0:0:
316,373,218924,1,0,1:0:0:0:
316,373,219008,1,0,1:0:0:0:
316,373,219091,6,0,L|327:234,1,140,2|8,1:2|0:0,0:0:0:0:
408,125,219591,1,2,0:0:0:0:
408,125,219758,2,0,P|414:159|407:193,1,70,2|0,1:2|0:0,0:0:0:0:
249,268,220091,2,0,P|242:234|250:200,1,70,10|0,0:0|0:0,0:0:0:0:
335,82,220424,6,0,P|267:87|216:43,1,140,0|8,1:2|0:0,0:0:0:0:
83,92,220924,1,0,1:0:0:0:
83,92,221008,1,0,1:0:0:0:
83,92,221091,2,0,L|153:98,1,70,0|0,1:2|0:0,0:0:0:0:
319,194,221424,2,0,L|249:200,1,70,10|2,0:0|0:0,0:0:0:0:
155,319,221758,6,0,L|167:179,1,140,0|8,1:2|0:0,0:0:0:0:
68,77,222258,1,0,0:0:0:0:
68,77,222341,1,0,0:0:0:0:
68,77,222424,2,2,L|74:147,1,70,0|0,1:2|0:2,1:2:0:0:
243,269,222758,2,0,L|249:199,1,70,10|2,0:0|1:2,0:0:0:0:
244,186,223008,1,0,1:0:0:0:
239,173,223091,6,0,L|245:103,1,70,2|0,1:2|1:0,0:0:0:0:
380,223,223424,1,10,0:2:0:0:
310,270,223591,1,2,1:2:0:0:
310,270,223674,1,0,1:2:0:0:
310,270,223758,2,0,P|276:277|242:268,1,70,0|2,1:2|1:2,0:0:0:0:
73,146,224091,2,0,P|106:138|140:147,1,70,10|0,0:0|1:2,0:0:0:0:
133,253,224424,5,4,1:2:0:0:
121,254,224758,1,2,1:2:0:0:
110,256,225091,1,2,1:2:0:0:
99,257,225424,2,0,L|39:253,1,60,2|10,1:2|0:2,0:0:0:0:
139,158,225758,5,0,1:2:0:0:
140,147,226091,2,0,L|136:87,1,60,2|2,1:2|0:0,0:0:0:0:
239,173,226424,1,0,1:2:0:0:
240,184,226758,2,0,L|236:243,1,60,0|2,1:0|0:0,0:0:0:0:
199,337,227091,6,0,L|318:330,1,120,4|2,1:2|1:2,0:0:0:0:
445,252,227591,1,0,1:0:0:0:
445,252,227674,1,8,0:0:0:0:
445,252,227758,2,0,L|326:246,1,120,6|0,1:2|1:0,0:0:0:0:
236,124,228258,1,2,1:2:0:0:
236,124,228341,1,8,0:0:0:0:
236,124,228424,6,0,L|239:183,1,60,0|0,1:0|1:2,0:0:0:0:
149,256,228758,2,0,L|150:226,3,30,2|0|0|0,1:2|1:2|1:2|1:2,0:0:0:0:
144,216,229091,2,0,L|145:186,3,30,2|0|0|0,1:2|1:2|1:2|1:2,0:0:0:0:
139,176,229424,2,0,L|140:146,3,30,10|8|8|8,0:0|0:0|0:0|0:0,0:0:0:0:
134,136,229758,5,8,0:0:0:0:
318,197,230424,2,0,P|348:263|317:329,1,150,2|2,0:0|0:0,0:0:0:0:
91,289,231425,5,2,0:0:0:0:
177,279,231740,1,2,0:0:0:0:
263,269,232105,1,2,0:0:0:0:
91,289,232425,5,2,0:0:0:0:
329,353,233865,5,2,0:0:0:0:
266,115,235459,5,2,0:0:0:0:
256,192,235575,12,0,238483,0:0:0:0:
