osu file format v14

[General]
AudioFilename: audio.mp3
AudioLeadIn: 0
PreviewTime: 56589
Countdown: 0
SampleSet: Soft
StackLeniency: 0.7
Mode: 3
LetterboxInBreaks: 0
SpecialStyle: 0
WidescreenStoryboard: 1

[Editor]
DistanceSpacing: 1
BeatDivisor: 4
GridSize: 32
TimelineZoom: 1

[Metadata]
Title:Plastic Smile (TV Size)
TitleUnicode:Plastic Smile (TV Size)
Artist:Ishihara Kaori
ArtistUnicode:石原夏織
Creator:Savageeeee
Version:Normal
Source:ひげを剃る。そして女子高生を拾う。
Tags:FerdiXIA- ML-ysg Higehiro: After Being Rejected, I Shaved and Took in a High School Runaway Hige wo Soru Soshite Joshikousei wo Hirou japanese pop jpop j-pop anime ed ending theme 荻原沙優 ogiwara sayu 6th Single PCCG-01968 Yoshie Isogai 磯谷佳江 Keita Miyoshi 三好啓太 Junichi Sato fhana fhána 佐藤純一 female vocal
BeatmapID:3508897
BeatmapSetID:1717093

[Difficulty]
HPDrainRate:7.5
CircleSize:4
OverallDifficulty:7.5
ApproachRate:5
SliderMultiplier:1.4
SliderTickRate:1

[Events]
//Background and Video events
0,0,"bg1.jpg",0,0
Video,0,"bgv.mp4"
//Break Periods
//Storyboard Layer 0 (Background)
//Storyboard Layer 1 (Fail)
//Storyboard Layer 2 (Pass)
//Storyboard Layer 3 (Foreground)
//Storyboard Layer 4 (Overlay)
//Storyboard Sound Samples
Sample,7727,0,"Ride.wav",40
Sample,8445,0,"Ride.wav",40
Sample,8984,0,"Hat Open.wav",25
Sample,10601,0,"Ride.wav",40
Sample,13475,0,"Ride.wav",40
Sample,14194,0,"Ride.wav",40
Sample,14733,0,"Hat Open.wav",25
Sample,14912,0,"Ride.wav",40
Sample,41319,0,"Tom3.wav",50
Sample,54972,0,"Tom3.wav",50
Sample,55152,0,"Tom3.wav",50
Sample,55331,0,"Tom3.wav",50
Sample,55511,0,"Tom3.wav",50
Sample,56050,0,"Tom3.wav",50
Sample,56230,0,"Tom3.wav",50
Sample,78505,0,"Ride.wav",40
Sample,81020,0,"Ride.wav",40
Sample,81739,0,"Ride.wav",40
Sample,82457,0,"Ride.wav",40
Sample,83894,0,"Ride.wav",40
Sample,86768,0,"Ride.wav",40
Sample,87487,0,"Ride.wav",40
Sample,88206,0,"Ride.wav",40

[TimingPoints]
1260,359.281437125748,4,2,1,50,1,0
57307,-100.0,4,2,1,50,0,1
80122,-100.0,4,2,1,50,0,0

[HitObjects]
64,192,541,1,0,0:0:0:0:
192,192,721,1,0,0:0:0:0:
320,192,900,1,0,0:0:0:0:
448,192,1080,1,0,0:0:0:0:
64,192,1260,128,0,4134:0:0:0:0:
192,192,1260,1,0,0:0:0:0:
320,192,1798,1,0,0:0:0:0:
448,192,1978,1,0,0:0:0:0:
320,192,2517,1,0,0:0:0:0:
448,192,2697,1,0,0:0:0:0:
320,192,3056,1,0,0:0:0:0:
192,192,3415,1,0,0:0:0:0:
320,192,3774,1,0,0:0:0:0:
192,192,4134,1,0,0:0:0:0:
448,192,4134,1,0,0:0:0:0:
320,192,4313,1,0,0:0:0:0:
64,192,4493,1,0,0:0:0:0:
448,192,4673,128,0,5212:0:0:0:0:
64,192,5212,1,0,0:0:0:0:
192,192,5391,1,0,0:0:0:0:
448,192,5571,1,0,0:0:0:0:
192,192,5751,1,0,0:0:0:0:
192,192,5930,1,0,0:0:0:0:
192,192,6110,1,0,0:0:0:0:
320,192,6289,1,0,0:0:0:50:Tom1.wav
448,192,6289,1,0,0:0:0:0:
64,192,6469,1,8,0:0:0:0:
192,192,6469,1,0,0:0:0:0:
192,192,6649,1,0,0:0:0:50:Tom3.wav
320,192,6649,1,0,0:0:0:0:
64,192,6828,1,4,0:0:0:0:
448,192,6828,128,2,7188:0:0:0:0:
320,192,7188,1,2,0:0:0:0:
64,192,7367,1,8,0:0:0:0:
192,192,7367,1,0,0:0:0:40:Ride.wav
448,192,7547,1,2,0:0:0:0:
192,192,7727,1,2,0:0:0:0:
320,192,7906,1,2,0:0:0:0:
64,192,8086,1,8,0:0:0:0:
192,192,8086,1,0,0:0:0:40:Ride.wav
448,192,8265,1,2,0:0:0:0:
320,192,8445,1,2,0:0:0:0:
64,192,8625,1,2,0:0:0:0:
192,192,8804,1,8,0:0:0:0:
320,192,8804,1,0,0:0:0:40:Ride.wav
448,192,8984,1,2,0:0:0:0:
64,192,9164,1,2,0:0:0:0:
192,192,9343,1,8,0:0:0:0:
320,192,9343,1,0,0:0:0:0:
320,192,9523,1,8,0:0:0:0:
448,192,9523,1,0,0:0:0:50:Tom2.wav
64,192,9703,128,6,10062:0:0:0:0:
192,192,9703,1,0,0:0:0:50:Tom2.wav
192,192,10062,1,2,0:0:0:0:
320,192,10242,1,8,0:0:0:0:
448,192,10242,1,0,0:0:0:40:Ride.wav
64,192,10421,1,2,0:0:0:0:
320,192,10601,1,2,0:0:0:0:
192,192,10780,1,2,0:0:0:0:
320,192,10960,1,8,0:0:0:0:
448,192,10960,1,0,0:0:0:40:Ride.wav
64,192,11140,128,2,11499:0:0:0:0:
448,192,11499,1,2,0:0:0:0:
64,192,11679,1,8,0:0:0:0:
192,192,11679,1,0,0:0:0:40:Ride.wav
448,192,11858,128,2,12218:0:0:0:0:
64,192,12218,1,8,0:0:0:0:
320,192,12218,1,0,0:0:0:0:
192,192,12397,1,0,0:0:0:50:Tom2.wav
320,192,12397,1,0,0:0:0:0:
64,192,12577,128,6,12936:0:0:0:0:
448,192,12577,1,0,0:0:0:50:Tom2.wav
320,192,12936,1,2,0:0:0:0:
64,192,13116,1,8,0:0:0:0:
192,192,13116,1,0,0:0:0:40:Ride.wav
448,192,13295,1,2,0:0:0:0:
192,192,13475,1,2,0:0:0:0:
320,192,13655,1,2,0:0:0:0:
192,192,13834,1,8,0:0:0:0:
448,192,13834,1,0,0:0:0:40:Ride.wav
64,192,14014,1,2,0:0:0:0:
192,192,14194,1,2,0:0:0:0:
448,192,14373,1,2,0:0:0:0:
64,192,14553,1,8,0:0:0:0:
320,192,14553,1,0,0:0:0:40:Ride.wav
192,192,14733,1,2,0:0:0:0:
320,192,14912,1,2,0:0:0:0:
64,192,15092,1,8,0:0:0:0:
192,192,15092,1,0,0:0:0:0:
192,192,15271,1,8,0:0:0:0:
320,192,15271,1,0,0:0:0:0:
64,192,15451,128,4,15810:0:0:0:0:
448,192,15451,1,2,0:0:0:0:
192,192,15810,1,2,0:0:0:0:
320,192,15990,1,8,0:0:0:0:
448,192,15990,1,0,0:0:0:25:Hat Open.wav
64,192,16170,1,2,0:0:0:0:
320,192,16349,1,8,0:0:0:0:
448,192,16349,1,0,0:0:0:25:Hat Open.wav
192,192,16529,1,2,0:0:0:0:
320,192,16709,1,8,0:0:0:0:
64,192,16888,128,4,17248:0:0:0:0:
192,192,16888,1,2,0:0:0:0:
448,192,17248,1,2,0:0:0:0:
320,192,17427,1,8,0:0:0:0:
64,192,17607,1,2,0:0:0:0:
192,192,17607,128,4,17966:0:0:0:0:
448,192,17966,1,0,0:0:0:0:
320,192,18146,1,0,0:0:0:50:Tom3.wav
192,192,18325,1,0,0:0:0:0:
64,192,18505,1,4,0:0:0:0:
448,192,18505,128,2,19224:0:0:0:0:
320,192,19224,1,0,0:0:0:60:Clap.wav
64,192,19403,1,0,0:0:0:0:
320,192,19583,1,0,0:0:0:0:
192,192,19762,1,0,0:0:0:0:
320,192,19942,128,2,20661:0:0:0:30:soft-hitwhistle.wav
448,192,19942,1,0,0:0:0:0:
64,192,20661,1,0,0:0:0:60:Clap.wav
448,192,20840,1,0,0:0:0:0:
192,192,21020,1,0,0:0:0:0:
320,192,21200,1,0,0:0:0:0:
64,192,21379,1,2,0:0:0:30:soft-hitwhistle.wav
192,192,21379,128,0,22098:0:0:0:0:
320,192,22098,1,0,0:0:0:60:Clap.wav
64,192,22277,1,0,0:0:0:0:
448,192,22457,1,0,0:0:0:0:
320,192,22637,1,0,0:0:0:0:
64,192,22816,128,2,23535:0:0:0:30:soft-hitwhistle.wav
192,192,22816,1,0,0:0:0:0:
320,192,23535,1,0,0:0:0:60:Clap.wav
448,192,23535,128,0,24254:0:0:0:0:
64,192,24254,128,2,24972:0:0:0:30:soft-hitwhistle.wav
192,192,24254,1,0,0:0:0:0:
192,192,24972,128,0,25691:0:0:0:60:Clap.wav
448,192,24972,1,0,0:0:0:0:
64,192,25691,1,2,0:0:0:30:soft-hitwhistle.wav
448,192,25691,128,0,26409:0:0:0:0:
192,192,26409,1,0,0:0:0:60:Clap.wav
320,192,26409,128,0,27128:0:0:0:0:
64,192,27128,128,2,27846:0:0:0:30:soft-hitwhistle.wav
448,192,27128,1,0,0:0:0:0:
320,192,27846,1,0,0:0:0:60:Clap.wav
448,192,27846,1,0,0:0:0:0:
64,192,28565,1,2,0:0:0:30:soft-hitwhistle.wav
448,192,28565,128,0,29104:0:0:0:0:
320,192,29104,128,0,29283:0:0:0:0:
64,192,29283,1,0,0:0:0:60:Clap.wav
192,192,29283,1,0,0:0:0:0:
64,192,30002,128,2,31439:0:0:0:0:
448,192,30002,1,0,0:0:0:25:soft-hitfinish.wav
192,192,30361,1,0,0:0:0:25:Ride.wav
320,192,30721,1,0,0:0:0:60:Clap.wav
192,192,31080,1,0,0:0:0:25:Ride.wav
320,192,31439,1,2,0:0:0:0:
448,192,31439,128,0,32876:0:0:0:0:
192,192,31798,1,0,0:0:0:25:Ride.wav
64,192,32158,1,0,0:0:0:60:Clap.wav
320,192,32517,1,0,0:0:0:25:Ride.wav
64,192,32876,128,2,34313:0:0:0:0:
192,192,32876,1,0,0:0:0:0:
320,192,33236,1,0,0:0:0:25:Ride.wav
448,192,33595,1,0,0:0:0:60:Clap.wav
320,192,33954,1,0,0:0:0:25:Ride.wav
192,192,34313,1,2,0:0:0:0:
448,192,34313,128,0,35751:0:0:0:0:
320,192,34673,1,0,0:0:0:25:Ride.wav
64,192,35032,1,0,0:0:0:60:Clap.wav
320,192,35391,1,0,0:0:0:25:Ride.wav
64,192,35751,128,2,37188:0:0:0:0:
192,192,35751,1,4,0:0:0:25:soft-hitfinish.wav
320,192,36110,1,0,0:0:0:25:Ride.wav
448,192,36469,1,0,0:0:0:60:Clap.wav
192,192,36828,1,0,0:0:0:25:Ride.wav
320,192,37188,1,2,0:0:0:0:
448,192,37188,128,0,38625:0:0:0:0:
192,192,37547,1,0,0:0:0:25:Ride.wav
64,192,37906,1,0,0:0:0:60:Clap.wav
320,192,38086,1,0,0:0:0:0:
192,192,38265,1,0,0:0:0:25:Ride.wav
64,192,38625,128,2,40062:0:0:0:0:
320,192,38625,1,0,0:0:0:0:
320,192,39164,1,0,0:0:0:0:
192,192,39343,128,0,40062:0:0:0:60:Clap.wav
320,192,40062,1,2,0:0:0:0:
448,192,40062,1,0,0:0:0:60:Hat Close.wav
192,192,40242,1,0,0:0:0:50:Tom1.wav
320,192,40421,1,0,0:0:0:50:Tom3.wav
64,192,40601,1,4,0:0:0:0:
448,192,40601,128,2,40960:0:0:0:0:
192,192,40780,1,0,0:0:0:60:Clap.wav
320,192,40960,1,0,0:0:0:50:Tom1.wav
192,192,41140,1,0,0:0:0:50:Tom2.wav
320,192,41319,1,2,0:0:0:0:
64,192,41499,1,4,0:0:0:0:
448,192,41499,1,8,0:0:0:0:
192,192,41858,1,8,0:0:0:0:
320,192,41858,1,0,0:0:0:60:Hat Close.wav
64,192,42038,1,2,0:0:0:0:
320,192,42218,1,8,0:0:0:0:
448,192,42218,1,0,0:0:0:60:Hat Close.wav
64,192,42577,1,8,0:0:0:0:
448,192,42577,1,0,0:0:0:60:Hat Close.wav
192,192,42757,1,2,0:0:0:0:
64,192,42936,1,10,0:0:0:0:
320,192,42936,1,0,0:0:0:60:Hat Close.wav
192,192,43295,1,8,0:0:0:0:
320,192,43295,1,0,0:0:0:60:Hat Close.wav
320,192,43655,1,8,0:0:0:0:
448,192,43655,1,0,0:0:0:60:Hat Close.wav
64,192,44014,1,8,0:0:0:0:
192,192,44014,1,0,0:0:0:60:Hat Close.wav
64,192,44373,1,10,0:0:0:0:
448,192,44373,1,0,0:0:0:60:Hat Close.wav
320,192,44733,1,8,0:0:0:0:
448,192,44733,1,0,0:0:0:60:Hat Close.wav
64,192,45092,1,8,0:0:0:0:
192,192,45092,1,0,0:0:0:60:Hat Close.wav
192,192,45451,1,8,0:0:0:0:
320,192,45451,1,0,0:0:0:60:Hat Close.wav
64,192,45810,1,10,0:0:0:0:
448,192,45810,1,0,0:0:0:60:Hat Close.wav
64,192,46170,1,8,0:0:0:0:
448,192,46170,1,0,0:0:0:60:Hat Close.wav
320,192,46349,1,2,0:0:0:0:
64,192,46529,1,8,0:0:0:0:
192,192,46529,1,0,0:0:0:0:
448,192,46709,1,0,0:0:0:50:Tom1.wav
64,192,46888,1,8,0:0:0:0:
192,192,46888,1,0,0:0:0:0:
448,192,47068,1,0,0:0:0:50:Tom2.wav
64,192,47248,1,4,0:0:0:0:
320,192,47248,1,8,0:0:0:0:
192,192,47607,1,8,0:0:0:0:
448,192,47607,1,0,0:0:0:60:Hat Close.wav
320,192,47786,1,2,0:0:0:0:
64,192,47966,1,8,0:0:0:0:
192,192,47966,1,0,0:0:0:60:Hat Close.wav
320,192,48325,1,8,0:0:0:0:
448,192,48325,1,0,0:0:0:60:Hat Close.wav
192,192,48505,1,2,0:0:0:0:
64,192,48685,1,10,0:0:0:0:
320,192,48685,1,0,0:0:0:60:Hat Close.wav
64,192,49044,1,8,0:0:0:0:
192,192,49044,1,0,0:0:0:60:Hat Close.wav
64,192,49403,1,8,0:0:0:0:
448,192,49403,1,0,0:0:0:60:Hat Close.wav
192,192,49762,1,8,0:0:0:0:
448,192,49762,1,0,0:0:0:50:Tom2.wav
320,192,49942,1,0,0:0:0:0:
64,192,50122,1,4,0:0:0:0:
448,192,50122,128,2,51559:0:0:0:0:
320,192,50661,1,2,0:0:0:0:
64,192,50840,1,8,0:0:0:0:
192,192,50840,1,0,0:0:0:40:Ride.wav
320,192,51379,1,8,0:0:0:0:
64,192,51559,128,2,52996:0:0:0:0:
192,192,51559,1,0,0:0:0:40:Ride.wav
320,192,51739,1,8,0:0:0:0:
192,192,52098,1,2,0:0:0:0:
320,192,52277,1,8,0:0:0:0:
448,192,52277,1,0,0:0:0:40:Ride.wav
320,192,52816,1,8,0:0:0:0:
192,192,52996,1,2,0:0:0:0:
448,192,52996,128,4,54433:0:0:0:0:
320,192,53535,1,2,0:0:0:0:
64,192,53715,1,8,0:0:0:0:
192,192,53715,1,0,0:0:0:40:Ride.wav
320,192,54254,1,8,0:0:0:0:
64,192,54433,128,2,55152:0:0:0:0:
192,192,54433,1,4,0:0:0:0:
320,192,54792,1,2,0:0:0:0:
320,192,54972,1,8,0:0:0:0:
192,192,55152,1,10,0:0:0:0:
192,192,55331,1,8,0:0:0:0:
320,192,55511,1,8,0:0:0:0:
192,192,55691,1,2,0:0:0:0:
448,192,55691,128,4,56230:0:0:0:0:
64,192,56050,1,8,0:0:0:0:
64,192,56230,1,10,0:0:0:0:
192,192,56589,1,0,0:0:0:0:
320,192,56589,1,0,0:0:0:0:
64,192,57307,1,2,0:0:0:0:
448,192,57307,1,4,0:0:0:0:
192,192,57487,1,0,0:0:0:25:Hat Open.wav
320,192,57667,1,8,0:0:0:0:
448,192,57667,1,2,0:0:0:0:
64,192,57846,1,0,0:0:0:25:Hat Open.wav
192,192,58026,1,2,0:0:0:0:
448,192,58206,1,0,0:0:0:25:Hat Open.wav
64,192,58385,1,8,0:0:0:0:
320,192,58385,1,2,0:0:0:0:
192,192,58565,1,0,0:0:0:25:Hat Open.wav
320,192,58745,1,2,0:0:0:0:
448,192,58924,1,0,0:0:0:25:Hat Open.wav
64,192,59104,1,8,0:0:0:0:
192,192,59104,1,2,0:0:0:0:
448,192,59283,1,0,0:0:0:25:Hat Open.wav
320,192,59463,1,2,0:0:0:0:
64,192,59643,1,0,0:0:0:25:Hat Open.wav
320,192,59822,1,8,0:0:0:0:
448,192,59822,1,2,0:0:0:0:
192,192,60002,1,0,0:0:0:25:Hat Open.wav
320,192,60182,1,2,0:0:0:0:
192,192,60361,1,0,0:0:0:25:Hat Open.wav
64,192,60541,1,2,0:0:0:0:
448,192,60541,1,8,0:0:0:0:
320,192,60721,1,0,0:0:0:25:Hat Open.wav
192,192,60900,1,2,0:0:0:0:
320,192,61080,1,0,0:0:0:25:Hat Open.wav
64,192,61259,1,2,0:0:0:0:
448,192,61259,1,8,0:0:0:0:
192,192,61439,1,0,0:0:0:25:Hat Open.wav
448,192,61619,1,2,0:0:0:0:
64,192,61798,1,0,0:0:0:25:Hat Open.wav
192,192,61978,1,8,0:0:0:0:
448,192,61978,1,2,0:0:0:0:
320,192,62158,1,0,0:0:0:25:Hat Open.wav
192,192,62337,1,2,0:0:0:0:
448,192,62517,1,0,0:0:0:25:Hat Open.wav
64,192,62697,1,8,0:0:0:0:
320,192,62697,1,2,0:0:0:0:
192,192,62876,1,0,0:0:0:25:Hat Open.wav
320,192,63056,1,2,0:0:0:0:
448,192,63056,1,4,0:0:0:0:
64,192,63415,1,2,0:0:0:0:
192,192,63415,1,8,0:0:0:0:
320,192,63595,1,0,0:0:0:25:Hat Open.wav
64,192,63774,1,2,0:0:0:0:
192,192,63954,1,0,0:0:0:25:Hat Open.wav
320,192,64134,1,2,0:0:0:0:
448,192,64134,1,8,0:0:0:0:
64,192,64313,1,0,0:0:0:25:Hat Open.wav
192,192,64493,1,2,0:0:0:0:
448,192,64673,1,0,0:0:0:25:Hat Open.wav
64,192,64852,1,8,0:0:0:0:
320,192,64852,1,2,0:0:0:0:
192,192,65032,1,0,0:0:0:25:Hat Open.wav
320,192,65212,1,2,0:0:0:0:
64,192,65391,1,0,0:0:0:25:Hat Open.wav
192,192,65571,1,8,0:0:0:0:
448,192,65571,1,2,0:0:0:0:
320,192,65751,1,0,0:0:0:25:Hat Open.wav
64,192,65930,1,2,0:0:0:0:
320,192,66110,1,0,0:0:0:25:Hat Open.wav
64,192,66289,1,2,0:0:0:0:
448,192,66289,1,8,0:0:0:0:
192,192,66469,1,0,0:0:0:25:Hat Open.wav
320,192,66649,1,2,0:0:0:0:
192,192,66828,1,0,0:0:0:25:Hat Open.wav
64,192,67008,1,6,0:0:0:0:
448,192,67008,1,8,0:0:0:0:
64,192,67367,1,8,0:0:0:0:
192,192,67367,1,2,0:0:0:0:
320,192,67547,1,0,0:0:0:50:Tom1.wav
192,192,67637,1,0,0:0:0:50:Tom1.wav
320,192,67727,1,0,0:0:0:50:Tom3.wav
64,192,67906,1,4,0:0:0:0:
448,192,67906,1,2,0:0:0:0:
192,192,68265,128,2,68804:0:0:0:0:
320,192,68265,128,4,68804:0:0:0:0:
64,192,68804,1,4,0:0:0:0:
448,192,68804,1,2,0:0:0:0:
320,192,68984,1,0,0:0:0:25:Hat Open.wav
64,192,69164,1,8,0:0:0:0:
192,192,69164,1,2,0:0:0:0:
320,192,69343,1,0,0:0:0:25:Hat Open.wav
64,192,69523,1,2,0:0:0:0:
192,192,69703,1,0,0:0:0:25:Hat Open.wav
320,192,69882,1,8,0:0:0:0:
448,192,69882,1,2,0:0:0:0:
64,192,70062,1,0,0:0:0:25:Hat Open.wav
192,192,70242,1,2,0:0:0:0:
448,192,70421,1,0,0:0:0:25:Hat Open.wav
64,192,70601,1,2,0:0:0:0:
320,192,70601,1,8,0:0:0:0:
192,192,70780,1,0,0:0:0:25:Hat Open.wav
320,192,70960,1,2,0:0:0:0:
64,192,71140,1,0,0:0:0:25:Hat Open.wav
192,192,71319,1,2,0:0:0:0:
448,192,71319,1,8,0:0:0:0:
320,192,71499,1,0,0:0:0:25:Hat Open.wav
64,192,71679,1,2,0:0:0:0:
320,192,71858,1,0,0:0:0:25:Hat Open.wav
64,192,72038,1,8,0:0:0:0:
192,192,72038,1,2,0:0:0:0:
448,192,72218,1,0,0:0:0:25:Hat Open.wav
320,192,72397,1,2,0:0:0:0:
192,192,72577,1,0,0:0:0:25:Hat Open.wav
320,192,72757,1,8,0:0:0:0:
448,192,72757,1,2,0:0:0:0:
64,192,72936,1,0,0:0:0:25:Hat Open.wav
192,192,73116,1,2,0:0:0:0:
448,192,73116,1,8,0:0:0:0:
320,192,73295,1,0,0:0:0:50:Tom1.wav
192,192,73475,1,0,0:0:0:50:Tom3.wav
64,192,73655,1,2,0:0:0:0:
448,192,73655,1,0,0:0:0:30:soft-hitfinish.wav
320,192,74014,1,0,0:0:0:50:Tom1.wav
448,192,74014,1,0,0:0:0:0:
64,192,74194,1,2,0:0:0:0:
192,192,74194,1,0,0:0:0:50:Tom3.wav
320,192,74373,1,0,0:0:0:50:Tom2.wav
192,192,74463,1,0,0:0:0:50:Tom2.wav
64,192,74553,1,4,0:0:0:0:
448,192,74553,1,8,0:0:0:0:
192,192,74912,1,8,0:0:0:0:
448,192,74912,1,0,0:0:0:25:Hat Open.wav
64,192,75271,1,8,0:0:0:0:
448,192,75271,1,0,0:0:0:25:Hat Open.wav
192,192,75451,1,2,0:0:0:0:
320,192,75631,1,8,0:0:0:0:
448,192,75631,1,0,0:0:0:25:Hat Open.wav
192,192,75810,1,2,0:0:0:0:
64,192,75990,1,8,0:0:0:0:
320,192,75990,1,0,0:0:0:25:Hat Open.wav
64,192,76349,1,8,0:0:0:0:
448,192,76349,1,0,0:0:0:25:Hat Open.wav
320,192,76529,1,2,0:0:0:0:
64,192,76709,1,8,0:0:0:0:
192,192,76709,1,0,0:0:0:25:Hat Open.wav
320,192,76888,1,2,0:0:0:0:
64,192,77068,1,8,0:0:0:0:
448,192,77068,1,0,0:0:0:25:Hat Open.wav
192,192,77248,1,2,0:0:0:0:
320,192,77427,1,2,0:0:0:0:
448,192,77427,128,4,78864:0:0:0:0:
192,192,77786,1,0,0:0:0:40:Ride.wav
320,192,77966,1,2,0:0:0:0:
64,192,78146,1,8,0:0:0:0:
192,192,78146,1,0,0:0:0:40:Ride.wav
320,192,78505,1,2,0:0:0:0:
192,192,78685,1,0,0:0:0:50:Tom3.wav
64,192,78864,128,4,79583:0:0:0:0:
320,192,78864,1,2,0:0:0:0:
192,192,79224,1,0,0:0:0:0:
448,192,79583,1,0,0:0:0:0:
64,192,79762,1,8,0:0:0:0:
192,192,79762,1,0,0:0:0:0:
192,192,79942,1,8,0:0:0:0:
320,192,79942,1,0,0:0:0:50:Tom1.wav
64,192,80122,128,6,80481:0:0:0:0:
448,192,80122,1,0,0:0:0:50:Tom1.wav
192,192,80481,1,2,0:0:0:0:
320,192,80661,1,8,0:0:0:0:
448,192,80661,1,0,0:0:0:40:Ride.wav
64,192,80840,1,2,0:0:0:0:
320,192,81020,1,2,0:0:0:0:
192,192,81200,1,2,0:0:0:0:
320,192,81379,1,8,0:0:0:0:
448,192,81379,1,0,0:0:0:40:Ride.wav
64,192,81559,1,2,0:0:0:0:
192,192,81739,1,2,0:0:0:0:
448,192,81918,1,2,0:0:0:0:
192,192,82098,1,8,0:0:0:0:
320,192,82098,1,0,0:0:0:40:Ride.wav
64,192,82277,1,0,0:0:0:0:
448,192,82457,1,2,0:0:0:0:
192,192,82637,1,8,0:0:0:0:
320,192,82637,1,0,0:0:0:0:
64,192,82816,1,0,0:0:0:50:Tom2.wav
192,192,82816,1,0,0:0:0:0:
320,192,82996,1,6,0:0:0:0:
448,192,82996,128,0,83355:0:0:0:50:Tom2.wav
320,192,83355,1,2,0:0:0:0:
64,192,83535,1,8,0:0:0:0:
192,192,83535,1,0,0:0:0:40:Ride.wav
448,192,83715,1,2,0:0:0:0:
192,192,83894,1,2,0:0:0:0:
320,192,84074,1,2,0:0:0:0:
64,192,84254,1,8,0:0:0:0:
192,192,84254,1,0,0:0:0:40:Ride.wav
448,192,84433,128,2,84792:0:0:0:0:
64,192,84792,1,2,0:0:0:0:
320,192,84972,1,8,0:0:0:0:
448,192,84972,1,0,0:0:0:40:Ride.wav
64,192,85152,128,8,85511:0:0:0:0:
192,192,85511,1,8,0:0:0:0:
448,192,85511,1,0,0:0:0:0:
192,192,85691,1,8,0:0:0:0:
320,192,85691,1,0,0:0:0:50:Tom2.wav
64,192,85870,1,6,0:0:0:0:
448,192,85870,128,0,86230:0:0:0:50:Tom2.wav
192,192,86230,1,2,0:0:0:0:
320,192,86409,1,8,0:0:0:0:
448,192,86409,1,0,0:0:0:40:Ride.wav
64,192,86589,1,2,0:0:0:0:
320,192,86768,1,2,0:0:0:0:
192,192,86948,1,2,0:0:0:0:
64,192,87128,1,8,0:0:0:0:
320,192,87128,1,0,0:0:0:40:Ride.wav
448,192,87307,1,2,0:0:0:0:
320,192,87487,1,2,0:0:0:0:
64,192,87667,1,2,0:0:0:0:
192,192,87846,1,8,0:0:0:0:
448,192,87846,1,0,0:0:0:40:Ride.wav
320,192,88026,1,2,0:0:0:0:
192,192,88206,1,8,0:0:0:0:
320,192,88385,1,8,0:0:0:0:
448,192,88385,1,0,0:0:0:0:
192,192,88565,1,8,0:0:0:0:
320,192,88565,1,0,0:0:0:0:
64,192,88745,1,4,0:0:0:0:
448,192,88745,128,2,89104:0:0:0:0:
320,192,89104,1,2,0:0:0:0:
64,192,89283,1,8,0:0:0:0:
192,192,89283,1,0,0:0:0:25:Hat Open.wav
448,192,89463,1,2,0:0:0:0:
64,192,89643,1,8,0:0:0:0:
192,192,89643,1,0,0:0:0:25:Hat Open.wav
320,192,89822,1,2,0:0:0:0:
192,192,90002,1,8,0:0:0:0:
320,192,90182,1,2,0:0:0:0:
448,192,90182,128,4,90541:0:0:0:0:
64,192,90541,1,10,0:0:0:0:
192,192,90721,1,8,0:0:0:0:
320,192,90900,128,2,91259:0:0:0:0:
448,192,90900,1,4,0:0:0:0:
192,192,91259,1,8,0:0:0:0:
448,192,91439,1,8,0:0:0:0:
64,192,91619,128,4,94673:0:0:0:0:
192,192,91619,128,2,94673:0:0:0:0:
320,192,94673,1,0,0:0:0:0:
448,192,94762,1,0,0:0:0:0:
