osu file format v14

[General]
AudioFilename: audio.mp3
AudioLeadIn: 0
PreviewTime: 56589
Countdown: 0
SampleSet: Soft
StackLeniency: 0.7
Mode: 3
LetterboxInBreaks: 0
SpecialStyle: 0
WidescreenStoryboard: 1

[Editor]
DistanceSpacing: 1
BeatDivisor: 4
GridSize: 32
TimelineZoom: 1

[Metadata]
Title:Plastic Smile (TV Size)
TitleUnicode:Plastic Smile (TV Size)
Artist:Ishihara Kaori
ArtistUnicode:石原夏織
Creator:Savageeeee
Version:Ferdi's Insane
Source:ひげを剃る。そして女子高生を拾う。
Tags:FerdiXIA- ML-ysg Higehiro: After Being Rejected, I Shaved and Took in a High School Runaway Hige wo Soru Soshite Joshikousei wo Hirou japanese pop jpop j-pop anime ed ending theme 荻原沙優 ogiwara sayu 6th Single PCCG-01968 Yoshie Isogai 磯谷佳江 Keita Miyoshi 三好啓太 Junichi Sato fhana fhána 佐藤純一 female vocal
BeatmapID:3508896
BeatmapSetID:1717093

[Difficulty]
HPDrainRate:8
CircleSize:4
OverallDifficulty:8
ApproachRate:5
SliderMultiplier:1.4
SliderTickRate:1

[Events]
//Background and Video events
0,0,"bg1.jpg",0,0
Video,0,"bgv.mp4"
//Break Periods
//Storyboard Layer 0 (Background)
//Storyboard Layer 1 (Fail)
//Storyboard Layer 2 (Pass)
//Storyboard Layer 3 (Foreground)
//Storyboard Layer 4 (Overlay)
//Storyboard Sound Samples
Sample,8445,0,"Ride.wav",40
Sample,9523,0,"Tom2.wav",50
Sample,9613,0,"Tom2.wav",50
Sample,12038,0,"Ride.wav",40
Sample,14912,0,"Ride.wav",40
Sample,78505,0,"Ride.wav",40
Sample,80032,0,"Tom1.wav",50
Sample,81739,0,"Ride.wav",40
Sample,85331,0,"Ride.wav",40
Sample,85691,0,"Tom2.wav",50
Sample,85780,0,"Tom2.wav",50

[TimingPoints]
1260,359.281437125748,4,2,1,50,1,0
57307,-100,4,2,1,50,0,1
80122,-100,4,2,1,50,0,0

[HitObjects]
448,192,541,128,0,721:0:0:0:0:
64,192,721,128,0,900:0:0:0:0:
320,192,900,128,0,1080:0:0:0:0:
192,192,1080,128,0,1260:0:0:0:0:
64,192,1260,128,0,1439:0:0:0:0:
448,192,1260,128,0,2697:0:0:0:0:
320,192,1439,1,0,0:0:0:0:
64,192,1619,1,0,0:0:0:0:
192,192,1798,1,0,0:0:0:0:
192,192,1978,128,0,2158:0:0:0:0:
320,192,2158,1,0,0:0:0:0:
64,192,2337,1,0,0:0:0:0:
192,192,2517,1,0,0:0:0:0:
64,192,2697,128,0,4134:0:0:0:0:
192,192,2697,128,0,2876:0:0:0:0:
448,192,3056,128,0,3236:0:0:0:0:
320,192,3415,128,0,3595:0:0:0:0:
192,192,3774,128,0,3954:0:0:0:0:
192,192,4134,128,0,4673:0:0:0:0:
448,192,4134,128,0,4313:0:0:0:0:
320,192,4313,128,0,4493:0:0:0:0:
64,192,4493,128,0,4673:0:0:0:0:
448,192,4673,128,0,5571:0:0:0:0:
320,192,5212,128,0,5391:0:0:0:0:
192,192,5391,128,0,5571:0:0:0:0:
64,192,5571,128,0,6289:0:0:0:0:
448,192,5751,1,0,0:0:0:0:
448,192,5930,1,0,0:0:0:0:
448,192,6110,1,0,0:0:0:0:
192,192,6289,1,0,0:0:0:50:Tom1.wav
320,192,6289,1,0,0:0:0:0:
320,192,6469,1,8,0:0:0:0:
448,192,6469,1,0,0:0:0:0:
64,192,6559,1,8,0:0:0:0:
192,192,6559,1,0,0:0:0:0:
448,192,6649,1,0,0:0:0:50:Tom3.wav
320,192,6739,1,0,0:0:0:50:Tom3.wav
64,192,6828,1,4,0:0:0:0:
192,192,6828,1,2,0:0:0:0:
448,192,6828,128,0,7188:0:0:0:0:
192,192,7188,1,2,0:0:0:0:
320,192,7188,1,0,0:0:0:0:
64,192,7367,1,8,0:0:0:0:
192,192,7367,1,0,0:0:0:40:Ride.wav
448,192,7367,1,0,0:0:0:0:
320,192,7547,1,2,0:0:0:0:
448,192,7547,1,0,0:0:0:0:
64,192,7727,1,2,0:0:0:0:
192,192,7727,1,0,0:0:0:40:Ride.wav
192,192,7906,1,2,0:0:0:0:
320,192,7906,1,0,0:0:0:0:
64,192,8086,1,8,0:0:0:0:
320,192,8086,1,0,0:0:0:40:Ride.wav
448,192,8086,1,0,0:0:0:0:
64,192,8265,128,2,8625:0:0:0:0:
192,192,8265,1,0,0:0:0:0:
320,192,8445,1,2,0:0:0:0:
192,192,8625,1,2,0:0:0:0:
448,192,8625,1,0,0:0:0:0:
64,192,8804,1,8,0:0:0:0:
320,192,8804,1,0,0:0:0:40:Ride.wav
448,192,8804,1,0,0:0:0:0:
192,192,8984,1,2,0:0:0:0:
320,192,8984,1,0,0:0:0:25:Hat Open.wav
64,192,9164,1,2,0:0:0:0:
448,192,9164,1,0,0:0:0:0:
64,192,9343,1,8,0:0:0:0:
192,192,9343,1,0,0:0:0:0:
320,192,9433,1,8,0:0:0:0:
448,192,9433,1,0,0:0:0:0:
192,192,9523,1,8,0:0:0:0:
320,192,9613,1,8,0:0:0:0:
64,192,9703,1,4,0:0:0:0:
192,192,9703,1,2,0:0:0:0:
448,192,9703,128,0,10062:0:0:0:50:Tom2.wav
192,192,10062,1,2,0:0:0:0:
320,192,10062,1,0,0:0:0:0:
64,192,10242,1,8,0:0:0:0:
320,192,10242,1,0,0:0:0:40:Ride.wav
448,192,10242,1,0,0:0:0:0:
64,192,10421,1,2,0:0:0:0:
192,192,10421,1,0,0:0:0:0:
320,192,10601,1,2,0:0:0:0:
448,192,10601,1,0,0:0:0:40:Ride.wav
192,192,10780,1,2,0:0:0:0:
320,192,10780,1,0,0:0:0:0:
64,192,10960,1,8,0:0:0:0:
192,192,10960,1,0,0:0:0:40:Ride.wav
448,192,10960,1,0,0:0:0:0:
320,192,11140,1,2,0:0:0:0:
448,192,11140,128,0,11499:0:0:0:0:
64,192,11319,1,0,0:0:0:40:Ride.wav
192,192,11499,128,2,11679:0:0:0:0:
320,192,11499,1,0,0:0:0:0:
64,192,11679,1,8,0:0:0:0:
320,192,11679,128,0,11858:0:0:0:40:Ride.wav
448,192,11679,1,0,0:0:0:0:
64,192,11858,128,2,12218:0:0:0:0:
192,192,11858,1,0,0:0:0:0:
448,192,12038,1,2,0:0:0:0:
192,192,12218,1,8,0:0:0:0:
320,192,12218,1,0,0:0:0:0:
448,192,12307,1,0,0:0:0:50:Tom1.wav
64,192,12397,1,0,0:0:0:50:Tom2.wav
192,192,12487,1,0,0:0:0:50:Tom2.wav
64,192,12577,1,4,0:0:0:0:
320,192,12577,128,2,12936:0:0:0:0:
448,192,12577,1,0,0:0:0:50:Tom2.wav
64,192,12936,1,2,0:0:0:0:
192,192,12936,1,0,0:0:0:0:
64,192,13116,1,8,0:0:0:0:
320,192,13116,1,0,0:0:0:40:Ride.wav
448,192,13116,128,0,13295:0:0:0:0:
192,192,13295,1,2,0:0:0:0:
320,192,13295,1,0,0:0:0:0:
192,192,13475,1,2,0:0:0:0:
448,192,13475,128,0,13655:0:0:0:40:Ride.wav
64,192,13655,1,2,0:0:0:0:
320,192,13655,1,0,0:0:0:0:
192,192,13834,1,8,0:0:0:0:
320,192,13834,1,0,0:0:0:40:Ride.wav
448,192,13834,128,0,14014:0:0:0:0:
64,192,14014,1,2,0:0:0:0:
192,192,14014,1,0,0:0:0:0:
64,192,14194,1,2,0:0:0:0:
448,192,14194,128,0,14373:0:0:0:40:Ride.wav
192,192,14373,128,2,14553:0:0:0:0:
320,192,14373,1,0,0:0:0:0:
64,192,14553,1,8,0:0:0:0:
320,192,14553,128,0,14733:0:0:0:40:Ride.wav
448,192,14553,1,0,0:0:0:0:
64,192,14733,128,2,15092:0:0:0:0:
192,192,14733,1,0,0:0:0:25:Hat Open.wav
192,192,14912,1,2,0:0:0:0:
320,192,15092,1,8,0:0:0:0:
448,192,15092,1,0,0:0:0:0:
64,192,15182,1,8,0:0:0:0:
192,192,15182,1,0,0:0:0:0:
320,192,15271,1,8,0:0:0:0:
448,192,15271,1,0,0:0:0:0:
192,192,15361,1,8,0:0:0:0:
64,192,15451,1,4,0:0:0:0:
320,192,15451,128,2,15810:0:0:0:0:
448,192,15451,128,0,15810:0:0:0:0:
64,192,15810,1,2,0:0:0:0:
192,192,15810,1,0,0:0:0:0:
64,192,15990,1,8,0:0:0:0:
320,192,15990,1,0,0:0:0:25:Hat Open.wav
448,192,15990,1,0,0:0:0:0:
192,192,16170,1,2,0:0:0:0:
320,192,16170,1,0,0:0:0:0:
64,192,16349,1,8,0:0:0:0:
192,192,16349,1,0,0:0:0:25:Hat Open.wav
448,192,16349,1,0,0:0:0:0:
320,192,16529,1,2,0:0:0:0:
448,192,16529,1,0,0:0:0:0:
64,192,16709,1,8,0:0:0:0:
192,192,16709,1,0,0:0:0:0:
320,192,16709,1,0,0:0:0:0:
64,192,16888,128,4,17248:0:0:0:0:
192,192,16888,128,2,17248:0:0:0:0:
448,192,16888,1,0,0:0:0:0:
320,192,17248,128,2,17427:0:0:0:0:
448,192,17248,1,0,0:0:0:0:
64,192,17427,1,8,0:0:0:0:
192,192,17427,128,0,17607:0:0:0:0:
448,192,17427,1,0,0:0:0:0:
64,192,17607,128,2,17966:0:0:0:0:
320,192,17607,1,4,0:0:0:0:
448,192,17607,128,0,17966:0:0:0:0:
192,192,17786,1,0,0:0:0:50:Tom1.wav
320,192,17966,128,0,18146:0:0:0:0:
192,192,18146,128,0,18325:0:0:0:50:Tom3.wav
64,192,18325,128,0,18864:0:0:0:0:
192,192,18505,1,4,0:0:0:0:
320,192,18505,1,2,0:0:0:0:
448,192,18505,1,0,0:0:0:0:
320,192,18864,128,0,19044:0:0:0:0:
448,192,19044,128,0,19583:0:0:0:0:
64,192,19224,1,0,0:0:0:60:Clap.wav
192,192,19224,1,0,0:0:0:0:
320,192,19762,128,0,19942:0:0:0:0:
64,192,19942,1,2,0:0:0:30:soft-hitwhistle.wav
192,192,19942,128,0,20301:0:0:0:0:
448,192,20301,128,0,20481:0:0:0:0:
320,192,20481,128,0,21020:0:0:0:0:
64,192,20661,1,0,0:0:0:60:Clap.wav
192,192,20661,1,0,0:0:0:0:
320,192,21200,128,0,21379:0:0:0:0:
192,192,21379,1,2,0:0:0:30:soft-hitwhistle.wav
448,192,21379,128,0,21918:0:0:0:0:
64,192,21739,128,0,21918:0:0:0:0:
320,192,21918,128,0,22457:0:0:0:0:
64,192,22098,1,0,0:0:0:60:Clap.wav
192,192,22098,1,0,0:0:0:0:
448,192,22277,128,0,22457:0:0:0:0:
64,192,22457,128,0,22637:0:0:0:0:
192,192,22637,128,0,23535:0:0:0:0:
320,192,22816,1,2,0:0:0:30:soft-hitwhistle.wav
448,192,22816,1,0,0:0:0:0:
64,192,22996,1,0,0:0:0:0:
448,192,23176,1,0,0:0:0:0:
320,192,23355,1,0,0:0:0:0:
64,192,23535,128,0,24254:0:0:0:60:Clap.wav
448,192,23535,128,0,23894:0:0:0:0:
320,192,23715,1,0,0:0:0:0:
192,192,23894,128,0,24254:0:0:0:0:
320,192,24254,128,2,24972:0:0:0:30:soft-hitwhistle.wav
448,192,24254,1,0,0:0:0:0:
192,192,24613,128,0,24792:0:0:0:0:
448,192,24792,128,0,25331:0:0:0:0:
64,192,24972,128,0,25691:0:0:0:60:Clap.wav
192,192,24972,1,0,0:0:0:0:
320,192,25331,128,0,25511:0:0:0:0:
192,192,25511,128,0,25691:0:0:0:0:
320,192,25691,1,2,0:0:0:30:soft-hitwhistle.wav
448,192,25691,128,0,26409:0:0:0:0:
64,192,26050,128,0,26409:0:0:0:0:
192,192,26409,128,0,27128:0:0:0:60:Clap.wav
320,192,26409,128,0,26768:0:0:0:0:
64,192,26589,1,0,0:0:0:0:
448,192,26768,128,0,27128:0:0:0:0:
64,192,27128,128,2,28565:0:0:0:30:soft-hitwhistle.wav
320,192,27128,128,0,27667:0:0:0:0:
192,192,27667,128,0,27846:0:0:0:0:
448,192,27846,128,0,28026:0:0:0:60:Clap.wav
320,192,28026,128,0,28206:0:0:0:0:
192,192,28206,128,0,28385:0:0:0:0:
448,192,28385,128,0,28565:0:0:0:0:
192,192,28565,1,2,0:0:0:30:soft-hitwhistle.wav
320,192,28565,1,0,0:0:0:0:
64,192,28745,1,0,0:0:0:0:
448,192,28924,1,0,0:0:0:0:
320,192,29104,1,0,0:0:0:0:
64,192,29283,1,0,0:0:0:60:Clap.wav
192,192,29283,1,0,0:0:0:0:
448,192,29463,128,0,29822:0:0:0:0:
320,192,29643,128,0,29822:0:0:0:0:
64,192,29822,128,0,30721:0:0:0:0:
192,192,30002,1,2,0:0:0:0:
448,192,30002,1,0,0:0:0:25:soft-hitfinish.wav
320,192,30361,1,0,0:0:0:25:Ride.wav
320,192,30721,1,0,0:0:0:60:Clap.wav
448,192,30721,1,0,0:0:0:0:
192,192,30900,128,0,31259:0:0:0:0:
448,192,31080,128,0,31259:0:0:0:25:Ride.wav
320,192,31259,128,0,31978:0:0:0:0:
64,192,31439,1,2,0:0:0:0:
192,192,31439,1,0,0:0:0:0:
64,192,31798,1,0,0:0:0:25:Ride.wav
192,192,32158,1,0,0:0:0:60:Clap.wav
448,192,32158,1,0,0:0:0:0:
64,192,32337,128,0,32697:0:0:0:0:
320,192,32517,128,0,32697:0:0:0:25:Ride.wav
192,192,32697,128,0,33236:0:0:0:0:
64,192,32876,1,2,0:0:0:0:
448,192,32876,1,0,0:0:0:0:
320,192,33056,1,0,0:0:0:0:
64,192,33236,128,0,33595:0:0:0:25:Ride.wav
448,192,33415,128,0,33595:0:0:0:0:
192,192,33595,1,0,0:0:0:60:Clap.wav
320,192,33595,1,0,0:0:0:0:
320,192,33774,128,0,33954:0:0:0:0:
64,192,33954,128,0,34134:0:0:0:25:Ride.wav
192,192,34134,128,0,34313:0:0:0:0:
320,192,34313,1,2,0:0:0:0:
448,192,34313,128,0,35032:0:0:0:0:
64,192,34493,1,0,0:0:0:0:
192,192,34673,1,0,0:0:0:25:Ride.wav
64,192,34852,128,0,35391:0:0:0:0:
192,192,35032,1,0,0:0:0:60:Clap.wav
320,192,35032,1,0,0:0:0:0:
320,192,35212,128,0,35571:0:0:0:0:
192,192,35391,1,0,0:0:0:25:Ride.wav
448,192,35571,128,0,35930:0:0:0:0:
64,192,35751,1,2,0:0:0:0:
192,192,35751,1,4,0:0:0:25:soft-hitfinish.wav
64,192,35930,128,0,36110:0:0:0:0:
192,192,36110,128,0,36469:0:0:0:25:Ride.wav
320,192,36469,1,0,0:0:0:60:Clap.wav
448,192,36469,1,0,0:0:0:0:
64,192,36828,128,0,37188:0:0:0:25:Ride.wav
192,192,37188,1,2,0:0:0:0:
448,192,37188,128,0,37906:0:0:0:0:
320,192,37547,128,0,37906:0:0:0:25:Ride.wav
64,192,37906,1,0,0:0:0:60:Clap.wav
192,192,37906,128,0,38625:0:0:0:0:
448,192,38086,1,0,0:0:0:0:
64,192,38265,128,0,38625:0:0:0:25:Ride.wav
320,192,38625,1,2,0:0:0:0:
448,192,38625,128,0,39164:0:0:0:0:
192,192,38804,1,0,0:0:0:0:
320,192,38984,1,0,0:0:0:0:
64,192,39164,128,0,40062:0:0:0:0:
192,192,39164,128,0,39343:0:0:0:0:
320,192,39343,128,0,40062:0:0:0:60:Clap.wav
448,192,39343,1,0,0:0:0:0:
192,192,40062,128,2,40242:0:0:0:0:
448,192,40062,1,0,0:0:0:60:Hat Close.wav
64,192,40242,1,0,0:0:0:50:Tom1.wav
320,192,40242,128,0,40421:0:0:0:0:
64,192,40421,128,0,40601:0:0:0:50:Tom3.wav
448,192,40421,1,0,0:0:0:0:
192,192,40601,1,4,0:0:0:0:
320,192,40601,1,2,0:0:0:0:
448,192,40601,128,0,40960:0:0:0:0:
64,192,40780,1,0,0:0:0:60:Clap.wav
192,192,40780,1,0,0:0:0:0:
320,192,40960,1,0,0:0:0:50:Tom1.wav
64,192,41140,1,0,0:0:0:50:Tom2.wav
192,192,41319,1,2,0:0:0:0:
448,192,41319,1,0,0:0:0:50:Tom3.wav
320,192,41409,1,0,0:0:0:50:Tom3.wav
64,192,41499,1,4,0:0:0:0:
192,192,41499,1,8,0:0:0:0:
448,192,41499,128,0,41679:0:0:0:0:
64,192,41858,1,8,0:0:0:0:
192,192,41858,1,0,0:0:0:60:Hat Close.wav
320,192,41858,1,0,0:0:0:0:
64,192,42038,128,2,42218:0:0:0:0:
448,192,42038,1,0,0:0:0:0:
192,192,42218,1,8,0:0:0:0:
320,192,42218,1,0,0:0:0:60:Hat Close.wav
448,192,42218,128,0,42397:0:0:0:0:
64,192,42397,1,2,0:0:0:0:
320,192,42397,1,0,0:0:0:0:
64,192,42577,1,8,0:0:0:0:
192,192,42577,1,0,0:0:0:60:Hat Close.wav
448,192,42577,1,0,0:0:0:0:
192,192,42757,128,2,42936:0:0:0:0:
64,192,42936,1,8,0:0:0:0:
320,192,42936,128,2,43116:0:0:0:0:
448,192,42936,1,0,0:0:0:60:Hat Close.wav
192,192,43295,1,8,0:0:0:0:
320,192,43295,1,0,0:0:0:60:Hat Close.wav
448,192,43295,128,0,43475:0:0:0:0:
64,192,43475,1,2,0:0:0:0:
192,192,43475,1,0,0:0:0:0:
64,192,43655,128,8,43834:0:0:0:0:
320,192,43655,1,0,0:0:0:60:Hat Close.wav
448,192,43655,1,0,0:0:0:0:
192,192,43834,1,2,0:0:0:0:
448,192,43834,1,0,0:0:0:0:
64,192,44014,1,8,0:0:0:0:
192,192,44014,1,0,0:0:0:60:Hat Close.wav
320,192,44014,128,0,44194:0:0:0:0:
64,192,44194,1,2,0:0:0:0:
448,192,44194,1,0,0:0:0:0:
192,192,44373,1,2,0:0:0:0:
320,192,44373,128,8,44553:0:0:0:0:
448,192,44373,1,0,0:0:0:60:Hat Close.wav
64,192,44733,1,8,0:0:0:0:
320,192,44733,1,0,0:0:0:60:Hat Close.wav
448,192,44733,128,0,44912:0:0:0:0:
192,192,44912,1,2,0:0:0:0:
320,192,44912,1,0,0:0:0:0:
64,192,45092,1,8,0:0:0:0:
192,192,45092,128,0,45271:0:0:0:60:Hat Close.wav
448,192,45092,1,0,0:0:0:0:
320,192,45271,1,2,0:0:0:0:
448,192,45271,1,0,0:0:0:0:
64,192,45451,128,8,45810:0:0:0:0:
192,192,45451,1,0,0:0:0:60:Hat Close.wav
320,192,45451,1,0,0:0:0:0:
448,192,45631,1,2,0:0:0:0:
192,192,45810,1,8,0:0:0:0:
320,192,45810,1,2,0:0:0:0:
448,192,45810,128,0,46170:0:0:0:60:Hat Close.wav
64,192,46170,1,8,0:0:0:0:
192,192,46170,1,0,0:0:0:60:Hat Close.wav
320,192,46170,1,0,0:0:0:0:
64,192,46349,1,2,0:0:0:0:
320,192,46349,1,0,0:0:0:0:
64,192,46529,1,8,0:0:0:0:
192,192,46529,1,0,0:0:0:0:
448,192,46529,1,0,0:0:0:0:
320,192,46619,1,8,0:0:0:0:
192,192,46709,1,0,0:0:0:50:Tom1.wav
64,192,46888,1,8,0:0:0:0:
320,192,46888,1,0,0:0:0:0:
448,192,46888,1,0,0:0:0:0:
192,192,46978,1,8,0:0:0:0:
320,192,47068,1,0,0:0:0:50:Tom2.wav
192,192,47158,1,0,0:0:0:50:Tom3.wav
64,192,47248,128,4,47427:0:0:0:0:
320,192,47248,1,8,0:0:0:0:
448,192,47248,1,0,0:0:0:0:
192,192,47607,1,8,0:0:0:0:
320,192,47607,1,0,0:0:0:60:Hat Close.wav
448,192,47607,1,0,0:0:0:0:
64,192,47786,1,2,0:0:0:0:
448,192,47786,128,0,47966:0:0:0:0:
64,192,47966,128,8,48146:0:0:0:0:
192,192,47966,1,0,0:0:0:60:Hat Close.wav
320,192,47966,1,0,0:0:0:0:
192,192,48146,1,2,0:0:0:0:
448,192,48146,1,0,0:0:0:0:
64,192,48325,1,8,0:0:0:0:
320,192,48325,1,0,0:0:0:60:Hat Close.wav
448,192,48325,1,0,0:0:0:0:
320,192,48505,128,2,48685:0:0:0:0:
64,192,48685,1,8,0:0:0:0:
192,192,48685,128,2,48864:0:0:0:0:
448,192,48685,1,0,0:0:0:60:Hat Close.wav
64,192,49044,128,8,49224:0:0:0:0:
192,192,49044,1,0,0:0:0:60:Hat Close.wav
320,192,49044,1,0,0:0:0:0:
320,192,49224,1,2,0:0:0:0:
448,192,49224,1,0,0:0:0:0:
64,192,49403,1,8,0:0:0:0:
192,192,49403,1,0,0:0:0:60:Hat Close.wav
448,192,49403,128,0,49583:0:0:0:0:
192,192,49583,1,2,0:0:0:0:
320,192,49583,1,0,0:0:0:0:
64,192,49762,128,8,50122:0:0:0:0:
320,192,49762,1,0,0:0:0:50:Tom2.wav
448,192,49762,1,0,0:0:0:0:
192,192,49942,1,0,0:0:0:0:
192,192,50122,1,4,0:0:0:0:
320,192,50122,1,2,0:0:0:0:
448,192,50122,1,0,0:0:0:0:
320,192,50481,1,0,0:0:0:40:Ride.wav
64,192,50661,1,2,0:0:0:0:
192,192,50661,1,0,0:0:0:0:
64,192,50840,1,8,0:0:0:0:
320,192,50840,1,0,0:0:0:40:Ride.wav
448,192,50840,1,0,0:0:0:0:
192,192,51200,1,0,0:0:0:40:Ride.wav
320,192,51379,1,8,0:0:0:0:
448,192,51379,1,0,0:0:0:0:
64,192,51469,1,8,0:0:0:0:
192,192,51469,1,0,0:0:0:0:
320,192,51559,1,2,0:0:0:0:
448,192,51559,1,0,0:0:0:40:Ride.wav
64,192,51739,1,8,0:0:0:0:
192,192,51739,1,0,0:0:0:0:
448,192,51739,1,0,0:0:0:0:
320,192,51918,1,0,0:0:0:40:Ride.wav
64,192,52098,1,2,0:0:0:0:
192,192,52098,1,0,0:0:0:0:
192,192,52277,1,8,0:0:0:0:
320,192,52277,1,0,0:0:0:40:Ride.wav
448,192,52277,1,0,0:0:0:0:
448,192,52637,1,0,0:0:0:40:Ride.wav
64,192,52816,1,8,0:0:0:0:
192,192,52816,1,0,0:0:0:0:
320,192,52906,1,8,0:0:0:0:
64,192,52996,128,2,53535:0:0:0:0:
192,192,52996,1,4,0:0:0:0:
448,192,52996,1,0,0:0:0:0:
448,192,53355,128,0,53535:0:0:0:40:Ride.wav
192,192,53535,1,2,0:0:0:0:
320,192,53535,1,0,0:0:0:0:
64,192,53715,1,8,0:0:0:0:
320,192,53715,128,0,54074:0:0:0:40:Ride.wav
448,192,53715,1,0,0:0:0:0:
192,192,54074,128,0,54254:0:0:0:40:Ride.wav
320,192,54254,1,8,0:0:0:0:
448,192,54254,1,0,0:0:0:0:
64,192,54343,1,8,0:0:0:0:
192,192,54343,1,0,0:0:0:0:
320,192,54433,128,2,54792:0:0:0:0:
448,192,54433,128,4,54792:0:0:0:0:
64,192,54792,1,2,0:0:0:0:
192,192,54792,1,0,0:0:0:0:
192,192,54972,1,8,0:0:0:0:
320,192,54972,1,0,0:0:0:50:Tom3.wav
64,192,55152,1,10,0:0:0:0:
448,192,55152,1,0,0:0:0:50:Tom3.wav
64,192,55331,1,8,0:0:0:0:
320,192,55331,1,0,0:0:0:50:Tom3.wav
192,192,55511,1,8,0:0:0:0:
320,192,55511,1,0,0:0:0:50:Tom3.wav
448,192,55511,1,0,0:0:0:0:
64,192,55691,128,2,55960:0:0:0:0:
192,192,55691,128,4,55960:0:0:0:0:
448,192,55691,1,0,0:0:0:0:
64,192,56050,1,8,0:0:0:0:
320,192,56050,1,0,0:0:0:50:Tom3.wav
448,192,56050,1,0,0:0:0:0:
64,192,56230,1,8,0:0:0:0:
320,192,56230,128,2,56589:0:0:0:0:
448,192,56230,1,0,0:0:0:50:Tom3.wav
192,192,56409,128,0,56589:0:0:0:0:
64,192,56589,1,0,0:0:0:0:
448,192,56589,128,0,56768:0:0:0:0:
192,192,56768,128,0,56948:0:0:0:0:
64,192,56948,128,0,57128:0:0:0:0:
320,192,57128,1,0,0:0:0:0:
192,192,57218,1,0,0:0:0:0:
64,192,57307,1,2,0:0:0:0:
320,192,57307,1,4,0:0:0:0:
448,192,57307,1,0,0:0:0:0:
448,192,57487,1,0,0:0:0:25:Hat Open.wav
64,192,57667,1,8,0:0:0:0:
192,192,57667,1,2,0:0:0:0:
320,192,57667,1,0,0:0:0:0:
64,192,57846,1,0,0:0:0:25:Hat Open.wav
320,192,58026,1,2,0:0:0:0:
448,192,58026,1,0,0:0:0:0:
192,192,58206,1,0,0:0:0:25:Hat Open.wav
64,192,58385,1,8,0:0:0:0:
320,192,58385,1,2,0:0:0:0:
448,192,58385,1,0,0:0:0:0:
320,192,58565,1,0,0:0:0:25:Hat Open.wav
64,192,58745,128,2,59104:0:0:0:0:
192,192,58745,1,0,0:0:0:0:
448,192,58924,1,0,0:0:0:25:Hat Open.wav
192,192,59104,128,8,59463:0:0:0:0:
320,192,59104,1,2,0:0:0:0:
448,192,59104,1,0,0:0:0:0:
64,192,59283,1,0,0:0:0:25:Hat Open.wav
320,192,59463,1,2,0:0:0:0:
448,192,59463,128,0,59822:0:0:0:0:
192,192,59643,1,0,0:0:0:25:Hat Open.wav
64,192,59822,1,8,0:0:0:0:
192,192,59822,1,2,0:0:0:0:
320,192,59822,128,0,60182:0:0:0:0:
448,192,60002,1,0,0:0:0:25:Hat Open.wav
64,192,60182,1,2,0:0:0:0:
192,192,60182,128,0,60541:0:0:0:0:
320,192,60361,1,0,0:0:0:25:Hat Open.wav
64,192,60541,1,2,0:0:0:0:
320,192,60541,1,8,0:0:0:0:
448,192,60541,128,0,60900:0:0:0:0:
192,192,60721,1,0,0:0:0:25:Hat Open.wav
64,192,60900,128,2,61259:0:0:0:0:
320,192,60900,1,0,0:0:0:0:
448,192,61080,1,0,0:0:0:25:Hat Open.wav
192,192,61259,1,2,0:0:0:0:
320,192,61259,1,8,0:0:0:0:
448,192,61259,1,0,0:0:0:0:
320,192,61439,128,0,62337:0:0:0:25:Hat Open.wav
64,192,61619,1,2,0:0:0:0:
192,192,61619,1,0,0:0:0:0:
448,192,61798,1,0,0:0:0:25:Hat Open.wav
64,192,61978,1,8,0:0:0:0:
192,192,61978,1,2,0:0:0:0:
64,192,62158,1,0,0:0:0:25:Hat Open.wav
192,192,62337,1,2,0:0:0:0:
448,192,62337,1,0,0:0:0:0:
192,192,62517,128,0,62697:0:0:0:25:Hat Open.wav
64,192,62697,1,8,0:0:0:0:
320,192,62697,128,2,62876:0:0:0:0:
448,192,62697,1,0,0:0:0:0:
64,192,62876,128,0,63056:0:0:0:25:Hat Open.wav
192,192,63056,1,2,0:0:0:0:
320,192,63056,1,4,0:0:0:0:
448,192,63056,1,0,0:0:0:0:
320,192,63236,1,0,0:0:0:25:Hat Open.wav
64,192,63415,1,2,0:0:0:0:
192,192,63415,1,8,0:0:0:0:
448,192,63415,128,0,63774:0:0:0:0:
192,192,63595,1,0,0:0:0:25:Hat Open.wav
64,192,63774,1,2,0:0:0:0:
320,192,63774,1,0,0:0:0:0:
448,192,63954,1,0,0:0:0:25:Hat Open.wav
64,192,64134,1,2,0:0:0:0:
192,192,64134,128,8,64493:0:0:0:0:
320,192,64134,1,0,0:0:0:0:
448,192,64313,1,0,0:0:0:25:Hat Open.wav
64,192,64493,1,2,0:0:0:0:
320,192,64493,128,0,64852:0:0:0:0:
192,192,64673,1,0,0:0:0:25:Hat Open.wav
64,192,64852,128,8,65212:0:0:0:0:
192,192,64852,1,2,0:0:0:0:
448,192,64852,1,0,0:0:0:0:
320,192,65032,1,0,0:0:0:25:Hat Open.wav
192,192,65212,128,2,65571:0:0:0:0:
448,192,65212,1,0,0:0:0:0:
320,192,65391,1,0,0:0:0:25:Hat Open.wav
64,192,65571,1,8,0:0:0:0:
320,192,65571,1,2,0:0:0:0:
448,192,65571,128,0,65930:0:0:0:0:
192,192,65751,1,0,0:0:0:25:Hat Open.wav
64,192,65930,1,2,0:0:0:0:
320,192,65930,128,0,66289:0:0:0:0:
192,192,66110,1,0,0:0:0:25:Hat Open.wav
64,192,66289,1,2,0:0:0:0:
192,192,66289,1,8,0:0:0:0:
448,192,66289,1,0,0:0:0:0:
64,192,66469,128,0,66649:0:0:0:25:Hat Open.wav
320,192,66649,1,2,0:0:0:0:
448,192,66649,128,0,67367:0:0:0:0:
64,192,66828,1,0,0:0:0:25:Hat Open.wav
192,192,66918,1,0,0:0:0:0:
64,192,67008,1,6,0:0:0:0:
320,192,67008,1,8,0:0:0:0:
192,192,67188,1,0,0:0:0:0:
64,192,67367,1,8,0:0:0:0:
192,192,67367,1,2,0:0:0:0:
320,192,67367,1,0,0:0:0:0:
64,192,67547,1,0,0:0:0:50:Tom1.wav
320,192,67547,1,0,0:0:0:0:
192,192,67637,1,0,0:0:0:50:Tom1.wav
448,192,67727,1,0,0:0:0:50:Tom3.wav
320,192,67816,1,0,0:0:0:50:Tom2.wav
64,192,67906,128,4,68086:0:0:0:0:
192,192,67906,128,2,68086:0:0:0:0:
448,192,67906,128,0,68086:0:0:0:0:
64,192,68265,128,2,68715:0:0:0:0:
320,192,68265,128,4,68715:0:0:0:0:
448,192,68265,128,0,68715:0:0:0:0:
64,192,68804,1,4,0:0:0:0:
192,192,68804,1,2,0:0:0:0:
448,192,68804,1,0,0:0:0:0:
192,192,68984,1,0,0:0:0:25:Hat Open.wav
64,192,69164,1,8,0:0:0:0:
320,192,69164,1,2,0:0:0:0:
448,192,69164,1,0,0:0:0:0:
448,192,69343,1,0,0:0:0:25:Hat Open.wav
64,192,69523,1,2,0:0:0:0:
192,192,69523,1,0,0:0:0:0:
320,192,69703,1,0,0:0:0:25:Hat Open.wav
64,192,69882,1,8,0:0:0:0:
192,192,69882,1,2,0:0:0:0:
448,192,69882,1,0,0:0:0:0:
64,192,70062,1,0,0:0:0:25:Hat Open.wav
320,192,70242,1,2,0:0:0:0:
448,192,70242,128,0,70601:0:0:0:0:
192,192,70421,1,0,0:0:0:25:Hat Open.wav
64,192,70601,1,2,0:0:0:0:
192,192,70601,1,8,0:0:0:0:
320,192,70601,128,0,70960:0:0:0:0:
448,192,70780,1,0,0:0:0:25:Hat Open.wav
64,192,70960,128,2,71319:0:0:0:0:
192,192,70960,1,0,0:0:0:0:
320,192,71140,1,0,0:0:0:25:Hat Open.wav
192,192,71319,128,2,71679:0:0:0:0:
320,192,71319,1,8,0:0:0:0:
448,192,71319,1,0,0:0:0:0:
64,192,71499,1,0,0:0:0:25:Hat Open.wav
320,192,71679,1,2,0:0:0:0:
448,192,71679,128,0,72038:0:0:0:0:
192,192,71858,1,0,0:0:0:25:Hat Open.wav
64,192,72038,128,8,72397:0:0:0:0:
192,192,72038,1,2,0:0:0:0:
320,192,72038,1,0,0:0:0:0:
320,192,72218,1,0,0:0:0:25:Hat Open.wav
192,192,72397,1,2,0:0:0:0:
448,192,72397,128,0,72757:0:0:0:0:
64,192,72577,1,0,0:0:0:25:Hat Open.wav
64,192,72757,1,8,0:0:0:0:
192,192,72757,128,2,73116:0:0:0:0:
320,192,72757,1,0,0:0:0:0:
320,192,72936,1,0,0:0:0:25:Hat Open.wav
64,192,73116,128,2,73655:0:0:0:0:
448,192,73116,1,8,0:0:0:0:
320,192,73295,1,0,0:0:0:50:Tom1.wav
192,192,73385,1,0,0:0:0:0:
320,192,73475,1,0,0:0:0:50:Tom3.wav
448,192,73475,1,0,0:0:0:0:
192,192,73655,1,2,0:0:0:0:
320,192,73655,1,0,0:0:0:30:soft-hitfinish.wav
448,192,73655,128,0,74014:0:0:0:0:
64,192,74014,1,0,0:0:0:50:Tom1.wav
320,192,74014,1,0,0:0:0:0:
192,192,74194,1,2,0:0:0:0:
448,192,74194,1,0,0:0:0:50:Tom3.wav
64,192,74373,1,0,0:0:0:50:Tom2.wav
320,192,74373,1,0,0:0:0:0:
192,192,74463,1,0,0:0:0:50:Tom2.wav
64,192,74553,1,4,0:0:0:0:
320,192,74553,128,8,74733:0:0:0:0:
448,192,74553,1,0,0:0:0:0:
64,192,74912,128,8,75092:0:0:0:0:
192,192,74912,1,0,0:0:0:25:Hat Open.wav
448,192,74912,1,0,0:0:0:0:
192,192,75271,1,8,0:0:0:0:
320,192,75271,128,0,75451:0:0:0:25:Hat Open.wav
448,192,75271,1,0,0:0:0:0:
64,192,75451,1,2,0:0:0:0:
448,192,75451,1,0,0:0:0:0:
64,192,75631,128,8,75810:0:0:0:0:
192,192,75631,1,0,0:0:0:25:Hat Open.wav
320,192,75631,1,0,0:0:0:0:
192,192,75810,1,2,0:0:0:0:
448,192,75810,1,0,0:0:0:0:
64,192,75990,1,8,0:0:0:0:
320,192,75990,128,0,76170:0:0:0:25:Hat Open.wav
448,192,75990,1,0,0:0:0:0:
64,192,76349,1,8,0:0:0:0:
192,192,76349,1,0,0:0:0:25:Hat Open.wav
448,192,76349,128,0,76529:0:0:0:0:
192,192,76529,1,2,0:0:0:0:
320,192,76529,1,0,0:0:0:0:
64,192,76709,1,8,0:0:0:0:
320,192,76709,128,0,76888:0:0:0:25:Hat Open.wav
448,192,76709,1,0,0:0:0:0:
64,192,76888,1,2,0:0:0:0:
192,192,76888,1,0,0:0:0:0:
192,192,77068,128,8,77248:0:0:0:0:
320,192,77068,1,0,0:0:0:25:Hat Open.wav
448,192,77068,1,0,0:0:0:0:
64,192,77248,1,2,0:0:0:0:
320,192,77248,1,0,0:0:0:0:
64,192,77427,1,2,0:0:0:0:
192,192,77427,1,4,0:0:0:0:
448,192,77427,1,0,0:0:0:0:
320,192,77786,1,0,0:0:0:40:Ride.wav
64,192,77966,1,2,0:0:0:0:
192,192,77966,1,0,0:0:0:0:
64,192,78146,1,8,0:0:0:0:
320,192,78146,1,0,0:0:0:40:Ride.wav
448,192,78146,1,0,0:0:0:0:
192,192,78505,1,2,0:0:0:0:
320,192,78685,1,0,0:0:0:50:Tom3.wav
192,192,78774,1,0,0:0:0:50:Tom3.wav
64,192,78864,128,4,79403:0:0:0:0:
320,192,78864,1,2,0:0:0:0:
448,192,78864,1,0,0:0:0:0:
448,192,79403,1,0,0:0:0:0:
320,192,79448,1,0,0:0:0:0:
192,192,79493,1,0,0:0:0:0:
64,192,79538,1,0,0:0:0:0:
448,192,79583,1,0,0:0:0:0:
320,192,79628,1,0,0:0:0:0:
192,192,79673,1,0,0:0:0:0:
64,192,79718,1,0,0:0:0:0:
320,192,79762,1,8,0:0:0:0:
448,192,79762,1,0,0:0:0:0:
192,192,79852,1,8,0:0:0:0:
64,192,79942,1,8,0:0:0:0:
448,192,79942,1,0,0:0:0:50:Tom1.wav
320,192,80032,1,8,0:0:0:0:
64,192,80122,1,4,0:0:0:0:
192,192,80122,1,2,0:0:0:0:
448,192,80122,128,0,80481:0:0:0:50:Tom1.wav
64,192,80481,1,2,0:0:0:0:
192,192,80481,1,0,0:0:0:0:
64,192,80661,1,8,0:0:0:0:
320,192,80661,1,0,0:0:0:40:Ride.wav
448,192,80661,1,0,0:0:0:0:
192,192,80840,1,2,0:0:0:0:
448,192,80840,1,0,0:0:0:0:
64,192,81020,1,2,0:0:0:0:
320,192,81020,1,0,0:0:0:40:Ride.wav
192,192,81200,1,2,0:0:0:0:
320,192,81200,1,0,0:0:0:0:
64,192,81379,1,8,0:0:0:0:
192,192,81379,1,0,0:0:0:40:Ride.wav
448,192,81379,1,0,0:0:0:0:
64,192,81559,128,2,81918:0:0:0:0:
448,192,81739,1,2,0:0:0:0:
192,192,81918,1,2,0:0:0:0:
320,192,81918,1,0,0:0:0:0:
64,192,82098,1,8,0:0:0:0:
192,192,82098,1,0,0:0:0:40:Ride.wav
448,192,82098,1,0,0:0:0:0:
64,192,82277,1,0,0:0:0:0:
320,192,82277,1,0,0:0:0:0:
192,192,82457,1,2,0:0:0:0:
448,192,82457,1,0,0:0:0:40:Ride.wav
64,192,82637,1,8,0:0:0:0:
192,192,82637,1,0,0:0:0:0:
320,192,82727,1,0,0:0:0:50:Tom1.wav
448,192,82727,1,0,0:0:0:0:
64,192,82816,1,0,0:0:0:50:Tom2.wav
192,192,82906,1,0,0:0:0:50:Tom2.wav
64,192,82996,1,4,0:0:0:0:
320,192,82996,1,2,0:0:0:0:
448,192,82996,128,0,83355:0:0:0:50:Tom2.wav
192,192,83355,1,2,0:0:0:0:
320,192,83355,1,0,0:0:0:0:
64,192,83535,1,8,0:0:0:0:
320,192,83535,1,0,0:0:0:40:Ride.wav
448,192,83535,1,0,0:0:0:0:
64,192,83715,1,2,0:0:0:0:
192,192,83715,1,0,0:0:0:0:
320,192,83894,1,2,0:0:0:0:
448,192,83894,1,0,0:0:0:40:Ride.wav
192,192,84074,1,2,0:0:0:0:
320,192,84074,1,0,0:0:0:0:
64,192,84254,1,8,0:0:0:0:
320,192,84254,1,0,0:0:0:40:Ride.wav
448,192,84254,1,0,0:0:0:0:
64,192,84433,128,2,84792:0:0:0:0:
192,192,84433,1,0,0:0:0:0:
448,192,84613,1,0,0:0:0:40:Ride.wav
192,192,84792,1,2,0:0:0:0:
320,192,84792,128,0,84972:0:0:0:0:
64,192,84972,1,8,0:0:0:0:
192,192,84972,128,0,85152:0:0:0:40:Ride.wav
448,192,84972,1,0,0:0:0:0:
64,192,85152,1,8,0:0:0:0:
320,192,85152,1,0,0:0:0:0:
448,192,85152,128,0,85511:0:0:0:0:
320,192,85331,1,2,0:0:0:0:
64,192,85511,1,8,0:0:0:0:
192,192,85511,1,0,0:0:0:0:
320,192,85601,1,8,0:0:0:0:
448,192,85601,1,0,0:0:0:0:
192,192,85691,1,8,0:0:0:0:
320,192,85780,1,8,0:0:0:0:
64,192,85870,1,4,0:0:0:0:
192,192,85870,128,2,86230:0:0:0:0:
448,192,85870,1,0,0:0:0:50:Tom2.wav
320,192,86230,1,2,0:0:0:0:
448,192,86230,1,0,0:0:0:0:
64,192,86409,128,8,86589:0:0:0:0:
192,192,86409,1,0,0:0:0:40:Ride.wav
448,192,86409,1,0,0:0:0:0:
192,192,86589,1,2,0:0:0:0:
320,192,86589,1,0,0:0:0:0:
64,192,86768,128,2,86948:0:0:0:0:
320,192,86768,1,0,0:0:0:40:Ride.wav
192,192,86948,1,2,0:0:0:0:
448,192,86948,1,0,0:0:0:0:
64,192,87128,128,8,87307:0:0:0:0:
192,192,87128,1,0,0:0:0:40:Ride.wav
320,192,87128,1,0,0:0:0:0:
320,192,87307,1,2,0:0:0:0:
448,192,87307,1,0,0:0:0:0:
64,192,87487,128,2,87667:0:0:0:0:
448,192,87487,1,0,0:0:0:40:Ride.wav
192,192,87667,1,2,0:0:0:0:
320,192,87667,128,0,87846:0:0:0:0:
64,192,87846,1,8,0:0:0:0:
192,192,87846,128,0,88026:0:0:0:40:Ride.wav
448,192,87846,1,0,0:0:0:0:
320,192,88026,1,2,0:0:0:0:
448,192,88026,128,0,88206:0:0:0:0:
64,192,88206,1,8,0:0:0:0:
192,192,88206,1,0,0:0:0:40:Ride.wav
320,192,88206,1,0,0:0:0:0:
64,192,88385,1,8,0:0:0:0:
192,192,88385,1,0,0:0:0:0:
320,192,88475,1,8,0:0:0:0:
448,192,88475,1,0,0:0:0:0:
64,192,88565,1,8,0:0:0:0:
192,192,88565,1,0,0:0:0:0:
320,192,88655,1,8,0:0:0:0:
64,192,88745,128,4,89104:0:0:0:0:
192,192,88745,1,2,0:0:0:0:
448,192,88745,1,0,0:0:0:0:
320,192,89104,1,2,0:0:0:0:
448,192,89104,1,0,0:0:0:0:
64,192,89283,1,8,0:0:0:0:
192,192,89283,1,0,0:0:0:25:Hat Open.wav
448,192,89283,1,0,0:0:0:0:
192,192,89463,1,2,0:0:0:0:
320,192,89463,1,0,0:0:0:0:
64,192,89643,1,8,0:0:0:0:
320,192,89643,1,0,0:0:0:25:Hat Open.wav
448,192,89643,1,0,0:0:0:0:
64,192,89822,1,2,0:0:0:0:
192,192,89822,1,0,0:0:0:0:
192,192,90002,1,8,0:0:0:0:
320,192,90002,1,0,0:0:0:0:
448,192,90002,1,0,0:0:0:0:
64,192,90182,1,2,0:0:0:0:
320,192,90182,128,4,90541:0:0:0:0:
448,192,90182,128,0,90541:0:0:0:0:
64,192,90541,1,8,0:0:0:0:
192,192,90541,128,2,90721:0:0:0:0:
64,192,90721,1,8,0:0:0:0:
320,192,90721,128,0,90900:0:0:0:0:
448,192,90721,1,0,0:0:0:0:
64,192,90900,128,2,91259:0:0:0:0:
192,192,90900,1,4,0:0:0:0:
448,192,90900,128,0,91259:0:0:0:0:
192,192,91259,1,8,0:0:0:0:
320,192,91259,1,0,0:0:0:0:
64,192,91349,1,8,0:0:0:0:
320,192,91439,1,8,0:0:0:0:
448,192,91439,1,0,0:0:0:0:
192,192,91529,1,8,0:0:0:0:
64,192,91619,128,4,94493:0:0:0:0:
320,192,91619,128,2,94583:0:0:0:0:
448,192,91619,128,0,94673:0:0:0:0:
64,192,94673,1,0,0:0:0:0:
320,192,94718,1,0,0:0:0:0:
448,192,94762,1,0,0:0:0:0:
