osu file format v14

[General]
AudioFilename: audio.mp3
AudioLeadIn: 0
PreviewTime: 56589
Countdown: 0
SampleSet: Soft
StackLeniency: 0.7
Mode: 3
LetterboxInBreaks: 0
SpecialStyle: 0
WidescreenStoryboard: 1

[Editor]
DistanceSpacing: 1
BeatDivisor: 4
GridSize: 32
TimelineZoom: 1

[Metadata]
Title:Plastic Smile (TV Size)
TitleUnicode:Plastic Smile (TV Size)
Artist:Ishihara Kaori
ArtistUnicode:石原夏織
Creator:Savageeeee
Version:Easy
Source:ひげを剃る。そして女子高生を拾う。
Tags:FerdiXIA- ML-ysg Higehiro: After Being Rejected, I Shaved and Took in a High School Runaway Hige wo Soru Soshite Joshikousei wo Hirou japanese pop jpop j-pop anime ed ending theme 荻原沙優 ogiwara sayu 6th Single PCCG-01968 Yoshie Isogai 磯谷佳江 Keita Miyoshi 三好啓太 Junichi Sato fhana fhána 佐藤純一 female vocal
BeatmapID:3508894
BeatmapSetID:1717093

[Difficulty]
HPDrainRate:7
CircleSize:4
OverallDifficulty:7
ApproachRate:5
SliderMultiplier:1.4
SliderTickRate:1

[Events]
//Background and Video events
0,0,"bg1.jpg",0,0
Video,0,"bgv.mp4"
//Break Periods
//Storyboard Layer 0 (Background)
//Storyboard Layer 1 (Fail)
//Storyboard Layer 2 (Pass)
//Storyboard Layer 3 (Foreground)
//Storyboard Layer 4 (Overlay)
//Storyboard Sound Samples
Sample,7367,0,"Ride.wav",40
Sample,7727,0,"Ride.wav",40
Sample,8086,0,"Ride.wav",40
Sample,8445,0,"Ride.wav",40
Sample,8804,0,"Ride.wav",40
Sample,8984,0,"Hat Open.wav",25
Sample,9523,0,"Tom2.wav",50
Sample,10242,0,"Ride.wav",40
Sample,10601,0,"Ride.wav",40
Sample,10960,0,"Ride.wav",40
Sample,11679,0,"Ride.wav",40
Sample,13116,0,"Ride.wav",40
Sample,13475,0,"Ride.wav",40
Sample,13834,0,"Ride.wav",40
Sample,14194,0,"Ride.wav",40
Sample,14553,0,"Ride.wav",40
Sample,14733,0,"Hat Open.wav",25
Sample,15990,0,"Hat Open.wav",25
Sample,16349,0,"Hat Open.wav",25
Sample,40062,0,"Hat Close.wav",60
Sample,41319,0,"Tom3.wav",50
Sample,41858,0,"Hat Close.wav",60
Sample,42218,0,"Hat Close.wav",60
Sample,42577,0,"Hat Close.wav",60
Sample,42936,0,"Hat Close.wav",60
Sample,43295,0,"Hat Close.wav",60
Sample,43655,0,"Hat Close.wav",60
Sample,44014,0,"Hat Close.wav",60
Sample,44373,0,"Hat Close.wav",60
Sample,44733,0,"Hat Close.wav",60
Sample,45092,0,"Hat Close.wav",60
Sample,45451,0,"Hat Close.wav",60
Sample,45810,0,"Hat Close.wav",60
Sample,46170,0,"Hat Close.wav",60
Sample,47607,0,"Hat Close.wav",60
Sample,47966,0,"Hat Close.wav",60
Sample,48325,0,"Hat Close.wav",60
Sample,48685,0,"Hat Close.wav",60
Sample,49044,0,"Hat Close.wav",60
Sample,49403,0,"Hat Close.wav",60
Sample,49762,0,"Tom2.wav",50
Sample,50840,0,"Ride.wav",40
Sample,51559,0,"Ride.wav",40
Sample,52277,0,"Ride.wav",40
Sample,53715,0,"Ride.wav",40
Sample,55152,0,"Tom3.wav",50
Sample,55331,0,"Tom3.wav",50
Sample,55511,0,"Tom3.wav",50
Sample,56050,0,"Tom3.wav",50
Sample,56230,0,"Tom3.wav",50
Sample,74194,0,"Tom3.wav",50
Sample,74912,0,"Hat Open.wav",25
Sample,75271,0,"Hat Open.wav",25
Sample,75631,0,"Hat Open.wav",25
Sample,75990,0,"Hat Open.wav",25
Sample,76349,0,"Hat Open.wav",25
Sample,76709,0,"Hat Open.wav",25
Sample,77068,0,"Hat Open.wav",25
Sample,78146,0,"Ride.wav",40
Sample,78505,0,"Ride.wav",40
Sample,79942,0,"Tom1.wav",50
Sample,80661,0,"Ride.wav",40
Sample,81020,0,"Ride.wav",40
Sample,81379,0,"Ride.wav",40
Sample,81739,0,"Ride.wav",40
Sample,82098,0,"Ride.wav",40
Sample,83535,0,"Ride.wav",40
Sample,83894,0,"Ride.wav",40
Sample,84254,0,"Ride.wav",40
Sample,84972,0,"Ride.wav",40
Sample,85691,0,"Tom2.wav",50
Sample,86409,0,"Ride.wav",40
Sample,86768,0,"Ride.wav",40
Sample,87128,0,"Ride.wav",40
Sample,87487,0,"Ride.wav",40
Sample,87846,0,"Ride.wav",40
Sample,89283,0,"Hat Open.wav",25
Sample,89643,0,"Hat Open.wav",25

[TimingPoints]
1260,359.281437125748,4,2,1,50,1,0
57307,-100.0,4,2,1,50,0,1
80122,-100.0,4,2,1,50,0,0

[HitObjects]
448,192,541,128,0,1260:0:0:0:0:
64,192,1260,1,0,0:0:0:0:
192,192,1798,1,0,0:0:0:0:
448,192,1978,1,0,0:0:0:0:
192,192,2517,1,0,0:0:0:0:
448,192,2697,1,0,0:0:0:0:
320,192,3056,1,0,0:0:0:0:
192,192,3415,1,0,0:0:0:0:
64,192,3774,1,0,0:0:0:0:
320,192,4134,1,0,0:0:0:0:
448,192,4134,128,0,4493:0:0:0:0:
64,192,4493,1,0,0:0:0:0:
192,192,4673,128,0,5212:0:0:0:0:
448,192,5212,1,0,0:0:0:0:
320,192,5391,1,0,0:0:0:0:
64,192,5571,128,0,6289:0:0:0:0:
448,192,6289,1,0,0:0:0:50:Tom1.wav
320,192,6469,1,8,0:0:0:0:
192,192,6649,1,0,0:0:0:50:Tom3.wav
64,192,6828,1,4,0:0:0:0:
448,192,6828,1,2,0:0:0:0:
192,192,7188,1,2,0:0:0:0:
320,192,7367,1,8,0:0:0:0:
64,192,7727,1,2,0:0:0:0:
448,192,8086,1,8,0:0:0:0:
192,192,8445,1,2,0:0:0:0:
320,192,8804,1,8,0:0:0:0:
64,192,8984,1,2,0:0:0:0:
320,192,9343,1,8,0:0:0:0:
192,192,9523,1,8,0:0:0:0:
64,192,9703,1,6,0:0:0:0:
448,192,9703,1,0,0:0:0:50:Tom2.wav
320,192,10062,1,2,0:0:0:0:
64,192,10242,1,8,0:0:0:0:
320,192,10601,1,2,0:0:0:0:
448,192,10960,1,8,0:0:0:0:
192,192,11140,1,2,0:0:0:0:
192,192,11499,1,2,0:0:0:0:
320,192,11679,1,8,0:0:0:0:
64,192,11858,1,2,0:0:0:0:
192,192,12218,1,8,0:0:0:0:
320,192,12397,1,0,0:0:0:50:Tom2.wav
64,192,12577,1,6,0:0:0:0:
448,192,12577,1,0,0:0:0:50:Tom2.wav
320,192,12936,1,2,0:0:0:0:
192,192,13116,1,8,0:0:0:0:
448,192,13475,1,2,0:0:0:0:
64,192,13834,1,8,0:0:0:0:
320,192,14194,1,2,0:0:0:0:
192,192,14553,1,8,0:0:0:0:
448,192,14733,1,2,0:0:0:0:
192,192,15092,1,8,0:0:0:0:
320,192,15271,1,8,0:0:0:0:
64,192,15451,1,4,0:0:0:0:
448,192,15451,128,2,15810:0:0:0:0:
320,192,15810,1,2,0:0:0:0:
192,192,15990,1,8,0:0:0:0:
192,192,16349,1,8,0:0:0:0:
320,192,16709,1,8,0:0:0:0:
64,192,16888,128,6,17248:0:0:0:0:
192,192,17248,1,2,0:0:0:0:
320,192,17427,1,8,0:0:0:0:
448,192,17607,128,6,18146:0:0:0:0:
192,192,18146,1,0,0:0:0:50:Tom3.wav
64,192,18505,1,4,0:0:0:0:
448,192,18505,1,2,0:0:0:0:
320,192,19224,1,0,0:0:0:60:Clap.wav
192,192,19942,1,2,0:0:0:30:soft-hitwhistle.wav
320,192,20661,1,0,0:0:0:60:Clap.wav
64,192,21379,1,2,0:0:0:30:soft-hitwhistle.wav
320,192,22098,1,0,0:0:0:60:Clap.wav
192,192,22816,1,2,0:0:0:30:soft-hitwhistle.wav
448,192,23535,1,0,0:0:0:60:Clap.wav
64,192,24254,1,2,0:0:0:30:soft-hitwhistle.wav
320,192,24972,1,0,0:0:0:60:Clap.wav
192,192,25691,1,2,0:0:0:30:soft-hitwhistle.wav
448,192,26409,1,0,0:0:0:60:Clap.wav
320,192,27128,1,2,0:0:0:30:soft-hitwhistle.wav
64,192,27846,1,0,0:0:0:60:Clap.wav
320,192,28565,1,2,0:0:0:30:soft-hitwhistle.wav
192,192,29283,1,0,0:0:0:60:Clap.wav
64,192,30002,128,2,31439:0:0:0:0:
448,192,30002,1,0,0:0:0:25:soft-hitfinish.wav
320,192,30721,1,0,0:0:0:60:Clap.wav
448,192,31439,128,2,32876:0:0:0:0:
192,192,32158,1,0,0:0:0:60:Clap.wav
64,192,32876,128,2,34313:0:0:0:0:
320,192,33595,1,0,0:0:0:60:Clap.wav
192,192,34313,128,2,35751:0:0:0:0:
448,192,35032,1,0,0:0:0:60:Clap.wav
320,192,35751,1,2,0:0:0:0:
448,192,35751,128,4,37188:0:0:0:25:soft-hitfinish.wav
192,192,36469,1,0,0:0:0:60:Clap.wav
64,192,37188,128,2,37906:0:0:0:0:
320,192,37906,128,0,38625:0:0:0:60:Clap.wav
192,192,38625,128,2,39343:0:0:0:0:
448,192,39343,128,0,40062:0:0:0:60:Clap.wav
64,192,40062,1,2,0:0:0:0:
192,192,40242,1,0,0:0:0:50:Tom1.wav
320,192,40421,1,0,0:0:0:50:Tom3.wav
192,192,40601,128,6,40960:0:0:0:0:
64,192,40960,1,0,0:0:0:50:Tom1.wav
448,192,41140,1,0,0:0:0:50:Tom2.wav
320,192,41319,1,2,0:0:0:0:
64,192,41499,1,4,0:0:0:0:
192,192,41499,1,8,0:0:0:0:
448,192,41858,1,8,0:0:0:0:
192,192,42218,1,8,0:0:0:0:
448,192,42577,1,8,0:0:0:0:
64,192,42936,1,10,0:0:0:0:
192,192,43295,1,8,0:0:0:0:
320,192,43655,1,8,0:0:0:0:
64,192,44014,1,8,0:0:0:0:
64,192,44373,1,10,0:0:0:0:
448,192,44733,1,8,0:0:0:0:
320,192,45092,1,8,0:0:0:0:
192,192,45451,1,8,0:0:0:0:
448,192,45810,128,10,46170:0:0:0:0:
64,192,46170,128,8,46529:0:0:0:0:
448,192,46529,1,8,0:0:0:0:
320,192,46709,1,0,0:0:0:50:Tom1.wav
64,192,46888,1,8,0:0:0:0:
192,192,47068,1,0,0:0:0:50:Tom2.wav
320,192,47248,1,4,0:0:0:0:
448,192,47248,1,8,0:0:0:0:
64,192,47607,1,8,0:0:0:0:
320,192,47966,1,8,0:0:0:0:
64,192,48325,1,8,0:0:0:0:
448,192,48685,1,10,0:0:0:0:
320,192,49044,1,8,0:0:0:0:
192,192,49403,1,8,0:0:0:0:
320,192,49762,128,8,50122:0:0:0:0:
64,192,50122,1,4,0:0:0:0:
448,192,50122,1,2,0:0:0:0:
192,192,50661,1,2,0:0:0:0:
320,192,50840,1,8,0:0:0:0:
64,192,51379,1,8,0:0:0:0:
448,192,51559,1,2,0:0:0:0:
320,192,51739,1,8,0:0:0:0:
192,192,52098,1,2,0:0:0:0:
320,192,52277,1,8,0:0:0:0:
192,192,52816,1,8,0:0:0:0:
64,192,52996,1,2,0:0:0:0:
448,192,52996,1,4,0:0:0:0:
320,192,53535,1,2,0:0:0:0:
192,192,53715,1,8,0:0:0:0:
320,192,54254,1,8,0:0:0:0:
64,192,54433,1,2,0:0:0:0:
448,192,54433,128,4,54792:0:0:0:0:
192,192,54792,128,2,55152:0:0:0:0:
448,192,55152,1,10,0:0:0:0:
320,192,55331,1,8,0:0:0:0:
192,192,55511,1,8,0:0:0:0:
64,192,55691,128,6,56050:0:0:0:0:
448,192,56050,1,8,0:0:0:0:
192,192,56230,1,10,0:0:0:0:
320,192,56589,1,0,0:0:0:0:
64,192,57307,1,2,0:0:0:0:
448,192,57307,1,4,0:0:0:0:
320,192,57667,1,10,0:0:0:0:
192,192,58026,1,2,0:0:0:0:
320,192,58385,1,10,0:0:0:0:
64,192,58745,1,2,0:0:0:0:
448,192,59104,1,10,0:0:0:0:
192,192,59463,1,2,0:0:0:0:
320,192,59822,1,10,0:0:0:0:
64,192,60182,1,2,0:0:0:0:
320,192,60541,1,10,0:0:0:0:
192,192,60900,1,2,0:0:0:0:
448,192,61259,1,10,0:0:0:0:
64,192,61619,1,2,0:0:0:0:
320,192,61978,1,10,0:0:0:0:
192,192,62337,1,2,0:0:0:0:
320,192,62697,1,10,0:0:0:0:
64,192,63056,1,2,0:0:0:0:
448,192,63056,1,4,0:0:0:0:
192,192,63415,1,10,0:0:0:0:
320,192,63774,1,2,0:0:0:0:
64,192,64134,128,10,64493:0:0:0:0:
448,192,64493,128,2,64852:0:0:0:0:
64,192,64852,128,10,65212:0:0:0:0:
320,192,65212,128,2,65571:0:0:0:0:
192,192,65571,128,10,65930:0:0:0:0:
448,192,65930,128,2,66289:0:0:0:0:
64,192,66289,1,10,0:0:0:0:
320,192,66469,1,0,0:0:0:25:Hat Open.wav
192,192,66649,128,2,67367:0:0:0:0:
320,192,67008,1,14,0:0:0:0:
64,192,67367,1,10,0:0:0:0:
448,192,67547,1,0,0:0:0:50:Tom1.wav
192,192,67727,1,0,0:0:0:50:Tom3.wav
320,192,67906,1,6,0:0:0:0:
320,192,68265,128,6,68804:0:0:0:0:
64,192,68804,1,4,0:0:0:0:
448,192,68804,1,2,0:0:0:0:
192,192,69164,1,10,0:0:0:0:
448,192,69523,1,2,0:0:0:0:
64,192,69882,1,10,0:0:0:0:
320,192,70242,1,2,0:0:0:0:
192,192,70601,1,10,0:0:0:0:
448,192,70960,1,2,0:0:0:0:
320,192,71319,1,10,0:0:0:0:
64,192,71679,1,2,0:0:0:0:
192,192,72038,1,10,0:0:0:0:
448,192,72397,1,2,0:0:0:0:
192,192,72757,1,10,0:0:0:0:
64,192,73116,128,10,73655:0:0:0:0:
320,192,73655,1,2,0:0:0:0:
448,192,73655,1,0,0:0:0:30:soft-hitfinish.wav
192,192,74014,1,0,0:0:0:50:Tom1.wav
320,192,74194,1,2,0:0:0:0:
64,192,74553,1,4,0:0:0:0:
448,192,74553,1,8,0:0:0:0:
320,192,74912,1,8,0:0:0:0:
64,192,75271,1,8,0:0:0:0:
320,192,75631,1,8,0:0:0:0:
192,192,75990,1,8,0:0:0:0:
448,192,76349,1,8,0:0:0:0:
192,192,76709,1,8,0:0:0:0:
448,192,77068,1,8,0:0:0:0:
64,192,77427,1,2,0:0:0:0:
320,192,77427,1,4,0:0:0:0:
192,192,77966,1,2,0:0:0:0:
448,192,78146,1,8,0:0:0:0:
320,192,78505,1,2,0:0:0:0:
192,192,78685,1,0,0:0:0:50:Tom3.wav
64,192,78864,1,4,0:0:0:0:
448,192,78864,1,2,0:0:0:0:
192,192,79762,1,8,0:0:0:0:
320,192,79942,1,8,0:0:0:0:
64,192,80122,1,6,0:0:0:0:
448,192,80122,1,0,0:0:0:50:Tom1.wav
320,192,80481,1,2,0:0:0:0:
192,192,80661,1,8,0:0:0:0:
448,192,81020,1,2,0:0:0:0:
64,192,81379,1,8,0:0:0:0:
320,192,81739,1,2,0:0:0:0:
192,192,82098,1,8,0:0:0:0:
448,192,82277,1,0,0:0:0:0:
192,192,82637,1,8,0:0:0:0:
320,192,82816,1,0,0:0:0:50:Tom2.wav
64,192,82996,1,6,0:0:0:0:
448,192,82996,1,0,0:0:0:50:Tom2.wav
192,192,83355,1,2,0:0:0:0:
448,192,83535,1,8,0:0:0:0:
320,192,83894,1,2,0:0:0:0:
64,192,84254,1,8,0:0:0:0:
448,192,84433,1,2,0:0:0:0:
192,192,84792,1,2,0:0:0:0:
320,192,84972,1,8,0:0:0:0:
448,192,85152,1,8,0:0:0:0:
320,192,85511,1,8,0:0:0:0:
192,192,85691,1,8,0:0:0:0:
64,192,85870,1,6,0:0:0:0:
448,192,85870,1,0,0:0:0:50:Tom2.wav
192,192,86230,1,2,0:0:0:0:
320,192,86409,1,8,0:0:0:0:
64,192,86768,1,2,0:0:0:0:
448,192,87128,1,8,0:0:0:0:
192,192,87487,1,2,0:0:0:0:
320,192,87846,1,8,0:0:0:0:
64,192,88026,1,2,0:0:0:0:
320,192,88385,1,8,0:0:0:0:
192,192,88565,1,8,0:0:0:0:
64,192,88745,128,4,89104:0:0:0:0:
448,192,88745,1,2,0:0:0:0:
192,192,89104,1,2,0:0:0:0:
320,192,89283,1,8,0:0:0:0:
320,192,89643,1,8,0:0:0:0:
192,192,90002,1,8,0:0:0:0:
448,192,90182,128,6,90541:0:0:0:0:
320,192,90541,1,10,0:0:0:0:
192,192,90721,1,8,0:0:0:0:
64,192,90900,128,6,91259:0:0:0:0:
192,192,91259,1,8,0:0:0:0:
320,192,91439,1,8,0:0:0:0:
64,192,91619,128,4,94673:0:0:0:0:
448,192,91619,128,2,94673:0:0:0:0:
192,192,94673,1,0,0:0:0:0:
