osu file format v14

[General]
AudioFilename: audio.mp3
AudioLeadIn: 0
PreviewTime: 56375
Countdown: 0
SampleSet: Soft
StackLeniency: 0.7
Mode: 0
LetterboxInBreaks: 0
WidescreenStoryboard: 1

[Editor]
DistanceSpacing: 1
BeatDivisor: 2
GridSize: 32
TimelineZoom: 1

[Metadata]
Title:Plastic Smile (TV Size)
TitleUnicode:Plastic Smile (TV Size)
Artist:Ishihara Kaori
ArtistUnicode:石原夏織
Creator:HeTo
Version:Normal
Source:ひげを剃る。そして女子高生を拾う。
Tags:Higehiro Hige wo Soru Soshite Joshikousei Hirou I Shaved Then I Brought a High School Girl Home japanese pop jpop j-pop anime ed ending theme 荻原 沙優 ogiwara sayu
BeatmapID:2953160
BeatmapSetID:1435128

[Difficulty]
HPDrainRate:4
CircleSize:3
OverallDifficulty:4
ApproachRate:5
SliderMultiplier:1.04
SliderTickRate:1

[Events]
//Background and Video events
0,0,"12.jpg",0,0
//Break Periods
//Storyboard Layer 0 (Background)
//Storyboard Layer 1 (Fail)
//Storyboard Layer 2 (Pass)
//Storyboard Layer 3 (Foreground)
//Storyboard Layer 4 (Overlay)
//Storyboard Sound Samples

[TimingPoints]
-391,359.281437125748,4,2,1,35,1,0
-391,-111.111111111111,4,2,1,35,0,0
2213,-111.111111111111,4,2,1,5,0,0
2303,-111.111111111111,4,2,1,40,0,0
5626,-111.111111111111,4,2,1,5,0,0
5716,-111.111111111111,4,2,1,35,0,0
5806,-111.111111111111,4,2,1,5,0,0
5896,-111.111111111111,4,2,1,35,0,0
5986,-111.111111111111,4,2,1,5,0,0
6076,-111.111111111111,4,2,1,65,0,0
6614,-100,4,2,1,65,0,0
18291,-111.111111111111,4,2,1,35,0,0
29788,-111.111111111111,4,2,1,50,0,0
36884,-111.111111111111,4,2,1,5,0,0
36974,-111.111111111111,4,2,1,50,0,0
39848,-111.111111111111,4,2,1,60,0,0
41285,-99.9999999999999,4,2,1,60,0,0
54579,-99.9999999999999,4,2,1,45,0,0
54938,-99.9999999999999,4,2,1,55,0,0
55297,-99.9999999999999,4,2,1,65,0,0
57094,-95.2380952380952,4,2,1,70,0,1
68501,-95.2380952380952,4,2,1,5,0,1
68591,-95.2380952380952,4,2,1,70,0,1
79369,-95.2380952380952,4,2,1,65,0,1
79908,-95.2380952380952,4,2,1,65,0,0
97333,-95.2380952380952,4,2,1,5,0,0

[Colours]
Combo1 : 193,235,253
Combo2 : 192,192,192
Combo3 : 255,170,170

[HitObjects]
4,162,327,6,0,P|27:88|155:96,1,187.19999428711,2|2,0:0|0:0,0:0:0:0:
218,176,1584,1,2,0:0:0:0:
218,176,1764,2,0,B|336:182|268:269|399:270,1,187.19999428711,2|2,0:0|0:0,0:0:0:0:
458,237,2841,1,2,0:0:0:0:
484,146,3201,6,0,P|453:96|408:100,1,93.5999971435548,2|0,0:0|0:0,0:0:0:0:
335,126,3919,1,2,0:0:0:0:
231,221,4459,2,0,P|142:203|78:193,1,140.399995715332,2|0,0:0|0:0,0:0:0:0:
25,130,5356,2,0,P|25:68|86:45,1,93.5999971435548,2|2,0:0|0:0,0:0:0:0:
128,6,6075,2,0,L|209:26,1,46.7999985717774,8|8,0:3|0:0,0:0:0:0:
218,31,6434,1,4,0:3:0:0:
218,31,6614,6,0,B|246:82|246:82|221:143,1,104,6|0,1:2|1:2,0:0:0:0:
219,175,7153,1,10,0:0:0:0:
255,272,7513,2,0,L|247:329,2,52,2|2|10,1:2|1:2|0:0,0:0:0:0:
350,231,8231,2,0,P|390:205|467:238,1,104,2|10,1:2|0:0,0:0:0:0:
486,243,8770,1,2,1:2:0:0:
464,344,9129,2,0,P|439:348|399:359,1,52,8|8,0:0|0:3,0:0:0:0:
360,350,9489,6,0,B|313:340|313:340|302:329|302:329|234:316,1,104,6|0,1:2|1:2,0:0:0:0:
214,342,10028,1,10,0:0:0:0:
148,261,10387,2,0,L|75:284,2,52,2|2|10,1:2|1:2|0:0,0:0:0:0:
176,217,10926,2,0,P|206:172|186:116,1,104,2|2,1:2|1:2,0:0:0:0:
160,87,11465,1,10,0:0:0:0:
160,87,11644,1,2,1:2:0:0:
94,5,12004,2,0,L|36:14,1,52,8|4,0:0|0:3,0:0:0:0:
15,57,12363,6,0,B|-6:104|-6:104|22:180,1,104,6|0,1:2|1:2,0:0:0:0:
41,196,12902,1,10,0:0:0:0:
130,249,13261,2,0,L|139:308,2,52,2|2|10,1:2|1:2|0:0,0:0:0:0:
195,168,13980,2,0,P|252:138|306:166,1,104,2|10,1:2|0:0,0:0:0:0:
323,185,14519,1,2,1:2:0:0:
405,248,14878,2,0,L|465:242,1,52,8|8,0:0|0:0,0:0:0:0:
497,209,15237,6,0,P|514:154|472:100,1,104,6|2,1:2|1:2,0:0:0:0:
470,65,15776,1,10,0:0:0:0:
470,65,15956,1,2,1:2:0:0:
378,15,16315,2,0,L|307:28,1,52,2|8,1:2|0:0,0:0:0:0:
283,53,16674,2,0,P|277:118|268:169,1,104,6|2,1:2|1:2,0:0:0:0:
258,206,17213,1,10,0:0:0:0:
258,206,17393,1,4,1:2:0:0:
212,299,17752,2,0,P|162:313|106:281,1,104,2|4,0:0|0:3,0:0:0:0:
73,262,18291,5,6,1:2:0:0:
12,84,19010,1,0,3:0:0:0:
181,4,19728,2,0,B|308:8|241:88|375:77,1,187.19999428711,2|0,0:0|3:0,0:0:0:0:
227,224,21165,1,2,0:0:0:0:
349,366,21884,1,0,3:0:0:0:
492,245,22603,2,0,P|452:172|366:176,1,140.399995715332,2|0,0:0|0:0,0:0:0:0:
360,185,23321,1,2,0:0:0:0:
232,322,24040,6,0,P|170:297|50:283,2,187.19999428711,2|2|2,0:0|0:0|0:0,0:0:0:0:
309,269,25836,2,0,P|316:212|316:134,2,93.5999971435548
374,335,26914,2,0,P|430:346|466:224,1,187.19999428711,2|2,0:0|0:0,0:0:0:0:
388,82,28351,2,0,B|287:88|290:45|189:55,1,187.19999428711,2|2,0:0|0:0,0:0:0:0:
82,196,29788,6,0,P|53:264|143:333,1,187.19999428711,4|2,1:2|0:0,0:0:0:0:
215,361,30866,1,0,0:0:0:0:
283,297,31225,2,0,P|290:219|299:87,1,187.19999428711,6|2,1:2|0:0,0:0:0:0:
356,36,32303,1,0,0:0:0:0:
428,94,32662,6,0,P|436:158|454:295,1,187.19999428711,2|2,1:2|0:0,0:0:0:0:
393,353,33740,2,0,L|340:346,1,46.7999985717774
311,314,34100,2,0,B|202:306|239:368|106:366,1,187.19999428711,2|2,1:2|0:0,0:0:0:0:
17,219,35537,6,0,P|6:159|102:89,1,187.19999428711,6|2,1:2|0:0,0:0:0:0:
188,98,36614,1,0,0:0:0:0:
228,182,36974,2,0,P|224:242|218:286,1,93.5999971435548,2|0,1:2|0:0,0:0:0:0:
284,342,37692,2,0,P|332:355|373:327,1,93.5999971435548,2|0,0:0|0:0,0:0:0:0:
443,278,38411,6,0,P|446:201|462:69,1,187.19999428711,2|2,1:2|0:0,0:0:0:0:
271,80,39848,2,0,L|214:88,1,46.7999985717774,2|8,1:2|0:3,0:0:0:0:
183,108,40207,1,4,0:3:0:0:
183,108,40387,2,0,B|165:159|165:159|193:206,1,93.5999971435548,6|8,1:2|0:3,0:0:0:0:
214,229,40926,1,4,0:3:0:0:
148,309,41285,6,0,P|95:326|56:295,1,104,6|8,1:2|0:0,0:0:0:0:
25,260,41824,1,2,1:2:0:0:
25,260,42004,1,10,0:0:0:0:
0,159,42363,1,8,0:0:0:0:
86,101,42722,2,0,P|140:113|213:123,1,104,10|10,0:0|0:0,0:0:0:0:
276,175,43441,2,0,L|342:166,1,52,10|0,0:0|1:2,0:0:0:0:
379,171,43800,1,10,0:0:0:0:
475,132,44159,6,0,P|477:65|434:28,1,104,10|10,0:0|0:0,0:0:0:0:
357,2,44878,1,10,0:0:0:0:
262,44,45237,1,10,0:0:0:0:
166,4,45597,2,0,P|111:18|50:27,1,104,10|8,0:0|0:0,0:0:0:0:
20,53,46135,1,2,1:2:0:0:
20,53,46315,1,10,0:0:0:0:
35,155,46674,2,0,L|26:221,1,52,8|8,0:0|0:0,0:0:0:0:
19,258,47034,6,0,P|97:271|136:286,1,104,6|8,1:2|0:0,0:0:0:0:
170,292,47573,1,0,1:2:0:0:
170,292,47752,1,10,0:0:0:0:
235,211,48111,1,8,0:0:0:0:
171,128,48471,2,0,P|181:73|245:45,1,104,10|10,0:0|0:0,0:0:0:0:
319,22,49189,1,10,0:0:0:0:
418,51,49549,2,0,L|487:64,1,52,10|0,0:0|0:0,0:0:0:0:
495,105,49908,6,0,P|486:170|477:275,1,156,6|0,1:2|1:2,0:0:0:0:
489,310,50626,1,10,0:0:0:0:
288,366,51345,1,0,1:2:0:0:
288,366,51525,2,0,P|234:358|220:253,1,156,8|8,0:0|0:0,0:0:0:0:
296,82,52782,2,0,P|247:35|145:59,1,156,6|0,1:2|1:2,0:0:0:0:
134,86,53501,1,10,0:0:0:0:
193,169,53860,1,2,0:0:0:0:
124,247,54219,6,0,P|66:259|29:212,1,104,6|0,1:2|1:2,0:0:0:0:
4,132,54938,1,8,1:2:0:0:
74,55,55297,1,8,0:0:0:0:
74,55,55477,2,0,B|123:67|123:67|131:79|131:79|203:96,1,104,6|10,1:2|0:0,0:0:0:0:
219,73,56016,1,10,0:0:0:0:
285,152,56375,1,2,3:0:0:0:
180,344,57094,6,0,P|106:328|47:321,1,109.199996667481,6|8,1:2|0:0,0:0:0:0:
27,293,57632,1,2,0:1:0:0:
27,293,57812,2,0,P|11:240|60:184,1,109.199996667481,2|8,1:2|0:0,0:0:0:0:
86,174,58351,1,2,0:1:0:0:
86,174,58531,1,2,1:2:0:0:
178,231,58890,1,10,0:0:0:0:
272,176,59249,2,0,P|277:105|279:55,1,109.199996667481,2|10,1:2|0:0,0:0:0:0:
367,3,59968,5,2,1:2:0:0:
474,24,60327,1,10,0:0:0:0:
503,129,60686,2,0,P|499:195|495:261,1,109.199996667481,2|10,1:2|0:0,0:0:0:0:
508,291,61225,1,2,0:0:0:0:
508,291,61405,2,0,L|411:313,1,54.5999983337403,2|2,1:2|0:1,0:0:0:0:
403,321,61764,1,10,0:0:0:0:
403,321,61944,1,2,0:1:0:0:
294,328,62303,2,0,L|284:388,2,54.5999983337403,2|10|2,0:1|0:0|0:1,0:0:0:0:
256,286,62842,6,0,P|246:223|274:185,1,109.199996667481,4|10,1:2|0:0,0:0:0:0:
330,97,63561,1,0,1:2:0:0:
251,21,63920,2,0,P|214:27|186:31,1,54.5999983337403,10|0,0:0|0:0,0:0:0:0:
142,24,64279,2,0,P|105:76|139:130,1,109.199996667481,2|10,1:2|0:0,0:0:0:0:
182,203,64998,1,2,1:2:0:0:
119,292,65357,1,10,0:0:0:0:
194,371,65716,6,0,P|254:352|321:353,1,109.199996667481,2|8,1:2|0:0,0:0:0:0:
353,360,66255,1,2,0:1:0:0:
353,360,66435,2,0,P|393:368|421:369,1,54.5999983337403,2|2,1:2|0:1,0:0:0:0:
458,351,66794,1,8,0:0:0:0:
495,248,67153,2,0,L|503:186,1,54.5999983337403,14|8,0:0|0:3,0:0:0:0:
508,139,67513,1,0,1:2:0:0:
508,139,67692,2,0,B|459:111|459:111|388:137,1,109.199996667481,6|6,1:2|1:2,0:0:0:0:
309,259,68591,6,0,P|256:277|203:240,1,109.199996667481,6|8,1:2|0:0,0:0:0:0:
167,221,69129,1,2,0:1:0:0:
167,221,69309,2,0,P|174:154|175:107,1,109.199996667481,2|8,1:2|0:0,0:0:0:0:
168,57,69848,1,2,0:1:0:0:
168,57,70028,1,2,1:2:0:0:
265,7,70387,1,10,0:0:0:0:
356,66,70746,2,0,B|407:72|407:72|417:84|417:84|476:89,1,109.199996667481,2|10,1:2|0:0,0:0:0:0:
511,183,71465,6,0,P|505:245|503:314,1,109.199996667481,2|10,1:2|0:0,0:0:0:0:
419,361,72183,2,0,P|348:368|309:334,1,109.199996667481,2|10,1:2|0:0,0:0:0:0:
265,252,72902,2,0,P|211:269|197:269,1,54.5999983337403,2|8,1:2|0:3,0:0:0:0:
158,271,73261,1,8,0:3:0:0:
158,271,73441,2,0,B|132:225|132:225|171:168,1,109.199996667481,6|8,1:2|0:3,0:0:0:0:
200,137,73980,1,4,0:3:0:0:
142,44,74339,6,0,P|90:15|34:37,1,109.199996667481,14|10,0:0|0:0,0:0:0:0:
8,68,74878,1,0,0:0:0:0:
8,68,75058,1,10,0:0:0:0:
36,173,75417,1,10,0:0:0:0:
36,173,75597,2,0,P|28:240|18:319,1,109.199996667481,0|0,1:2|0:0,0:0:0:0:
13,334,76135,1,10,0:0:0:0:
13,334,76315,2,0,P|78:363|124:338,1,109.199996667481,0|0,1:2|1:2,0:0:0:0:
153,317,76854,1,10,0:0:0:0:
244,257,77213,6,0,B|336:260|293:311|431:314,1,163.799995001221,6|0,1:2|1:2,0:0:0:0:
448,325,77932,1,10,0:0:0:0:
496,112,78650,2,0,P|480:53|325:35,1,218.399993334961,6|2,1:2|0:0,0:0:0:0:
304,61,79549,2,0,L|312:137,1,54.5999983337403,8|8,0:0|0:3,0:0:0:0:
296,168,79908,6,0,B|244:194|244:194|180:163,1,109.199996667481,6|2,1:2|1:2,0:0:0:0:
154,140,80447,1,10,0:0:0:0:
78,60,80806,2,0,P|82:-1|82:-3,2,54.5999983337403,2|2|10,1:2|1:2|0:0,0:0:0:0:
7,143,81525,2,0,P|16:211|18:277,1,109.199996667481,2|10,1:2|0:0,0:0:0:0:
41,300,82064,1,2,0:0:0:0:
203,322,82603,1,8,0:3:0:0:
203,322,82782,6,0,B|252:329|252:329|262:341|262:341|341:354,1,109.199996667481,6|0,1:2|1:2,0:0:0:0:
354,323,83321,1,10,0:0:0:0:
424,239,83680,2,0,L|480:251,2,54.5999983337403,2|2|10,1:2|1:2|0:0,0:0:0:0:
379,206,84219,2,0,P|383:145|389:81,1,109.199996667481,2|2,1:2|1:2,0:0:0:0:
390,42,84758,1,10,0:0:0:0:
390,42,84938,1,10,0:0:0:0:
286,6,85297,1,8,0:0:0:0:
184,45,85656,6,0,P|146:103|181:196,1,163.799995001221,6|10,1:2|0:0,0:0:0:0:
255,259,86555,2,0,L|328:231,2,54.5999983337403,2|2|10,1:2|1:2|0:0,0:0:0:0:
185,342,87273,2,0,P|124:345|52:359,1,109.199996667481,2|10,1:2|0:0,0:0:0:0:
27,331,87812,1,2,1:2:0:0:
3,224,88171,2,0,L|9:159,1,54.5999983337403,8|8,0:0|0:0,0:0:0:0:
4,114,88531,6,0,B|60:88|60:88|126:108,1,109.199996667481,6|2,1:2|1:2,0:0:0:0:
147,136,89070,1,10,0:0:0:0:
202,229,89429,1,10,0:0:0:0:
269,314,89788,1,10,0:0:0:0:
269,314,89968,2,0,P|335:296|383:294,1,109.199996667481,6|2,1:2|1:2,0:0:0:0:
429,298,90507,1,10,0:0:0:0:
429,298,90686,2,0,P|446:224|424:190,1,109.199996667481,2|8,1:2|0:0,0:0:0:0:
368,108,91405,1,6,1:2:0:0:
256,192,91585,12,0,97333,0:0:0:0:
