osu file format v14

[General]
AudioFilename: audio.mp3
AudioLeadIn: 0
PreviewTime: 56574
Countdown: 0
SampleSet: Normal
StackLeniency: 0.7
Mode: 1
LetterboxInBreaks: 0
WidescreenStoryboard: 0

[Editor]
Bookmarks: 29987,68790,142083,226873
DistanceSpacing: 1
BeatDivisor: 4
GridSize: 32
TimelineZoom: 0.7

[Metadata]
Title:Plastic Smile
TitleUnicode:Plastic Smile
Artist:Ishihara Kaori
ArtistUnicode:石原夏織
Creator:Nardoxyribonucleic
Version:Oni
Source:ひげを剃る。そして女子高生を拾う。
Tags:Taiko Hige wo Soru. Soshite Joshikousei wo Hirou. ひげひろ Higehiro After Being Rejected, I Shaved and Took in a High School Runaway JK Ending ED Anime Japanese BlackBq
BeatmapID:2960876
BeatmapSetID:1439002

[Difficulty]
HPDrainRate:5.5
CircleSize:5
OverallDifficulty:6
ApproachRate:7
SliderMultiplier:1.4
SliderTickRate:1

[Events]
//Background and Video events
0,0,"bg3.jpg",0,10
//Break Periods
//Storyboard Layer 0 (Background)
//Storyboard Layer 1 (Fail)
//Storyboard Layer 2 (Pass)
//Storyboard Layer 3 (Foreground)
//Storyboard Layer 4 (Overlay)
//Storyboard Sound Samples

[TimingPoints]
-192,359.281437125748,4,1,0,60,1,0
526,-117.647058823529,4,1,0,60,0,0
5197,-117.647058823529,4,1,0,62,0,0
5376,-116.279069767442,4,1,0,64,0,0
5556,-114.942528735632,4,1,0,66,0,0
5736,-112.994350282486,4,1,0,68,0,0
5915,-111.111111111111,4,1,0,70,0,0
6095,-108.695652173913,4,1,0,72,0,0
6275,-106.382978723404,4,1,0,75,0,0
6364,-105.263157894737,4,1,0,75,0,0
6454,-104.166666666667,4,1,0,75,0,0
6544,-103.092783505155,4,1,0,75,0,0
6634,-102.040816326531,4,1,0,75,0,0
6813,-100,4,1,0,80,0,0
17772,-102.040816326531,4,1,0,80,0,0
17951,-104.166666666667,4,1,0,80,0,0
18041,-105.263157894737,4,1,0,80,0,0
18131,-106.382978723404,4,1,0,80,0,0
18310,-108.695652173913,4,1,0,70,0,0
18490,-111.111111111111,4,1,0,65,0,0
40047,-105.263157894737,4,1,0,75,0,0
41484,-100,4,1,0,80,0,0
55676,-90.9090909090909,4,1,0,80,0,0
55855,-88.8888888888889,4,1,0,80,0,0
56035,-86.9565217391304,4,1,0,80,0,0
56574,-98.0392156862745,4,1,0,80,0,0
56754,-96.1538461538461,4,1,0,80,0,0
56933,-94.3396226415094,4,1,0,80,0,0
57113,-92.5925925925926,4,1,0,80,0,0
57293,-90.9090909090909,4,1,0,90,0,1
79388,-92.5925925925926,4,1,0,90,0,1
79478,-93.4579439252336,4,1,0,90,0,1
79568,-94.3396226415094,4,1,0,90,0,1
79658,-95.2380952380952,4,1,0,90,0,1
79748,-96.1538461538461,4,1,0,90,0,1
79837,-97.0873786407767,4,1,0,90,0,1
79927,-98.0392156862745,4,1,0,90,0,1
80107,-100,4,1,0,80,0,0
91065,-101.010101010101,4,1,0,80,0,0
91155,-101.522842639594,4,1,0,80,0,0
91245,-102.040816326531,4,1,0,80,0,0
91334,-102.564102564103,4,1,0,80,0,0
91424,-103.092783505155,4,1,0,80,0,0
91514,-103.626943005181,4,1,0,80,0,0
91604,-104.166666666667,4,1,0,80,0,0
91784,-105.263157894737,4,1,0,70,0,0
102472,-104.712041884817,4,1,0,70,0,0
102562,-104.166666666667,4,1,0,70,0,0
102742,-103.092783505155,4,1,0,70,0,0
102921,-102.040816326531,4,1,0,70,0,0
103101,-101.010101010101,4,1,0,70,0,0
103281,-100,4,1,0,75,0,0
114778,-100,4,1,0,80,0,0
128969,-90.9090909090909,4,1,0,80,0,0
129149,-88.8888888888889,4,1,0,80,0,0
129328,-86.9565217391304,4,1,0,80,0,0
129867,-98.0392156862745,4,1,0,80,0,0
130047,-96.1538461538461,4,1,0,80,0,0
130227,-94.3396226415094,4,1,0,80,0,0
130406,-92.5925925925926,4,1,0,80,0,0
130586,-90.9090909090909,4,1,0,90,0,1
152682,-92.5925925925926,4,1,0,90,0,1
152772,-93.4579439252336,4,1,0,90,0,1
152861,-94.3396226415094,4,1,0,90,0,1
152951,-95.2380952380952,4,1,0,90,0,1
153041,-96.1538461538461,4,1,0,90,0,1
153131,-97.0873786407767,4,1,0,90,0,1
153221,-98.0392156862745,4,1,0,90,0,1
153400,-100,4,1,0,90,0,0
164538,-104.166666666667,4,1,0,90,0,0
164897,-108.695652173913,4,1,0,85,0,0
165975,-111.111111111111,4,1,0,85,0,0
170107,-106.382978723404,4,1,0,85,0,0
170287,-104.166666666667,4,1,0,85,0,0
170376,-103.092783505155,4,1,0,85,0,0
170466,-102.040816326531,4,1,0,85,0,0
170646,-100,4,1,0,80,0,0
187891,-90.9090909090909,4,1,0,80,0,0
188071,-88.8888888888889,4,1,0,80,0,0
188251,-86.9565217391304,4,1,0,80,0,0
188790,-90.0900900900901,4,1,0,80,0,0
189328,-93.4579439252336,4,1,0,70,0,0
189508,-125,4,1,0,65,0,0
200287,-117.647058823529,4,1,0,65,0,0
200646,-114.285714285714,4,1,0,65,0,0
201005,-111.111111111111,4,1,0,70,0,0
206035,-108.695652173913,4,1,0,70,0,0
206125,-107.52688172043,4,1,0,70,0,0
206215,-106.382978723404,4,1,0,70,0,0
206305,-105.263157894737,4,1,0,70,0,0
206394,-104.166666666667,4,1,0,70,0,0
206484,-103.092783505155,4,1,0,70,0,0
206574,-102.040816326531,4,1,0,70,0,0
206754,-100,4,1,0,80,0,0
213760,-90.9090909090909,4,1,0,80,0,0
213939,-88.8888888888889,4,1,0,80,0,0
214119,-86.9565217391304,4,1,0,80,0,0
214658,-98.0392156862745,4,1,0,80,0,0
214837,-96.1538461538461,4,1,0,80,0,0
215017,-94.3396226415094,4,1,0,80,0,0
215197,-92.5925925925926,4,1,0,80,0,0
215376,-90.9090909090909,4,1,0,90,0,1
237472,-92.5925925925926,4,1,0,90,0,1
237562,-93.4579439252336,4,1,0,90,0,1
237652,-94.3396226415094,4,1,0,90,0,1
237742,-95.2380952380952,4,1,0,90,0,1
237831,-96.1538461538461,4,1,0,90,0,1
237921,-97.0873786407767,4,1,0,90,0,1
238011,-98.0392156862745,4,1,0,90,0,1
238191,-100,4,1,0,80,0,0
249149,-98.0392156862745,4,1,0,80,0,0
249239,-97.0873786407767,4,1,0,80,0,0
249328,-96.1538461538461,4,1,0,80,0,0
249418,-95.2380952380952,4,1,0,80,0,0
249508,-94.3396226415094,4,1,0,80,0,0
249688,-90.9090909090909,4,1,0,70,0,0
251125,-90.9090909090909,4,1,0,60,0,0
252562,-90.9090909090909,4,1,0,50,0,0
253999,-90.9090909090909,4,1,0,40,0,0
255436,-90.9090909090909,4,1,0,30,0,0

[HitObjects]
256,192,526,5,0,0:0:0:0:
256,192,706,1,8,0:0:0:0:
256,192,885,1,0,0:0:0:0:
256,192,1065,1,8,0:0:0:0:
256,192,1245,1,8,0:0:0:0:
256,192,1784,1,0,0:0:0:0:
256,192,1963,1,0,0:0:0:0:
256,192,2502,1,8,0:0:0:0:
256,192,2682,1,8,0:0:0:0:
256,192,3041,1,0,0:0:0:0:
256,192,3400,1,8,0:0:0:0:
256,192,3760,1,0,0:0:0:0:
256,192,4119,1,8,0:0:0:0:
256,192,4478,1,0,0:0:0:0:
256,192,4658,1,0,0:0:0:0:
256,192,4837,1,8,0:0:0:0:
256,192,5197,1,8,0:0:0:0:
256,192,5376,1,0,0:0:0:0:
256,192,5556,1,0,0:0:0:0:
256,192,5736,1,8,0:0:0:0:
256,192,5915,1,8,0:0:0:0:
256,192,6095,1,0,0:0:0:0:
256,192,6275,1,8,0:0:0:0:
256,192,6364,1,0,0:0:0:0:
256,192,6454,1,8,0:0:0:0:
256,192,6544,1,8,0:0:0:0:
256,192,6634,1,0,0:0:0:0:
256,192,6813,1,4,0:0:0:0:
256,192,7173,1,0,0:0:0:0:
256,192,7352,1,8,0:0:0:0:
256,192,7532,1,0,0:0:0:0:
256,192,7712,1,8,0:0:0:0:
256,192,7802,1,8,0:0:0:0:
256,192,7891,1,0,0:0:0:0:
256,192,8071,1,8,0:0:0:0:
256,192,8251,1,0,0:0:0:0:
256,192,8430,1,8,0:0:0:0:
256,192,8520,1,0,0:0:0:0:
256,192,8610,1,0,0:0:0:0:
256,192,8790,1,8,0:0:0:0:
256,192,8969,1,8,0:0:0:0:
256,192,9149,1,0,0:0:0:0:
256,192,9328,1,8,0:0:0:0:
256,192,9418,1,8,0:0:0:0:
256,192,9508,1,8,0:0:0:0:
256,192,9688,1,4,0:0:0:0:
256,192,10047,1,0,0:0:0:0:
256,192,10227,1,8,0:0:0:0:
256,192,10406,1,0,0:0:0:0:
256,192,10496,1,0,0:0:0:0:
256,192,10586,1,8,0:0:0:0:
256,192,10766,1,0,0:0:0:0:
256,192,10945,1,8,0:0:0:0:
256,192,11125,1,8,0:0:0:0:
256,192,11215,1,8,0:0:0:0:
256,192,11305,1,0,0:0:0:0:
256,192,11394,1,0,0:0:0:0:
256,192,11484,1,8,0:0:0:0:
256,192,11664,1,8,0:0:0:0:
256,192,11843,1,0,0:0:0:0:
256,192,12023,1,0,0:0:0:0:
256,192,12203,1,8,0:0:0:0:
256,192,12293,1,8,0:0:0:0:
256,192,12382,1,0,0:0:0:0:
256,192,12562,1,4,0:0:0:0:
256,192,12921,1,0,0:0:0:0:
256,192,13101,1,8,0:0:0:0:
256,192,13281,1,0,0:0:0:0:
256,192,13460,1,8,0:0:0:0:
256,192,13550,1,8,0:0:0:0:
256,192,13640,1,0,0:0:0:0:
256,192,13819,1,8,0:0:0:0:
256,192,13999,1,0,0:0:0:0:
256,192,14179,1,8,0:0:0:0:
256,192,14269,1,0,0:0:0:0:
256,192,14358,1,0,0:0:0:0:
256,192,14538,1,8,0:0:0:0:
256,192,14718,1,0,0:0:0:0:
256,192,14897,1,8,0:0:0:0:
256,192,14987,1,0,0:0:0:0:
256,192,15077,1,8,0:0:0:0:
256,192,15167,1,8,0:0:0:0:
256,192,15257,1,8,0:0:0:0:
256,192,15436,1,4,0:0:0:0:
256,192,15796,1,0,0:0:0:0:
256,192,15975,1,8,0:0:0:0:
256,192,16155,1,0,0:0:0:0:
256,192,16245,1,0,0:0:0:0:
256,192,16334,1,8,0:0:0:0:
256,192,16424,1,8,0:0:0:0:
256,192,16514,1,0,0:0:0:0:
256,192,16694,1,8,0:0:0:0:
256,192,16873,1,12,0:0:0:0:
256,192,17233,1,0,0:0:0:0:
256,192,17322,1,0,0:0:0:0:
256,192,17412,1,8,0:0:0:0:
256,192,17592,1,12,0:0:0:0:
256,192,17772,1,0,0:0:0:0:
256,192,17951,1,0,0:0:0:0:
256,192,18041,1,0,0:0:0:0:
256,192,18131,1,0,0:0:0:0:
256,192,18310,1,8,0:0:0:0:
256,192,18490,1,4,0:0:0:0:
256,192,18849,1,8,0:0:0:0:
256,192,19029,1,0,0:0:0:0:
256,192,19209,1,8,0:0:0:0:
256,192,19748,1,8,0:0:0:0:
256,192,19927,1,0,0:0:0:0:
256,192,20287,1,0,0:0:0:0:
256,192,20466,1,0,0:0:0:0:
256,192,20646,1,8,0:0:0:0:
256,192,21185,1,0,0:0:0:0:
256,192,21364,1,8,0:0:0:0:
256,192,21724,1,8,0:0:0:0:
256,192,21903,1,0,0:0:0:0:
256,192,22083,1,8,0:0:0:0:
256,192,22442,1,0,0:0:0:0:
256,192,22622,1,8,0:0:0:0:
256,192,22802,1,0,0:0:0:0:
256,192,23520,1,8,0:0:0:0:
256,192,23879,1,8,0:0:0:0:
256,192,24239,1,0,0:0:0:0:
256,192,24598,1,8,0:0:0:0:
256,192,24778,1,0,0:0:0:0:
256,192,24957,1,8,0:0:0:0:
256,192,25316,1,8,0:0:0:0:
256,192,25496,1,0,0:0:0:0:
256,192,25676,1,0,0:0:0:0:
256,192,26035,1,0,0:0:0:0:
256,192,26394,1,8,0:0:0:0:
256,192,26574,1,8,0:0:0:0:
256,192,26754,1,0,0:0:0:0:
256,192,27113,1,8,0:0:0:0:
256,192,27652,1,0,0:0:0:0:
256,192,27831,1,8,0:0:0:0:
256,192,28011,1,0,0:0:0:0:
256,192,28191,1,8,0:0:0:0:
256,192,28370,1,8,0:0:0:0:
256,192,28550,1,0,0:0:0:0:
256,192,29269,1,8,0:0:0:0:
256,192,29448,1,0,0:0:0:0:
256,192,29628,1,0,0:0:0:0:
256,192,29807,1,8,0:0:0:0:
256,192,29987,1,4,0:0:0:0:
256,192,30706,1,8,0:0:0:0:
256,192,30885,1,0,0:0:0:0:
256,192,31065,1,8,0:0:0:0:
256,192,31245,1,8,0:0:0:0:
256,192,31424,1,0,0:0:0:0:
256,192,32143,1,8,0:0:0:0:
256,192,32322,1,0,0:0:0:0:
256,192,32502,1,0,0:0:0:0:
256,192,32682,1,8,0:0:0:0:
256,192,32861,1,0,0:0:0:0:
256,192,33221,1,8,0:0:0:0:
256,192,33400,1,8,0:0:0:0:
256,192,33760,1,0,0:0:0:0:
256,192,33939,1,0,0:0:0:0:
256,192,34119,1,8,0:0:0:0:
256,192,34299,1,0,0:0:0:0:
256,192,35017,1,8,0:0:0:0:
256,192,35197,1,0,0:0:0:0:
256,192,35556,1,0,0:0:0:0:
256,192,35736,1,12,0:0:0:0:
256,192,36095,1,0,0:0:0:0:
256,192,36275,1,0,0:0:0:0:
256,192,36454,1,8,0:0:0:0:
256,192,36813,1,0,0:0:0:0:
256,192,36993,1,8,0:0:0:0:
256,192,37173,1,0,0:0:0:0:
256,192,37532,1,0,0:0:0:0:
256,192,37891,1,8,0:0:0:0:
256,192,38071,1,8,0:0:0:0:
256,192,38251,1,0,0:0:0:0:
256,192,38610,1,0,0:0:0:0:
256,192,39149,1,8,0:0:0:0:
256,192,39328,1,8,0:0:0:0:
256,192,40047,1,12,0:0:0:0:
256,192,40227,1,0,0:0:0:0:
256,192,40316,1,0,0:0:0:0:
256,192,40406,1,8,0:0:0:0:
256,192,40586,1,4,0:0:0:0:
256,192,40766,1,8,0:0:0:0:
256,192,40945,1,0,0:0:0:0:
256,192,41125,1,8,0:0:0:0:
256,192,41215,1,0,0:0:0:0:
256,192,41305,1,0,0:0:0:0:
256,192,41484,1,12,0:0:0:0:
256,192,41843,1,8,0:0:0:0:
256,192,42023,1,0,0:0:0:0:
256,192,42113,1,0,0:0:0:0:
256,192,42203,1,8,0:0:0:0:
256,192,42382,1,0,0:0:0:0:
256,192,42562,1,8,0:0:0:0:
256,192,42742,1,0,0:0:0:0:
256,192,42831,1,0,0:0:0:0:
256,192,42921,1,8,0:0:0:0:
256,192,43101,1,0,0:0:0:0:
256,192,43281,1,8,0:0:0:0:
256,192,43460,1,8,0:0:0:0:
256,192,43640,1,0,0:0:0:0:
256,192,43999,1,0,0:0:0:0:
256,192,44179,1,8,0:0:0:0:
256,192,44358,1,0,0:0:0:0:
256,192,44538,1,0,0:0:0:0:
256,192,44718,1,8,0:0:0:0:
256,192,44897,1,8,0:0:0:0:
256,192,44987,1,8,0:0:0:0:
256,192,45077,1,0,0:0:0:0:
256,192,45257,1,0,0:0:0:0:
256,192,45436,1,8,0:0:0:0:
256,192,45796,1,8,0:0:0:0:
256,192,45975,1,0,0:0:0:0:
256,192,46155,1,8,0:0:0:0:
256,192,46334,1,8,0:0:0:0:
256,192,46424,1,0,0:0:0:0:
256,192,46514,1,8,0:0:0:0:
256,192,46604,1,8,0:0:0:0:
256,192,46694,1,0,0:0:0:0:
256,192,46873,1,8,0:0:0:0:
256,192,46963,1,8,0:0:0:0:
256,192,47053,1,0,0:0:0:0:
256,192,47233,1,12,0:0:0:0:
256,192,47592,1,8,0:0:0:0:
256,192,47772,1,0,0:0:0:0:
256,192,47861,1,0,0:0:0:0:
256,192,47951,1,8,0:0:0:0:
256,192,48131,1,0,0:0:0:0:
256,192,48310,1,8,0:0:0:0:
256,192,48490,1,0,0:0:0:0:
256,192,48580,1,0,0:0:0:0:
256,192,48670,1,8,0:0:0:0:
256,192,48849,1,0,0:0:0:0:
256,192,49029,1,8,0:0:0:0:
256,192,49209,1,8,0:0:0:0:
256,192,49388,1,0,0:0:0:0:
256,192,49748,1,0,0:0:0:0:
256,192,49927,1,8,0:0:0:0:
256,192,50107,1,12,0:0:0:0:
256,192,50466,1,0,0:0:0:0:
256,192,50646,1,0,0:0:0:0:
256,192,50825,1,8,0:0:0:0:
256,192,51185,1,0,0:0:0:0:
256,192,51364,1,8,0:0:0:0:
256,192,51454,1,8,0:0:0:0:
256,192,51544,1,0,0:0:0:0:
256,192,51724,1,8,0:0:0:0:
256,192,51903,1,0,0:0:0:0:
256,192,52083,1,8,0:0:0:0:
256,192,52263,1,8,0:0:0:0:
256,192,52622,1,0,0:0:0:0:
256,192,52802,1,8,0:0:0:0:
256,192,52981,1,4,0:0:0:0:
256,192,53340,1,0,0:0:0:0:
256,192,53520,1,0,0:0:0:0:
256,192,53700,1,8,0:0:0:0:
256,192,54059,1,0,0:0:0:0:
256,192,54239,1,8,0:0:0:0:
256,192,54328,1,8,0:0:0:0:
256,192,54418,1,0,0:0:0:0:
256,192,54598,1,0,0:0:0:0:
256,192,54778,1,8,0:0:0:0:
256,192,54957,1,8,0:0:0:0:
256,192,55137,1,0,0:0:0:0:
256,192,55316,1,8,0:0:0:0:
256,192,55406,1,8,0:0:0:0:
256,192,55496,1,8,0:0:0:0:
256,192,55676,1,4,0:0:0:0:
256,192,56035,1,12,0:0:0:0:
256,192,56215,1,12,0:0:0:0:
256,192,56574,1,0,0:0:0:0:
256,192,56754,1,0,0:0:0:0:
256,192,56933,1,8,0:0:0:0:
256,192,57113,1,8,0:0:0:0:
256,192,57293,1,4,0:0:0:0:
256,192,57652,1,8,0:0:0:0:
256,192,57831,1,0,0:0:0:0:
256,192,57921,1,0,0:0:0:0:
256,192,58011,1,0,0:0:0:0:
256,192,58191,1,0,0:0:0:0:
256,192,58370,1,8,0:0:0:0:
256,192,58550,1,0,0:0:0:0:
256,192,58640,1,0,0:0:0:0:
256,192,58730,1,8,0:0:0:0:
256,192,58819,1,8,0:0:0:0:
256,192,58909,1,0,0:0:0:0:
256,192,59089,1,8,0:0:0:0:
256,192,59269,1,0,0:0:0:0:
256,192,59358,1,8,0:0:0:0:
256,192,59448,1,0,0:0:0:0:
256,192,59628,1,0,0:0:0:0:
256,192,59807,1,8,0:0:0:0:
256,192,59987,1,8,0:0:0:0:
256,192,60077,1,0,0:0:0:0:
256,192,60167,1,0,0:0:0:0:
256,192,60346,1,0,0:0:0:0:
256,192,60436,1,0,0:0:0:0:
256,192,60526,1,8,0:0:0:0:
256,192,60706,1,8,0:0:0:0:
256,192,60885,1,0,0:0:0:0:
256,192,61065,1,8,0:0:0:0:
256,192,61155,1,0,0:0:0:0:
256,192,61245,1,8,0:0:0:0:
256,192,61424,1,0,0:0:0:0:
256,192,61604,1,8,0:0:0:0:
256,192,61963,1,8,0:0:0:0:
256,192,62143,1,8,0:0:0:0:
256,192,62233,1,8,0:0:0:0:
256,192,62322,1,0,0:0:0:0:
256,192,62502,1,0,0:0:0:0:
256,192,62682,1,8,0:0:0:0:
256,192,62861,1,8,0:0:0:0:
256,192,63041,1,4,0:0:0:0:
256,192,63221,1,8,0:0:0:0:
256,192,63310,1,8,0:0:0:0:
256,192,63400,1,8,0:0:0:0:
256,192,63580,1,0,0:0:0:0:
256,192,63670,1,8,0:0:0:0:
256,192,63760,1,0,0:0:0:0:
256,192,63939,1,8,0:0:0:0:
256,192,64119,1,0,0:0:0:0:
256,192,64299,1,0,0:0:0:0:
256,192,64388,1,0,0:0:0:0:
256,192,64478,1,8,0:0:0:0:
256,192,64658,1,0,0:0:0:0:
256,192,64837,1,8,0:0:0:0:
256,192,64927,1,8,0:0:0:0:
256,192,65017,1,0,0:0:0:0:
256,192,65107,1,0,0:0:0:0:
256,192,65197,1,8,0:0:0:0:
256,192,65376,1,0,0:0:0:0:
256,192,65556,1,8,0:0:0:0:
256,192,65736,1,0,0:0:0:0:
256,192,65825,1,0,0:0:0:0:
256,192,65915,1,8,0:0:0:0:
256,192,66095,1,0,0:0:0:0:
256,192,66185,1,8,0:0:0:0:
256,192,66275,1,0,0:0:0:0:
256,192,66454,1,8,0:0:0:0:
256,192,66544,1,0,0:0:0:0:
256,192,66634,1,8,0:0:0:0:
256,192,66724,1,8,0:0:0:0:
256,192,66813,1,0,0:0:0:0:
256,192,66993,1,12,0:0:0:0:
256,192,67352,1,8,0:0:0:0:
256,192,67532,1,0,0:0:0:0:
256,192,67622,1,0,0:0:0:0:
256,192,67712,1,8,0:0:0:0:
256,192,67891,1,4,0:0:0:0:
256,192,68251,1,8,0:0:0:0:
256,192,68340,1,8,0:0:0:0:
256,192,68430,1,8,0:0:0:0:
256,192,68520,1,8,0:0:0:0:
256,192,68610,1,0,0:0:0:0:
256,192,68790,1,4,0:0:0:0:
256,192,69149,1,8,0:0:0:0:
256,192,69328,1,0,0:0:0:0:
256,192,69418,1,0,0:0:0:0:
256,192,69508,1,0,0:0:0:0:
256,192,69688,1,0,0:0:0:0:
256,192,69867,1,8,0:0:0:0:
256,192,70047,1,0,0:0:0:0:
256,192,70137,1,0,0:0:0:0:
256,192,70227,1,8,0:0:0:0:
256,192,70316,1,8,0:0:0:0:
256,192,70406,1,0,0:0:0:0:
256,192,70586,1,8,0:0:0:0:
256,192,70766,1,0,0:0:0:0:
256,192,70855,1,8,0:0:0:0:
256,192,70945,1,8,0:0:0:0:
256,192,71125,1,0,0:0:0:0:
256,192,71305,1,8,0:0:0:0:
256,192,71484,1,0,0:0:0:0:
256,192,71574,1,0,0:0:0:0:
256,192,71664,1,8,0:0:0:0:
256,192,71843,1,8,0:0:0:0:
256,192,71933,1,0,0:0:0:0:
256,192,72023,1,0,0:0:0:0:
256,192,72203,1,0,0:0:0:0:
256,192,72382,1,0,0:0:0:0:
256,192,72472,1,8,0:0:0:0:
256,192,72562,1,0,0:0:0:0:
256,192,72652,1,0,0:0:0:0:
256,192,72742,1,8,0:0:0:0:
256,192,72921,1,0,0:0:0:0:
256,192,73011,1,0,0:0:0:0:
256,192,73101,1,8,0:0:0:0:
256,192,73281,1,8,0:0:0:0:
256,192,73370,1,8,0:0:0:0:
256,192,73460,1,0,0:0:0:0:
256,192,73640,1,12,0:0:0:0:
256,192,73999,1,8,0:0:0:0:
256,192,74179,1,0,0:0:0:0:
256,192,74358,1,0,0:0:0:0:
256,192,74448,1,0,0:0:0:0:
256,192,74538,1,8,0:0:0:0:
256,192,74718,1,0,0:0:0:0:
256,192,74897,1,8,0:0:0:0:
256,192,74987,1,8,0:0:0:0:
256,192,75077,1,0,0:0:0:0:
256,192,75167,1,0,0:0:0:0:
256,192,75257,1,8,0:0:0:0:
256,192,75436,1,0,0:0:0:0:
256,192,75616,1,8,0:0:0:0:
256,192,75706,1,8,0:0:0:0:
256,192,75796,1,0,0:0:0:0:
256,192,75975,1,8,0:0:0:0:
256,192,76155,1,0,0:0:0:0:
256,192,76245,1,0,0:0:0:0:
256,192,76334,1,8,0:0:0:0:
256,192,76424,1,8,0:0:0:0:
256,192,76514,1,0,0:0:0:0:
256,192,76694,1,8,0:0:0:0:
256,192,76873,1,0,0:0:0:0:
256,192,77053,1,8,0:0:0:0:
256,192,77412,1,4,0:0:0:0:
256,192,77951,1,8,0:0:0:0:
256,192,78131,1,8,0:0:0:0:
256,192,78490,1,0,0:0:0:0:
256,192,78580,1,0,0:0:0:0:
256,192,78670,1,0,0:0:0:0:
256,192,78849,1,12,0:0:0:0:
256,192,79209,1,0,0:0:0:0:
256,192,79388,1,8,0:0:0:0:
256,192,79478,1,0,0:0:0:0:
256,192,79568,1,0,0:0:0:0:
256,192,79658,1,0,0:0:0:0:
256,192,79748,1,8,0:0:0:0:
256,192,79837,1,8,0:0:0:0:
256,192,79927,1,0,0:0:0:0:
256,192,80107,1,4,0:0:0:0:
256,192,80466,1,0,0:0:0:0:
256,192,80646,1,8,0:0:0:0:
256,192,80825,1,0,0:0:0:0:
256,192,81005,1,8,0:0:0:0:
256,192,81095,1,8,0:0:0:0:
256,192,81185,1,0,0:0:0:0:
256,192,81364,1,8,0:0:0:0:
256,192,81544,1,0,0:0:0:0:
256,192,81724,1,8,0:0:0:0:
256,192,81813,1,0,0:0:0:0:
256,192,81903,1,0,0:0:0:0:
256,192,82083,1,8,0:0:0:0:
256,192,82263,1,8,0:0:0:0:
256,192,82442,1,0,0:0:0:0:
256,192,82532,1,0,0:0:0:0:
256,192,82622,1,8,0:0:0:0:
256,192,82712,1,8,0:0:0:0:
256,192,82802,1,8,0:0:0:0:
256,192,82981,1,4,0:0:0:0:
256,192,83340,1,0,0:0:0:0:
256,192,83520,1,8,0:0:0:0:
256,192,83700,1,0,0:0:0:0:
256,192,83790,1,0,0:0:0:0:
256,192,83879,1,8,0:0:0:0:
256,192,84059,1,0,0:0:0:0:
256,192,84239,1,8,0:0:0:0:
256,192,84418,1,8,0:0:0:0:
256,192,84508,1,8,0:0:0:0:
256,192,84598,1,0,0:0:0:0:
256,192,84688,1,0,0:0:0:0:
256,192,84778,1,8,0:0:0:0:
256,192,84957,1,8,0:0:0:0:
256,192,85137,1,0,0:0:0:0:
256,192,85316,1,0,0:0:0:0:
256,192,85406,1,0,0:0:0:0:
256,192,85496,1,8,0:0:0:0:
256,192,85586,1,8,0:0:0:0:
256,192,85676,1,0,0:0:0:0:
256,192,85855,1,4,0:0:0:0:
256,192,86215,1,0,0:0:0:0:
256,192,86394,1,12,0:0:0:0:
256,192,86574,1,0,0:0:0:0:
256,192,86754,1,8,0:0:0:0:
256,192,86843,1,8,0:0:0:0:
256,192,86933,1,0,0:0:0:0:
256,192,87113,1,8,0:0:0:0:
256,192,87293,1,0,0:0:0:0:
256,192,87472,1,8,0:0:0:0:
256,192,87562,1,0,0:0:0:0:
256,192,87652,1,0,0:0:0:0:
256,192,87831,1,8,0:0:0:0:
256,192,88011,1,0,0:0:0:0:
256,192,88191,1,8,0:0:0:0:
256,192,88281,1,0,0:0:0:0:
256,192,88370,1,8,0:0:0:0:
256,192,88460,1,8,0:0:0:0:
256,192,88550,1,8,0:0:0:0:
256,192,88730,1,4,0:0:0:0:
256,192,89089,1,0,0:0:0:0:
256,192,89269,1,8,0:0:0:0:
256,192,89448,1,0,0:0:0:0:
256,192,89538,1,0,0:0:0:0:
256,192,89628,1,8,0:0:0:0:
256,192,89718,1,8,0:0:0:0:
256,192,89807,1,0,0:0:0:0:
256,192,89987,1,8,0:0:0:0:
256,192,90167,1,12,0:0:0:0:
256,192,90526,1,8,0:0:0:0:
256,192,90616,1,0,0:0:0:0:
256,192,90706,1,8,0:0:0:0:
256,192,90885,1,4,0:0:0:0:
256,192,91065,1,8,0:0:0:0:
256,192,91155,1,8,0:0:0:0:
256,192,91245,1,0,0:0:0:0:
256,192,91334,1,0,0:0:0:0:
256,192,91424,1,8,0:0:0:0:
256,192,91514,1,0,0:0:0:0:
256,192,91604,1,0,0:0:0:0:
256,192,91784,1,4,0:0:0:0:
256,192,92143,1,8,0:0:0:0:
256,192,92322,1,8,0:0:0:0:
256,192,92502,1,0,0:0:0:0:
256,192,92861,1,0,0:0:0:0:
256,192,93041,1,8,0:0:0:0:
256,192,93221,1,0,0:0:0:0:
256,192,93580,1,8,0:0:0:0:
256,192,93760,1,8,0:0:0:0:
256,192,93939,1,0,0:0:0:0:
256,192,94299,1,8,0:0:0:0:
256,192,94478,1,0,0:0:0:0:
256,192,94658,1,8,0:0:0:0:
256,192,95017,1,8,0:0:0:0:
256,192,95197,1,0,0:0:0:0:
256,192,95376,1,0,0:0:0:0:
256,192,95736,1,0,0:0:0:0:
256,192,95915,1,8,0:0:0:0:
256,192,96095,1,0,0:0:0:0:
256,192,96454,1,0,0:0:0:0:
256,192,96813,1,8,0:0:0:0:
256,192,97173,1,8,0:0:0:0:
256,192,97532,1,0,0:0:0:0:
256,192,97891,1,8,0:0:0:0:
256,192,98071,1,0,0:0:0:0:
256,192,98251,1,8,0:0:0:0:
256,192,98610,1,8,0:0:0:0:
256,192,98790,1,0,0:0:0:0:
256,192,98969,1,0,0:0:0:0:
256,192,99328,1,8,0:0:0:0:
256,192,99688,1,0,0:0:0:0:
256,192,99867,1,0,0:0:0:0:
256,192,100047,1,8,0:0:0:0:
256,192,100406,1,8,0:0:0:0:
256,192,100766,1,0,0:0:0:0:
256,192,100945,1,8,0:0:0:0:
256,192,101125,1,8,0:0:0:0:
256,192,101305,1,0,0:0:0:0:
256,192,101484,1,8,0:0:0:0:
256,192,101664,1,8,0:0:0:0:
256,192,101843,1,0,0:0:0:0:
256,192,102203,1,8,0:0:0:0:
256,192,102382,1,0,0:0:0:0:
256,192,102472,1,8,0:0:0:0:
256,192,102562,1,8,0:0:0:0:
256,192,102742,1,0,0:0:0:0:
256,192,102921,1,8,0:0:0:0:
256,192,103101,1,8,0:0:0:0:
256,192,103281,1,4,0:0:0:0:
256,192,103640,1,8,0:0:0:0:
256,192,103819,1,0,0:0:0:0:
256,192,104179,1,0,0:0:0:0:
256,192,104358,1,8,0:0:0:0:
256,192,104538,1,8,0:0:0:0:
256,192,104718,1,0,0:0:0:0:
256,192,105077,1,8,0:0:0:0:
256,192,105346,1,8,0:0:0:0:
256,192,105436,1,0,0:0:0:0:
256,192,105616,1,0,0:0:0:0:
256,192,105796,1,8,0:0:0:0:
256,192,105975,1,8,0:0:0:0:
256,192,106155,1,0,0:0:0:0:
256,192,106514,1,8,0:0:0:0:
256,192,106694,1,0,0:0:0:0:
256,192,106784,1,0,0:0:0:0:
256,192,106873,1,0,0:0:0:0:
256,192,107053,1,0,0:0:0:0:
256,192,107233,1,8,0:0:0:0:
256,192,107412,1,8,0:0:0:0:
256,192,107502,1,8,0:0:0:0:
256,192,107592,1,0,0:0:0:0:
256,192,107772,1,0,0:0:0:0:
256,192,107951,1,8,0:0:0:0:
256,192,108221,1,8,0:0:0:0:
256,192,108310,1,0,0:0:0:0:
256,192,108490,1,0,0:0:0:0:
256,192,108670,1,8,0:0:0:0:
256,192,108849,1,0,0:0:0:0:
256,192,109029,1,4,0:0:0:0:
256,192,109209,1,8,0:0:0:0:
256,192,109388,1,8,0:0:0:0:
256,192,109748,1,0,0:0:0:0:
256,192,109927,1,0,0:0:0:0:
256,192,110107,1,8,0:0:0:0:
256,192,110287,1,8,0:0:0:0:
256,192,110466,1,0,0:0:0:0:
256,192,110825,1,8,0:0:0:0:
256,192,111185,1,0,0:0:0:0:
256,192,111364,1,0,0:0:0:0:
256,192,111544,1,8,0:0:0:0:
256,192,111903,1,4,0:0:0:0:
256,192,112263,1,8,0:0:0:0:
256,192,112442,1,8,0:0:0:0:
256,192,112532,1,8,0:0:0:0:
256,192,112622,1,8,0:0:0:0:
256,192,112802,1,0,0:0:0:0:
256,192,112981,1,8,0:0:0:0:
256,192,113161,1,0,0:0:0:0:
256,192,113340,1,12,0:0:0:0:
256,192,113520,1,0,0:0:0:0:
256,192,113610,1,0,0:0:0:0:
256,192,113700,1,8,0:0:0:0:
256,192,113879,1,4,0:0:0:0:
256,192,114059,1,8,0:0:0:0:
256,192,114239,1,8,0:0:0:0:
256,192,114328,1,8,0:0:0:0:
256,192,114418,1,8,0:0:0:0:
256,192,114508,1,0,0:0:0:0:
256,192,114598,1,0,0:0:0:0:
256,192,114778,1,12,0:0:0:0:
256,192,115137,1,8,0:0:0:0:
256,192,115316,1,0,0:0:0:0:
256,192,115406,1,0,0:0:0:0:
256,192,115496,1,8,0:0:0:0:
256,192,115586,1,8,0:0:0:0:
256,192,115676,1,0,0:0:0:0:
256,192,115855,1,8,0:0:0:0:
256,192,116035,1,0,0:0:0:0:
256,192,116125,1,0,0:0:0:0:
256,192,116215,1,8,0:0:0:0:
256,192,116394,1,0,0:0:0:0:
256,192,116574,1,8,0:0:0:0:
256,192,116754,1,8,0:0:0:0:
256,192,116933,1,0,0:0:0:0:
256,192,117293,1,0,0:0:0:0:
256,192,117472,1,8,0:0:0:0:
256,192,117652,1,0,0:0:0:0:
256,192,117831,1,0,0:0:0:0:
256,192,118011,1,8,0:0:0:0:
256,192,118191,1,8,0:0:0:0:
256,192,118281,1,8,0:0:0:0:
256,192,118370,1,0,0:0:0:0:
256,192,118550,1,0,0:0:0:0:
256,192,118730,1,8,0:0:0:0:
256,192,119089,1,8,0:0:0:0:
256,192,119269,1,0,0:0:0:0:
256,192,119448,1,8,0:0:0:0:
256,192,119628,1,8,0:0:0:0:
256,192,119718,1,0,0:0:0:0:
256,192,119807,1,8,0:0:0:0:
256,192,119897,1,8,0:0:0:0:
256,192,119987,1,0,0:0:0:0:
256,192,120167,1,8,0:0:0:0:
256,192,120257,1,8,0:0:0:0:
256,192,120346,1,0,0:0:0:0:
256,192,120526,1,12,0:0:0:0:
256,192,120885,1,8,0:0:0:0:
256,192,121065,1,0,0:0:0:0:
256,192,121155,1,0,0:0:0:0:
256,192,121245,1,8,0:0:0:0:
256,192,121334,1,8,0:0:0:0:
256,192,121424,1,0,0:0:0:0:
256,192,121604,1,8,0:0:0:0:
256,192,121784,1,0,0:0:0:0:
256,192,121873,1,0,0:0:0:0:
256,192,121963,1,8,0:0:0:0:
256,192,122143,1,0,0:0:0:0:
256,192,122322,1,8,0:0:0:0:
256,192,122502,1,8,0:0:0:0:
256,192,122682,1,0,0:0:0:0:
256,192,123041,1,0,0:0:0:0:
256,192,123221,1,8,0:0:0:0:
256,192,123400,1,12,0:0:0:0:
256,192,123760,1,0,0:0:0:0:
256,192,123939,1,0,0:0:0:0:
256,192,124119,1,8,0:0:0:0:
256,192,124478,1,0,0:0:0:0:
256,192,124658,1,8,0:0:0:0:
256,192,124748,1,8,0:0:0:0:
256,192,124837,1,0,0:0:0:0:
256,192,125017,1,8,0:0:0:0:
256,192,125197,1,0,0:0:0:0:
256,192,125376,1,8,0:0:0:0:
256,192,125556,1,12,0:0:0:0:
256,192,125915,1,0,0:0:0:0:
256,192,126095,1,8,0:0:0:0:
256,192,126275,1,4,0:0:0:0:
256,192,126634,1,0,0:0:0:0:
256,192,126813,1,0,0:0:0:0:
256,192,126993,1,8,0:0:0:0:
256,192,127352,1,0,0:0:0:0:
256,192,127532,1,8,0:0:0:0:
256,192,127622,1,8,0:0:0:0:
256,192,127712,1,0,0:0:0:0:
256,192,127891,1,0,0:0:0:0:
256,192,128071,1,8,0:0:0:0:
256,192,128251,1,8,0:0:0:0:
256,192,128340,1,0,0:0:0:0:
256,192,128430,1,0,0:0:0:0:
256,192,128610,1,8,0:0:0:0:
256,192,128700,1,8,0:0:0:0:
256,192,128790,1,8,0:0:0:0:
256,192,128969,1,4,0:0:0:0:
256,192,129328,1,12,0:0:0:0:
256,192,129508,1,12,0:0:0:0:
256,192,129867,1,0,0:0:0:0:
256,192,130047,1,0,0:0:0:0:
256,192,130227,1,8,0:0:0:0:
256,192,130406,1,8,0:0:0:0:
256,192,130586,1,4,0:0:0:0:
256,192,130945,1,8,0:0:0:0:
256,192,131125,1,0,0:0:0:0:
256,192,131215,1,0,0:0:0:0:
256,192,131305,1,0,0:0:0:0:
256,192,131484,1,0,0:0:0:0:
256,192,131664,1,8,0:0:0:0:
256,192,131843,1,0,0:0:0:0:
256,192,131933,1,0,0:0:0:0:
256,192,132023,1,8,0:0:0:0:
256,192,132113,1,8,0:0:0:0:
256,192,132203,1,0,0:0:0:0:
256,192,132382,1,8,0:0:0:0:
256,192,132562,1,0,0:0:0:0:
256,192,132652,1,8,0:0:0:0:
256,192,132742,1,0,0:0:0:0:
256,192,132921,1,0,0:0:0:0:
256,192,133101,1,8,0:0:0:0:
256,192,133281,1,8,0:0:0:0:
256,192,133370,1,0,0:0:0:0:
256,192,133460,1,0,0:0:0:0:
256,192,133640,1,0,0:0:0:0:
256,192,133730,1,0,0:0:0:0:
256,192,133819,1,8,0:0:0:0:
256,192,133999,1,8,0:0:0:0:
256,192,134179,1,0,0:0:0:0:
256,192,134358,1,8,0:0:0:0:
256,192,134448,1,0,0:0:0:0:
256,192,134538,1,8,0:0:0:0:
256,192,134718,1,0,0:0:0:0:
256,192,134897,1,8,0:0:0:0:
256,192,135257,1,8,0:0:0:0:
256,192,135436,1,8,0:0:0:0:
256,192,135526,1,8,0:0:0:0:
256,192,135616,1,0,0:0:0:0:
256,192,135706,1,0,0:0:0:0:
256,192,135796,1,0,0:0:0:0:
256,192,135975,1,12,0:0:0:0:
256,192,136155,1,8,0:0:0:0:
256,192,136334,1,4,0:0:0:0:
256,192,136514,1,8,0:0:0:0:
256,192,136604,1,8,0:0:0:0:
256,192,136694,1,8,0:0:0:0:
256,192,136873,1,0,0:0:0:0:
256,192,136963,1,8,0:0:0:0:
256,192,137053,1,0,0:0:0:0:
256,192,137233,1,8,0:0:0:0:
256,192,137412,1,0,0:0:0:0:
256,192,137592,1,0,0:0:0:0:
256,192,137682,1,0,0:0:0:0:
256,192,137772,1,8,0:0:0:0:
256,192,137951,1,0,0:0:0:0:
256,192,138131,1,8,0:0:0:0:
256,192,138221,1,8,0:0:0:0:
256,192,138310,1,0,0:0:0:0:
256,192,138400,1,0,0:0:0:0:
256,192,138490,1,8,0:0:0:0:
256,192,138670,1,0,0:0:0:0:
256,192,138849,1,8,0:0:0:0:
256,192,139029,1,0,0:0:0:0:
256,192,139119,1,0,0:0:0:0:
256,192,139209,1,8,0:0:0:0:
256,192,139299,1,8,0:0:0:0:
256,192,139388,1,0,0:0:0:0:
256,192,139568,1,0,0:0:0:0:
256,192,139748,1,8,0:0:0:0:
256,192,139837,1,0,0:0:0:0:
256,192,139927,1,8,0:0:0:0:
256,192,140017,1,8,0:0:0:0:
256,192,140107,1,0,0:0:0:0:
256,192,140287,1,12,0:0:0:0:
256,192,140646,1,8,0:0:0:0:
256,192,140825,1,0,0:0:0:0:
256,192,140915,1,0,0:0:0:0:
256,192,141005,1,8,0:0:0:0:
256,192,141185,1,4,0:0:0:0:
256,192,141364,1,0,0:0:0:0:
256,192,141544,1,8,0:0:0:0:
256,192,141634,1,8,0:0:0:0:
256,192,141724,1,8,0:0:0:0:
256,192,141813,1,8,0:0:0:0:
256,192,141903,1,0,0:0:0:0:
256,192,142083,1,4,0:0:0:0:
256,192,142442,1,8,0:0:0:0:
256,192,142622,1,0,0:0:0:0:
256,192,142712,1,0,0:0:0:0:
256,192,142802,1,0,0:0:0:0:
256,192,142981,1,0,0:0:0:0:
256,192,143161,1,8,0:0:0:0:
256,192,143340,1,0,0:0:0:0:
256,192,143430,1,0,0:0:0:0:
256,192,143520,1,8,0:0:0:0:
256,192,143610,1,8,0:0:0:0:
256,192,143700,1,0,0:0:0:0:
256,192,143879,1,8,0:0:0:0:
256,192,144059,1,0,0:0:0:0:
256,192,144149,1,8,0:0:0:0:
256,192,144239,1,8,0:0:0:0:
256,192,144418,1,0,0:0:0:0:
256,192,144598,1,8,0:0:0:0:
256,192,144778,1,0,0:0:0:0:
256,192,144867,1,0,0:0:0:0:
256,192,144957,1,8,0:0:0:0:
256,192,145137,1,8,0:0:0:0:
256,192,145227,1,0,0:0:0:0:
256,192,145316,1,0,0:0:0:0:
256,192,145496,1,0,0:0:0:0:
256,192,145676,1,0,0:0:0:0:
256,192,145766,1,8,0:0:0:0:
256,192,145855,1,0,0:0:0:0:
256,192,145945,1,0,0:0:0:0:
256,192,146035,1,8,0:0:0:0:
256,192,146215,1,0,0:0:0:0:
256,192,146305,1,0,0:0:0:0:
256,192,146394,1,8,0:0:0:0:
256,192,146484,1,8,0:0:0:0:
256,192,146574,1,8,0:0:0:0:
256,192,146664,1,8,0:0:0:0:
256,192,146754,1,0,0:0:0:0:
256,192,146933,1,12,0:0:0:0:
256,192,147293,1,8,0:0:0:0:
256,192,147472,1,0,0:0:0:0:
256,192,147652,1,0,0:0:0:0:
256,192,147742,1,0,0:0:0:0:
256,192,147831,1,8,0:0:0:0:
256,192,148011,1,0,0:0:0:0:
256,192,148191,1,8,0:0:0:0:
256,192,148281,1,8,0:0:0:0:
256,192,148370,1,0,0:0:0:0:
256,192,148460,1,0,0:0:0:0:
256,192,148550,1,8,0:0:0:0:
256,192,148730,1,0,0:0:0:0:
256,192,148909,1,8,0:0:0:0:
256,192,148999,1,8,0:0:0:0:
256,192,149089,1,0,0:0:0:0:
256,192,149269,1,8,0:0:0:0:
256,192,149448,1,0,0:0:0:0:
256,192,149538,1,0,0:0:0:0:
256,192,149628,1,8,0:0:0:0:
256,192,149718,1,8,0:0:0:0:
256,192,149807,1,0,0:0:0:0:
256,192,149987,1,8,0:0:0:0:
256,192,150167,1,0,0:0:0:0:
256,192,150346,1,8,0:0:0:0:
256,192,150706,1,4,0:0:0:0:
256,192,151245,1,8,0:0:0:0:
256,192,151424,1,8,0:0:0:0:
256,192,151604,1,0,0:0:0:0:
256,192,151784,1,0,0:0:0:0:
256,192,151873,1,0,0:0:0:0:
256,192,151963,1,0,0:0:0:0:
256,192,152143,1,12,0:0:0:0:
256,192,152502,1,0,0:0:0:0:
256,192,152682,1,8,0:0:0:0:
256,192,152772,1,0,0:0:0:0:
256,192,152861,1,0,0:0:0:0:
256,192,152951,1,0,0:0:0:0:
256,192,153041,1,8,0:0:0:0:
256,192,153131,1,8,0:0:0:0:
256,192,153221,1,0,0:0:0:0:
256,192,153400,1,4,0:0:0:0:
256,192,153760,1,0,0:0:0:0:
256,192,153939,1,8,0:0:0:0:
256,192,154029,1,8,0:0:0:0:
256,192,154119,1,0,0:0:0:0:
256,192,154299,1,8,0:0:0:0:
256,192,154478,1,0,0:0:0:0:
256,192,154568,1,0,0:0:0:0:
256,192,154658,1,8,0:0:0:0:
256,192,154837,1,0,0:0:0:0:
256,192,155197,1,0,0:0:0:0:
256,192,155287,1,8,0:0:0:0:
256,192,155376,1,8,0:0:0:0:
256,192,155556,1,0,0:0:0:0:
256,192,155736,1,8,0:0:0:0:
256,192,155915,1,8,0:0:0:0:
256,192,156005,1,0,0:0:0:0:
256,192,156095,1,0,0:0:0:0:
256,192,156275,1,12,0:0:0:0:
256,192,156454,1,0,0:0:0:0:
256,192,156544,1,0,0:0:0:0:
256,192,156634,1,0,0:0:0:0:
256,192,156813,1,8,0:0:0:0:
256,192,156993,1,4,0:0:0:0:
256,192,157173,1,8,0:0:0:0:
256,192,157263,1,8,0:0:0:0:
256,192,157352,1,8,0:0:0:0:
256,192,157532,1,8,0:0:0:0:
256,192,157712,1,4,0:0:0:0:
256,192,158071,1,0,0:0:0:0:
256,192,158251,1,8,0:0:0:0:
256,192,158340,1,0,0:0:0:0:
256,192,158430,1,8,0:0:0:0:
256,192,158610,1,0,0:0:0:0:
256,192,158790,1,8,0:0:0:0:
256,192,158879,1,8,0:0:0:0:
256,192,158969,1,8,0:0:0:0:
256,192,159059,1,8,0:0:0:0:
256,192,159149,1,0,0:0:0:0:
256,192,159508,1,0,0:0:0:0:
256,192,159688,1,8,0:0:0:0:
256,192,159778,1,8,0:0:0:0:
256,192,159867,1,0,0:0:0:0:
256,192,160047,1,8,0:0:0:0:
256,192,160227,1,0,0:0:0:0:
256,192,160406,1,0,0:0:0:0:
256,192,160496,1,0,0:0:0:0:
256,192,160586,1,8,0:0:0:0:
256,192,160945,1,8,0:0:0:0:
256,192,161035,1,0,0:0:0:0:
256,192,161125,1,0,0:0:0:0:
256,192,161305,1,8,0:0:0:0:
256,192,161394,1,8,0:0:0:0:
256,192,161484,1,0,0:0:0:0:
256,192,161574,1,8,0:0:0:0:
256,192,161664,1,0,0:0:0:0:
256,192,161843,1,8,0:0:0:0:
256,192,162023,1,4,0:0:0:0:
256,192,162382,1,8,0:0:0:0:
256,192,162472,1,0,0:0:0:0:
256,192,162562,1,8,0:0:0:0:
256,192,162742,1,0,0:0:0:0:
256,192,162921,1,8,0:0:0:0:
256,192,163011,1,8,0:0:0:0:
256,192,163101,1,0,0:0:0:0:
256,192,163191,1,0,0:0:0:0:
256,192,163281,1,8,0:0:0:0:
256,192,163460,1,4,0:0:0:0:
256,192,163640,1,0,0:0:0:0:
256,192,163730,1,8,0:0:0:0:
256,192,163819,1,0,0:0:0:0:
256,192,163909,1,0,0:0:0:0:
256,192,163999,1,8,0:0:0:0:
256,192,164089,1,8,0:0:0:0:
256,192,164179,1,0,0:0:0:0:
256,192,164538,1,12,0:0:0:0:
256,192,164897,1,4,0:0:0:0:
256,192,165975,1,12,0:0:0:0:
256,192,166334,1,4,0:0:0:0:
256,192,167412,1,4,0:0:0:0:
256,192,167772,1,4,0:0:0:0:
256,192,168849,1,4,0:0:0:0:
256,192,169209,1,12,0:0:0:0:
256,192,170107,1,8,0:0:0:0:
256,192,170287,1,0,0:0:0:0:
256,192,170376,1,0,0:0:0:0:
256,192,170466,1,0,0:0:0:0:
256,192,170646,1,4,0:0:0:0:
256,192,171005,1,8,0:0:0:0:
256,192,171185,1,8,0:0:0:0:
256,192,171364,1,0,0:0:0:0:
256,192,171454,1,0,0:0:0:0:
256,192,171544,1,8,0:0:0:0:
256,192,171724,1,0,0:0:0:0:
256,192,171903,1,0,0:0:0:0:
256,192,172083,1,8,0:0:0:0:
256,192,172442,1,8,0:0:0:0:
256,192,172622,1,8,0:0:0:0:
256,192,172802,1,0,0:0:0:0:
256,192,172981,1,8,0:0:0:0:
256,192,173161,1,0,0:0:0:0:
256,192,173251,1,0,0:0:0:0:
256,192,173340,1,0,0:0:0:0:
256,192,173430,1,0,0:0:0:0:
256,192,173520,1,8,0:0:0:0:
256,192,173879,1,8,0:0:0:0:
256,192,174059,1,8,0:0:0:0:
256,192,174149,1,8,0:0:0:0:
256,192,174239,1,0,0:0:0:0:
256,192,174418,1,8,0:0:0:0:
256,192,174598,1,0,0:0:0:0:
256,192,174688,1,0,0:0:0:0:
256,192,174778,1,0,0:0:0:0:
256,192,174957,1,0,0:0:0:0:
256,192,175137,1,12,0:0:0:0:
256,192,175316,1,0,0:0:0:0:
256,192,175406,1,0,0:0:0:0:
256,192,175496,1,8,0:0:0:0:
256,192,175676,1,0,0:0:0:0:
256,192,176035,1,8,0:0:0:0:
256,192,176215,1,8,0:0:0:0:
256,192,176394,1,4,0:0:0:0:
256,192,176754,1,0,0:0:0:0:
256,192,176933,1,8,0:0:0:0:
256,192,177113,1,8,0:0:0:0:
256,192,177203,1,8,0:0:0:0:
256,192,177293,1,0,0:0:0:0:
256,192,177472,1,0,0:0:0:0:
256,192,177652,1,8,0:0:0:0:
256,192,177831,1,8,0:0:0:0:
256,192,177921,1,8,0:0:0:0:
256,192,178011,1,8,0:0:0:0:
256,192,178191,1,0,0:0:0:0:
256,192,178370,1,8,0:0:0:0:
256,192,178550,1,8,0:0:0:0:
256,192,178730,1,0,0:0:0:0:
256,192,178909,1,0,0:0:0:0:
256,192,178999,1,0,0:0:0:0:
256,192,179089,1,8,0:0:0:0:
256,192,179269,1,4,0:0:0:0:
256,192,179628,1,0,0:0:0:0:
256,192,179807,1,8,0:0:0:0:
256,192,179987,1,0,0:0:0:0:
256,192,180077,1,0,0:0:0:0:
256,192,180167,1,0,0:0:0:0:
256,192,180346,1,8,0:0:0:0:
256,192,180526,1,8,0:0:0:0:
256,192,180706,1,0,0:0:0:0:
256,192,180885,1,4,0:0:0:0:
256,192,181065,1,8,0:0:0:0:
256,192,181155,1,8,0:0:0:0:
256,192,181245,1,8,0:0:0:0:
256,192,181334,1,8,0:0:0:0:
256,192,181424,1,0,0:0:0:0:
256,192,181604,1,8,0:0:0:0:
256,192,181694,1,0,0:0:0:0:
256,192,181784,1,8,0:0:0:0:
256,192,181963,1,0,0:0:0:0:
256,192,182143,1,4,0:0:0:0:
256,192,182502,1,0,0:0:0:0:
256,192,182682,1,8,0:0:0:0:
256,192,182861,1,0,0:0:0:0:
256,192,182951,1,0,0:0:0:0:
256,192,183041,1,8,0:0:0:0:
256,192,183221,1,8,0:0:0:0:
256,192,183400,1,0,0:0:0:0:
256,192,183580,1,0,0:0:0:0:
256,192,183670,1,0,0:0:0:0:
256,192,183760,1,8,0:0:0:0:
256,192,183939,1,0,0:0:0:0:
256,192,184119,1,8,0:0:0:0:
256,192,184299,1,8,0:0:0:0:
256,192,184388,1,8,0:0:0:0:
256,192,184478,1,0,0:0:0:0:
256,192,184658,1,8,0:0:0:0:
256,192,184837,1,0,0:0:0:0:
256,192,185017,1,0,0:0:0:0:
256,192,185107,1,0,0:0:0:0:
256,192,185197,1,8,0:0:0:0:
256,192,185376,1,0,0:0:0:0:
256,192,185556,1,8,0:0:0:0:
256,192,185736,1,0,0:0:0:0:
256,192,185825,1,0,0:0:0:0:
256,192,185915,1,8,0:0:0:0:
256,192,186005,1,0,0:0:0:0:
256,192,186095,1,8,0:0:0:0:
256,192,186185,1,8,0:0:0:0:
256,192,186275,1,0,0:0:0:0:
256,192,186454,1,4,0:0:0:0:
256,192,186813,1,8,0:0:0:0:
256,192,186993,1,8,0:0:0:0:
256,192,187173,1,0,0:0:0:0:
256,192,187263,1,0,0:0:0:0:
256,192,187352,1,8,0:0:0:0:
256,192,187442,1,8,0:0:0:0:
256,192,187532,1,0,0:0:0:0:
256,192,187622,1,0,0:0:0:0:
256,192,187712,1,8,0:0:0:0:
256,192,187891,1,12,0:0:0:0:
256,192,188251,1,12,0:0:0:0:
256,192,188430,1,12,0:0:0:0:
256,192,188790,1,4,0:0:0:0:
256,192,188969,1,4,0:0:0:0:
256,192,189508,1,0,0:0:0:0:
256,192,190227,1,8,0:0:0:0:
256,192,190945,1,0,0:0:0:0:
256,192,191305,1,0,0:0:0:0:
256,192,191664,1,8,0:0:0:0:
256,192,192382,1,0,0:0:0:0:
256,192,193101,1,8,0:0:0:0:
256,192,193819,1,0,0:0:0:0:
256,192,194538,1,8,0:0:0:0:
256,192,194897,1,0,0:0:0:0:
256,192,195257,1,0,0:0:0:0:
256,192,195975,1,8,0:0:0:0:
256,192,196694,1,0,0:0:0:0:
256,192,197053,1,0,0:0:0:0:
256,192,197412,1,8,0:0:0:0:
256,192,198131,1,0,0:0:0:0:
256,192,198849,1,8,0:0:0:0:
256,192,199568,1,0,0:0:0:0:
256,192,200287,1,8,0:0:0:0:
256,192,200646,1,0,0:0:0:0:
256,192,201005,1,0,0:0:0:0:
256,192,201364,1,8,0:0:0:0:
256,192,201544,1,0,0:0:0:0:
256,192,201724,1,0,0:0:0:0:
256,192,202083,1,0,0:0:0:0:
256,192,202263,1,8,0:0:0:0:
256,192,202442,1,0,0:0:0:0:
256,192,202802,1,8,0:0:0:0:
256,192,203161,1,8,0:0:0:0:
256,192,203340,1,8,0:0:0:0:
256,192,203520,1,0,0:0:0:0:
256,192,203879,1,8,0:0:0:0:
256,192,204059,1,0,0:0:0:0:
256,192,204149,1,0,0:0:0:0:
256,192,204239,1,0,0:0:0:0:
256,192,204418,1,0,0:0:0:0:
256,192,204598,1,8,0:0:0:0:
256,192,204957,1,0,0:0:0:0:
256,192,205137,1,0,0:0:0:0:
256,192,205316,1,8,0:0:0:0:
256,192,205496,1,0,0:0:0:0:
256,192,205676,1,8,0:0:0:0:
256,192,205855,1,12,0:0:0:0:
256,192,206035,1,0,0:0:0:0:
256,192,206125,1,0,0:0:0:0:
256,192,206215,1,8,0:0:0:0:
256,192,206305,1,8,0:0:0:0:
256,192,206394,1,8,0:0:0:0:
256,192,206484,1,0,0:0:0:0:
256,192,206574,1,0,0:0:0:0:
256,192,206754,1,4,0:0:0:0:
256,192,207293,1,0,0:0:0:0:
256,192,207472,1,8,0:0:0:0:
256,192,207652,1,0,0:0:0:0:
256,192,207831,1,0,0:0:0:0:
256,192,208011,1,8,0:0:0:0:
256,192,208191,1,0,0:0:0:0:
256,192,208370,1,8,0:0:0:0:
256,192,208730,1,0,0:0:0:0:
256,192,208909,1,8,0:0:0:0:
256,192,209089,1,0,0:0:0:0:
256,192,209269,1,0,0:0:0:0:
256,192,209448,1,8,0:0:0:0:
256,192,209538,1,8,0:0:0:0:
256,192,209628,1,8,0:0:0:0:
256,192,209807,1,0,0:0:0:0:
256,192,209897,1,8,0:0:0:0:
256,192,209987,1,8,0:0:0:0:
256,192,210167,1,0,0:0:0:0:
256,192,210346,1,8,0:0:0:0:
256,192,210526,1,0,0:0:0:0:
256,192,210885,1,8,0:0:0:0:
256,192,211065,1,0,0:0:0:0:
256,192,211245,1,8,0:0:0:0:
256,192,211424,1,0,0:0:0:0:
256,192,211604,1,0,0:0:0:0:
256,192,211784,1,8,0:0:0:0:
256,192,211963,1,0,0:0:0:0:
256,192,212322,1,12,0:0:0:0:
256,192,212682,1,8,0:0:0:0:
256,192,212772,1,8,0:0:0:0:
256,192,212861,1,0,0:0:0:0:
256,192,213041,1,8,0:0:0:0:
256,192,213131,1,0,0:0:0:0:
256,192,213221,1,8,0:0:0:0:
256,192,213400,1,0,0:0:0:0:
256,192,213490,1,0,0:0:0:0:
256,192,213580,1,8,0:0:0:0:
256,192,213760,1,4,0:0:0:0:
256,192,214119,1,12,0:0:0:0:
256,192,214299,1,12,0:0:0:0:
256,192,214658,1,0,0:0:0:0:
256,192,214837,1,0,0:0:0:0:
256,192,215017,1,8,0:0:0:0:
256,192,215197,1,8,0:0:0:0:
256,192,215376,1,4,0:0:0:0:
256,192,215736,1,8,0:0:0:0:
256,192,215915,1,0,0:0:0:0:
256,192,216005,1,0,0:0:0:0:
256,192,216095,1,0,0:0:0:0:
256,192,216275,1,0,0:0:0:0:
256,192,216454,1,8,0:0:0:0:
256,192,216634,1,0,0:0:0:0:
256,192,216724,1,0,0:0:0:0:
256,192,216813,1,8,0:0:0:0:
256,192,216903,1,8,0:0:0:0:
256,192,216993,1,0,0:0:0:0:
256,192,217173,1,8,0:0:0:0:
256,192,217352,1,0,0:0:0:0:
256,192,217442,1,8,0:0:0:0:
256,192,217532,1,0,0:0:0:0:
256,192,217712,1,0,0:0:0:0:
256,192,217891,1,8,0:0:0:0:
256,192,218071,1,8,0:0:0:0:
256,192,218161,1,0,0:0:0:0:
256,192,218251,1,0,0:0:0:0:
256,192,218430,1,0,0:0:0:0:
256,192,218520,1,0,0:0:0:0:
256,192,218610,1,8,0:0:0:0:
256,192,218790,1,8,0:0:0:0:
256,192,218969,1,0,0:0:0:0:
256,192,219149,1,8,0:0:0:0:
256,192,219239,1,0,0:0:0:0:
256,192,219328,1,8,0:0:0:0:
256,192,219508,1,0,0:0:0:0:
256,192,219688,1,8,0:0:0:0:
256,192,220047,1,12,0:0:0:0:
256,192,220227,1,0,0:0:0:0:
256,192,220406,1,8,0:0:0:0:
256,192,220496,1,0,0:0:0:0:
256,192,220586,1,8,0:0:0:0:
256,192,220676,1,8,0:0:0:0:
256,192,220766,1,0,0:0:0:0:
256,192,220855,1,8,0:0:0:0:
256,192,220945,1,0,0:0:0:0:
256,192,221125,1,4,0:0:0:0:
256,192,221305,1,8,0:0:0:0:
256,192,221394,1,8,0:0:0:0:
256,192,221484,1,8,0:0:0:0:
256,192,221664,1,0,0:0:0:0:
256,192,221754,1,8,0:0:0:0:
256,192,221843,1,0,0:0:0:0:
256,192,222023,1,8,0:0:0:0:
256,192,222203,1,0,0:0:0:0:
256,192,222382,1,0,0:0:0:0:
256,192,222472,1,0,0:0:0:0:
256,192,222562,1,8,0:0:0:0:
256,192,222742,1,0,0:0:0:0:
256,192,222921,1,8,0:0:0:0:
256,192,223011,1,8,0:0:0:0:
256,192,223101,1,0,0:0:0:0:
256,192,223191,1,0,0:0:0:0:
256,192,223281,1,8,0:0:0:0:
256,192,223460,1,0,0:0:0:0:
256,192,223640,1,8,0:0:0:0:
256,192,223819,1,0,0:0:0:0:
256,192,223909,1,0,0:0:0:0:
256,192,223999,1,8,0:0:0:0:
256,192,224089,1,8,0:0:0:0:
256,192,224179,1,0,0:0:0:0:
256,192,224358,1,0,0:0:0:0:
256,192,224538,1,8,0:0:0:0:
256,192,224628,1,0,0:0:0:0:
256,192,224718,1,8,0:0:0:0:
256,192,224807,1,8,0:0:0:0:
256,192,224897,1,0,0:0:0:0:
256,192,225077,1,8,0:0:0:0:
256,192,225257,1,0,0:0:0:0:
256,192,225346,1,0,0:0:0:0:
256,192,225436,1,0,0:0:0:0:
256,192,225526,1,0,0:0:0:0:
256,192,225616,1,8,0:0:0:0:
256,192,225706,1,8,0:0:0:0:
256,192,225796,1,8,0:0:0:0:
256,192,225885,1,8,0:0:0:0:
256,192,225975,1,0,0:0:0:0:
256,192,226155,1,0,0:0:0:0:
256,192,226334,1,12,0:0:0:0:
256,192,226694,1,8,0:0:0:0:
256,192,226873,1,4,0:0:0:0:
256,192,227233,1,8,0:0:0:0:
256,192,227412,1,0,0:0:0:0:
256,192,227502,1,0,0:0:0:0:
256,192,227592,1,0,0:0:0:0:
256,192,227772,1,0,0:0:0:0:
256,192,227951,1,8,0:0:0:0:
256,192,228131,1,0,0:0:0:0:
256,192,228221,1,0,0:0:0:0:
256,192,228310,1,8,0:0:0:0:
256,192,228400,1,8,0:0:0:0:
256,192,228490,1,0,0:0:0:0:
256,192,228670,1,8,0:0:0:0:
256,192,228849,1,0,0:0:0:0:
256,192,228939,1,8,0:0:0:0:
256,192,229029,1,8,0:0:0:0:
256,192,229209,1,0,0:0:0:0:
256,192,229388,1,8,0:0:0:0:
256,192,229478,1,8,0:0:0:0:
256,192,229568,1,0,0:0:0:0:
256,192,229658,1,0,0:0:0:0:
256,192,229748,1,8,0:0:0:0:
256,192,229927,1,8,0:0:0:0:
256,192,230017,1,0,0:0:0:0:
256,192,230107,1,0,0:0:0:0:
256,192,230287,1,0,0:0:0:0:
256,192,230466,1,0,0:0:0:0:
256,192,230556,1,8,0:0:0:0:
256,192,230646,1,0,0:0:0:0:
256,192,230825,1,12,0:0:0:0:
256,192,231005,1,0,0:0:0:0:
256,192,231185,1,8,0:0:0:0:
256,192,231275,1,0,0:0:0:0:
256,192,231364,1,8,0:0:0:0:
256,192,231454,1,8,0:0:0:0:
256,192,231544,1,0,0:0:0:0:
256,192,231724,1,12,0:0:0:0:
256,192,232083,1,8,0:0:0:0:
256,192,232173,1,8,0:0:0:0:
256,192,232263,1,0,0:0:0:0:
256,192,232352,1,0,0:0:0:0:
256,192,232442,1,8,0:0:0:0:
256,192,232532,1,0,0:0:0:0:
256,192,232622,1,8,0:0:0:0:
256,192,232802,1,0,0:0:0:0:
256,192,232981,1,8,0:0:0:0:
256,192,233071,1,8,0:0:0:0:
256,192,233161,1,0,0:0:0:0:
256,192,233251,1,0,0:0:0:0:
256,192,233340,1,8,0:0:0:0:
256,192,233520,1,0,0:0:0:0:
256,192,233700,1,8,0:0:0:0:
256,192,233790,1,8,0:0:0:0:
256,192,233879,1,0,0:0:0:0:
256,192,234059,1,8,0:0:0:0:
256,192,234239,1,0,0:0:0:0:
256,192,234328,1,0,0:0:0:0:
256,192,234418,1,8,0:0:0:0:
256,192,234508,1,8,0:0:0:0:
256,192,234598,1,0,0:0:0:0:
256,192,234778,1,8,0:0:0:0:
256,192,234957,1,0,0:0:0:0:
256,192,235137,1,8,0:0:0:0:
256,192,235496,1,4,0:0:0:0:
256,192,235676,1,8,0:0:0:0:
256,192,235855,1,0,0:0:0:0:
256,192,236035,1,8,0:0:0:0:
256,192,236125,1,0,0:0:0:0:
256,192,236215,1,8,0:0:0:0:
256,192,236394,1,0,0:0:0:0:
256,192,236484,1,8,0:0:0:0:
256,192,236574,1,0,0:0:0:0:
256,192,236664,1,0,0:0:0:0:
256,192,236754,1,0,0:0:0:0:
256,192,236933,1,12,0:0:0:0:
256,192,237293,1,0,0:0:0:0:
256,192,237472,1,8,0:0:0:0:
256,192,237562,1,0,0:0:0:0:
256,192,237652,1,0,0:0:0:0:
256,192,237742,1,0,0:0:0:0:
256,192,237831,1,8,0:0:0:0:
256,192,237921,1,8,0:0:0:0:
256,192,238011,1,0,0:0:0:0:
256,192,238191,1,4,0:0:0:0:
256,192,238550,1,0,0:0:0:0:
256,192,238730,1,8,0:0:0:0:
256,192,238909,1,0,0:0:0:0:
256,192,239089,1,8,0:0:0:0:
256,192,239179,1,8,0:0:0:0:
256,192,239269,1,0,0:0:0:0:
256,192,239358,1,0,0:0:0:0:
256,192,239448,1,8,0:0:0:0:
256,192,239628,1,0,0:0:0:0:
256,192,239807,1,8,0:0:0:0:
256,192,239897,1,0,0:0:0:0:
256,192,239987,1,0,0:0:0:0:
256,192,240167,1,8,0:0:0:0:
256,192,240346,1,8,0:0:0:0:
256,192,240526,1,0,0:0:0:0:
256,192,240616,1,0,0:0:0:0:
256,192,240706,1,8,0:0:0:0:
256,192,240796,1,8,0:0:0:0:
256,192,240885,1,8,0:0:0:0:
256,192,241065,1,4,0:0:0:0:
256,192,241424,1,0,0:0:0:0:
256,192,241604,1,8,0:0:0:0:
256,192,241784,1,0,0:0:0:0:
256,192,241963,1,8,0:0:0:0:
256,192,242053,1,8,0:0:0:0:
256,192,242143,1,0,0:0:0:0:
256,192,242322,1,8,0:0:0:0:
256,192,242502,1,8,0:0:0:0:
256,192,242592,1,8,0:0:0:0:
256,192,242682,1,0,0:0:0:0:
256,192,242772,1,0,0:0:0:0:
256,192,242861,1,8,0:0:0:0:
256,192,243041,1,8,0:0:0:0:
256,192,243221,1,0,0:0:0:0:
256,192,243400,1,0,0:0:0:0:
256,192,243490,1,0,0:0:0:0:
256,192,243580,1,8,0:0:0:0:
256,192,243670,1,8,0:0:0:0:
256,192,243760,1,0,0:0:0:0:
256,192,243939,1,4,0:0:0:0:
256,192,244299,1,0,0:0:0:0:
256,192,244478,1,8,0:0:0:0:
256,192,244658,1,0,0:0:0:0:
256,192,244837,1,8,0:0:0:0:
256,192,244927,1,8,0:0:0:0:
256,192,245017,1,0,0:0:0:0:
256,192,245107,1,0,0:0:0:0:
256,192,245197,1,8,0:0:0:0:
256,192,245376,1,0,0:0:0:0:
256,192,245556,1,8,0:0:0:0:
256,192,245646,1,0,0:0:0:0:
256,192,245736,1,0,0:0:0:0:
256,192,245915,1,8,0:0:0:0:
256,192,246095,1,0,0:0:0:0:
256,192,246275,1,8,0:0:0:0:
256,192,246364,1,0,0:0:0:0:
256,192,246454,1,8,0:0:0:0:
256,192,246544,1,8,0:0:0:0:
256,192,246634,1,8,0:0:0:0:
256,192,246813,1,4,0:0:0:0:
256,192,247173,1,0,0:0:0:0:
256,192,247352,1,8,0:0:0:0:
256,192,247532,1,0,0:0:0:0:
256,192,247622,1,0,0:0:0:0:
256,192,247712,1,8,0:0:0:0:
256,192,247802,1,8,0:0:0:0:
256,192,247891,1,0,0:0:0:0:
256,192,248071,1,8,0:0:0:0:
256,192,248251,1,12,0:0:0:0:
256,192,248610,1,8,0:0:0:0:
256,192,248700,1,0,0:0:0:0:
256,192,248790,1,8,0:0:0:0:
256,192,248969,1,4,0:0:0:0:
256,192,249149,1,8,0:0:0:0:
256,192,249239,1,8,0:0:0:0:
256,192,249328,1,0,0:0:0:0:
256,192,249418,1,0,0:0:0:0:
256,192,249508,1,8,0:0:0:0:
256,192,249688,1,4,0:0:0:0:
256,192,249867,12,0,255436,0:0:0:0:
