osu file format v14

[General]
AudioFilename: audio.mp3
AudioLeadIn: 0
PreviewTime: 56574
Countdown: 0
SampleSet: Normal
StackLeniency: 0.7
Mode: 1
LetterboxInBreaks: 0
WidescreenStoryboard: 0

[Editor]
Bookmarks: 29987,68790,142083,226873
DistanceSpacing: 1
BeatDivisor: 4
GridSize: 32
TimelineZoom: 0.7

[Metadata]
Title:Plastic Smile
TitleUnicode:Plastic Smile
Artist:Ishihara Kaori
ArtistUnicode:石原夏織
Creator:Nardoxyribonucleic
Version:Kantan
Source:ひげを剃る。そして女子高生を拾う。
Tags:Taiko Hige wo Soru. Soshite Joshikousei wo Hirou. ひげひろ Higehiro After Being Rejected, I Shaved and Took in a High School Runaway JK Ending ED Anime Japanese BlackBq
BeatmapID:3010090
BeatmapSetID:1439002

[Difficulty]
HPDrainRate:7
CircleSize:5
OverallDifficulty:3
ApproachRate:3
SliderMultiplier:1.4
SliderTickRate:1

[Events]
//Background and Video events
0,0,"bg4.jpg",0,-10
//Break Periods
//Storyboard Layer 0 (Background)
//Storyboard Layer 1 (Fail)
//Storyboard Layer 2 (Pass)
//Storyboard Layer 3 (Foreground)
//Storyboard Layer 4 (Overlay)
//Storyboard Sound Samples

[TimingPoints]
-192,359.281437125748,4,1,0,60,1,0
5556,-100,4,1,0,66,0,0
5915,-100,4,1,0,70,0,0
6275,-100,4,1,0,75,0,0
6813,-100,4,1,0,80,0,0
18310,-100,4,1,0,70,0,0
18490,-100,4,1,0,65,0,0
40047,-100,4,1,0,75,0,0
41484,-100,4,1,0,80,0,0
57293,-100,4,1,0,90,0,1
80107,-100,4,1,0,80,0,0
91784,-100,4,1,0,70,0,0
103281,-100,4,1,0,75,0,0
114778,-100,4,1,0,80,0,0
130586,-100,4,1,0,90,0,1
153400,-100,4,1,0,90,0,0
164897,-100,4,1,0,85,0,0
170646,-100,4,1,0,80,0,0
189328,-100,4,1,0,70,0,0
189508,-100,4,1,0,65,0,0
201005,-100,4,1,0,70,0,0
206754,-100,4,1,0,80,0,0
215376,-100,4,1,0,90,0,1
238191,-100,4,1,0,80,0,0
249688,-100,4,1,0,70,0,0
251125,-100,4,1,0,60,0,0
252562,-100,4,1,0,50,0,0
253999,-100,4,1,0,40,0,0
255436,-100,4,1,0,30,0,0

[HitObjects]
256,192,526,5,0,0:0:0:0:
256,192,1245,1,8,0:0:0:0:
256,192,2682,1,0,0:0:0:0:
256,192,4119,1,8,0:0:0:0:
256,192,5556,1,0,0:0:0:0:
256,192,6275,1,8,0:0:0:0:
256,192,6813,1,4,0:0:0:0:
256,192,7712,1,8,0:0:0:0:
256,192,8430,1,0,0:0:0:0:
256,192,8790,1,8,0:0:0:0:
256,192,9688,1,4,0:0:0:0:
256,192,10586,1,8,0:0:0:0:
256,192,11305,1,8,0:0:0:0:
256,192,11664,1,8,0:0:0:0:
256,192,12023,1,0,0:0:0:0:
256,192,12562,1,4,0:0:0:0:
256,192,13460,1,8,0:0:0:0:
256,192,14179,1,0,0:0:0:0:
256,192,14538,1,8,0:0:0:0:
256,192,15436,1,4,0:0:0:0:
256,192,15975,1,8,0:0:0:0:
256,192,16334,1,0,0:0:0:0:
256,192,16873,1,12,0:0:0:0:
256,192,17592,1,12,0:0:0:0:
256,192,18490,1,4,0:0:0:0:
256,192,19927,1,0,0:0:0:0:
256,192,21364,1,8,0:0:0:0:
256,192,22802,1,8,0:0:0:0:
256,192,23520,1,8,0:0:0:0:
256,192,24239,1,0,0:0:0:0:
256,192,25676,1,0,0:0:0:0:
256,192,26394,1,8,0:0:0:0:
256,192,27113,1,0,0:0:0:0:
256,192,28550,1,8,0:0:0:0:
256,192,29987,1,4,0:0:0:0:
256,192,31424,1,8,0:0:0:0:
256,192,32861,1,0,0:0:0:0:
256,192,34299,1,8,0:0:0:0:
256,192,35017,1,0,0:0:0:0:
256,192,35736,1,12,0:0:0:0:
256,192,37173,1,0,0:0:0:0:
256,192,38610,1,0,0:0:0:0:
256,192,39328,1,0,0:0:0:0:
256,192,40047,1,8,0:0:0:0:
256,192,40586,1,4,0:0:0:0:
256,192,41484,1,12,0:0:0:0:
256,192,42203,1,8,0:0:0:0:
256,192,42921,1,0,0:0:0:0:
256,192,43281,1,8,0:0:0:0:
256,192,43640,1,0,0:0:0:0:
256,192,44358,1,0,0:0:0:0:
256,192,45077,1,8,0:0:0:0:
256,192,45796,1,0,0:0:0:0:
256,192,46155,1,0,0:0:0:0:
256,192,46514,1,8,0:0:0:0:
256,192,46873,1,0,0:0:0:0:
256,192,47233,1,12,0:0:0:0:
256,192,47951,1,8,0:0:0:0:
256,192,48670,1,0,0:0:0:0:
256,192,49029,1,8,0:0:0:0:
256,192,49388,1,0,0:0:0:0:
256,192,50107,1,12,0:0:0:0:
256,192,51185,1,8,0:0:0:0:
256,192,51544,1,0,0:0:0:0:
256,192,52263,1,8,0:0:0:0:
256,192,52981,1,4,0:0:0:0:
256,192,53700,1,8,0:0:0:0:
256,192,54059,1,0,0:0:0:0:
256,192,54418,1,12,0:0:0:0:
256,192,55676,1,4,0:0:0:0:
256,192,56215,1,12,0:0:0:0:
256,192,57293,1,4,0:0:0:0:
256,192,58011,1,8,0:0:0:0:
256,192,58730,1,8,0:0:0:0:
256,192,59089,1,8,0:0:0:0:
256,192,59448,1,0,0:0:0:0:
256,192,59807,1,8,0:0:0:0:
256,192,60167,1,0,0:0:0:0:
256,192,60885,1,0,0:0:0:0:
256,192,61604,1,8,0:0:0:0:
256,192,62682,1,0,0:0:0:0:
256,192,63041,1,4,0:0:0:0:
256,192,63760,1,0,0:0:0:0:
256,192,64478,1,8,0:0:0:0:
256,192,64837,1,0,0:0:0:0:
256,192,65197,1,8,0:0:0:0:
256,192,65556,1,0,0:0:0:0:
256,192,65915,1,8,0:0:0:0:
256,192,66634,1,8,0:0:0:0:
256,192,66993,1,8,0:0:0:0:
256,192,67352,1,0,0:0:0:0:
256,192,68251,1,12,0:0:0:0:
256,192,68790,1,4,0:0:0:0:
256,192,69508,1,8,0:0:0:0:
256,192,70227,1,0,0:0:0:0:
256,192,70586,1,0,0:0:0:0:
256,192,70945,1,8,0:0:0:0:
256,192,71305,1,0,0:0:0:0:
256,192,71664,1,8,0:0:0:0:
256,192,72382,1,0,0:0:0:0:
256,192,73101,1,8,0:0:0:0:
256,192,73640,1,4,0:0:0:0:
256,192,74538,1,12,0:0:0:0:
256,192,75257,1,8,0:0:0:0:
256,192,75975,1,0,0:0:0:0:
256,192,76334,1,8,0:0:0:0:
256,192,76694,1,0,0:0:0:0:
256,192,77053,1,8,0:0:0:0:
256,192,77412,1,4,0:0:0:0:
256,192,78131,1,8,0:0:0:0:
256,192,78490,1,0,0:0:0:0:
256,192,78849,1,12,0:0:0:0:
256,192,80107,1,4,0:0:0:0:
256,192,81005,1,8,0:0:0:0:
256,192,81724,1,0,0:0:0:0:
256,192,82083,1,8,0:0:0:0:
256,192,82981,1,4,0:0:0:0:
256,192,83879,1,8,0:0:0:0:
256,192,84598,1,8,0:0:0:0:
256,192,84957,1,8,0:0:0:0:
256,192,85316,1,0,0:0:0:0:
256,192,85855,1,4,0:0:0:0:
256,192,86394,1,12,0:0:0:0:
256,192,87113,1,8,0:0:0:0:
256,192,87472,1,0,0:0:0:0:
256,192,87831,1,8,0:0:0:0:
256,192,88730,1,4,0:0:0:0:
256,192,89269,1,8,0:0:0:0:
256,192,89628,1,0,0:0:0:0:
256,192,90167,1,12,0:0:0:0:
256,192,90885,1,12,0:0:0:0:
256,192,91784,1,4,0:0:0:0:
256,192,92502,1,8,0:0:0:0:
256,192,93221,1,0,0:0:0:0:
256,192,94658,1,8,0:0:0:0:
256,192,95376,1,0,0:0:0:0:
256,192,96095,1,0,0:0:0:0:
256,192,96454,1,0,0:0:0:0:
256,192,96813,1,8,0:0:0:0:
256,192,97173,1,8,0:0:0:0:
256,192,97532,1,0,0:0:0:0:
256,192,98251,1,8,0:0:0:0:
256,192,98969,1,0,0:0:0:0:
256,192,99688,1,8,0:0:0:0:
256,192,100047,1,8,0:0:0:0:
256,192,100406,1,0,0:0:0:0:
256,192,101484,1,8,0:0:0:0:
256,192,101843,1,0,0:0:0:0:
256,192,102562,1,8,0:0:0:0:
256,192,102921,1,0,0:0:0:0:
256,192,103281,1,4,0:0:0:0:
256,192,104358,1,8,0:0:0:0:
256,192,104718,1,0,0:0:0:0:
256,192,105436,1,0,0:0:0:0:
256,192,105796,1,0,0:0:0:0:
256,192,106155,1,8,0:0:0:0:
256,192,106873,1,0,0:0:0:0:
256,192,107592,1,8,0:0:0:0:
256,192,107951,1,0,0:0:0:0:
256,192,108310,1,8,0:0:0:0:
256,192,109029,1,4,0:0:0:0:
256,192,110107,1,8,0:0:0:0:
256,192,110466,1,8,0:0:0:0:
256,192,111185,1,0,0:0:0:0:
256,192,111544,1,8,0:0:0:0:
256,192,111903,1,4,0:0:0:0:
256,192,112622,1,8,0:0:0:0:
256,192,113340,1,12,0:0:0:0:
256,192,113879,1,4,0:0:0:0:
256,192,114778,1,12,0:0:0:0:
256,192,115496,1,8,0:0:0:0:
256,192,116215,1,0,0:0:0:0:
256,192,116574,1,8,0:0:0:0:
256,192,116933,1,0,0:0:0:0:
256,192,117652,1,0,0:0:0:0:
256,192,118011,1,8,0:0:0:0:
256,192,118370,1,8,0:0:0:0:
256,192,118730,1,0,0:0:0:0:
256,192,119089,1,0,0:0:0:0:
256,192,119807,1,8,0:0:0:0:
256,192,120167,1,0,0:0:0:0:
256,192,120526,1,12,0:0:0:0:
256,192,121245,1,8,0:0:0:0:
256,192,121963,1,0,0:0:0:0:
256,192,122322,1,8,0:0:0:0:
256,192,122682,1,0,0:0:0:0:
256,192,123400,1,12,0:0:0:0:
256,192,124478,1,8,0:0:0:0:
256,192,124837,1,0,0:0:0:0:
256,192,125556,1,12,0:0:0:0:
256,192,126275,1,4,0:0:0:0:
256,192,126634,1,8,0:0:0:0:
256,192,126993,1,8,0:0:0:0:
256,192,127352,1,0,0:0:0:0:
256,192,127712,1,8,0:0:0:0:
256,192,128969,1,4,0:0:0:0:
256,192,129508,1,12,0:0:0:0:
256,192,130586,1,4,0:0:0:0:
256,192,131305,1,8,0:0:0:0:
256,192,132023,1,8,0:0:0:0:
256,192,132382,1,8,0:0:0:0:
256,192,132742,1,0,0:0:0:0:
256,192,133460,1,0,0:0:0:0:
256,192,133819,1,8,0:0:0:0:
256,192,134179,1,0,0:0:0:0:
256,192,134538,1,0,0:0:0:0:
256,192,134897,1,8,0:0:0:0:
256,192,135975,1,8,0:0:0:0:
256,192,136334,1,4,0:0:0:0:
256,192,137053,1,0,0:0:0:0:
256,192,137772,1,8,0:0:0:0:
256,192,138131,1,0,0:0:0:0:
256,192,138490,1,8,0:0:0:0:
256,192,139209,1,8,0:0:0:0:
256,192,139568,1,0,0:0:0:0:
256,192,139927,1,8,0:0:0:0:
256,192,140287,1,8,0:0:0:0:
256,192,140646,1,0,0:0:0:0:
256,192,141544,1,12,0:0:0:0:
256,192,142083,1,4,0:0:0:0:
256,192,142802,1,8,0:0:0:0:
256,192,143520,1,0,0:0:0:0:
256,192,143879,1,0,0:0:0:0:
256,192,144239,1,8,0:0:0:0:
256,192,144957,1,8,0:0:0:0:
256,192,145316,1,0,0:0:0:0:
256,192,145676,1,0,0:0:0:0:
256,192,146035,1,8,0:0:0:0:
256,192,146394,1,8,0:0:0:0:
256,192,146933,1,4,0:0:0:0:
256,192,147831,1,12,0:0:0:0:
256,192,148550,1,8,0:0:0:0:
256,192,148909,1,8,0:0:0:0:
256,192,149269,1,0,0:0:0:0:
256,192,149628,1,8,0:0:0:0:
256,192,150346,1,8,0:0:0:0:
256,192,150706,1,4,0:0:0:0:
256,192,151424,1,8,0:0:0:0:
256,192,151784,1,0,0:0:0:0:
256,192,152143,1,12,0:0:0:0:
256,192,153400,1,4,0:0:0:0:
256,192,153939,1,8,0:0:0:0:
256,192,154299,1,0,0:0:0:0:
256,192,154837,1,8,0:0:0:0:
256,192,155556,1,0,0:0:0:0:
256,192,156275,1,12,0:0:0:0:
256,192,156993,1,4,0:0:0:0:
256,192,157352,1,8,0:0:0:0:
256,192,157712,1,4,0:0:0:0:
256,192,158430,1,12,0:0:0:0:
256,192,159149,1,4,0:0:0:0:
256,192,159867,1,8,0:0:0:0:
256,192,160227,1,0,0:0:0:0:
256,192,160586,1,8,0:0:0:0:
256,192,161305,1,8,0:0:0:0:
256,192,162023,1,4,0:0:0:0:
256,192,162562,1,8,0:0:0:0:
256,192,162921,1,8,0:0:0:0:
256,192,163460,1,4,0:0:0:0:
256,192,164179,1,12,0:0:0:0:
256,192,164897,1,4,0:0:0:0:
256,192,166334,1,12,0:0:0:0:
256,192,167772,1,4,0:0:0:0:
256,192,169209,1,12,0:0:0:0:
256,192,170107,1,8,0:0:0:0:
256,192,170646,1,4,0:0:0:0:
256,192,171185,1,8,0:0:0:0:
256,192,172083,1,8,0:0:0:0:
256,192,172622,1,8,0:0:0:0:
256,192,172981,1,0,0:0:0:0:
256,192,173520,1,4,0:0:0:0:
256,192,174059,1,8,0:0:0:0:
256,192,174778,1,0,0:0:0:0:
256,192,175137,1,12,0:0:0:0:
256,192,175676,1,8,0:0:0:0:
256,192,176394,1,4,0:0:0:0:
256,192,177293,1,0,0:0:0:0:
256,192,177831,1,8,0:0:0:0:
256,192,178370,1,8,0:0:0:0:
256,192,178730,1,0,0:0:0:0:
256,192,179269,1,4,0:0:0:0:
256,192,180167,1,0,0:0:0:0:
256,192,180526,1,8,0:0:0:0:
256,192,180885,1,4,0:0:0:0:
256,192,181424,1,12,0:0:0:0:
256,192,182143,1,4,0:0:0:0:
256,192,183400,1,0,0:0:0:0:
256,192,183760,1,8,0:0:0:0:
256,192,184478,1,0,0:0:0:0:
256,192,184837,1,0,0:0:0:0:
256,192,185197,1,8,0:0:0:0:
256,192,185556,1,8,0:0:0:0:
256,192,186454,1,4,0:0:0:0:
256,192,186993,1,8,0:0:0:0:
256,192,187352,1,0,0:0:0:0:
256,192,187891,1,12,0:0:0:0:
256,192,188430,1,12,0:0:0:0:
256,192,188790,1,4,0:0:0:0:
256,192,189508,1,0,0:0:0:0:
256,192,190945,1,8,0:0:0:0:
256,192,192382,1,0,0:0:0:0:
256,192,195257,1,8,0:0:0:0:
256,192,196694,1,0,0:0:0:0:
256,192,198131,1,8,0:0:0:0:
256,192,198849,1,8,0:0:0:0:
256,192,199568,1,0,0:0:0:0:
256,192,201005,1,0,0:0:0:0:
256,192,201364,1,0,0:0:0:0:
256,192,201724,1,8,0:0:0:0:
256,192,202442,1,0,0:0:0:0:
256,192,203161,1,8,0:0:0:0:
256,192,203520,1,0,0:0:0:0:
256,192,203879,1,0,0:0:0:0:
256,192,204598,1,8,0:0:0:0:
256,192,205316,1,8,0:0:0:0:
256,192,205855,1,4,0:0:0:0:
256,192,206754,1,4,0:0:0:0:
256,192,207472,1,8,0:0:0:0:
256,192,208191,1,0,0:0:0:0:
256,192,208909,1,8,0:0:0:0:
256,192,209269,1,0,0:0:0:0:
256,192,209628,1,8,0:0:0:0:
256,192,210346,1,0,0:0:0:0:
256,192,211065,1,8,0:0:0:0:
256,192,211424,1,8,0:0:0:0:
256,192,211784,1,0,0:0:0:0:
256,192,212322,1,12,0:0:0:0:
256,192,213041,1,8,0:0:0:0:
256,192,213400,1,0,0:0:0:0:
256,192,213760,1,4,0:0:0:0:
256,192,214299,1,12,0:0:0:0:
256,192,215376,1,4,0:0:0:0:
256,192,216095,1,8,0:0:0:0:
256,192,216813,1,8,0:0:0:0:
256,192,217173,1,8,0:0:0:0:
256,192,217532,1,0,0:0:0:0:
256,192,218251,1,0,0:0:0:0:
256,192,218610,1,8,0:0:0:0:
256,192,218969,1,0,0:0:0:0:
256,192,219688,1,8,0:0:0:0:
256,192,220047,1,8,0:0:0:0:
256,192,220406,1,0,0:0:0:0:
256,192,220766,1,8,0:0:0:0:
256,192,221125,1,4,0:0:0:0:
256,192,222203,1,0,0:0:0:0:
256,192,222562,1,8,0:0:0:0:
256,192,223281,1,8,0:0:0:0:
256,192,223640,1,0,0:0:0:0:
256,192,223999,1,8,0:0:0:0:
256,192,224718,1,8,0:0:0:0:
256,192,225077,1,8,0:0:0:0:
256,192,225436,1,0,0:0:0:0:
256,192,225796,1,0,0:0:0:0:
256,192,226334,1,12,0:0:0:0:
256,192,226873,1,4,0:0:0:0:
256,192,227592,1,8,0:0:0:0:
256,192,228310,1,0,0:0:0:0:
256,192,228670,1,8,0:0:0:0:
256,192,229029,1,0,0:0:0:0:
256,192,229748,1,8,0:0:0:0:
256,192,230107,1,0,0:0:0:0:
256,192,230466,1,0,0:0:0:0:
256,192,230825,1,8,0:0:0:0:
256,192,231185,1,8,0:0:0:0:
256,192,231724,1,4,0:0:0:0:
256,192,232622,1,12,0:0:0:0:
256,192,233340,1,8,0:0:0:0:
256,192,233700,1,8,0:0:0:0:
256,192,234059,1,0,0:0:0:0:
256,192,234418,1,0,0:0:0:0:
256,192,234778,1,8,0:0:0:0:
256,192,235137,1,8,0:0:0:0:
256,192,235496,1,4,0:0:0:0:
256,192,236215,1,8,0:0:0:0:
256,192,236574,1,0,0:0:0:0:
256,192,236933,1,12,0:0:0:0:
256,192,238191,1,4,0:0:0:0:
256,192,239089,1,8,0:0:0:0:
256,192,239807,1,0,0:0:0:0:
256,192,240167,1,8,0:0:0:0:
256,192,241065,1,4,0:0:0:0:
256,192,241963,1,8,0:0:0:0:
256,192,242682,1,8,0:0:0:0:
256,192,243041,1,8,0:0:0:0:
256,192,243400,1,0,0:0:0:0:
256,192,243939,1,4,0:0:0:0:
256,192,244837,1,8,0:0:0:0:
256,192,245197,1,8,0:0:0:0:
256,192,245556,1,0,0:0:0:0:
256,192,245915,1,8,0:0:0:0:
256,192,246813,1,4,0:0:0:0:
256,192,247352,1,8,0:0:0:0:
256,192,247712,1,0,0:0:0:0:
256,192,248251,1,12,0:0:0:0:
256,192,248969,1,4,0:0:0:0:
256,192,249688,1,4,0:0:0:0:
256,192,249867,12,0,255436,0:0:0:0:
