osu file format v14

[General]
AudioFilename: audio.mp3
AudioLeadIn: 0
PreviewTime: 56574
Countdown: 0
SampleSet: Normal
StackLeniency: 0.7
Mode: 1
LetterboxInBreaks: 0
WidescreenStoryboard: 0

[Editor]
Bookmarks: 29987,68790,142083,226873
DistanceSpacing: 1
BeatDivisor: 4
GridSize: 32
TimelineZoom: 1.2

[Metadata]
Title:Plastic Smile
TitleUnicode:Plastic Smile
Artist:Ishihara Kaori
ArtistUnicode:石原夏織
Creator:Nardoxyribonucleic
Version:Black's Futsuu
Source:ひげを剃る。そして女子高生を拾う。
Tags:Taiko Hige wo Soru. Soshite Joshikousei wo Hirou. ひげひろ Higehiro After Being Rejected, I Shaved and Took in a High School Runaway JK Ending ED Anime Japanese BlackBq
BeatmapID:2985538
BeatmapSetID:1439002

[Difficulty]
HPDrainRate:6.5
CircleSize:2
OverallDifficulty:4
ApproachRate:10
SliderMultiplier:1.4
SliderTickRate:1

[Events]
//Background and Video events
0,0,"bg1.jpg",0,20
//Break Periods
//Storyboard Layer 0 (Background)
//Storyboard Layer 1 (Fail)
//Storyboard Layer 2 (Pass)
//Storyboard Layer 3 (Foreground)
//Storyboard Layer 4 (Overlay)
//Storyboard Sound Samples

[TimingPoints]
-192,359.281437125748,4,1,0,60,1,0
5556,-100,4,1,0,66,0,0
5915,-100,4,1,0,70,0,0
6275,-100,4,1,0,75,0,0
6813,-100,4,1,0,80,0,0
18310,-100,4,1,0,70,0,0
18490,-100,4,1,0,65,0,0
40047,-100,4,1,0,75,0,0
41484,-100,4,1,0,80,0,0
57293,-100,4,1,0,90,0,1
80107,-100,4,1,0,80,0,0
91784,-100,4,1,0,70,0,0
103281,-100,4,1,0,75,0,0
114778,-100,4,1,0,80,0,0
130586,-100,4,1,0,90,0,1
153400,-100,4,1,0,90,0,0
164897,-100,4,1,0,85,0,0
170646,-100,4,1,0,80,0,0
189328,-100,4,1,0,70,0,0
189508,-100,4,1,0,65,0,0
201005,-100,4,1,0,70,0,0
206754,-100,4,1,0,80,0,0
215376,-100,4,1,0,90,0,1
238191,-100,4,1,0,80,0,0
249688,-100,4,1,0,70,0,0
251125,-100,4,1,0,60,0,0
252562,-100,4,1,0,50,0,0
253999,-100,4,1,0,40,0,0
255436,-100,4,1,0,30,0,0

[HitObjects]
256,192,526,5,8,0:0:0:0:
256,192,1245,1,0,0:0:0:0:
256,192,2682,1,0,0:0:0:0:
256,192,3400,1,8,0:0:0:0:
256,192,4119,1,0,0:0:0:0:
256,192,5556,1,0,0:0:0:0:
256,192,6275,1,8,0:0:0:0:
256,192,6454,1,8,0:0:0:0:
128,64,6813,1,4,0:0:0:0:
256,192,7352,1,8,0:0:0:0:
256,192,7712,1,0,0:0:0:0:
256,192,7891,1,0,0:0:0:0:
256,192,8071,1,8,0:0:0:0:
256,192,8430,1,0,0:0:0:0:
256,192,8790,1,8,0:0:0:0:
256,192,8969,1,0,0:0:0:0:
256,192,9328,1,0,0:0:0:0:
0,64,9688,1,4,0:0:0:0:
256,192,10227,1,8,0:0:0:0:
256,192,10586,1,0,0:0:0:0:
256,192,10766,1,8,0:0:0:0:
256,192,10945,1,0,0:0:0:0:
256,192,11125,1,8,0:0:0:0:
256,192,11664,1,8,0:0:0:0:
256,192,11843,1,0,0:0:0:0:
256,192,12203,1,0,0:0:0:0:
64,64,12562,1,12,0:0:0:0:
256,192,13101,1,8,0:0:0:0:
256,192,13460,1,8,0:0:0:0:
256,192,13819,1,8,0:0:0:0:
256,192,14179,1,8,0:0:0:0:
256,192,14538,1,8,0:0:0:0:
256,192,14718,1,0,0:0:0:0:
256,192,15077,1,0,0:0:0:0:
96,32,15436,1,12,0:0:0:0:
256,192,15975,1,8,0:0:0:0:
256,192,16334,1,0,0:0:0:0:
160,64,16873,1,12,0:0:0:0:
160,64,17592,1,12,0:0:0:0:
256,192,18131,1,0,0:0:0:0:
96,64,18490,1,4,0:0:0:0:
256,192,19209,1,0,0:0:0:0:
256,192,20646,1,0,0:0:0:0:
256,192,21364,1,8,0:0:0:0:
256,192,22083,1,0,0:0:0:0:
256,192,23520,1,8,0:0:0:0:
256,192,24239,1,0,0:0:0:0:
256,192,24957,1,0,0:0:0:0:
256,192,25676,1,8,0:0:0:0:
256,192,27113,1,0,0:0:0:0:
256,192,27831,1,8,0:0:0:0:
256,192,28550,1,0,0:0:0:0:
256,192,29269,1,8,0:0:0:0:
256,192,29628,1,0,0:0:0:0:
384,64,29987,1,4,0:0:0:0:
256,192,30706,1,0,0:0:0:0:
256,192,31065,1,8,0:0:0:0:
256,192,31424,1,8,0:0:0:0:
256,192,32143,1,0,0:0:0:0:
256,192,32861,1,8,0:0:0:0:
256,192,33221,1,0,0:0:0:0:
256,192,33939,1,8,0:0:0:0:
256,192,34299,1,0,0:0:0:0:
256,192,35017,1,0,0:0:0:0:
96,96,35736,1,4,0:0:0:0:
256,192,36454,1,0,0:0:0:0:
256,192,37173,1,8,0:0:0:0:
256,192,37532,1,0,0:0:0:0:
256,192,37891,1,8,0:0:0:0:
256,192,38251,1,8,0:0:0:0:
256,192,38610,1,0,0:0:0:0:
256,192,39328,1,0,0:0:0:0:
256,192,40047,5,8,0:0:0:0:
256,192,40406,1,0,0:0:0:0:
256,192,40586,1,0,0:0:0:0:
256,192,41125,1,0,0:0:0:0:
32,96,41484,1,12,0:0:0:0:
256,192,41843,1,0,0:0:0:0:
256,192,42203,1,8,0:0:0:0:
256,192,42562,1,0,0:0:0:0:
256,192,42742,1,0,0:0:0:0:
256,192,42921,1,8,0:0:0:0:
256,192,43281,1,0,0:0:0:0:
256,192,43640,1,8,0:0:0:0:
256,192,44358,1,0,0:0:0:0:
256,192,44718,1,8,0:0:0:0:
256,192,44897,1,0,0:0:0:0:
256,192,45077,1,8,0:0:0:0:
256,192,45436,1,8,0:0:0:0:
256,192,45796,1,0,0:0:0:0:
256,192,46155,1,8,0:0:0:0:
256,192,46334,1,8,0:0:0:0:
256,192,46514,1,0,0:0:0:0:
256,192,46873,1,0,0:0:0:0:
416,64,47233,1,12,0:0:0:0:
256,192,47592,1,0,0:0:0:0:
256,192,47772,1,0,0:0:0:0:
256,192,47951,1,8,0:0:0:0:
256,192,48670,1,8,0:0:0:0:
256,192,49029,1,8,0:0:0:0:
256,192,49209,1,8,0:0:0:0:
256,192,49388,1,0,0:0:0:0:
256,192,49748,1,0,0:0:0:0:
256,192,49927,1,8,0:0:0:0:
416,64,50107,1,4,0:0:0:0:
256,192,50646,1,0,0:0:0:0:
256,192,50825,1,8,0:0:0:0:
256,192,51185,1,8,0:0:0:0:
256,192,51544,1,0,0:0:0:0:
256,192,51724,1,8,0:0:0:0:
256,192,52263,1,0,0:0:0:0:
256,192,52802,1,8,0:0:0:0:
96,64,52981,1,4,0:0:0:0:
256,192,53700,1,8,0:0:0:0:
256,192,54059,1,0,0:0:0:0:
256,192,54418,1,8,0:0:0:0:
256,192,54778,1,0,0:0:0:0:
256,192,54957,1,0,0:0:0:0:
256,192,55137,1,0,0:0:0:0:
256,192,55316,1,0,0:0:0:0:
256,192,55496,1,0,0:0:0:0:
96,96,55676,1,12,0:0:0:0:
96,96,56035,1,12,0:0:0:0:
96,96,56215,1,12,0:0:0:0:
96,96,57293,1,4,0:0:0:0:
256,192,57652,1,0,0:0:0:0:
256,192,57831,1,0,0:0:0:0:
256,192,58011,1,8,0:0:0:0:
256,192,58370,1,0,0:0:0:0:
256,192,58550,1,8,0:0:0:0:
256,192,58730,1,0,0:0:0:0:
256,192,59089,1,0,0:0:0:0:
256,192,59448,1,8,0:0:0:0:
256,192,59807,1,0,0:0:0:0:
256,192,60167,1,0,0:0:0:0:
256,192,60346,1,0,0:0:0:0:
256,192,60526,1,8,0:0:0:0:
256,192,60885,1,0,0:0:0:0:
256,192,61245,1,8,0:0:0:0:
256,192,61424,1,0,0:0:0:0:
256,192,62143,1,8,0:0:0:0:
256,192,62502,1,0,0:0:0:0:
256,192,62682,1,8,0:0:0:0:
256,192,62861,1,8,0:0:0:0:
128,96,63041,1,4,0:0:0:0:
256,192,63400,1,8,0:0:0:0:
256,192,63760,1,0,0:0:0:0:
256,192,64119,1,8,0:0:0:0:
256,192,64299,1,0,0:0:0:0:
256,192,64478,1,8,0:0:0:0:
256,192,64837,1,8,0:0:0:0:
256,192,65197,1,0,0:0:0:0:
256,192,65376,1,8,0:0:0:0:
256,192,65556,1,8,0:0:0:0:
256,192,65915,1,0,0:0:0:0:
256,192,66634,1,8,0:0:0:0:
256,192,66993,1,0,0:0:0:0:
256,192,67352,1,8,0:0:0:0:
256,192,67532,1,8,0:0:0:0:
256,192,67712,1,0,0:0:0:0:
256,192,67891,1,0,0:0:0:0:
128,64,68251,1,12,0:0:0:0:
128,64,68790,1,4,0:0:0:0:
256,192,69149,1,0,0:0:0:0:
256,192,69328,1,0,0:0:0:0:
256,192,69508,1,8,0:0:0:0:
256,192,69867,1,8,0:0:0:0:
256,192,70047,1,8,0:0:0:0:
256,192,70227,1,0,0:0:0:0:
256,192,70586,1,0,0:0:0:0:
256,192,70945,1,8,0:0:0:0:
256,192,71125,1,0,0:0:0:0:
256,192,71305,1,8,0:0:0:0:
256,192,71664,1,8,0:0:0:0:
256,192,72023,1,0,0:0:0:0:
256,192,72382,1,0,0:0:0:0:
256,192,72562,1,0,0:0:0:0:
256,192,72742,1,8,0:0:0:0:
256,192,73101,1,8,0:0:0:0:
256,192,73281,1,0,0:0:0:0:
256,192,73460,1,0,0:0:0:0:
256,192,73640,1,8,0:0:0:0:
256,192,74358,1,0,0:0:0:0:
128,64,74538,1,12,0:0:0:0:
256,192,74897,1,8,0:0:0:0:
256,192,75257,1,8,0:0:0:0:
256,192,75436,1,0,0:0:0:0:
256,192,75616,1,8,0:0:0:0:
256,192,75975,1,0,0:0:0:0:
256,192,76334,1,8,0:0:0:0:
256,192,76694,1,0,0:0:0:0:
256,192,76873,1,8,0:0:0:0:
256,192,77053,1,0,0:0:0:0:
96,96,77412,1,4,0:0:0:0:
256,192,77951,1,0,0:0:0:0:
256,192,78131,1,8,0:0:0:0:
96,64,78849,1,4,0:0:0:0:
256,192,79209,1,8,0:0:0:0:
256,192,79568,1,0,0:0:0:0:
256,192,79927,1,8,0:0:0:0:
128,96,80107,1,4,0:0:0:0:
256,192,80646,1,8,0:0:0:0:
256,192,81005,1,0,0:0:0:0:
256,192,81185,1,0,0:0:0:0:
256,192,81364,1,8,0:0:0:0:
256,192,81724,1,0,0:0:0:0:
256,192,82083,1,8,0:0:0:0:
256,192,82263,1,0,0:0:0:0:
256,192,82622,1,0,0:0:0:0:
0,64,82981,1,4,0:0:0:0:
256,192,83520,1,8,0:0:0:0:
256,192,83879,1,0,0:0:0:0:
256,192,84059,1,8,0:0:0:0:
256,192,84239,1,0,0:0:0:0:
256,192,84418,1,8,0:0:0:0:
256,192,84957,1,8,0:0:0:0:
256,192,85137,1,0,0:0:0:0:
256,192,85496,1,0,0:0:0:0:
64,64,85855,1,12,0:0:0:0:
256,192,86394,1,8,0:0:0:0:
256,192,86754,1,8,0:0:0:0:
256,192,87113,1,8,0:0:0:0:
256,192,87472,1,8,0:0:0:0:
256,192,87831,1,8,0:0:0:0:
256,192,88011,1,0,0:0:0:0:
256,192,88370,1,0,0:0:0:0:
128,64,88730,1,4,0:0:0:0:
256,192,89269,1,8,0:0:0:0:
256,192,89628,1,0,0:0:0:0:
32,96,90167,1,12,0:0:0:0:
128,96,90885,1,4,0:0:0:0:
256,192,91424,1,0,0:0:0:0:
160,64,91784,1,4,0:0:0:0:
256,192,92143,1,0,0:0:0:0:
256,192,92502,1,8,0:0:0:0:
256,192,93221,1,0,0:0:0:0:
256,192,93580,1,0,0:0:0:0:
256,192,93939,1,8,0:0:0:0:
256,192,94658,1,8,0:0:0:0:
256,192,95017,1,0,0:0:0:0:
256,192,95376,1,0,0:0:0:0:
256,192,95736,1,8,0:0:0:0:
256,192,96095,1,0,0:0:0:0:
256,192,96813,1,8,0:0:0:0:
256,192,97173,1,0,0:0:0:0:
256,192,97532,1,0,0:0:0:0:
256,192,97891,1,8,0:0:0:0:
256,192,98251,1,0,0:0:0:0:
256,192,98969,1,8,0:0:0:0:
256,192,99328,1,0,0:0:0:0:
256,192,99688,1,0,0:0:0:0:
256,192,100047,1,0,0:0:0:0:
256,192,100406,1,8,0:0:0:0:
256,192,101125,1,0,0:0:0:0:
256,192,101484,1,8,0:0:0:0:
256,192,101843,1,0,0:0:0:0:
256,192,102203,1,8,0:0:0:0:
256,192,102562,1,8,0:0:0:0:
256,192,102742,1,0,0:0:0:0:
256,192,102921,1,0,0:0:0:0:
160,96,103281,1,12,0:0:0:0:
256,192,103640,1,0,0:0:0:0:
256,192,104358,1,8,0:0:0:0:
256,192,104718,1,0,0:0:0:0:
256,192,105077,1,8,0:0:0:0:
256,192,105257,1,8,0:0:0:0:
256,192,105436,1,0,0:0:0:0:
256,192,105796,1,8,0:0:0:0:
256,192,106155,1,0,0:0:0:0:
256,192,106514,1,8,0:0:0:0:
256,192,107233,1,8,0:0:0:0:
256,192,107592,1,0,0:0:0:0:
256,192,107951,1,8,0:0:0:0:
256,192,108131,1,0,0:0:0:0:
256,192,108490,1,0,0:0:0:0:
256,192,108670,1,8,0:0:0:0:
128,64,109029,1,4,0:0:0:0:
256,192,109388,1,8,0:0:0:0:
256,192,110107,1,8,0:0:0:0:
256,192,110466,1,0,0:0:0:0:
256,192,110825,1,8,0:0:0:0:
256,192,111185,1,0,0:0:0:0:
256,192,111364,1,0,0:0:0:0:
256,192,111544,1,8,0:0:0:0:
128,64,111903,1,4,0:0:0:0:
256,192,112622,1,0,0:0:0:0:
256,192,112981,1,0,0:0:0:0:
256,192,113340,1,8,0:0:0:0:
256,192,113700,1,0,0:0:0:0:
256,192,113879,1,0,0:0:0:0:
256,192,114418,1,0,0:0:0:0:
128,64,114778,1,12,0:0:0:0:
256,192,115137,1,0,0:0:0:0:
256,192,115496,1,8,0:0:0:0:
256,192,115855,1,8,0:0:0:0:
256,192,116035,1,8,0:0:0:0:
256,192,116215,1,0,0:0:0:0:
256,192,116574,1,8,0:0:0:0:
256,192,116933,1,0,0:0:0:0:
256,192,117652,1,0,0:0:0:0:
256,192,118011,1,8,0:0:0:0:
256,192,118191,1,8,0:0:0:0:
256,192,118370,1,0,0:0:0:0:
256,192,118730,1,8,0:0:0:0:
256,192,119089,1,0,0:0:0:0:
256,192,119448,1,0,0:0:0:0:
256,192,119628,1,8,0:0:0:0:
256,192,119807,1,0,0:0:0:0:
256,192,120167,1,0,0:0:0:0:
32,96,120526,1,12,0:0:0:0:
256,192,120885,1,0,0:0:0:0:
256,192,121065,1,0,0:0:0:0:
256,192,121245,1,8,0:0:0:0:
256,192,121963,1,8,0:0:0:0:
256,192,122322,1,8,0:0:0:0:
256,192,122502,1,0,0:0:0:0:
256,192,122682,1,8,0:0:0:0:
256,192,123041,1,8,0:0:0:0:
256,192,123221,1,8,0:0:0:0:
64,64,123400,1,4,0:0:0:0:
256,192,123939,1,0,0:0:0:0:
256,192,124119,1,8,0:0:0:0:
256,192,124478,1,8,0:0:0:0:
256,192,124837,1,0,0:0:0:0:
256,192,125017,1,0,0:0:0:0:
256,192,125556,1,8,0:0:0:0:
256,192,126095,1,8,0:0:0:0:
96,64,126275,1,4,0:0:0:0:
256,192,126993,1,8,0:0:0:0:
256,192,127352,1,0,0:0:0:0:
256,192,127712,1,8,0:0:0:0:
256,192,128071,1,0,0:0:0:0:
256,192,128251,1,0,0:0:0:0:
256,192,128430,1,0,0:0:0:0:
256,192,128610,1,0,0:0:0:0:
256,192,128790,1,0,0:0:0:0:
96,96,128969,1,12,0:0:0:0:
96,96,129328,1,12,0:0:0:0:
96,96,129508,1,12,0:0:0:0:
96,96,130586,1,4,0:0:0:0:
256,192,130945,1,8,0:0:0:0:
256,192,131125,1,0,0:0:0:0:
256,192,131305,1,8,0:0:0:0:
256,192,131664,1,0,0:0:0:0:
256,192,131843,1,8,0:0:0:0:
256,192,132023,1,8,0:0:0:0:
256,192,132382,1,0,0:0:0:0:
256,192,132742,1,8,0:0:0:0:
256,192,133101,1,0,0:0:0:0:
256,192,133460,1,0,0:0:0:0:
256,192,133640,1,0,0:0:0:0:
256,192,133819,1,8,0:0:0:0:
256,192,134179,1,0,0:0:0:0:
256,192,134538,1,0,0:0:0:0:
256,192,134718,1,8,0:0:0:0:
256,192,135436,1,8,0:0:0:0:
256,192,135796,1,8,0:0:0:0:
256,192,135975,1,0,0:0:0:0:
256,192,136155,1,8,0:0:0:0:
64,96,136334,1,4,0:0:0:0:
256,192,136694,1,8,0:0:0:0:
256,192,137053,1,0,0:0:0:0:
256,192,137412,1,8,0:0:0:0:
256,192,137592,1,0,0:0:0:0:
256,192,137772,1,8,0:0:0:0:
256,192,138131,1,0,0:0:0:0:
256,192,138490,1,8,0:0:0:0:
256,192,138670,1,8,0:0:0:0:
256,192,138849,1,0,0:0:0:0:
256,192,139209,1,0,0:0:0:0:
256,192,139927,1,8,0:0:0:0:
256,192,140287,1,0,0:0:0:0:
256,192,140646,1,8,0:0:0:0:
256,192,140825,1,8,0:0:0:0:
256,192,141005,1,0,0:0:0:0:
256,192,141185,1,8,0:0:0:0:
128,64,141544,1,12,0:0:0:0:
128,64,142083,1,4,0:0:0:0:
256,192,142442,1,0,0:0:0:0:
256,192,142622,1,8,0:0:0:0:
256,192,142802,1,8,0:0:0:0:
256,192,143161,1,0,0:0:0:0:
256,192,143340,1,8,0:0:0:0:
256,192,143520,1,0,0:0:0:0:
256,192,143879,1,0,0:0:0:0:
256,192,144239,1,8,0:0:0:0:
256,192,144418,1,8,0:0:0:0:
256,192,144598,1,0,0:0:0:0:
256,192,144957,1,8,0:0:0:0:
256,192,145316,1,0,0:0:0:0:
256,192,145676,1,0,0:0:0:0:
256,192,145855,1,0,0:0:0:0:
256,192,146035,1,8,0:0:0:0:
256,192,146394,1,8,0:0:0:0:
256,192,146574,1,8,0:0:0:0:
256,192,146754,1,0,0:0:0:0:
256,192,146933,1,8,0:0:0:0:
256,192,147652,1,0,0:0:0:0:
128,64,147831,1,12,0:0:0:0:
256,192,148191,1,8,0:0:0:0:
256,192,148550,1,8,0:0:0:0:
256,192,148730,1,0,0:0:0:0:
256,192,148909,1,8,0:0:0:0:
256,192,149269,1,0,0:0:0:0:
256,192,149628,1,8,0:0:0:0:
256,192,149987,1,0,0:0:0:0:
256,192,150167,1,8,0:0:0:0:
256,192,150346,1,0,0:0:0:0:
96,96,150706,1,4,0:0:0:0:
256,192,151245,1,0,0:0:0:0:
256,192,151424,1,8,0:0:0:0:
128,64,152143,1,4,0:0:0:0:
256,192,152502,1,8,0:0:0:0:
256,192,152861,1,0,0:0:0:0:
256,192,153221,1,0,0:0:0:0:
106,80,153400,1,12,0:0:0:0:
256,192,153939,1,0,0:0:0:0:
256,192,154299,1,0,0:0:0:0:
256,192,154478,1,0,0:0:0:0:
256,192,154658,1,8,0:0:0:0:
256,192,154837,1,0,0:0:0:0:
256,192,155376,1,8,0:0:0:0:
256,192,155736,1,0,0:0:0:0:
256,192,155915,1,8,0:0:0:0:
256,192,156095,1,0,0:0:0:0:
128,64,156275,1,12,0:0:0:0:
256,192,156634,1,0,0:0:0:0:
256,192,156813,1,8,0:0:0:0:
256,192,156993,1,0,0:0:0:0:
256,192,157352,1,8,0:0:0:0:
256,192,157712,1,0,0:0:0:0:
256,192,158071,1,0,0:0:0:0:
256,192,158251,1,0,0:0:0:0:
256,192,158430,1,8,0:0:0:0:
96,64,159149,1,12,0:0:0:0:
256,192,159508,1,8,0:0:0:0:
256,192,159688,1,8,0:0:0:0:
256,192,159867,1,0,0:0:0:0:
256,192,160227,1,8,0:0:0:0:
256,192,160586,1,0,0:0:0:0:
256,192,160945,1,0,0:0:0:0:
256,192,161125,1,8,0:0:0:0:
256,192,161305,1,8,0:0:0:0:
256,192,161664,1,0,0:0:0:0:
128,96,162023,1,4,0:0:0:0:
256,192,162382,1,0,0:0:0:0:
256,192,162562,1,8,0:0:0:0:
256,192,162921,1,8,0:0:0:0:
256,192,163281,1,8,0:0:0:0:
128,96,163460,1,4,0:0:0:0:
256,192,163819,1,8,0:0:0:0:
256,192,163999,1,0,0:0:0:0:
256,192,164179,1,8,0:0:0:0:
256,192,164538,1,8,0:0:0:0:
256,192,164897,1,8,0:0:0:0:
256,192,165975,1,8,0:0:0:0:
256,192,166334,1,8,0:0:0:0:
256,192,167412,1,8,0:0:0:0:
256,192,167772,1,8,0:0:0:0:
256,192,168849,1,8,0:0:0:0:
256,192,169209,1,8,0:0:0:0:
256,192,169927,1,0,0:0:0:0:
256,192,170107,1,8,0:0:0:0:
256,192,170466,1,8,0:0:0:0:
96,64,170646,1,4,0:0:0:0:
256,192,171005,1,0,0:0:0:0:
256,192,171185,1,8,0:0:0:0:
256,192,171544,1,0,0:0:0:0:
256,192,171903,1,8,0:0:0:0:
256,192,172083,1,0,0:0:0:0:
256,192,172442,1,0,0:0:0:0:
256,192,172622,1,8,0:0:0:0:
256,192,172981,1,0,0:0:0:0:
256,192,173161,1,8,0:0:0:0:
256,192,173340,1,8,0:0:0:0:
96,96,173520,1,4,0:0:0:0:
256,192,174059,1,8,0:0:0:0:
256,192,174418,1,0,0:0:0:0:
256,192,174778,1,8,0:0:0:0:
256,192,174957,1,8,0:0:0:0:
256,192,175137,1,0,0:0:0:0:
256,192,175676,1,8,0:0:0:0:
256,192,176035,1,0,0:0:0:0:
128,64,176394,1,12,0:0:0:0:
256,192,176933,1,8,0:0:0:0:
256,192,177293,1,0,0:0:0:0:
256,192,177652,1,8,0:0:0:0:
256,192,177831,1,0,0:0:0:0:
256,192,178370,1,8,0:0:0:0:
256,192,178730,1,0,0:0:0:0:
256,192,179089,1,8,0:0:0:0:
128,96,179269,1,4,0:0:0:0:
256,192,179807,1,8,0:0:0:0:
256,192,180167,1,0,0:0:0:0:
256,192,180346,1,0,0:0:0:0:
256,192,180526,1,8,0:0:0:0:
128,96,180885,1,12,0:0:0:0:
128,96,181424,1,12,0:0:0:0:
256,192,181784,1,8,0:0:0:0:
160,96,182143,1,4,0:0:0:0:
256,192,182682,1,8,0:0:0:0:
256,192,183041,1,0,0:0:0:0:
256,192,183400,1,8,0:0:0:0:
256,192,183760,1,8,0:0:0:0:
256,192,183939,1,0,0:0:0:0:
256,192,184119,1,8,0:0:0:0:
256,192,184478,1,8,0:0:0:0:
256,192,184837,1,0,0:0:0:0:
256,192,185197,1,12,0:0:0:0:
256,192,186095,1,0,0:0:0:0:
256,192,186275,1,8,0:0:0:0:
96,96,186454,1,4,0:0:0:0:
256,192,186813,1,8,0:0:0:0:
256,192,186993,1,8,0:0:0:0:
256,192,187173,1,0,0:0:0:0:
256,192,187352,1,0,0:0:0:0:
256,192,187532,1,0,0:0:0:0:
256,192,187712,1,0,0:0:0:0:
128,96,187891,1,12,0:0:0:0:
128,96,188251,1,12,0:0:0:0:
128,96,188430,1,12,0:0:0:0:
128,96,188790,1,12,0:0:0:0:
128,96,188969,1,12,0:0:0:0:
128,96,189508,1,4,0:0:0:0:
256,192,190945,1,0,0:0:0:0:
256,192,192382,1,0,0:0:0:0:
256,192,193819,1,8,0:0:0:0:
256,192,195257,1,0,0:0:0:0:
256,192,196694,1,8,0:0:0:0:
256,192,198131,1,0,0:0:0:0:
256,192,198849,1,8,0:0:0:0:
256,192,199568,1,0,0:0:0:0:
256,192,201005,1,8,0:0:0:0:
256,192,201724,1,0,0:0:0:0:
256,192,202442,1,0,0:0:0:0:
256,192,202802,1,8,0:0:0:0:
256,192,203161,1,0,0:0:0:0:
256,192,203879,1,8,0:0:0:0:
256,192,204239,1,0,0:0:0:0:
256,192,204598,1,0,0:0:0:0:
256,192,205316,1,8,0:0:0:0:
256,192,205676,1,8,0:0:0:0:
256,192,205855,1,0,0:0:0:0:
256,192,206215,1,0,0:0:0:0:
256,192,206394,1,8,0:0:0:0:
64,96,206754,1,4,0:0:0:0:
256,192,207293,1,0,0:0:0:0:
256,192,207472,1,8,0:0:0:0:
256,192,207831,1,0,0:0:0:0:
256,192,208191,1,8,0:0:0:0:
256,192,208370,1,0,0:0:0:0:
256,192,208909,1,8,0:0:0:0:
256,192,209269,1,0,0:0:0:0:
256,192,209448,1,0,0:0:0:0:
256,192,209628,1,8,0:0:0:0:
256,192,209987,1,0,0:0:0:0:
256,192,210346,1,8,0:0:0:0:
256,192,210885,1,8,0:0:0:0:
256,192,211245,1,0,0:0:0:0:
256,192,211424,1,8,0:0:0:0:
256,192,211784,1,0,0:0:0:0:
256,192,212322,1,8,0:0:0:0:
256,192,212682,1,0,0:0:0:0:
256,192,212861,1,0,0:0:0:0:
256,192,213041,1,0,0:0:0:0:
256,192,213221,1,8,0:0:0:0:
256,192,213400,1,0,0:0:0:0:
256,192,213580,1,0,0:0:0:0:
128,96,213760,1,12,0:0:0:0:
128,96,214119,1,12,0:0:0:0:
128,96,214299,1,12,0:0:0:0:
96,96,215376,1,4,0:0:0:0:
256,192,215736,1,8,0:0:0:0:
256,192,215915,1,0,0:0:0:0:
256,192,216095,1,8,0:0:0:0:
256,192,216454,1,0,0:0:0:0:
256,192,216634,1,8,0:0:0:0:
256,192,216813,1,0,0:0:0:0:
256,192,217173,1,0,0:0:0:0:
256,192,217532,1,8,0:0:0:0:
256,192,217891,1,0,0:0:0:0:
256,192,218251,1,0,0:0:0:0:
256,192,218610,1,8,0:0:0:0:
256,192,218790,1,0,0:0:0:0:
256,192,218969,1,8,0:0:0:0:
256,192,219328,1,0,0:0:0:0:
256,192,219508,1,8,0:0:0:0:
256,192,220227,1,8,0:0:0:0:
256,192,220586,1,0,0:0:0:0:
256,192,220766,1,0,0:0:0:0:
256,192,220945,1,8,0:0:0:0:
96,64,221125,1,4,0:0:0:0:
256,192,221484,1,0,0:0:0:0:
256,192,221843,1,8,0:0:0:0:
256,192,222203,1,0,0:0:0:0:
256,192,222382,1,0,0:0:0:0:
256,192,222562,1,8,0:0:0:0:
256,192,222921,1,8,0:0:0:0:
256,192,223281,1,0,0:0:0:0:
256,192,223640,1,8,0:0:0:0:
256,192,223819,1,8,0:0:0:0:
256,192,223999,1,0,0:0:0:0:
256,192,224718,1,8,0:0:0:0:
256,192,225077,1,8,0:0:0:0:
256,192,225436,1,8,0:0:0:0:
256,192,225616,1,0,0:0:0:0:
256,192,225796,1,8,0:0:0:0:
256,192,225975,1,0,0:0:0:0:
96,64,226334,1,12,0:0:0:0:
96,64,226873,1,4,0:0:0:0:
256,192,227233,1,0,0:0:0:0:
256,192,227412,1,8,0:0:0:0:
256,192,227592,1,0,0:0:0:0:
256,192,227951,1,8,0:0:0:0:
256,192,228131,1,0,0:0:0:0:
256,192,228310,1,8,0:0:0:0:
256,192,228670,1,8,0:0:0:0:
256,192,229029,1,0,0:0:0:0:
256,192,229388,1,0,0:0:0:0:
256,192,229568,1,0,0:0:0:0:
256,192,229748,1,8,0:0:0:0:
256,192,230107,1,0,0:0:0:0:
256,192,230466,1,0,0:0:0:0:
256,192,230825,1,8,0:0:0:0:
256,192,231185,1,8,0:0:0:0:
256,192,231364,1,0,0:0:0:0:
256,192,231544,1,8,0:0:0:0:
256,192,231724,1,0,0:0:0:0:
256,192,232442,1,0,0:0:0:0:
96,96,232622,1,12,0:0:0:0:
256,192,232981,1,8,0:0:0:0:
256,192,233340,1,8,0:0:0:0:
256,192,233520,1,0,0:0:0:0:
256,192,233700,1,8,0:0:0:0:
256,192,234059,1,0,0:0:0:0:
256,192,234418,1,8,0:0:0:0:
256,192,234778,1,0,0:0:0:0:
256,192,234957,1,8,0:0:0:0:
256,192,235137,1,0,0:0:0:0:
96,96,235496,1,4,0:0:0:0:
256,192,236035,1,0,0:0:0:0:
256,192,236215,1,8,0:0:0:0:
128,64,236933,1,4,0:0:0:0:
256,192,237293,1,8,0:0:0:0:
256,192,237652,1,0,0:0:0:0:
256,192,238011,1,8,0:0:0:0:
106,80,238191,1,4,0:0:0:0:
256,192,238730,1,0,0:0:0:0:
256,192,239089,1,0,0:0:0:0:
256,192,239269,1,0,0:0:0:0:
256,192,239448,1,8,0:0:0:0:
256,192,239807,1,0,0:0:0:0:
256,192,240167,1,8,0:0:0:0:
256,192,240346,1,0,0:0:0:0:
256,192,240706,1,0,0:0:0:0:
0,64,241065,1,4,0:0:0:0:
256,192,241604,1,8,0:0:0:0:
256,192,241963,1,0,0:0:0:0:
256,192,242143,1,0,0:0:0:0:
256,192,242322,1,8,0:0:0:0:
256,192,242502,1,8,0:0:0:0:
256,192,243041,1,8,0:0:0:0:
256,192,243221,1,0,0:0:0:0:
256,192,243580,1,0,0:0:0:0:
64,64,243939,1,12,0:0:0:0:
256,192,244478,1,8,0:0:0:0:
256,192,244837,1,8,0:0:0:0:
256,192,245197,1,8,0:0:0:0:
256,192,245556,1,8,0:0:0:0:
256,192,245915,1,8,0:0:0:0:
256,192,246095,1,0,0:0:0:0:
256,192,246454,1,0,0:0:0:0:
128,64,246813,1,4,0:0:0:0:
256,192,247352,1,8,0:0:0:0:
256,192,247712,1,0,0:0:0:0:
32,96,248251,1,12,0:0:0:0:
256,192,248610,1,0,0:0:0:0:
160,96,248969,1,4,0:0:0:0:
160,96,249688,1,4,0:0:0:0:
256,192,249867,12,0,255436,0:0:0:0:
