osu file format v14

[General]
AudioFilename: audio.ogg
AudioLeadIn: 0
PreviewTime: 50808
Countdown: 0
SampleSet: Normal
StackLeniency: 0.7
Mode: 1
LetterboxInBreaks: 0
WidescreenStoryboard: 1

[Editor]
Bookmarks: 1893,8952,16010,23069,30128,37187,44246,51305,58363,65422,72481,79540,86599
DistanceSpacing: 1.3
BeatDivisor: 2
GridSize: 32
TimelineZoom: 1.3

[Metadata]
Title:Gift (TV Size)
TitleUnicode:Gift (TV Size)
Artist:Ishihara Kaori
ArtistUnicode:石原夏織
Creator:iRedi
Version:Muzukashii
Source:愚かな天使は悪魔と踊る
Tags:zhuosh oroka na tenshi wa akuma to odoru the foolish angel dances with the devil stupid demons anime japanese pop j-pop jpop ending theme ed
BeatmapID:4448852
BeatmapSetID:2118215

[Difficulty]
HPDrainRate:6
CircleSize:2
OverallDifficulty:4.5
ApproachRate:10
SliderMultiplier:1.4
SliderTickRate:1

[Events]
//Background and Video events
0,0,"a.jpg",0,40
Video,570,"output.mp4"
//Break Periods
//Storyboard Layer 0 (Background)
//Storyboard Layer 1 (Fail)
//Storyboard Layer 2 (Pass)
//Storyboard Layer 3 (Foreground)
//Storyboard Layer 4 (Overlay)
//Storyboard Sound Samples

[TimingPoints]
128,441.176470588235,4,1,0,50,1,8
1892,441.176470588235,4,1,0,50,1,8
1893,441.176470588235,4,1,0,50,1,0
1893,-100,4,1,0,50,0,0
8946,-100,4,1,0,55,0,0
16005,-100,4,1,0,65,0,0
23064,-100,4,1,0,70,0,0
37292,-100,4,1,0,60,0,0
40711,-100,4,1,0,75,0,0
47770,-100,4,1,0,80,0,0
51304,-90.9090909090909,4,1,0,85,0,1
72476,-90.9090909090909,4,1,0,80,0,1
86598,-90.9090909090909,4,1,0,80,0,0
87035,-90.9090909090909,4,1,0,70,0,0
87476,-90.9090909090909,4,1,0,60,0,0
87917,-90.9090909090909,4,1,0,50,0,0
88358,-90.9090909090909,4,1,0,40,0,0
88799,-90.9090909090909,4,1,0,30,0,0
89240,-90.9090909090909,4,1,0,20,0,0
89682,-90.9090909090909,4,1,0,10,0,0
90123,-90.9090909090909,4,1,0,5,0,0

[HitObjects]
256,192,1893,5,8,0:0:0:0:
256,192,2113,1,0,0:0:0:0:
256,192,2334,1,8,0:0:0:0:
256,192,2554,1,8,0:0:0:0:
256,192,2995,1,0,0:0:0:0:
256,192,3216,1,0,0:0:0:0:
256,192,3437,1,8,0:0:0:0:
256,192,4540,1,8,0:0:0:0:
256,192,4760,1,0,0:0:0:0:
256,192,4981,1,8,0:0:0:0:
256,192,5201,1,8,0:0:0:0:
256,192,5422,1,0,0:0:0:0:
256,192,5863,1,8,0:0:0:0:
256,192,6084,1,0,0:0:0:0:
256,192,6525,1,8,0:0:0:0:
256,192,6745,1,0,0:0:0:0:
256,192,6966,1,8,0:0:0:0:
256,192,8069,1,0,0:0:0:0:
256,192,8290,1,8,0:0:0:0:
256,192,8510,1,0,0:0:0:0:
256,192,8731,1,0,0:0:0:0:
256,192,8951,1,8,0:0:0:0:
256,192,9392,1,8,0:0:0:0:
256,192,10275,1,0,0:0:0:0:
256,192,10495,1,8,0:0:0:0:
256,192,10716,1,0,0:0:0:0:
256,192,10937,1,0,0:0:0:0:
256,192,11378,1,0,0:0:0:0:
256,192,11598,1,8,0:0:0:0:
256,192,11819,1,8,0:0:0:0:
256,192,12260,1,0,0:0:0:0:
256,192,12481,1,8,0:0:0:0:
256,192,12701,1,0,0:0:0:0:
256,192,12922,1,0,0:0:0:0:
256,192,13142,1,8,0:0:0:0:
256,192,13584,1,8,0:0:0:0:
256,192,13804,1,8,0:0:0:0:
256,192,14025,1,0,0:0:0:0:
256,192,14245,1,8,0:0:0:0:
256,192,15128,1,8,0:0:0:0:
256,192,15348,1,8,0:0:0:0:
256,192,15569,1,0,0:0:0:0:
256,192,15790,1,0,0:0:0:0:
512,0,16010,1,12,0:0:0:0:
256,192,16451,1,0,0:0:0:0:
256,192,16672,1,0,0:0:0:0:
256,192,16892,1,8,0:0:0:0:
256,192,17113,1,8,0:0:0:0:
256,192,17554,1,0,0:0:0:0:
256,192,17775,1,8,0:0:0:0:
256,192,18216,1,8,0:0:0:0:
256,192,18437,1,0,0:0:0:0:
256,192,18657,1,8,0:0:0:0:
256,192,19098,1,8,0:0:0:0:
256,192,19319,1,8,0:0:0:0:
256,192,19540,1,0,0:0:0:0:
256,192,19981,1,8,0:0:0:0:
256,192,20201,1,0,0:0:0:0:
256,192,20422,1,8,0:0:0:0:
256,192,20642,1,8,0:0:0:0:
256,192,21084,1,8,0:0:0:0:
256,192,21304,1,0,0:0:0:0:
256,192,21745,1,0,0:0:0:0:
256,192,22407,1,8,0:0:0:0:
256,192,22628,1,0,0:0:0:0:
256,192,22848,1,0,0:0:0:0:
512,0,23069,1,12,0:0:0:0:
256,192,23510,1,0,0:0:0:0:
256,192,23731,1,8,0:0:0:0:
256,192,24172,1,0,0:0:0:0:
256,192,24392,1,0,0:0:0:0:
256,192,24613,1,8,0:0:0:0:
256,192,25054,1,0,0:0:0:0:
256,192,25275,1,8,0:0:0:0:
256,192,25716,1,8,0:0:0:0:
256,192,25937,1,0,0:0:0:0:
256,192,26157,1,8,0:0:0:0:
256,192,26378,1,8,0:0:0:0:
256,192,26598,1,0,0:0:0:0:
256,192,27040,1,8,0:0:0:0:
256,192,27260,1,0,0:0:0:0:
256,192,27701,1,0,0:0:0:0:
256,192,27922,1,8,0:0:0:0:
256,192,28142,1,0,0:0:0:0:
256,192,28584,1,8,0:0:0:0:
256,192,28804,1,8,0:0:0:0:
256,192,29245,1,0,0:0:0:0:
256,192,29466,1,8,0:0:0:0:
256,192,29687,1,0,0:0:0:0:
256,192,29797,1,0,0:0:0:0:
256,192,29907,1,0,0:0:0:0:
256,192,30128,1,8,0:0:0:0:
256,192,30569,1,8,0:0:0:0:
256,192,31010,1,0,0:0:0:0:
256,192,31451,1,8,0:0:0:0:
256,192,31672,1,0,0:0:0:0:
256,192,31892,1,8,0:0:0:0:
256,192,32113,1,0,0:0:0:0:
256,192,32334,1,0,0:0:0:0:
256,192,32554,1,8,0:0:0:0:
256,192,32995,1,0,0:0:0:0:
256,192,33216,1,8,0:0:0:0:
256,192,33437,1,0,0:0:0:0:
512,0,33657,1,12,0:0:0:0:
256,192,34098,1,0,0:0:0:0:
512,0,34319,1,12,0:0:0:0:
256,192,34760,1,0,0:0:0:0:
256,192,34981,1,0,0:0:0:0:
256,192,35201,1,0,0:0:0:0:
512,0,35422,1,12,0:0:0:0:
256,192,35863,1,0,0:0:0:0:
512,0,36084,1,12,0:0:0:0:
256,192,36525,1,8,0:0:0:0:
256,192,36635,1,8,0:0:0:0:
256,192,36745,1,8,0:0:0:0:
256,192,36966,1,8,0:0:0:0:
512,0,37187,1,4,0:0:0:0:
256,192,37628,1,0,0:0:0:0:
256,192,38069,1,0,0:0:0:0:
256,192,38510,1,0,0:0:0:0:
256,192,38951,1,0,0:0:0:0:
256,192,39392,1,0,0:0:0:0:
256,192,39834,1,0,0:0:0:0:
256,192,40275,1,8,0:0:0:0:
256,192,40385,1,8,0:0:0:0:
256,192,40495,1,8,0:0:0:0:
512,0,40716,1,4,0:0:0:0:
256,192,41378,1,0,0:0:0:0:
512,0,41598,1,12,0:0:0:0:
256,192,42040,1,0,0:0:0:0:
256,192,42260,1,0,0:0:0:0:
512,0,42481,1,12,0:0:0:0:
256,192,42812,1,0,0:0:0:0:
256,192,43142,1,8,0:0:0:0:
512,0,43363,1,4,0:0:0:0:
512,0,43694,1,4,0:0:0:0:
512,0,44025,1,4,0:0:0:0:
512,0,44245,1,12,0:0:0:0:
256,192,44687,1,8,0:0:0:0:
256,192,44907,1,0,0:0:0:0:
256,192,45348,1,0,0:0:0:0:
256,192,45569,1,8,0:0:0:0:
256,192,45790,1,0,0:0:0:0:
256,192,45900,1,0,0:0:0:0:
256,192,46010,1,0,0:0:0:0:
256,192,46231,1,0,0:0:0:0:
256,192,46451,1,8,0:0:0:0:
256,192,46672,1,0,0:0:0:0:
256,192,47113,1,8,0:0:0:0:
256,192,47334,1,0,0:0:0:0:
256,192,47554,1,8,0:0:0:0:
512,0,47775,1,4,0:0:0:0:
256,192,48216,1,0,0:0:0:0:
256,192,48547,1,8,0:0:0:0:
256,192,48657,1,8,0:0:0:0:
256,192,48878,1,0,0:0:0:0:
256,192,49098,1,0,0:0:0:0:
256,192,49319,1,8,0:0:0:0:
256,192,49540,1,0,0:0:0:0:
256,192,49760,1,8,0:0:0:0:
256,192,49981,1,8,0:0:0:0:
256,192,50201,1,0,0:0:0:0:
256,192,50312,1,0,0:0:0:0:
256,192,50422,1,0,0:0:0:0:
512,0,51304,1,12,0:0:0:0:
256,192,51745,1,0,0:0:0:0:
256,192,51966,1,0,0:0:0:0:
256,192,52187,1,8,0:0:0:0:
256,192,52407,1,0,0:0:0:0:
256,192,52517,1,0,0:0:0:0:
256,192,52628,1,0,0:0:0:0:
256,192,52848,1,8,0:0:0:0:
256,192,53069,1,0,0:0:0:0:
256,192,53510,1,0,0:0:0:0:
256,192,53731,1,8,0:0:0:0:
256,192,53841,1,8,0:0:0:0:
256,192,53951,1,8,0:0:0:0:
256,192,54172,1,0,0:0:0:0:
256,192,54392,1,8,0:0:0:0:
256,192,54613,1,0,0:0:0:0:
256,192,54834,1,8,0:0:0:0:
256,192,55275,1,8,0:0:0:0:
256,192,55495,1,0,0:0:0:0:
256,192,55716,1,8,0:0:0:0:
256,192,55937,1,8,0:0:0:0:
256,192,56157,1,0,0:0:0:0:
256,192,56598,1,0,0:0:0:0:
256,192,56819,1,8,0:0:0:0:
256,192,56929,1,8,0:0:0:0:
256,192,57040,1,8,0:0:0:0:
256,192,57260,1,0,0:0:0:0:
256,192,57481,1,8,0:0:0:0:
256,192,57922,1,0,0:0:0:0:
256,192,58142,1,8,0:0:0:0:
512,0,58363,1,4,0:0:0:0:
256,192,59025,1,0,0:0:0:0:
256,192,59245,1,8,0:0:0:0:
256,192,59466,1,0,0:0:0:0:
256,192,59576,1,0,0:0:0:0:
256,192,59687,1,0,0:0:0:0:
256,192,59907,1,8,0:0:0:0:
256,192,60128,1,0,0:0:0:0:
256,192,60459,1,8,0:0:0:0:
256,192,60569,1,8,0:0:0:0:
256,192,60790,1,0,0:0:0:0:
256,192,61010,1,8,0:0:0:0:
256,192,61451,1,0,0:0:0:0:
256,192,61672,1,8,0:0:0:0:
256,192,61782,1,8,0:0:0:0:
256,192,61892,1,8,0:0:0:0:
256,192,62334,1,0,0:0:0:0:
256,192,62554,1,8,0:0:0:0:
256,192,62775,1,0,0:0:0:0:
256,192,62995,1,8,0:0:0:0:
256,192,63106,1,8,0:0:0:0:
256,192,63216,1,8,0:0:0:0:
256,192,63437,1,8,0:0:0:0:
256,192,63657,1,0,0:0:0:0:
256,192,63767,1,0,0:0:0:0:
256,192,63878,1,0,0:0:0:0:
256,192,64098,1,8,0:0:0:0:
256,192,64319,1,0,0:0:0:0:
256,192,64540,1,8,0:0:0:0:
512,0,65422,1,4,0:0:0:0:
256,192,65863,1,8,0:0:0:0:
256,192,66084,1,0,0:0:0:0:
256,192,66304,1,8,0:0:0:0:
256,192,66525,1,0,0:0:0:0:
256,192,66635,1,0,0:0:0:0:
256,192,66745,1,0,0:0:0:0:
256,192,66966,1,8,0:0:0:0:
256,192,67187,1,8,0:0:0:0:
256,192,67628,1,0,0:0:0:0:
256,192,67848,1,8,0:0:0:0:
256,192,68069,1,0,0:0:0:0:
256,192,68179,1,0,0:0:0:0:
256,192,68510,1,8,0:0:0:0:
256,192,68731,1,8,0:0:0:0:
256,192,68951,1,0,0:0:0:0:
256,192,69392,1,8,0:0:0:0:
256,192,69613,1,0,0:0:0:0:
256,192,69834,1,8,0:0:0:0:
256,192,69944,1,8,0:0:0:0:
256,192,70275,1,8,0:0:0:0:
256,192,70495,1,0,0:0:0:0:
256,192,70716,1,8,0:0:0:0:
256,192,71157,1,0,0:0:0:0:
256,192,71378,1,8,0:0:0:0:
256,192,71598,1,0,0:0:0:0:
256,192,71709,1,0,0:0:0:0:
256,192,72040,1,8,0:0:0:0:
256,192,72260,1,8,0:0:0:0:
512,0,72481,1,4,0:0:0:0:
256,192,73142,1,0,0:0:0:0:
256,192,73363,1,8,0:0:0:0:
256,192,73584,1,0,0:0:0:0:
256,192,73694,1,0,0:0:0:0:
256,192,73804,1,0,0:0:0:0:
256,192,74025,1,8,0:0:0:0:
256,192,74245,1,8,0:0:0:0:
256,192,74687,1,8,0:0:0:0:
256,192,74907,1,0,0:0:0:0:
256,192,75017,1,0,0:0:0:0:
256,192,75128,1,0,0:0:0:0:
256,192,75348,1,0,0:0:0:0:
256,192,75569,1,8,0:0:0:0:
256,192,75790,1,8,0:0:0:0:
512,0,76010,1,4,0:0:0:0:
256,192,76451,1,0,0:0:0:0:
256,192,76672,1,8,0:0:0:0:
256,192,77113,1,8,0:0:0:0:
256,192,77334,1,8,0:0:0:0:
256,192,77554,1,0,0:0:0:0:
256,192,77665,1,0,0:0:0:0:
256,192,77775,1,0,0:0:0:0:
512,0,77995,1,12,0:0:0:0:
512,0,78216,1,12,0:0:0:0:
256,192,78657,1,8,0:0:0:0:
256,192,78878,1,8,0:0:0:0:
512,0,79098,1,4,0:0:0:0:
512,0,79540,1,12,0:0:0:0:
256,192,80201,1,0,0:0:0:0:
256,192,80422,1,0,0:0:0:0:
256,192,80642,1,8,0:0:0:0:
256,192,80753,1,8,0:0:0:0:
256,192,80863,1,8,0:0:0:0:
256,192,81084,1,0,0:0:0:0:
256,192,81304,1,8,0:0:0:0:
256,192,81745,1,8,0:0:0:0:
256,192,81966,1,0,0:0:0:0:
256,192,82187,1,8,0:0:0:0:
256,192,82407,1,0,0:0:0:0:
256,192,82517,1,0,0:0:0:0:
256,192,82628,1,0,0:0:0:0:
256,192,82848,1,0,0:0:0:0:
512,0,83069,1,12,0:0:0:0:
256,192,83510,1,0,0:0:0:0:
256,192,83620,1,0,0:0:0:0:
256,192,83731,1,0,0:0:0:0:
256,192,83951,1,8,0:0:0:0:
256,192,84613,1,8,0:0:0:0:
256,192,84834,1,0,0:0:0:0:
512,0,85054,1,12,0:0:0:0:
512,0,85275,1,12,0:0:0:0:
256,192,85716,1,8,0:0:0:0:
256,192,85937,1,0,0:0:0:0:
256,192,86157,1,0,0:0:0:0:
256,192,86267,1,0,0:0:0:0:
256,192,86378,1,0,0:0:0:0:
512,0,86598,1,12,0:0:0:0:
256,192,86819,12,0,90128,0:0:0:0:
