osu file format v14

[General]
AudioFilename: audio.ogg
AudioLeadIn: 0
PreviewTime: 50808
Countdown: 0
SampleSet: Normal
StackLeniency: 0.7
Mode: 1
LetterboxInBreaks: 0
WidescreenStoryboard: 0

[Editor]
Bookmarks: 1893,8952,16010,23069,30128,37187,44246,51305,58363,65422,72481,79540,86599
DistanceSpacing: 1.3
BeatDivisor: 4
GridSize: 32
TimelineZoom: 1.4

[Metadata]
Title:Gift (TV Size)
TitleUnicode:Gift (TV Size)
Artist:Ishihara Kaori
ArtistUnicode:石原夏織
Creator:iRedi
Version:Hidden Feelings
Source:愚かな天使は悪魔と踊る
Tags:zhuosh oroka na tenshi wa akuma to odoru the foolish angel dances with the devil stupid demons anime japanese pop j-pop jpop ending theme ed
BeatmapID:4448849
BeatmapSetID:2118215

[Difficulty]
HPDrainRate:6
CircleSize:2
OverallDifficulty:5.5
ApproachRate:10
SliderMultiplier:1.4
SliderTickRate:1

[Events]
//Background and Video events
0,0,"a.jpg",0,40
Video,570,"output.mp4"
//Break Periods
//Storyboard Layer 0 (Background)
//Storyboard Layer 1 (Fail)
//Storyboard Layer 2 (Pass)
//Storyboard Layer 3 (Foreground)
//Storyboard Layer 4 (Overlay)
//Storyboard Sound Samples

[TimingPoints]
128,441.176470588235,4,1,0,50,1,8
128,-111.111111111111,4,1,0,50,0,0
1892,441.176470588235,4,1,0,50,1,8
1893,441.176470588235,4,1,0,50,1,0
1893,-111.111111111111,4,1,0,50,0,0
8946,-111.06742,4,1,0,55,0,0
9387,-109.54877,4,1,0,55,0,0
9608,-108.80324,4,1,0,55,0,0
9829,-108.06779,4,1,0,55,0,0
10270,-106.629524,4,1,0,55,0,0
10490,-105.92625,4,1,0,55,0,0
10711,-105.22904,4,1,0,55,0,0
10932,-104.54096,4,1,0,55,0,0
11152,-103.864876,4,1,0,55,0,0
11373,-103.19446,4,1,0,55,0,0
11593,-102.53563,4,1,0,55,0,0
11814,-101.88221,4,1,0,55,0,0
12255,-100.602905,4,1,0,55,0,0
12476,-99.97381,4,1,0,55,0,0
12696,-99.35534,4,1,0,55,0,0
12917,-98.7417,4,1,0,55,0,0
13137,-98.13833,4,1,0,55,0,0
13579,-96.948105,4,1,0,55,0,0
13799,-96.366394,4,1,0,55,0,0
14020,-95.78902,4,1,0,55,0,0
14240,-95.221085,4,1,0,55,0,0
14461,-94.6573,4,1,0,55,0,0
14682,-94.10017,4,1,0,55,0,0
15123,-93.00779,4,1,0,55,0,0
15343,-92.47227,4,1,0,55,0,0
15564,-91.94048,4,1,0,55,0,0
15785,-91.41478,4,1,0,55,0,0
16005,-90.9090909090909,4,1,0,65,0,0
16120,-105.263157894737,4,1,0,65,0,0
21299,-105.29905,4,1,0,65,0,0
21520,-106.91041,4,1,0,65,0,0
21593,-107.45355,4,1,0,65,0,0
21667,-108.009796,4,1,0,65,0,0
21740,-108.5642,4,1,0,65,0,0
21961,-110.27784,4,1,0,65,0,0
22071,-111.15111,4,1,0,65,0,0
22182,-112.04644,4,1,0,65,0,0
22402,-113.86431,4,1,0,65,0,0
22623,-115.75081,4,1,0,65,0,0
22843,-117.647058823529,4,1,0,65,0,0
23064,-95.2380952380952,4,1,0,70,0,0
33602,-86.9565217391304,4,1,0,70,0,0
33707,-95.2380952380952,4,1,0,70,0,0
34264,-86.9565217391304,4,1,0,70,0,0
34374,-95.2380952380952,4,1,0,70,0,0
35367,-86.9565217391304,4,1,0,70,0,0
35477,-95.2380952380952,4,1,0,70,0,0
36029,-86.9565217391304,4,1,0,70,0,0
36134,-95.2380952380952,4,1,0,70,0,0
36520,-100.59995,4,1,0,70,0,0
36630,-102.21897,4,1,0,70,0,0
36740,-103.890945,4,1,0,70,0,0
36961,-107.421074,4,1,0,70,0,0
37182,-111.111111111111,4,1,0,70,0,0
37292,-111.111111111111,4,1,0,60,0,0
40270,-110.424614,4,1,0,60,0,0
40380,-107.445885,4,1,0,60,0,0
40490,-104.62362,4,1,0,60,0,0
40601,-102.040816326531,4,1,0,60,0,0
40711,-90.9090909090909,4,1,0,75,0,0
40766,-100,4,1,0,75,0,0
41042,-96.71382,4,1,0,75,0,0
41152,-95.485504,4,1,0,75,0,0
41373,-93.109665,4,1,0,75,0,0
41593,-90.9090909090909,4,1,0,75,0,0
41649,-100,4,1,0,75,0,0
41924,-96.71382,4,1,0,75,0,0
42034,-95.485504,4,1,0,75,0,0
42255,-93.109665,4,1,0,75,0,0
42476,-90.9090909090909,4,1,0,75,0,0
42531,-100,4,1,0,75,0,0
42696,-98.04935,4,1,0,75,0,0
42807,-96.81622,4,1,0,75,0,0
42917,-95.624435,4,1,0,75,0,0
43027,-94.46164,4,1,0,75,0,0
43137,-93.32678,4,1,0,75,0,0
43248,-92.20891,4,1,0,75,0,0
43358,-91.12722,4,1,0,75,0,0
43689,-88.02019,4,1,0,75,0,0
44020,-85.11804,4,1,0,75,0,0
44240,-83.3333333333333,4,1,0,75,0,0
44301,-90.9090909090909,4,1,0,75,0,0
47770,-83.3333333333333,4,1,0,80,0,0
47825,-90.9090909090909,4,1,0,80,0,0
48101,-89.15182,4,1,0,80,0,0
48211,-88.48228,4,1,0,80,0,0
48432,-87.167076,4,1,0,80,0,0
48542,-86.52691,4,1,0,80,0,0
48652,-85.89607,4,1,0,80,0,0
48762,-85.27438,4,1,0,80,0,0
48873,-84.65609,4,1,0,80,0,0
48983,-84.05214,4,1,0,80,0,0
49093,-83.456764,4,1,0,80,0,0
49314,-82.28572,4,1,0,80,0,0
49424,-81.71501,4,1,0,80,0,0
49535,-81.14708,4,1,0,80,0,0
49755,-80.04447,4,1,0,80,0,0
49976,-78.96661,4,1,0,80,0,0
50196,-77.92208,4,1,0,80,0,0
50307,-77.405495,4,1,0,80,0,0
50417,-76.9230769230769,4,1,0,80,0,0
50477,-90.9090909090909,4,1,0,80,0,0
51304,-74.0740740740741,4,1,0,85,0,1
51359,-80,4,1,0,85,0,1
58308,-74.0740740740741,4,1,0,85,0,1
58418,-80,4,1,0,85,0,1
62770,-79.97582,4,1,0,85,0,1
62880,-79.44753,4,1,0,85,0,1
62990,-78.92617,4,1,0,85,0,1
63101,-78.40697,4,1,0,85,0,1
63211,-77.89913,4,1,0,85,0,1
63321,-77.39784,4,1,0,85,0,1
63432,-76.89848,4,1,0,85,0,1
63542,-76.40995,4,1,0,85,0,1
63652,-75.927574,4,1,0,85,0,1
63762,-75.45125,4,1,0,85,0,1
63873,-74.97662,4,1,0,85,0,1
64093,-74.0740740740741,4,1,0,85,0,1
64149,-80,4,1,0,85,0,1
64314,-78.733315,4,1,0,85,0,1
64424,-77.93485,4,1,0,85,0,1
64535,-77.14538,4,1,0,85,0,1
64755,-75.62699,4,1,0,85,0,1
64865,-74.88999,4,1,0,85,0,1
64976,-74.16072,4,1,0,85,0,1
65086,-73.4519,4,1,0,85,0,1
65196,-72.75649,4,1,0,85,0,1
65307,-72.06798,4,1,0,85,0,1
65417,-71.4285714285714,4,1,0,85,0,1
65477,-76.9230769230769,4,1,0,85,0,1
72476,-71.4285714285714,4,1,0,85,0,1
72536,-76.9230769230769,4,1,0,85,0,1
75955,-71.4285714285714,4,1,0,85,0,1
76065,-76.9230769230769,4,1,0,85,0,1
77940,-71.4285714285714,4,1,0,85,0,1
78271,-76.9230769230769,4,1,0,85,0,1
79043,-71.4285714285714,4,1,0,85,0,1
79153,-76.9230769230769,4,1,0,85,0,1
79264,-78.4313725490196,4,1,0,85,0,1
79484,-71.4285714285714,4,1,0,85,0,1
79594,-80,4,1,0,85,0,1
83014,-74.0740740740741,4,1,0,85,0,1
83124,-86.9565217391304,4,1,0,85,0,1
84608,-86.93752,4,1,0,85,0,1
84829,-86.10617,4,1,0,85,0,1
85049,-80,4,1,0,85,0,1
85270,-80,4,1,0,85,0,1
85490,-83.71193,4,1,0,85,0,1
85711,-82.940865,4,1,0,85,0,1
85932,-82.18385,4,1,0,85,0,1
86042,-81.812195,4,1,0,85,0,1
86152,-81.443886,4,1,0,85,0,1
86262,-81.07888,4,1,0,85,0,1
86373,-80.71385,4,1,0,85,0,1
86598,-74.0740740740741,4,1,0,85,0,0
86654,-86.9565217391304,4,1,0,85,0,0
87035,-86.9565217391304,4,1,0,70,0,0
87476,-86.9565217391304,4,1,0,60,0,0
87917,-86.9565217391304,4,1,0,50,0,0
88358,-86.9565217391304,4,1,0,40,0,0
88799,-86.9565217391304,4,1,0,30,0,0
89240,-86.9565217391304,4,1,0,20,0,0
89682,-86.9565217391304,4,1,0,10,0,0
90123,-86.9565217391304,4,1,0,5,0,0

[HitObjects]
256,192,1893,5,8,0:0:0:0:
256,192,2113,1,0,0:0:0:0:
256,192,2334,1,8,0:0:0:0:
256,192,2554,1,8,0:0:0:0:
256,192,2995,1,0,0:0:0:0:
256,192,3216,1,0,0:0:0:0:
256,192,3437,1,8,0:0:0:0:
256,192,3878,1,0,0:0:0:0:
256,192,4098,1,8,0:0:0:0:
256,192,4540,1,8,0:0:0:0:
256,192,4760,1,0,0:0:0:0:
256,192,4981,1,8,0:0:0:0:
256,192,5201,1,8,0:0:0:0:
256,192,5422,1,0,0:0:0:0:
256,192,5642,1,0,0:0:0:0:
256,192,5863,1,8,0:0:0:0:
256,192,6084,1,0,0:0:0:0:
256,192,6525,1,8,0:0:0:0:
256,192,6745,1,0,0:0:0:0:
256,192,6966,1,8,0:0:0:0:
256,192,7407,1,8,0:0:0:0:
256,192,7628,1,0,0:0:0:0:
256,192,8069,1,0,0:0:0:0:
256,192,8290,1,8,0:0:0:0:
256,192,8510,1,0,0:0:0:0:
256,192,8731,1,0,0:0:0:0:
256,192,8951,1,8,0:0:0:0:
256,192,9392,1,8,0:0:0:0:
256,192,9613,1,8,0:0:0:0:
256,192,9834,1,0,0:0:0:0:
256,192,10275,1,0,0:0:0:0:
256,192,10495,1,8,0:0:0:0:
256,192,10716,1,0,0:0:0:0:
256,192,10937,1,0,0:0:0:0:
256,192,11157,1,8,0:0:0:0:
256,192,11378,1,0,0:0:0:0:
256,192,11598,1,8,0:0:0:0:
256,192,11819,1,8,0:0:0:0:
256,192,12260,1,0,0:0:0:0:
256,192,12481,1,8,0:0:0:0:
256,192,12701,1,0,0:0:0:0:
256,192,12922,1,0,0:0:0:0:
256,192,13142,1,8,0:0:0:0:
256,192,13584,1,8,0:0:0:0:
256,192,13804,1,8,0:0:0:0:
256,192,14025,1,0,0:0:0:0:
256,192,14245,1,8,0:0:0:0:
256,192,14466,1,0,0:0:0:0:
256,192,14687,1,8,0:0:0:0:
256,192,15128,1,8,0:0:0:0:
256,192,15348,1,8,0:0:0:0:
256,192,15569,1,0,0:0:0:0:
256,192,15790,1,0,0:0:0:0:
512,0,16010,1,12,0:0:0:0:
256,192,16341,1,0,0:0:0:0:
256,192,16451,1,8,0:0:0:0:
256,192,16672,1,0,0:0:0:0:
256,192,16782,1,0,0:0:0:0:
256,192,16892,1,8,0:0:0:0:
256,192,17113,1,8,0:0:0:0:
256,192,17554,1,0,0:0:0:0:
256,192,17775,1,8,0:0:0:0:
256,192,17995,1,0,0:0:0:0:
256,192,18069,1,0,0:0:0:0:
256,192,18142,1,0,0:0:0:0:
256,192,18216,1,8,0:0:0:0:
256,192,18437,1,0,0:0:0:0:
256,192,18657,1,8,0:0:0:0:
256,192,18767,1,8,0:0:0:0:
256,192,18878,1,0,0:0:0:0:
256,192,19098,1,8,0:0:0:0:
256,192,19319,1,8,0:0:0:0:
256,192,19540,1,0,0:0:0:0:
256,192,19760,1,8,0:0:0:0:
256,192,19870,1,0,0:0:0:0:
256,192,19981,1,8,0:0:0:0:
256,192,20201,1,0,0:0:0:0:
256,192,20312,1,0,0:0:0:0:
256,192,20422,1,8,0:0:0:0:
256,192,20642,1,8,0:0:0:0:
256,192,21084,1,8,0:0:0:0:
256,192,21304,1,0,0:0:0:0:
256,192,21525,1,8,0:0:0:0:
256,192,21598,1,8,0:0:0:0:
256,192,21672,1,8,0:0:0:0:
256,192,21745,1,0,0:0:0:0:
256,192,21966,1,8,0:0:0:0:
256,192,22076,1,0,0:0:0:0:
256,192,22187,1,8,0:0:0:0:
256,192,22407,1,0,0:0:0:0:
256,192,22628,1,0,0:0:0:0:
256,192,22848,1,0,0:0:0:0:
512,0,23069,1,12,0:0:0:0:
256,192,23290,1,0,0:0:0:0:
256,192,23400,1,0,0:0:0:0:
256,192,23510,1,0,0:0:0:0:
256,192,23731,1,8,0:0:0:0:
256,192,23951,1,0,0:0:0:0:
256,192,24172,1,8,0:0:0:0:
256,192,24282,1,8,0:0:0:0:
256,192,24392,1,0,0:0:0:0:
256,192,24613,1,8,0:0:0:0:
256,192,25054,1,0,0:0:0:0:
256,192,25275,1,8,0:0:0:0:
256,192,25495,1,0,0:0:0:0:
256,192,25606,1,0,0:0:0:0:
256,192,25716,1,8,0:0:0:0:
256,192,25937,1,0,0:0:0:0:
256,192,26157,1,8,0:0:0:0:
256,192,26378,1,8,0:0:0:0:
256,192,26598,1,0,0:0:0:0:
256,192,26819,1,8,0:0:0:0:
256,192,26929,1,0,0:0:0:0:
256,192,27040,1,8,0:0:0:0:
256,192,27260,1,0,0:0:0:0:
256,192,27481,1,8,0:0:0:0:
256,192,27701,1,0,0:0:0:0:
256,192,27812,1,0,0:0:0:0:
256,192,27922,1,8,0:0:0:0:
256,192,28142,1,0,0:0:0:0:
256,192,28584,1,8,0:0:0:0:
256,192,28804,1,8,0:0:0:0:
256,192,29025,1,0,0:0:0:0:
256,192,29135,1,0,0:0:0:0:
256,192,29245,1,8,0:0:0:0:
256,192,29466,1,0,0:0:0:0:
256,192,29687,1,8,0:0:0:0:
256,192,29797,1,8,0:0:0:0:
256,192,29907,1,0,0:0:0:0:
256,192,30017,1,0,0:0:0:0:
256,192,30128,1,8,0:0:0:0:
256,192,30348,1,0,0:0:0:0:
256,192,30569,1,8,0:0:0:0:
256,192,30790,1,0,0:0:0:0:
256,192,31010,1,8,0:0:0:0:
256,192,31231,1,0,0:0:0:0:
256,192,31341,1,0,0:0:0:0:
256,192,31451,1,8,0:0:0:0:
256,192,31562,1,0,0:0:0:0:
256,192,31672,1,8,0:0:0:0:
256,192,31892,1,8,0:0:0:0:
256,192,32113,1,0,0:0:0:0:
256,192,32223,1,0,0:0:0:0:
256,192,32334,1,8,0:0:0:0:
256,192,32554,1,0,0:0:0:0:
256,192,32775,1,8,0:0:0:0:
256,192,32995,1,8,0:0:0:0:
256,192,33216,1,0,0:0:0:0:
256,192,33326,1,8,0:0:0:0:
256,192,33437,1,0,0:0:0:0:
256,192,33547,1,0,0:0:0:0:
512,0,33657,1,12,0:0:0:0:
256,192,33878,1,0,0:0:0:0:
256,192,34098,1,0,0:0:0:0:
512,0,34319,1,12,0:0:0:0:
256,192,34760,1,0,0:0:0:0:
256,192,34981,1,0,0:0:0:0:
256,192,35201,1,8,0:0:0:0:
256,192,35312,1,0,0:0:0:0:
512,0,35422,1,12,0:0:0:0:
256,192,35642,1,0,0:0:0:0:
256,192,35863,1,0,0:0:0:0:
512,0,36084,1,12,0:0:0:0:
256,192,36525,1,8,0:0:0:0:
256,192,36635,1,0,0:0:0:0:
256,192,36745,1,8,0:0:0:0:
256,192,36966,1,8,0:0:0:0:
512,0,37187,1,4,0:0:0:0:
256,192,37628,1,8,0:0:0:0:
256,192,38069,1,8,0:0:0:0:
256,192,38290,1,0,0:0:0:0:
256,192,38510,1,8,0:0:0:0:
256,192,38731,1,0,0:0:0:0:
256,192,38951,1,8,0:0:0:0:
256,192,39172,1,0,0:0:0:0:
256,192,39392,1,8,0:0:0:0:
256,192,39613,1,8,0:0:0:0:
256,192,39834,1,0,0:0:0:0:
256,192,40054,1,0,0:0:0:0:
256,192,40275,1,8,0:0:0:0:
256,192,40385,1,0,0:0:0:0:
256,192,40495,1,8,0:0:0:0:
256,192,40606,1,8,0:0:0:0:
512,0,40716,1,4,0:0:0:0:
256,192,41047,1,8,0:0:0:0:
256,192,41157,1,0,0:0:0:0:
256,192,41378,1,8,0:0:0:0:
512,0,41598,1,12,0:0:0:0:
256,192,41929,1,0,0:0:0:0:
256,192,42040,1,8,0:0:0:0:
256,192,42260,1,0,0:0:0:0:
512,0,42481,1,12,0:0:0:0:
256,192,42701,1,0,0:0:0:0:
256,192,42812,1,0,0:0:0:0:
256,192,42922,1,8,0:0:0:0:
256,192,43032,1,0,0:0:0:0:
256,192,43142,1,8,0:0:0:0:
256,192,43253,1,8,0:0:0:0:
512,0,43363,1,4,0:0:0:0:
512,0,43694,1,4,0:0:0:0:
512,0,44025,1,4,0:0:0:0:
512,0,44245,1,12,0:0:0:0:
256,192,44466,1,0,0:0:0:0:
256,192,44687,1,8,0:0:0:0:
256,192,44907,1,0,0:0:0:0:
256,192,45017,1,0,0:0:0:0:
256,192,45128,1,8,0:0:0:0:
256,192,45348,1,0,0:0:0:0:
256,192,45569,1,8,0:0:0:0:
256,192,45790,1,8,0:0:0:0:
256,192,45900,1,8,0:0:0:0:
256,192,46010,1,0,0:0:0:0:
256,192,46231,1,0,0:0:0:0:
256,192,46451,1,8,0:0:0:0:
256,192,46672,1,0,0:0:0:0:
256,192,46782,1,8,0:0:0:0:
256,192,46892,1,0,0:0:0:0:
256,192,47113,1,8,0:0:0:0:
256,192,47334,1,0,0:0:0:0:
256,192,47554,1,8,0:0:0:0:
256,192,47665,1,8,0:0:0:0:
512,0,47775,1,4,0:0:0:0:
256,192,48106,1,8,0:0:0:0:
256,192,48216,1,0,0:0:0:0:
256,192,48437,1,0,0:0:0:0:
256,192,48547,1,0,0:0:0:0:
256,192,48657,1,8,0:0:0:0:
256,192,48767,1,0,0:0:0:0:
256,192,48878,1,8,0:0:0:0:
256,192,48988,1,8,0:0:0:0:
256,192,49098,1,0,0:0:0:0:
256,192,49319,1,8,0:0:0:0:
256,192,49429,1,8,0:0:0:0:
256,192,49540,1,0,0:0:0:0:
256,192,49760,1,8,0:0:0:0:
256,192,49981,1,8,0:0:0:0:
256,192,50201,1,0,0:0:0:0:
256,192,50312,1,8,0:0:0:0:
256,192,50422,1,8,0:0:0:0:
256,192,50863,1,0,0:0:0:0:
256,192,51084,1,0,0:0:0:0:
512,0,51304,1,12,0:0:0:0:
256,192,51525,1,0,0:0:0:0:
256,192,51635,1,0,0:0:0:0:
256,192,51745,1,8,0:0:0:0:
256,192,51966,1,0,0:0:0:0:
256,192,52187,1,8,0:0:0:0:
256,192,52297,1,8,0:0:0:0:
256,192,52407,1,0,0:0:0:0:
256,192,52517,1,8,0:0:0:0:
256,192,52628,1,0,0:0:0:0:
256,192,52738,1,0,0:0:0:0:
256,192,52848,1,8,0:0:0:0:
256,192,53069,1,0,0:0:0:0:
256,192,53179,1,8,0:0:0:0:
256,192,53290,1,0,0:0:0:0:
256,192,53510,1,8,0:0:0:0:
256,192,53620,1,8,0:0:0:0:
256,192,53731,1,0,0:0:0:0:
256,192,53841,1,0,0:0:0:0:
256,192,53951,1,8,0:0:0:0:
256,192,54172,1,0,0:0:0:0:
256,192,54392,1,8,0:0:0:0:
256,192,54503,1,0,0:0:0:0:
256,192,54613,1,0,0:0:0:0:
256,192,54723,1,0,0:0:0:0:
256,192,54834,1,8,0:0:0:0:
256,192,55054,1,0,0:0:0:0:
256,192,55165,1,0,0:0:0:0:
256,192,55275,1,8,0:0:0:0:
256,192,55495,1,0,0:0:0:0:
256,192,55606,1,8,0:0:0:0:
256,192,55716,1,8,0:0:0:0:
256,192,55937,1,8,0:0:0:0:
256,192,56157,1,0,0:0:0:0:
256,192,56267,1,8,0:0:0:0:
256,192,56378,1,8,0:0:0:0:
256,192,56488,1,8,0:0:0:0:
256,192,56598,1,0,0:0:0:0:
256,192,56819,1,8,0:0:0:0:
256,192,56929,1,8,0:0:0:0:
256,192,57040,1,0,0:0:0:0:
256,192,57260,1,8,0:0:0:0:
256,192,57481,1,0,0:0:0:0:
256,192,57591,1,0,0:0:0:0:
256,192,57701,1,8,0:0:0:0:
256,192,57812,1,8,0:0:0:0:
256,192,57922,1,0,0:0:0:0:
256,192,58142,1,8,0:0:0:0:
256,192,58253,1,8,0:0:0:0:
512,0,58363,1,4,0:0:0:0:
256,192,58584,1,8,0:0:0:0:
256,192,58694,1,0,0:0:0:0:
256,192,58804,1,8,0:0:0:0:
256,192,59025,1,0,0:0:0:0:
256,192,59245,1,8,0:0:0:0:
256,192,59356,1,8,0:0:0:0:
256,192,59466,1,0,0:0:0:0:
256,192,59576,1,8,0:0:0:0:
256,192,59687,1,0,0:0:0:0:
256,192,59907,1,8,0:0:0:0:
256,192,60128,1,8,0:0:0:0:
256,192,60238,1,0,0:0:0:0:
256,192,60459,1,8,0:0:0:0:
256,192,60569,1,0,0:0:0:0:
256,192,60679,1,0,0:0:0:0:
256,192,60790,1,8,0:0:0:0:
256,192,61010,1,0,0:0:0:0:
256,192,61231,1,8,0:0:0:0:
256,192,61341,1,8,0:0:0:0:
256,192,61451,1,0,0:0:0:0:
256,192,61672,1,8,0:0:0:0:
256,192,61782,1,0,0:0:0:0:
256,192,61892,1,8,0:0:0:0:
256,192,62113,1,0,0:0:0:0:
256,192,62334,1,8,0:0:0:0:
256,192,62554,1,0,0:0:0:0:
256,192,62775,1,8,0:0:0:0:
256,192,62885,1,0,0:0:0:0:
256,192,62995,1,8,0:0:0:0:
256,192,63106,1,8,0:0:0:0:
256,192,63216,1,0,0:0:0:0:
256,192,63326,1,8,0:0:0:0:
256,192,63437,1,0,0:0:0:0:
256,192,63547,1,0,0:0:0:0:
256,192,63657,1,8,0:0:0:0:
256,192,63767,1,0,0:0:0:0:
256,192,63878,1,0,0:0:0:0:
512,0,64098,1,12,0:0:0:0:
256,192,64319,1,0,0:0:0:0:
256,192,64429,1,0,0:0:0:0:
256,192,64540,1,8,0:0:0:0:
256,192,64760,1,0,0:0:0:0:
256,192,64870,1,0,0:0:0:0:
256,192,64981,1,8,0:0:0:0:
256,192,65091,1,0,0:0:0:0:
256,192,65201,1,8,0:0:0:0:
256,192,65312,1,8,0:0:0:0:
512,0,65422,1,4,0:0:0:0:
256,192,65642,1,8,0:0:0:0:
256,192,65753,1,8,0:0:0:0:
256,192,65863,1,8,0:0:0:0:
256,192,66084,1,0,0:0:0:0:
256,192,66304,1,8,0:0:0:0:
256,192,66415,1,8,0:0:0:0:
256,192,66525,1,0,0:0:0:0:
256,192,66635,1,8,0:0:0:0:
256,192,66745,1,0,0:0:0:0:
256,192,66856,1,0,0:0:0:0:
256,192,66966,1,8,0:0:0:0:
256,192,67187,1,0,0:0:0:0:
256,192,67407,1,8,0:0:0:0:
256,192,67517,1,8,0:0:0:0:
256,192,67628,1,0,0:0:0:0:
256,192,67848,1,8,0:0:0:0:
256,192,68069,1,0,0:0:0:0:
256,192,68179,1,8,0:0:0:0:
256,192,68400,1,0,0:0:0:0:
256,192,68510,1,8,0:0:0:0:
256,192,68620,1,0,0:0:0:0:
256,192,68731,1,8,0:0:0:0:
256,192,68841,1,8,0:0:0:0:
256,192,68951,1,0,0:0:0:0:
256,192,69172,1,0,0:0:0:0:
256,192,69282,1,0,0:0:0:0:
256,192,69392,1,8,0:0:0:0:
256,192,69613,1,0,0:0:0:0:
256,192,69834,1,0,0:0:0:0:
256,192,69944,1,8,0:0:0:0:
256,192,70165,1,0,0:0:0:0:
256,192,70275,1,8,0:0:0:0:
256,192,70385,1,0,0:0:0:0:
256,192,70495,1,0,0:0:0:0:
256,192,70606,1,0,0:0:0:0:
256,192,70716,1,8,0:0:0:0:
256,192,70937,1,0,0:0:0:0:
256,192,71047,1,0,0:0:0:0:
256,192,71157,1,8,0:0:0:0:
256,192,71378,1,0,0:0:0:0:
256,192,71598,1,8,0:0:0:0:
256,192,71709,1,0,0:0:0:0:
256,192,71929,1,8,0:0:0:0:
256,192,72040,1,0,0:0:0:0:
256,192,72150,1,8,0:0:0:0:
256,192,72260,1,8,0:0:0:0:
256,192,72370,1,8,0:0:0:0:
512,0,72481,1,4,0:0:0:0:
256,192,72701,1,8,0:0:0:0:
256,192,72812,1,8,0:0:0:0:
256,192,72922,1,0,0:0:0:0:
256,192,73142,1,0,0:0:0:0:
256,192,73363,1,8,0:0:0:0:
256,192,73473,1,0,0:0:0:0:
256,192,73584,1,8,0:0:0:0:
256,192,73694,1,8,0:0:0:0:
256,192,73804,1,0,0:0:0:0:
256,192,74025,1,8,0:0:0:0:
256,192,74135,1,8,0:0:0:0:
256,192,74245,1,0,0:0:0:0:
256,192,74466,1,8,0:0:0:0:
256,192,74576,1,8,0:0:0:0:
256,192,74687,1,8,0:0:0:0:
256,192,74907,1,0,0:0:0:0:
256,192,75017,1,0,0:0:0:0:
256,192,75128,1,8,0:0:0:0:
256,192,75238,1,8,0:0:0:0:
256,192,75348,1,0,0:0:0:0:
256,192,75569,1,8,0:0:0:0:
256,192,75790,1,8,0:0:0:0:
512,0,76010,1,4,0:0:0:0:
256,192,76231,1,8,0:0:0:0:
256,192,76341,1,8,0:0:0:0:
256,192,76451,1,0,0:0:0:0:
256,192,76672,1,0,0:0:0:0:
256,192,76782,1,8,0:0:0:0:
256,192,76892,1,0,0:0:0:0:
256,192,77003,1,0,0:0:0:0:
256,192,77113,1,8,0:0:0:0:
256,192,77334,1,0,0:0:0:0:
256,192,77554,1,8,0:0:0:0:
256,192,77665,1,8,0:0:0:0:
256,192,77775,1,0,0:0:0:0:
512,0,77995,1,12,0:0:0:0:
512,0,78216,1,12,0:0:0:0:
256,192,78437,1,0,0:0:0:0:
256,192,78657,1,8,0:0:0:0:
256,192,78767,1,0,0:0:0:0:
256,192,78878,1,8,0:0:0:0:
512,0,79098,1,4,0:0:0:0:
256,192,79319,1,0,0:0:0:0:
512,0,79540,1,12,0:0:0:0:
256,192,79760,1,0,0:0:0:0:
256,192,79870,1,0,0:0:0:0:
256,192,79981,1,8,0:0:0:0:
256,192,80201,1,0,0:0:0:0:
256,192,80422,1,8,0:0:0:0:
256,192,80532,1,0,0:0:0:0:
256,192,80642,1,8,0:0:0:0:
256,192,80753,1,8,0:0:0:0:
256,192,80863,1,0,0:0:0:0:
256,192,81084,1,8,0:0:0:0:
256,192,81194,1,8,0:0:0:0:
256,192,81304,1,0,0:0:0:0:
256,192,81525,1,8,0:0:0:0:
256,192,81635,1,8,0:0:0:0:
256,192,81745,1,8,0:0:0:0:
256,192,81966,1,0,0:0:0:0:
256,192,82187,1,8,0:0:0:0:
256,192,82297,1,0,0:0:0:0:
256,192,82407,1,0,0:0:0:0:
256,192,82517,1,0,0:0:0:0:
256,192,82628,1,8,0:0:0:0:
256,192,82848,1,0,0:0:0:0:
256,192,82959,1,0,0:0:0:0:
512,0,83069,1,12,0:0:0:0:
256,192,83510,1,8,0:0:0:0:
256,192,83620,1,8,0:0:0:0:
256,192,83731,1,0,0:0:0:0:
256,192,83841,1,8,0:0:0:0:
256,192,83951,1,8,0:0:0:0:
256,192,84613,1,8,0:0:0:0:
256,192,84834,1,0,0:0:0:0:
512,0,85054,1,12,0:0:0:0:
512,0,85275,1,12,0:0:0:0:
256,192,85495,1,0,0:0:0:0:
256,192,85716,1,8,0:0:0:0:
256,192,85937,1,0,0:0:0:0:
256,192,86047,1,0,0:0:0:0:
256,192,86157,1,8,0:0:0:0:
256,192,86267,1,8,0:0:0:0:
256,192,86378,1,0,0:0:0:0:
512,0,86598,1,12,0:0:0:0:
256,192,86819,12,0,90128,0:0:0:0:
