osu file format v14

[General]
AudioFilename: audio.mp3
AudioLeadIn: 0
PreviewTime: 195076
Countdown: 1
SampleSet: Soft
StackLeniency: 1
Mode: 0
LetterboxInBreaks: 0
WidescreenStoryboard: 0

[Editor]
DistanceSpacing: 1.3
BeatDivisor: 4
GridSize: 32
TimelineZoom: 1.8

[Metadata]
Title:Gift
TitleUnicode:Gift
Artist:Ishihara Kaori
ArtistUnicode:石原夏織
Creator:Riana
Version:Angel
Source:愚かな天使は悪魔と踊る
Tags:oroka na tenshi wa akuma to odoru the foolish angel dances with the devil anime japanese pop j-pop jpop ending theme ed amamya gazimal
BeatmapID:4466812
BeatmapSetID:2125162

[Difficulty]
HPDrainRate:5
CircleSize:4
OverallDifficulty:8
ApproachRate:8.6
SliderMultiplier:1.8
SliderTickRate:1

[Events]
//Background and Video events
0,0,"3e46ccc6-a1a3-463a-8dcb-af642161282a.jpg",0,0
//Break Periods
2,88180,92615
2,149945,156129
//Storyboard Layer 0 (Background)
//Storyboard Layer 1 (Fail)
//Storyboard Layer 2 (Pass)
//Storyboard Layer 3 (Foreground)
//Storyboard Layer 4 (Overlay)
//Storyboard Sound Samples

[TimingPoints]
1510,441.176470588235,4,2,1,45,1,0
1510,-133.333333333333,4,2,1,45,0,0
15627,-111.111111111111,4,2,1,55,0,0
22245,-100.000000000001,4,2,1,55,0,0
22686,-133.333333333333,4,2,1,60,0,0
29083,-133.333333333333,4,2,2,60,0,0
29304,-133.333333333333,4,2,1,60,0,0
32833,-133.333333333333,4,2,2,60,0,0
32943,-133.333333333333,4,2,1,60,0,0
36804,-133.333333333333,4,2,1,50,0,0
40333,-133.333333333333,4,2,1,65,0,0
43862,-133.333333333333,4,2,1,60,0,0
44524,-100.000000000001,4,2,1,60,0,0
49157,-100.000000000001,4,2,1,70,0,0
50480,-133.333333333334,4,2,1,50,0,0
50921,-133.333333333334,4,2,1,80,0,0
51362,-90.9090909090904,4,2,1,80,0,0
85995,-90.9090909090904,4,2,3,80,0,0
86215,-90.9090909090904,4,2,1,80,0,0
86436,-90.9090909090904,4,2,1,60,0,0
87980,-90.9090909090904,4,2,1,5,0,0
93274,-100,4,2,1,70,0,0
97686,-100,4,2,2,70,0,0
97907,-100,4,2,1,70,0,0
100333,-133.333333333333,4,2,1,60,0,0
106951,-133.333333333333,4,2,2,60,0,0
107061,-133.333333333333,4,2,1,60,0,0
110480,-133.333333333333,4,2,2,60,0,0
110590,-133.333333333333,4,2,1,60,0,0
115112,-133.333333333333,4,2,1,50,0,0
117098,-133.333333333333,4,2,1,70,0,0
119965,-133.333333333333,4,2,3,60,0,0
120186,-133.333333333333,4,2,3,62,0,0
120407,-133.333333333333,4,2,3,64,0,0
120627,-133.333333333333,4,2,3,66,0,0
120737,-133.333333333333,4,2,1,66,0,0
120848,-133.333333333333,4,2,1,68,0,0
121068,-133.333333333333,4,2,3,70,0,0
121179,-133.333333333333,4,2,1,70,0,0
121289,-133.333333333333,4,2,3,72,0,0
121399,-133.333333333333,4,2,1,72,0,0
121509,-133.333333333333,4,2,1,80,0,0
123274,-90.9090909090904,4,2,1,80,0,0
149965,-90.9090909090904,4,2,1,45,0,0
156362,-90.9090909090904,4,2,1,55,0,0
156804,-111.111111111111,4,2,1,70,0,0
162870,-111.111111111111,4,2,1,65,0,0
163862,-133.333333333333,4,2,1,65,0,0
164304,-133.333333333333,4,2,1,55,0,0
177980,-111.111111111111,4,2,1,60,0,0
184157,-111.111111111111,4,2,1,65,0,0
185259,-111.111111111111,4,2,1,60,0,0
185701,-111.111111111111,4,2,3,60,0,0
185921,-111.111111111111,4,2,1,60,0,0
188568,-111.111111111111,4,2,1,70,0,0
195186,-111.111111111111,4,2,1,50,0,0
195627,-111.111111111111,4,2,1,70,0,0
199267,-111.111111111111,4,2,1,55,0,0
199598,-111.111111111111,4,2,2,55,0,0
199708,-111.111111111111,4,2,1,55,0,0
200039,-111.111111111111,4,2,3,60,0,0
200149,-111.111111111111,4,2,1,60,0,0
200480,-111.111111111111,4,2,3,60,0,0
200590,-111.111111111111,4,2,1,60,0,0
200921,-111.111111111111,4,2,3,65,0,0
201032,-111.111111111111,4,2,1,65,0,0
201362,-111.111111111111,4,2,2,65,0,0
201473,-111.111111111111,4,2,1,65,0,0
201804,-111.111111111111,4,2,1,70,0,0
204451,-111.111111111111,4,2,1,75,0,0
205774,-83.3333333333333,4,2,1,75,0,0
206215,-83.3333333333333,4,2,1,60,0,0
206657,-83.3333333333333,4,2,1,80,0,0
209524,-133.333333333333,4,2,1,80,0,0
209965,-83.3333333333333,4,2,1,80,0,0
220333,-111.111111111111,4,2,1,80,0,0
220774,-111.111111111111,4,2,1,75,0,0
223642,-111.111111111111,4,2,3,75,0,0
223862,-111.111111111111,4,2,1,55,0,0
224524,-111.111111111111,4,2,1,45,0,0
227392,-111.111111111111,4,2,1,60,0,0
227612,-111.111111111111,4,2,1,80,0,0
227833,-111.111111111111,4,2,1,60,0,0
228274,-83.3333333333333,4,2,1,60,0,0
230921,-100,4,2,1,50,0,0
231142,-100,4,2,1,65,0,0
232686,-100,4,2,1,70,0,0
247576,-100,4,2,2,70,0,0
247686,-100,4,2,1,70,0,0
248568,-133.333333333333,4,2,1,70,0,0
249009,-100,4,2,1,70,0,0
252759,-100,4,2,2,70,0,0
252870,-100,4,2,1,70,0,0
267759,-100,4,2,1,45,0,0

[Colours]
Combo1 : 255,128,128
Combo2 : 255,255,128

[HitObjects]
33,313,848,5,0,0:0:0:0:
33,313,1068,1,0,0:0:0:0:
33,313,1289,1,0,0:0:0:0:
110,357,1510,2,0,P|165:363|218:285,1,135.000005149842,2|2,2:2|2:2,0:0:0:0:
290,266,2171,6,0,L|279:180,1,67.5000025749208,2|0,2:2|0:0,0:0:0:0:
362,132,2612,2,0,L|370:198,1,67.5000025749208,2|2,2:2|2:2,0:0:0:0:
512,326,3054,2,0,P|397:319|362:411,1,202.500007724762,2|0,2:2|0:0,0:0:0:0:
371,193,4157,5,2,2:2:0:0:
371,193,4377,1,2,2:2:0:0:
371,193,4598,2,0,L|286:180,1,67.5000025749208,2|2,2:2|2:2,0:0:0:0:
331,101,5039,6,0,P|275:95|222:172,1,135.000005149842,2|2,2:2|2:2,0:0:0:0:
302,323,5700,2,0,L|215:311,1,67.5000025749208,2|0,2:2|0:0,0:0:0:0:
189,234,6141,2,0,L|112:226,1,67.5000025749208,2|2,2:2|2:2,0:0:0:0:
1,318,6583,2,0,P|19:218|43:119,1,202.500007724762,2|0,2:2|0:0,0:0:0:0:
302,196,7686,5,2,2:2:0:0:
302,196,7906,1,2,2:2:0:0:
302,196,8127,2,0,L|311:118,1,67.5000025749208,2|2,2:2|2:2,0:0:0:0:
202,147,8568,6,0,L|135:137,1,67.5000025749208,2|0,2:2|0:0,0:0:0:0:
116,0,9008,2,0,P|37:42|42:157,1,202.500007724762,2|0,2:2|0:0,0:0:0:0:
99,223,9892,6,0,L|82:314,1,67.5000025749208,2|2,2:2|2:2,0:0:0:0:
219,161,10333,1,2,2:2:0:0:
219,161,10554,2,0,L|230:79,1,67.5000025749208,2|0,2:2|0:0,0:0:0:0:
330,271,10995,1,2,2:2:0:0:
330,271,11215,1,2,2:2:0:0:
330,271,11436,2,0,L|313:362,1,67.5000025749208,2|0,2:2|0:0,0:0:0:0:
200,324,11877,6,0,P|157:311|112:298,2,67.5000025749208,2|2|2,2:2|2:2|0:0,0:0:0:0:
88,382,12539,1,2,2:2:0:0:
88,382,12759,2,0,P|44:318|77:244,1,135.000005149842,2|2,2:2|2:2,0:0:0:0:
208,134,13421,5,2,2:2:0:0:
208,134,13642,1,2,2:2:0:0:
121,170,13862,2,0,L|135:308,1,135.000005149842,2|2,2:2|2:2,0:0:0:0:
241,174,14745,5,2,2:2:0:0:
322,147,14965,1,2,2:2:0:0:
322,63,15186,1,2,2:2:0:0:
241,37,15407,1,2,2:2:0:0:
192,105,15627,6,0,L|93:115,2,81.0000000000003,6|2|10,3:2|2:2|2:2,0:0:0:0:
322,147,16289,1,2,1:2:0:0:
322,147,16399,1,0,1:1:0:0:
322,147,16509,1,10,3:2:0:0:
181,295,16730,6,0,P|247:306|307:224,1,162,10|2,2:2|3:2,0:0:0:0:
224,217,17392,5,2,3:2:0:0:
402,156,17612,2,0,L|398:189,3,27.0000000000002,2|2|2|10,1:2|1:2|1:2|2:2,0:0:0:0:
332,76,18054,1,2,1:2:0:0:
491,146,18274,5,10,2:2:0:0:
491,146,18384,1,0,1:1:0:0:
491,146,18495,1,2,1:2:0:0:
357,253,18715,2,0,L|375:349,1,80.9999975280763,2|2,1:2|1:2,0:0:0:0:
235,363,19157,6,0,P|177:301|78:324,1,161.999995056153,6|10,3:2|2:2,0:0:0:0:
28,275,19818,1,2,1:2:0:0:
28,275,19929,1,0,1:1:0:0:
28,275,20039,2,0,L|12:386,1,80.9999975280763,10|10,3:2|2:2,0:0:0:0:
105,213,20480,5,2,2:2:0:0:
0,108,20701,1,2,3:2:0:0:
170,25,20921,1,2,3:2:0:0:
97,128,21142,2,0,L|91:101,3,27.0000000000002,0|0|0|8,1:1|1:1|1:1|2:2,0:0:0:0:
415,118,21804,5,8,2:2:0:0:
415,118,22024,1,8,2:3:0:0:
415,118,22245,2,0,L|393:10,1,89.9999999999994,4|0,2:3|3:3,0:0:0:0:
472,212,22686,6,0,P|416:200|386:194,1,67.5,6|2,3:2|2:2,0:0:0:0:
259,301,23127,1,10,2:2:0:0:
290,222,23348,2,0,P|331:255|321:352,1,134.999999999999,2|2,3:2|3:2,0:0:0:0:
207,363,24009,1,10,2:2:0:0:
207,363,24230,2,0,P|181:331|176:275,1,67.5000025749208,2|0,3:3|0:0,0:0:0:0:
46,253,24671,1,0,3:3:0:0:
46,253,24892,2,0,L|35:167,1,67.5,8|0,2:2|0:0,0:0:0:0:
128,22,25333,5,2,3:2:0:0:
161,145,25554,1,2,3:2:0:0:
37,186,25774,1,10,2:2:0:0:
0,59,25995,1,2,2:2:0:0:
187,237,26215,6,0,P|219:198|300:192,1,135,2|10,3:2|2:2,0:0:0:0:
512,199,26877,2,0,P|480:238|399:244,1,135,2|2,3:2|3:2,0:0:0:0:
271,274,27539,5,10,2:2:0:0:
175,309,27759,2,0,L|160:395,1,67.5,2|0,2:3|0:0,0:0:0:0:
101,167,28201,5,0,3:3:0:0:
11,122,28421,2,0,L|-4:36,1,67.5,8|0,2:2|0:0,0:0:0:0:
252,94,28862,5,2,3:2:0:0:
343,130,29083,1,2,3:3:0:0:
211,181,29304,1,10,2:2:0:0:
160,47,29524,1,2,2:3:0:0:
160,47,29634,1,2,2:2:0:0:
160,47,29745,6,0,P|212:10|279:14,1,101.249999999999,2|0,3:2|0:0,0:0:0:0:
262,7,30186,2,0,L|341:22,1,67.4999999999978,10|0,2:2|0:0,0:0:0:0:
247,109,30627,6,0,P|274:148|271:198,1,67.4999999999978,0|0,3:3|3:3,0:0:0:0:
262,262,31068,2,0,L|242:339,1,67.5000025749208,8|2,2:2|2:2,0:0:0:0:
181,177,31509,1,2,3:2:0:0:
181,177,31730,1,2,2:2:0:0:
181,177,31951,1,10,2:2:0:0:
0,307,32171,5,2,2:2:0:0:
99,384,32392,1,0,3:3:0:0:
154,270,32612,1,2,3:2:0:0:
270,357,32833,1,10,2:2:0:0:
270,357,32943,1,0,1:1:0:0:
270,357,33054,1,10,2:2:0:0:
270,357,33164,1,8,2:2:0:0:
270,357,33274,6,0,L|346:375,1,67.5000000000012,6|0,3:2|3:3,0:0:0:0:
462,237,33715,1,10,2:2:0:0:
462,237,33936,2,0,L|444:161,1,67.5000000000012,6|0,3:2|0:0,0:0:0:0:
341,255,34377,5,0,3:3:0:0:
341,255,34487,1,0,3:0:0:0:
341,255,34598,1,8,2:2:0:0:
150,274,34818,5,4,2:3:0:0:
150,274,35039,2,0,L|168:350,1,67.5000000000012,6|0,3:2|3:3,0:0:0:0:
426,105,35480,1,10,2:2:0:0:
426,105,35701,2,0,L|351:82,1,67.5000000000012,6|0,3:2|0:0,0:0:0:0:
178,81,36142,5,10,2:2:0:0:
178,81,36252,1,8,0:0:0:0:
178,81,36362,2,0,L|144:119,3,33.7500012874604,10|0|0|0,2:2|0:0|0:0|0:0,0:0:0:0:
85,160,36804,6,0,L|6:144,1,67.5000000000012,6|0,3:2|0:0,0:0:0:0:
0,225,37245,2,0,L|81:239,1,67.5000000000012,2|0,3:2|0:0,0:0:0:0:
129,299,37686,5,2,3:2:0:0:
251,275,37907,1,2,2:2:0:0:
178,227,38127,1,2,3:2:0:0:
210,348,38348,1,2,2:2:0:0:
129,299,38568,1,2,3:2:0:0:
231,22,39009,5,2,3:2:0:0:
293,82,39230,1,2,2:2:0:0:
372,45,39451,1,2,3:2:0:0:
435,100,39671,1,2,2:3:0:0:
495,160,39892,6,0,L|480:218,1,33.7500012874604,10|8,3:2|2:3,0:0:0:0:
369,242,40112,2,0,L|351:299,1,33.7500012874604,4|4,2:3|2:3,0:0:0:0:
435,374,40333,1,6,3:2:0:0:
310,366,40995,5,2,3:2:0:0:
310,366,41215,2,0,L|285:215,1,135,14|2,2:2|2:2,0:0:0:0:
392,296,41877,1,2,3:2:0:0:
207,177,42098,6,0,L|191:244,1,67.5000000000012,12|0,2:2|0:0,0:0:0:0:
191,242,42429,1,0,1:1:0:0:
191,242,42539,1,0,3:3:0:0:
285,127,42759,1,4,2:3:0:0:
117,157,42980,6,0,P|144:108|195:88,2,101.250003862381,14|14|14,2:2|2:2|2:2,0:0:0:0:
404,268,43862,5,6,3:2:0:0:
299,254,44083,1,2,2:2:0:0:
474,177,44304,1,10,2:2:0:0:
444,363,44524,2,0,L|318:340,1,90,2|0,2:2|3:3,0:0:0:0:
367,184,44965,5,0,3:0:0:0:
367,184,45076,1,0,3:0:0:0:
367,184,45186,2,0,L|354:83,1,90,8|2,2:2|2:2,0:0:0:0:
163,122,45627,5,2,3:2:0:0:
179,0,45848,1,2,2:2:0:0:
268,209,46069,1,10,2:2:0:0:
45,182,46289,2,0,L|64:290,1,90,2|0,2:2|3:3,0:0:0:0:
379,301,46730,5,0,3:0:0:0:
379,301,46841,1,0,3:0:0:0:
379,301,46951,2,0,L|261:322,1,90,8|2,2:2|2:2,0:0:0:0:
79,80,47392,5,6,3:2:0:0:
323,192,47612,1,0,3:3:0:0:
323,192,47723,1,2,2:2:0:0:
323,192,47833,1,10,2:2:0:0:
40,296,48054,1,0,3:3:0:0:
40,296,48164,1,2,2:2:0:0:
40,296,48274,1,10,2:2:0:0:
189,71,48495,5,2,3:2:0:0:
131,320,48715,1,10,2:2:0:0:
131,320,48936,1,2,3:2:0:0:
336,258,49157,5,10,1:2:0:0:
90,189,49377,1,10,1:2:0:0:
369,131,49598,1,10,1:2:0:0:
58,71,49818,1,10,1:2:0:0:
409,0,50039,1,10,1:2:0:0:
272,107,50480,6,0,P|324:120|357:128,1,67.5000025749208,2|2,2:2|2:2,0:0:0:0:
389,325,50921,5,6,3:2:0:0:
512,130,51142,1,2,2:2:0:0:
334,218,51362,2,0,L|215:194,1,98.9999999999998,10|2,2:2|3:2,0:0:0:0:
79,182,51804,5,10,2:2:0:0:
259,297,52024,1,2,3:2:0:0:
114,24,52245,1,10,2:2:0:0:
297,131,52465,1,2,3:2:0:0:
28,300,52686,6,0,P|114:299|148:250,1,148.500000000001,10|0,2:2|3:3,0:0:0:0:
144,240,53127,1,10,2:2:0:0:
377,116,53348,1,2,3:2:0:0:
229,0,53568,6,0,L|207:96,1,98.9999999999998,8|0,2:2|3:3,0:0:0:0:
407,30,54009,1,10,2:2:0:0:
275,193,54230,1,2,3:2:0:0:
453,368,54451,6,0,P|391:375|323:279,1,148.50000453186,10|0,2:2|0:0,0:0:0:0:
325,312,54892,2,0,L|305:231,2,49.5000015106202,10|0|0,2:2|0:0|3:3,0:0:0:0:
62,264,55333,6,0,P|124:271|192:175,1,148.50000453186,10|0,2:2|0:0,0:0:0:0:
188,206,55774,2,0,L|208:125,2,49.5000015106202,10|0|0,2:2|0:0|3:3,0:0:0:0:
413,295,56215,5,10,2:2:0:0:
369,44,56436,1,0,3:3:0:0:
163,338,56657,1,10,2:2:0:0:
105,91,56877,1,2,3:2:0:0:
413,295,57098,6,0,P|427:227|438:176,1,98.9999999999998,10|0,2:2|3:3,0:0:0:0:
98,196,57539,2,0,P|191:251|235:238,1,148.500000000001,10|2,2:2|2:2,0:0:0:0:
289,188,57980,6,0,L|315:83,1,99.0000030212403,10|0,2:2|3:3,0:0:0:0:
512,52,58421,2,0,L|487:164,1,98.9999999999998,8|2,2:2|3:2,0:0:0:0:
348,253,58862,5,10,2:2:0:0:
275,361,59083,1,2,3:2:0:0:
449,246,59304,1,10,2:2:0:0:
303,96,59524,1,2,3:2:0:0:
175,384,59745,6,0,L|196:287,1,99.0000000000063,10|2,2:2|3:2,0:0:0:0:
129,239,60076,1,2,3:2:0:0:
129,239,60186,2,0,P|168:202|230:207,1,99.0000030212403,8|2,2:2|3:2,0:0:0:0:
398,214,60627,6,0,P|363:258|301:258,1,99.0000030212403,10|0,2:2|3:3,0:0:0:0:
169,81,61068,2,0,L|197:197,1,98.9999999999998,8|2,2:2|3:2,0:0:0:0:
202,189,61399,1,2,2:2:0:0:
211,199,61509,1,10,2:2:0:0:
390,120,61730,1,0,3:3:0:0:
224,384,61951,1,8,2:2:0:0:
397,309,62171,1,2,3:2:0:0:
268,131,62392,5,10,2:2:0:0:
95,365,62612,1,2,3:2:0:0:
28,103,62833,1,10,2:2:0:0:
206,288,63054,1,2,3:2:0:0:
458,112,63274,5,10,2:2:0:0:
458,112,63384,1,0,1:1:0:0:
458,112,63495,1,8,3:3:0:0:
182,189,63715,1,14,2:2:0:0:
500,203,63936,5,2,3:2:0:0:
500,203,64046,1,0,1:1:0:0:
500,203,64157,1,14,2:2:0:0:
135,105,64377,2,0,L|147:57,1,49.5000015106202,0|0,1:1|1:1,0:0:0:0:
394,0,64598,5,10,2:2:0:0:
394,0,64708,1,0,1:1:0:0:
394,0,64818,1,2,1:2:0:0:
394,0,64929,1,0,1:1:0:0:
394,0,65039,2,0,P|449:34|430:150,1,148.500000000004,6|0,3:2|0:0,0:0:0:0:
407,193,65480,2,0,L|383:312,1,99.0000000000031,10|2,3:2|2:2,0:0:0:0:
218,242,65921,5,2,3:2:0:0:
163,109,66142,1,2,2:2:0:0:
345,126,66362,1,10,3:2:0:0:
117,3,66583,1,2,2:2:0:0:
218,242,66804,6,0,P|120:259|58:161,1,198.000006042481,2|10,3:2|3:2,0:0:0:0:
262,102,67465,1,2,2:2:0:0:
127,20,67686,1,0,3:3:0:0:
127,20,67796,1,0,1:1:0:0:
127,20,67907,1,8,2:3:0:0:
283,196,68127,5,10,3:2:0:0:
482,117,68348,1,2,2:2:0:0:
283,196,68568,6,0,B|202:173|231:256|150:236,1,148.50000453186,2|0,3:2|0:0,0:0:0:0:
141,237,69009,2,0,L|118:350,1,99.0000030212403,10|0,3:2|0:0,0:0:0:0:
329,269,69451,6,0,P|423:226|426:172,1,148.50000453186,2|0,3:2|0:0,0:0:0:0:
433,177,69892,2,0,L|410:73,1,99.0000030212403,10|0,3:2|0:0,0:0:0:0:
119,313,70333,5,2,3:2:0:0:
320,276,70554,1,0,0:0:0:0:
77,117,70775,1,8,3:2:0:0:
283,72,70995,1,2,2:2:0:0:
0,360,71215,2,0,P|14:292|25:241,1,99.0000000000031,2|0,3:2|0:0,0:0:0:0:
368,118,71657,6,0,P|447:67|502:87,1,148.50000453186,10|2,3:2|2:2,0:0:0:0:
501,86,72098,2,0,L|519:13,2,49.5000000000016,6|0|0,3:2|0:0|3:3,0:0:0:0:
360,208,72539,2,0,L|381:304,1,98.9999999999965,8|2,2:2|3:2,0:0:0:0:
203,380,72980,5,2,3:2:0:0:
203,380,73091,1,0,1:1:0:0:
203,380,73201,1,2,3:2:0:0:
30,172,73421,1,10,2:2:0:0:
175,247,73642,1,2,3:2:0:0:
292,106,73862,6,0,B|184:76|222:186|115:159,1,198.000006042481,2|8,3:2|2:2,0:0:0:0:
182,26,74524,5,2,3:2:0:0:
182,26,74634,1,2,1:2:0:0:
182,26,74745,2,0,L|285:1,1,99.0000000000096,2|0,3:2|3:3,0:0:0:0:
498,125,75186,2,0,L|382:153,1,98.9999999999965,8|2,2:2|3:2,0:0:0:0:
268,360,75627,6,0,P|346:272|449:301,1,198.000006042481,6|10,3:2|2:2,0:0:0:0:
205,144,76289,1,2,3:2:0:0:
205,144,76399,1,0,1:1:0:0:
205,144,76509,1,0,3:3:0:0:
436,38,76730,1,2,3:2:0:0:
299,203,76951,5,8,2:2:0:0:
164,14,77171,1,2,3:2:0:0:
164,14,77392,1,2,3:2:0:0:
153,317,77612,6,0,L|164:269,1,49.5000000000016,10|0,2:2|0:0,0:0:0:0:
272,44,77833,2,0,L|262:92,1,49.5000000000016,14|0,2:2|0:0,0:0:0:0:
399,259,78054,5,0,3:3:0:0:
117,174,78274,1,10,2:2:0:0:
117,174,78384,1,0,1:1:0:0:
117,174,78495,1,2,3:2:0:0:
399,259,78715,2,0,L|429:370,1,99.0000030212403,14|2,2:2|2:2,0:0:0:0:
439,107,79157,5,6,3:2:0:0:
329,314,79377,1,0,3:0:0:0:
186,38,79598,5,8,2:2:0:0:
247,255,79818,1,2,3:2:0:0:
51,244,80039,5,10,2:2:0:0:
364,157,80259,1,2,3:2:0:0:
51,244,80480,1,10,2:2:0:0:
364,157,80701,1,2,3:2:0:0:
235,339,80921,5,10,2:2:0:0:
135,113,81142,1,0,3:0:0:0:
348,284,81362,5,8,2:2:0:0:
331,33,81583,1,2,3:2:0:0:
473,234,81804,5,10,2:2:0:0:
154,213,82024,1,2,3:2:0:0:
473,234,82245,1,10,2:2:0:0:
153,213,82465,1,2,1:2:0:0:
153,213,82576,1,0,1:1:0:0:
153,213,82686,1,6,3:2:0:0:
256,192,82796,12,0,84009,0:0:0:0:
105,139,84230,6,0,L|219:117,1,98.9999999999965,10|2,2:2|3:2,0:0:0:0:
49,225,84671,6,0,L|-18:239,1,49.5000000000016,14|0,2:2|0:0,0:0:0:0:
251,39,84892,2,0,L|318:25,1,49.5000000000016,14|0,2:2|0:0,0:0:0:0:
183,276,85112,6,0,P|260:195|356:214,1,198.000006042481,2|2,3:2|1:2,0:0:0:0:
420,232,85664,5,0,1:1:0:0:
420,232,85774,2,0,L|425:167,1,49.5000015106202,2|8,3:2|2:3,0:0:0:0:
264,61,85995,1,6,2:3:0:0:
264,61,86105,1,4,0:3:0:0:
264,61,86215,2,0,L|252:1,1,49.5000015106202,6|0,3:2|0:0,0:0:0:0:
256,192,86436,12,0,87980,0:0:0:0:
249,348,93274,6,0,P|175:327|140:318,2,90,6|0|0,3:2|0:0|0:0,0:0:0:0:
16,213,94157,2,0,P|90:192|125:183,2,90,12|2|4,2:2|2:2|2:3,0:0:0:0:
372,176,94818,5,10,2:2:0:0:
372,176,94929,1,8,2:2:0:0:
372,176,95039,2,0,L|393:89,1,90,6|2,3:2|2:2,0:0:0:0:
235,192,95480,2,0,L|256:105,1,90,2|2,2:3|3:2,0:0:0:0:
59,354,95921,2,0,L|165:384,1,90,14|8,2:2|2:3,0:0:0:0:
254,290,96362,2,0,L|158:266,1,90,4|4,3:3|2:3,0:0:0:0:
493,361,96804,6,0,P|489:273|424:214,1,180,6|0,3:2|0:0,0:0:0:0:
424,72,97465,1,2,3:2:0:0:
424,72,97576,1,2,2:2:0:0:
424,72,97686,2,0,P|350:118|332:204,1,180,10|8,2:2|2:2,0:0:0:0:
93,138,98568,6,0,L|198:114,1,90,14|2,3:2|3:2,0:0:0:0:
256,171,99009,1,10,2:2:0:0:
165,210,99230,1,2,1:2:0:0:
245,265,99451,1,10,2:2:0:0:
152,302,99671,1,0,1:1:0:0:
238,367,99892,1,2,3:2:0:0:
238,367,100002,1,0,1:1:0:0:
238,367,100112,1,2,2:3:0:0:
394,251,100333,6,0,P|450:239|480:233,1,67.5,6|2,3:2|2:2,0:0:0:0:
397,62,100774,1,10,2:2:0:0:
397,62,100995,2,0,P|356:95|366:192,1,134.999999999999,2|2,3:2|3:2,0:0:0:0:
503,126,101656,2,0,L|436:139,1,67.5000025749208,8|2,2:2|3:2,0:0:0:0:
257,138,102097,5,0,3:3:0:0:
408,61,102318,1,0,3:3:0:0:
343,239,102539,2,0,L|354:153,1,67.5,8|0,2:2|3:3,0:0:0:0:
155,307,102980,1,2,2:2:0:0:
155,307,103090,1,0,1:1:0:0:
155,307,103200,1,2,3:2:0:0:
109,168,103421,1,10,2:2:0:0:
109,168,103531,1,8,0:0:0:0:
109,168,103641,1,2,2:3:0:0:
20,98,103862,6,0,P|52:59|133:53,1,135,2|10,3:2|2:2,0:0:0:0:
190,222,104524,2,0,P|158:261|77:267,1,135,2|2,3:2|3:2,0:0:0:0:
228,78,105186,5,10,2:2:0:0:
109,156,105406,2,0,L|121:218,2,33.7500012874604,2|0|0,3:2|1:1|3:0,0:0:0:0:
280,151,105848,5,0,3:0:0:0:
280,151,105958,1,0,3:3:0:0:
280,151,106068,2,0,L|291:201,2,33.7500012874604,8|0|0,2:2|0:0|3:3,0:0:0:0:
203,106,106509,5,2,2:2:0:0:
386,148,106730,1,2,3:2:0:0:
266,286,106951,1,10,2:2:0:0:
276,46,107171,1,8,2:3:0:0:
276,46,107281,1,4,2:3:0:0:
276,46,107392,6,0,P|224:9|157:13,1,101.249999999999,6|0,3:2|3:3,0:0:0:0:
178,7,107833,2,0,L|99:22,1,67.4999999999978,10|0,2:2|3:3,0:0:0:0:
56,160,108274,6,0,P|29:199|32:249,1,67.4999999999978,0|0,0:0|3:3,0:0:0:0:
160,284,108715,2,0,P|187:245|184:195,1,67.4999999999978,8|2,2:2|2:3,0:0:0:0:
161,120,109156,5,2,3:2:0:0:
265,179,109377,1,2,2:2:0:0:
315,78,109598,1,10,2:2:0:0:
417,142,109818,1,2,3:2:0:0:
417,142,109929,1,0,1:1:0:0:
417,142,110039,2,0,L|426:198,2,33.7500012874604,2|0|2,2:2|1:1|3:2,0:0:0:0:
346,331,110480,5,10,2:2:0:0:
346,331,110590,1,0,1:1:0:0:
346,331,110700,1,2,1:2:0:0:
346,331,110810,1,0,1:1:0:0:
346,331,110921,6,0,P|292:380|218:365,1,135.000005149842,6|8,3:2|2:2,0:0:0:0:
147,339,111583,1,6,3:2:0:0:
147,339,111693,1,2,1:2:0:0:
147,339,111804,2,0,L|123:255,1,67.5000025749208,2|8,2:2|2:2,0:0:0:0:
253,207,112245,2,0,L|265:152,2,33.7500012874604,0|8|4,3:3|2:3|2:3,0:0:0:0:
45,103,112686,6,0,P|99:54|173:69,1,135.000005149842,6|8,3:2|2:2,0:0:0:0:
321,127,113348,1,6,3:2:0:0:
321,127,113458,1,2,2:2:0:0:
321,127,113569,2,0,L|345:211,1,67.5000025749208,2|0,2:2|3:3,0:0:0:0:
171,167,114010,2,0,L|159:222,2,33.7500012874604,10|0|2,2:2|0:0|1:2,0:0:0:0:
418,270,114451,5,2,3:2:0:0:
418,270,114671,1,0,0:0:0:0:
418,270,114892,1,0,0:0:0:0:
335,218,115112,2,0,L|365:184,2,33.7500012874604,2|2|2,2:2|2:2|2:2,0:0:0:0:
418,270,115554,5,0,0:0:0:0:
418,270,115774,1,0,0:0:0:0:
418,270,115995,1,2,2:3:0:0:
497,227,116215,2,0,L|511:269,2,33.7500012874604
418,270,116657,5,2,2:3:0:0:
418,270,116877,1,2,2:2:0:0:
438,359,117098,2,0,L|352:343,1,67.5000025749208,14|0,3:2|0:0,0:0:0:0:
358,347,117429,6,0,P|317:346|269:292,1,101.250003862381,10|10,1:2|1:2,0:0:0:0:
217,168,117980,2,0,L|190:75,1,67.5000025749208,6|0,3:2|0:0,0:0:0:0:
198,103,118311,1,0,1:1:0:0:
198,103,118421,1,0,3:3:0:0:
107,57,118642,2,0,L|114:12,2,33.7500012874604,10|0|2,2:2|1:1|3:2,0:0:0:0:
44,170,119083,1,8,2:3:0:0:
44,170,119193,1,4,2:3:0:0:
44,170,119304,2,0,L|114:157,1,67.5000025749208,0|2,3:3|2:2,0:0:0:0:
368,119,119745,5,10,3:2:0:0:
358,312,119965,1,0,1:1:0:0:
194,210,120186,1,0,1:1:0:0:
419,198,120406,5,2,1:2:0:0:
225,129,120627,1,2,1:2:0:0:
268,325,120848,2,0,L|219:337,1,33.7500012874604,8|8,3:2|2:2,0:0:0:0:
104,234,121068,5,2,1:2:0:0:
104,234,121179,1,0,1:1:0:0:
104,234,121289,1,2,1:2:0:0:
104,234,121399,1,0,1:1:0:0:
104,234,121509,5,6,3:2:0:0:
0,48,121730,1,2,2:2:0:0:
195,208,121951,1,10,2:2:0:0:
193,0,122171,1,2,3:2:0:0:
282,231,122392,5,10,2:2:0:0:
381,52,122612,1,2,3:2:0:0:
350,298,122833,1,10,2:2:0:0:
512,180,123053,1,2,3:2:0:0:
416,359,123274,6,0,P|293:367|249:292,1,198.000006042481,10|10,2:2|2:2,0:0:0:0:
409,145,123936,1,2,3:2:0:0:
220,10,124156,6,0,L|242:106,1,98.9999999999998,8|0,2:2|3:3,0:0:0:0:
446,28,124597,1,10,2:2:0:0:
293,193,124818,1,2,3:2:0:0:
512,302,125039,6,0,L|367:266,1,148.500000000001,10|0,2:2|3:3,0:0:0:0:
359,267,125480,2,0,P|330:280|312:316,2,49.5000015106202,10|0|0,2:2|0:0|3:3,0:0:0:0:
213,170,125921,6,0,P|166:225|177:297,1,148.50000453186,10|0,2:2|0:0,0:0:0:0:
185,305,126362,2,0,L|196:353,2,49.5000015106202,10|0|0,2:2|0:0|3:3,0:0:0:0:
69,0,126803,5,10,2:2:0:0:
263,45,127024,1,0,3:3:0:0:
90,268,127245,1,10,2:2:0:0:
279,309,127465,1,2,3:2:0:0:
122,183,127686,6,0,B|228:212|191:102|298:129,1,198.000006042481,10|10,2:2|2:2,0:0:0:0:
512,194,128348,1,2,3:2:0:0:
325,329,128568,6,0,L|299:224,1,99.0000030212403,10|0,2:2|3:3,0:0:0:0:
124,1,129009,2,0,L|149:113,1,98.9999999999998,8|2,2:2|3:2,0:0:0:0:
216,243,129450,5,10,2:2:0:0:
61,145,129671,1,2,3:2:0:0:
258,30,129892,1,10,2:2:0:0:
113,243,130112,1,2,3:2:0:0:
323,384,130333,6,0,L|302:287,1,99.0000000000063,10|2,2:2|3:2,0:0:0:0:
302,287,130664,1,2,3:2:0:0:
302,287,130774,1,8,2:2:0:0:
430,144,130995,1,2,3:2:0:0:
212,282,131215,6,0,P|244:221|385:226,1,198.000006042481,10|8,2:2|2:2,0:0:0:0:
487,339,131877,5,2,3:2:0:0:
487,339,131987,1,2,2:2:0:0:
487,339,132097,1,10,2:2:0:0:
313,107,132318,1,0,3:3:0:0:
512,226,132539,1,8,2:2:0:0:
312,347,132759,1,2,3:2:0:0:
90,198,132980,5,10,2:2:0:0:
191,377,133200,1,2,3:2:0:0:
311,187,133421,1,10,2:2:0:0:
67,305,133642,1,2,3:2:0:0:
290,66,133862,5,10,2:2:0:0:
290,66,133972,1,0,1:1:0:0:
290,66,134083,1,8,3:3:0:0:
168,287,134303,1,14,2:2:0:0:
159,15,134524,5,6,3:2:0:0:
159,15,134634,1,0,1:1:0:0:
159,15,134745,1,10,2:2:0:0:
286,336,134965,2,0,L|293:281,1,49.5000015106202,0|0,1:1|1:1,0:0:0:0:
438,103,135186,5,10,2:2:0:0:
438,103,135296,1,2,1:2:0:0:
438,103,135406,1,2,1:2:0:0:
438,103,135517,1,2,1:2:0:0:
438,103,135627,2,0,P|493:137|466:275,1,198.000006042481,6|10,3:2|3:2,0:0:0:0:
306,128,136289,5,2,2:2:0:0:
404,272,136509,1,2,3:2:0:0:
404,272,136620,1,0,1:1:0:0:
404,272,136730,1,2,2:2:0:0:
230,323,136951,1,10,3:2:0:0:
401,166,137171,1,2,2:2:0:0:
137,136,137392,6,0,P|138:50|238:1,1,198.000006042481,2|10,3:2|3:2,0:0:0:0:
372,49,138053,5,2,2:2:0:0:
232,104,138274,1,0,3:3:0:0:
232,104,138384,1,0,1:1:0:0:
232,104,138495,1,8,2:3:0:0:
261,297,138715,1,10,3:2:0:0:
336,132,138936,1,2,2:2:0:0:
177,254,139157,6,0,B|220:182|307:211,1,148.50000453186,2|2,3:2|2:2,0:0:0:0:
385,226,139598,2,0,L|447:237,2,49.5000015106202,10|0|0,3:2|0:0|0:0,0:0:0:0:
451,40,140039,6,0,P|497:95|487:167,1,148.50000453186,2|0,3:2|0:0,0:0:0:0:
433,234,140480,2,0,L|424:286,2,49.5000015106202,10|0|0,3:2|0:0|0:0,0:0:0:0:
286,326,140921,5,2,3:2:0:0:
92,224,141142,1,0,0:0:0:0:
382,111,141363,1,12,3:2:0:0:
197,13,141583,1,2,2:2:0:0:
382,111,141803,2,0,P|368:43|357:-8,1,99.0000000000031,2|8,3:2|2:3,0:0:0:0:
151,112,142245,6,0,P|60:122|27:170,1,148.50000453186,10|4,3:2|2:3,0:0:0:0:
32,175,142686,2,0,L|54:271,1,99.0000030212403,6|0,3:2|3:3,0:0:0:0:
253,96,143127,2,0,L|232:0,1,98.9999999999965,8|2,2:2|3:2,0:0:0:0:
221,347,143568,5,2,3:2:0:0:
221,347,143679,1,0,1:1:0:0:
221,347,143789,1,2,3:2:0:0:
361,116,144009,1,10,2:2:0:0:
168,236,144230,1,2,3:2:0:0:
382,216,144450,6,0,P|458:150|416:37,1,198.000006042481,2|8,3:2|2:2,0:0:0:0:
223,40,145112,5,2,3:2:0:0:
223,40,145222,1,2,1:2:0:0:
223,40,145333,2,0,L|256:166,1,99.0000030212403,2|0,3:2|3:3,0:0:0:0:
0,287,145774,2,0,L|116:315,1,98.9999999999965,8|2,2:2|3:2,0:0:0:0:
306,229,146215,6,0,P|224:146|152:169,1,198.000006042481,6|10,3:2|2:2,0:0:0:0:
68,370,146877,1,2,3:2:0:0:
68,370,146987,1,0,1:1:0:0:
68,370,147097,1,0,3:3:0:0:
209,240,147318,1,2,3:2:0:0:
22,176,147539,1,8,2:2:0:0:
275,52,147759,5,2,3:2:0:0:
104,247,147980,1,2,3:2:0:0:
321,379,148200,6,0,L|310:331,1,49.5000000000016,10|0,2:2|0:0,0:0:0:0:
170,18,148421,2,0,L|180:66,1,49.5000000000016,14|0,2:2|0:0,0:0:0:0:
375,225,148642,5,0,3:3:0:0:
375,225,148752,1,0,0:0:0:0:
375,225,148862,1,10,2:2:0:0:
81,89,149083,1,8,2:3:0:0:
229,341,149304,1,4,3:3:0:0:
463,160,149524,1,2,2:2:0:0:
253,216,149745,1,6,3:2:0:0:
46,209,156804,5,6,3:2:0:0:
17,101,157024,1,2,2:2:0:0:
123,73,157245,1,8,2:3:0:0:
161,195,157465,1,4,2:3:0:0:
161,195,157576,1,4,2:3:0:0:
161,195,157686,2,0,L|152:288,1,80.9999975280763,6|2,3:2|2:2,0:0:0:0:
38,368,158127,5,2,3:2:0:0:
38,368,158237,1,0,1:1:0:0:
38,368,158348,1,2,1:2:0:0:
38,368,158458,1,0,1:1:0:0:
38,368,158568,5,2,3:2:0:0:
263,261,158789,2,0,L|255:222,1,40.4999987640381,14|2,2:2|2:2,0:0:0:0:
91,132,159009,1,2,2:2:0:0:
215,56,159230,1,0,3:3:0:0:
215,56,159451,1,10,3:2:0:0:
446,145,159892,6,0,L|431:237,1,80.9999975280763,4|2,3:3|3:2,0:0:0:0:
306,332,160333,5,6,3:2:0:0:
340,190,160553,1,2,2:2:0:0:
195,151,160774,1,2,2:3:0:0:
165,302,160994,1,8,2:3:0:0:
165,302,161105,1,4,2:3:0:0:
165,302,161215,2,0,L|180:410,1,80.9999975280763,14|2,2:2|2:2,0:0:0:0:
37,244,161656,5,8,2:3:0:0:
37,244,161766,1,8,2:3:0:0:
37,244,161877,1,4,2:3:0:0:
37,244,161987,1,4,2:3:0:0:
37,244,162097,1,10,2:2:0:0:
285,119,162318,1,0,3:3:0:0:
285,119,162429,1,0,3:3:0:0:
285,119,162538,1,14,2:2:0:0:
512,354,162980,5,0,3:3:0:0:
329,221,163201,1,0,1:1:0:0:
329,221,163311,1,0,1:1:0:0:
329,221,163421,1,10,2:2:0:0:
329,221,163532,1,4,2:3:0:0:
329,221,163642,1,8,2:3:0:0:
421,47,163862,6,0,L|341:64,3,67.5000025749208,6|0|0|0,3:2|0:0|3:3|0:0,0:0:0:0:
211,155,164745,6,0,L|193:81,1,67.5000025749208,0|2,3:3|2:2,0:0:0:0:
111,119,165186,2,0,L|92:44,1,67.5000025749208,2|2,3:2|2:2,0:0:0:0:
46,293,165627,6,0,L|119:277,1,67.5000025749208,2|2,3:2|2:2,0:0:0:0:
193,235,166068,2,0,L|215:326,1,67.5000025749208,2|2,3:2|2:2,0:0:0:0:
293,349,166509,2,0,L|366:333,1,67.5000025749208,2|2,3:2|2:2,0:0:0:0:
440,291,166950,2,0,L|462:382,1,67.5000025749208,2|2,3:2|2:3,0:0:0:0:
363,162,167392,6,0,L|380:75,3,67.5000025749208,2|0|0|2,3:2|0:0|3:3|2:2,0:0:0:0:
255,205,168274,2,0,L|272:125,1,67.5000025749208,2|0,3:2|0:0,0:0:0:0:
193,71,168715,2,0,L|174:152,1,67.5000025749208,2|2,3:2|2:2,0:0:0:0:
57,211,169157,6,0,L|138:230,1,67.5000025749208,2|0,3:2|0:0,0:0:0:0:
207,340,169598,2,0,L|127:319,1,67.5000025749208,0|0,3:3|0:0,0:0:0:0:
229,177,170039,2,0,L|211:242,1,67.5000025749208,0|2,3:3|2:2,0:0:0:0:
325,158,170480,2,0,L|340:92,1,67.5000025749208,2|2,3:2|2:3,0:0:0:0:
96,42,170921,5,6,3:2:0:0:
96,42,171142,1,2,2:2:0:0:
46,199,171362,1,2,3:2:0:0:
46,199,171583,1,2,2:2:0:0:
96,42,171804,2,0,L|176:31,1,67.5000025749208,0|0,3:3|0:0,0:0:0:0:
437,149,172245,5,2,3:2:0:0:
437,149,172466,1,2,2:2:0:0:
380,303,172686,1,2,3:2:0:0:
380,303,172907,1,2,2:2:0:0:
437,149,173128,2,0,L|357:138,1,67.5000025749208,0|2,3:3|2:2,0:0:0:0:
88,254,173568,5,2,3:2:0:0:
6,275,173789,1,2,2:2:0:0:
114,176,174009,1,2,3:2:0:0:
149,322,174230,1,2,2:3:0:0:
149,322,174451,6,0,L|233:335,1,67.5000025749208,2|0,3:2|0:0,0:0:0:0:
345,253,174892,1,2,3:2:0:0:
345,253,175113,2,0,L|261:240,1,67.5000025749208,2|0,2:2|3:3,0:0:0:0:
81,128,175554,1,2,2:2:0:0:
81,128,175775,2,0,L|147:138,1,67.5000025749208,2|2,3:2|2:3,0:0:0:0:
244,87,176215,6,0,P|283:36|378:33,1,135.000005149842,2|2,3:2|3:2,0:0:0:0:
349,23,176767,1,0,0:0:0:0:
349,23,176877,1,0,0:0:0:0:
419,210,177098,2,0,L|403:130,1,67.5000025749208,2|2,3:2|1:2,0:0:0:0:
326,139,177429,1,0,1:1:0:0:
326,139,177539,2,0,L|334:91,1,33.7500012874604,10|10,3:2|2:2,0:0:0:0:
365,283,177759,5,8,0:3:0:0:
365,283,177870,1,8,0:3:0:0:
365,283,177980,2,0,P|305:351|216:348,1,161.999995056153,6|8,3:2|2:2,0:0:0:0:
67,209,178642,1,2,3:2:0:0:
67,209,178752,1,2,1:2:0:0:
67,209,178862,1,2,2:2:0:0:
245,85,179083,1,2,3:2:0:0:
158,211,179304,1,10,2:2:0:0:
59,44,179524,1,2,2:2:0:0:
301,187,179745,5,2,3:2:0:0:
301,187,179965,1,2,2:2:0:0:
98,297,180186,2,0,L|81:382,1,80.9999975280763,10|2,2:2|3:2,0:0:0:0:
211,187,180627,5,2,2:2:0:0:
336,293,180847,1,2,3:2:0:0:
380,92,181068,2,0,L|397:7,1,80.9999975280763,10|8,2:2|2:3,0:0:0:0:
512,44,181509,6,0,P|461:103|383:99,1,161.999995056153,6|2,3:2|2:3,0:0:0:0:
512,170,182171,1,2,3:2:0:0:
311,287,182392,2,0,L|294:379,1,80.9999975280763,14|0,2:2|0:0,0:0:0:0:
201,215,182833,5,8,2:3:0:0:
193,185,182943,1,4,2:3:0:0:
186,155,183053,1,0,1:1:0:0:
179,126,183163,1,0,1:1:0:0:
172,96,183274,2,0,L|188:2,1,80.9999975280763,4|0,3:2|0:0,0:0:0:0:
0,59,183715,2,0,L|9:10,2,40.4999987640381,8|0|0,2:2|1:1|0:0,0:0:0:0:
30,169,184157,6,0,P|81:168|124:206,1,80.9999975280763,6|0,3:2|3:3,0:0:0:0:
113,188,184487,2,0,L|148:308,1,121.499996292114,10|10,2:2|2:2,0:0:0:0:
276,375,185039,2,0,L|292:279,1,80.9999975280763,6|2,3:2|2:2,0:0:0:0:
406,196,185480,2,0,L|423:93,1,80.9999975280763,10|10,3:2|2:3,0:0:0:0:
183,36,185921,1,4,3:3:0:0:
183,36,186032,1,4,2:3:0:0:
183,36,186142,1,4,2:3:0:0:
318,175,186362,1,8,3:2:0:0:
504,100,186583,5,2,2:2:0:0:
504,100,186804,2,0,P|493:54|409:24,1,121.499996292114,2|0,3:2|0:0,0:0:0:0:
422,18,187245,2,0,L|327:36,1,80.9999975280763,10|2,3:2|2:2,0:0:0:0:
267,140,187686,1,0,3:3:0:0:
267,140,187797,1,4,2:3:0:0:
267,140,187907,1,4,2:3:0:0:
447,257,188127,2,0,L|490:265,2,40.4999987640381,8|0|2,3:2|0:0|3:2,0:0:0:0:
171,127,188568,21,14,3:2:0:0:
283,328,188789,1,0,3:3:0:0:
423,78,189009,1,10,2:2:0:0:
221,223,189230,1,0,3:3:0:0:
221,223,189340,1,2,2:2:0:0:
221,223,189451,5,10,2:2:0:0:
20,120,189671,1,2,3:2:0:0:
316,191,189892,1,10,2:2:0:0:
144,333,190112,1,2,3:2:0:0:
385,300,190334,5,14,3:2:0:0:
111,246,190554,1,10,3:2:0:0:
385,300,190774,1,10,3:2:0:0:
111,246,190995,1,10,3:2:0:0:
366,200,191216,1,10,3:2:0:0:
153,159,191436,1,10,3:2:0:0:
395,108,191657,1,10,3:2:0:0:
106,76,191877,1,10,3:2:0:0:
467,46,192098,1,6,3:2:0:0:
87,25,195186,6,0,L|102:105,1,80.9999975280763,8|0,2:3|0:0,0:0:0:0:
42,194,195627,2,0,P|124:235|216:253,1,161.999995056153,4|0,3:2|0:0,0:0:0:0:
187,382,196289,5,8,2:2:0:0:
187,382,196399,1,8,2:2:0:0:
187,382,196509,2,0,P|264:330|326:261,1,161.999995056153,4|8,3:2|2:3,0:0:0:0:
446,284,197171,5,4,2:3:0:0:
446,284,197282,1,4,2:3:0:0:
446,284,197392,1,6,3:2:0:0:
173,143,197612,1,0,3:3:0:0:
382,101,197833,5,8,2:2:0:0:
150,27,198054,1,2,3:2:0:0:
411,192,198274,1,10,2:2:0:0:
205,265,198495,1,0,3:3:0:0:
205,265,198605,1,0,1:1:0:0:
205,265,198715,2,0,L|182:364,1,80.9999975280763,2|10,3:2|2:2,0:0:0:0:
0,229,199157,5,4,3:2:0:0:
4,214,199267,1,0,1:1:0:0:
8,199,199377,1,0,1:1:0:0:
12,183,199487,1,0,1:1:0:0:
15,165,199598,2,0,L|10:122,3,40.4999987640381,0|0|2|0,1:1|1:1|1:2|1:1,0:0:0:0:
104,198,200039,5,2,1:2:0:0:
122,228,200149,1,0,1:1:0:0:
153,245,200259,1,2,1:2:0:0:
189,244,200369,1,0,1:1:0:0:
220,224,200480,1,2,1:2:0:0:
235,191,200590,1,0,1:1:0:0:
231,155,200700,1,2,1:2:0:0:
210,126,200811,1,0,1:1:0:0:
181,110,200921,6,0,L|165:57,1,40.4999987640381,2|0,1:2|1:1,0:0:0:0:
249,0,201142,1,0,1:1:0:0:
249,0,201252,2,0,L|303:12,1,40.4999987640381,2|0,1:2|1:1,0:0:0:0:
317,105,201473,1,0,1:1:0:0:
317,105,201583,2,0,L|278:146,1,40.4999987640381,2|0,1:2|1:1,0:0:0:0:
255,278,201804,5,10,3:2:0:0:
286,299,201914,1,8,2:2:0:0:
326,299,202024,1,8,2:2:0:0:
359,276,202134,1,8,2:2:0:0:
372,240,202245,1,8,3:3:0:0:
387,204,202356,1,8,2:3:0:0:
423,187,202466,1,4,2:3:0:0:
463,194,202576,1,4,2:3:0:0:
489,222,202686,2,0,L|512:318,1,80.9999975280763,4|0,3:2|0:0,0:0:0:0:
335,125,203127,6,0,L|319:58,1,40.4999987640381,8|0,2:2|3:3,0:0:0:0:
213,239,203348,1,12,2:2:0:0:
213,239,203458,1,0,1:1:0:0:
213,239,203568,2,0,L|188:332,1,80.9999975280763,0|8,3:3|2:3,0:0:0:0:
115,348,203899,1,4,2:3:0:0:
67,342,204009,1,4,2:3:0:0:
33,309,204119,1,4,2:3:0:0:
26,261,204230,1,4,2:3:0:0:
266,0,204451,5,14,2:2:0:0:
109,259,204671,1,2,3:2:0:0:
0,63,204892,1,10,2:2:0:0:
260,218,205112,2,0,L|316:229,1,40.4999987640381,10|8,2:2|2:2,0:0:0:0:
492,60,205333,5,6,3:2:0:0:
446,70,205443,1,0,3:0:0:0:
403,82,205553,1,8,2:2:0:0:
356,93,205663,1,8,2:2:0:0:
313,104,205774,2,0,L|196:84,1,107.999996704102,10|10,3:2|2:2,0:0:0:0:
115,220,206215,5,0,3:3:0:0:
30,381,206436,1,0,3:3:0:0:
30,381,206546,1,0,3:3:0:0:
30,381,206657,2,0,P|94:323|180:344,1,161.999995056153,12|0,2:2|1:1,0:0:0:0:
248,350,207098,6,0,L|222:222,1,107.999996704102,0|8,3:3|2:2,0:0:0:0:
98,88,207539,1,8,2:3:0:0:
342,158,207759,2,0,L|316:30,1,107.999996704102,6|0,3:2|0:0,0:0:0:0:
512,222,208201,6,0,B|394:189|435:309|318:279,1,215.999993408203,4|0,3:2|0:0,0:0:0:0:
154,327,208862,1,0,3:3:0:0:
113,349,208972,1,4,2:3:0:0:
68,349,209082,1,8,2:3:0:0:
32,326,209192,1,0,1:1:0:0:
12,288,209303,1,8,2:2:0:0:
12,288,209524,6,0,L|30:201,1,67.5000025749208,4|0,3:2|0:0,0:0:0:0:
170,30,209965,1,0,3:3:0:0:
170,30,210076,1,0,1:1:0:0:
170,30,210186,2,0,P|252:23|297:95,1,161.999995056153,8|0,2:2|0:0,0:0:0:0:
297,91,210627,5,10,2:2:0:0:
418,291,210848,1,2,3:2:0:0:
164,201,211068,2,0,P|174:149|211:111,1,107.999996704102,10|2,2:2|3:2,0:0:0:0:
272,331,211509,6,0,L|286:384,1,53.9999983520508,12|0,2:2|0:0,0:0:0:0:
356,230,211730,1,0,3:3:0:0:
76,118,211951,1,8,2:2:0:0:
179,288,212171,1,2,3:2:0:0:
179,288,212282,1,0,1:1:0:0:
179,288,212392,1,10,2:2:0:0:
300,91,212612,5,8,2:3:0:0:
96,230,212833,1,4,3:3:0:0:
96,230,212943,1,0,1:1:0:0:
96,230,213054,1,2,1:2:0:0:
96,230,213164,1,0,1:1:0:0:
96,230,213274,6,0,P|78:308|203:380,1,215.999993408203,6|8,3:2|2:2,0:0:0:0:
411,306,213936,1,2,3:2:0:0:
411,306,214046,1,0,1:1:0:0:
411,306,214157,2,0,L|382:177,1,107.999996704102,2|2,2:2|3:2,0:0:0:0:
264,27,214598,1,10,2:2:0:0:
466,125,214818,1,2,3:2:0:0:
200,235,215039,6,0,B|98:268|120:153|-6:196,1,215.999993408203,2|8,3:2|2:2,0:0:0:0:
92,10,215701,1,2,3:2:0:0:
92,10,215811,1,0,1:1:0:0:
92,10,215922,2,0,L|121:139,1,107.999996704102,2|2,2:2|3:2,0:0:0:0:
229,350,216363,1,10,2:2:0:0:
197,151,216583,1,2,1:2:0:0:
197,151,216693,1,0,1:1:0:0:
197,151,216804,5,6,3:2:0:0:
351,238,217024,1,0,3:3:0:0:
247,79,217245,5,10,2:2:0:0:
132,280,217465,1,2,2:2:0:0:
247,79,217686,1,0,3:3:0:0:
299,310,217907,1,2,3:2:0:0:
63,226,218127,5,10,2:2:0:0:
387,116,218348,1,2,2:2:0:0:
94,63,218568,5,2,3:2:0:0:
299,310,218789,1,2,3:2:0:0:
354,0,219009,1,14,2:2:0:0:
299,310,219230,1,2,3:2:0:0:
0,94,219451,5,10,2:2:0:0:
176,384,219671,1,2,3:2:0:0:
176,384,219782,1,8,2:3:0:0:
176,384,219892,1,8,2:3:0:0:
449,199,220112,1,4,3:3:0:0:
127,123,220333,6,0,L|149:8,1,80.9999975280763,6|0,3:2|0:0,0:0:0:0:
219,269,220774,2,0,L|241:154,1,80.9999975280763,0|2,3:3|3:2,0:0:0:0:
448,83,221215,2,0,L|470:-32,1,80.9999975280763,10|2,2:2|2:2,0:0:0:0:
464,4,221546,1,0,1:1:0:0:
464,4,221657,1,2,2:2:0:0:
441,224,221877,5,4,3:3:0:0:
441,224,221987,1,4,2:3:0:0:
441,224,222098,2,0,L|341:211,1,80.9999975280763,6|0,3:2|0:0,0:0:0:0:
266,322,222539,2,0,L|166:309,1,80.9999975280763,8|8,2:2|2:3,0:0:0:0:
91,72,222980,2,0,L|-9:59,1,80.9999975280763,10|4,2:2|2:3,0:0:0:0:
10,61,223311,1,0,1:1:0:0:
10,61,223421,1,8,2:3:0:0:
64,222,223642,1,6,2:3:0:0:
120,384,223862,1,6,2:2:0:0:
365,126,227392,5,0,3:3:0:0:
208,29,227612,2,0,L|194:101,1,40.4999987640381,14|0,2:2|0:0,0:0:0:0:
302,296,227833,2,0,L|316:224,1,40.4999987640381,14|0,2:2|0:0,0:0:0:0:
73,230,228054,5,0,3:3:0:0:
73,230,228274,2,0,P|160:185|246:161,1,161.999995056153,8|8,2:2|2:3,0:0:0:0:
236,162,228715,5,4,2:3:0:0:
0,29,228936,1,8,2:2:0:0:
116,0,229157,1,0,0:0:0:0:
97,70,230921,5,0,3:3:0:0:
97,70,231032,1,0,3:3:0:0:
97,70,231142,1,12,2:2:0:0:
334,173,231362,2,0,L|320:246,1,45,8|0,2:2|1:1,0:0:0:0:
186,303,231583,5,0,3:3:0:0:
186,303,231693,1,0,3:3:0:0:
186,303,231804,2,0,P|138:250|163:171,1,135,8|8,2:2|2:2,0:0:0:0:
155,183,232245,2,0,L|164:125,3,45,0|8|0|0,3:3|2:2|1:1|1:1,0:0:0:0:
230,229,232686,6,0,L|341:216,1,90,6|0,3:2|3:3,0:0:0:0:
491,95,233127,2,0,L|383:78,1,90,10|0,2:2|3:3,0:0:0:0:
232,104,233568,1,10,2:2:0:0:
399,266,233789,1,0,3:3:0:0:
512,13,234009,1,10,2:2:0:0:
300,156,234230,1,0,3:3:0:0:
488,247,234451,6,0,L|511:357,1,90,10|0,2:2|3:3,0:0:0:0:
374,123,234892,5,10,2:2:0:0:
315,339,235112,1,0,3:3:0:0:
199,79,235333,5,10,2:2:0:0:
219,303,235554,1,0,3:3:0:0:
101,36,235774,5,10,2:2:0:0:
27,286,235995,1,0,3:3:0:0:
243,150,236215,5,10,2:2:0:0:
1,199,236436,1,0,3:3:0:0:
234,273,236657,1,8,2:2:0:0:
15,86,236877,1,0,3:3:0:0:
120,297,237098,6,0,L|95:413,1,90,8|0,2:2|3:3,0:0:0:0:
202,165,237539,5,10,2:2:0:0:
202,165,237649,1,2,2:2:0:0:
202,165,237759,1,2,3:2:0:0:
202,165,237870,1,2,2:2:0:0:
202,165,237980,2,0,L|187:46,1,90,10|0,2:2|3:3,0:0:0:0:
377,0,238421,5,10,2:2:0:0:
257,244,238642,1,0,3:3:0:0:
429,74,238862,5,10,2:2:0:0:
373,328,239083,1,0,3:3:0:0:
512,28,239304,5,14,2:2:0:0:
512,280,239524,1,0,3:3:0:0:
290,94,239745,5,14,2:2:0:0:
424,244,239965,1,0,3:3:0:0:
410,19,240186,1,8,2:2:0:0:
315,185,240407,1,0,3:3:0:0:
200,56,240627,6,0,L|186:0,2,45,8|0|2,2:2|0:0|3:2,0:0:0:0:
0,24,241068,2,0,L|26:133,1,90,10|2,2:2|3:2,0:0:0:0:
227,201,241509,6,0,P|170:198|133:233,1,90,10|2,2:2|3:2,0:0:0:0:
145,215,241840,1,2,0:0:0:0:
145,215,241951,1,10,2:2:0:0:
357,63,242171,1,2,3:2:0:0:
466,310,242392,1,10,2:2:0:0:
323,207,242612,1,0,3:3:0:0:
376,347,242833,5,10,2:2:0:0:
376,347,242943,1,2,2:2:0:0:
376,347,243054,1,2,3:2:0:0:
376,347,243164,1,2,3:2:0:0:
376,347,243274,6,0,L|264:361,1,90,10|2,2:2|3:2,0:0:0:0:
225,306,243605,1,2,0:0:0:0:
225,306,243715,2,0,L|148:314,1,45,2|2,2:2|2:2,0:0:0:0:
45,272,243936,5,2,3:2:0:0:
45,272,244046,1,2,2:2:0:0:
45,272,244157,2,0,P|19:221|32:172,1,90,10|2,2:2|3:2,0:0:0:0:
339,124,244598,5,10,2:2:0:0:
339,124,244708,1,2,2:2:0:0:
339,124,244818,2,0,L|404:139,1,45,2|2,3:2|0:0,0:0:0:0:
221,62,245039,5,10,2:2:0:0:
390,251,245259,1,2,3:2:0:0:
374,0,245480,1,14,2:2:0:0:
232,204,245701,1,2,3:2:0:0:
465,116,245921,1,10,2:2:0:0:
339,124,246142,6,0,L|358:178,1,45,0|0,3:3|0:0,0:0:0:0:
239,302,246362,1,14,2:2:0:0:
239,302,246472,1,0,1:1:0:0:
239,302,246582,1,0,1:1:0:0:
239,302,246692,1,0,1:1:0:0:
239,302,246804,2,0,L|136:331,1,90,6|0,3:2|3:3,0:0:0:0:
28,133,247245,1,8,2:2:0:0:
316,270,247465,5,2,2:2:0:0:
336,279,247575,1,0,1:1:0:0:
356,289,247685,1,10,2:2:0:0:
401,156,247907,5,2,3:2:0:0:
423,161,248017,1,2,0:0:0:0:
443,165,248127,1,10,2:2:0:0:
331,42,248348,5,2,3:2:0:0:
331,42,248458,1,2,0:0:0:0:
331,42,248568,2,0,L|413:30,1,67.5000025749208,10|2,2:2|3:2,0:0:0:0:
81,272,249009,5,10,2:2:0:0:
140,56,249229,1,0,3:3:0:0:
277,307,249450,5,10,2:2:0:0:
236,92,249671,1,0,3:3:0:0:
354,359,249891,5,14,2:2:0:0:
428,109,250112,1,0,3:3:0:0:
175,180,250332,5,14,2:2:0:0:
423,267,250553,1,0,3:3:0:0:
255,105,250774,1,8,2:2:0:0:
353,343,250994,1,2,3:2:0:0:
431,129,251215,6,0,L|456:13,1,90,10|0,2:2|3:3,0:0:0:0:
344,88,251546,1,2,3:2:0:0:
344,88,251657,2,0,L|366:-16,1,90,8|2,2:2|3:2,0:0:0:0:
209,206,252098,2,0,P|128:197|92:128,1,135,10|0,2:2|0:0,0:0:0:0:
77,87,252539,5,10,2:2:0:0:
77,87,252649,1,0,1:1:0:0:
77,87,252759,1,0,1:1:0:0:
77,87,252870,1,0,1:1:0:0:
77,87,252980,2,0,L|92:26,1,45,10|8,2:2|2:3,0:0:0:0:
304,183,253201,2,0,L|319:244,1,45,8|0,3:3|0:0,0:0:0:0:
400,26,253421,6,0,L|523:0,1,90,4|0,2:3|3:3,0:0:0:0:
439,308,253862,5,6,3:2:0:0:
297,54,254083,1,0,1:1:0:0:
297,54,254193,1,0,1:1:0:0:
297,54,254304,1,8,2:2:0:0:
151,250,254524,5,6,3:2:0:0:
380,114,254745,1,0,3:3:0:0:
380,114,254855,1,8,2:3:0:0:
380,114,254965,1,4,2:3:0:0:
59,55,255186,6,0,P|160:36|207:88,1,180,6|0,3:2|0:0,0:0:0:0:
310,356,255848,6,0,L|324:301,1,45,8|0,2:2|0:0,0:0:0:0:
242,170,256068,1,0,3:3:0:0:
242,170,256179,1,8,2:3:0:0:
242,170,256289,1,8,2:3:0:0:
479,242,256509,6,0,L|469:180,1,45,4|0,2:3|0:0,0:0:0:0:
348,81,256730,2,0,L|357:142,1,45,0|4,3:3|2:3,0:0:0:0:
337,226,256951,2,0,L|398:216,1,45,4|0,2:3|0:0,0:0:0:0:
494,97,257172,2,0,L|432:106,1,45,2|0,2:2|0:0,0:0:0:0:
270,28,257392,5,6,3:2:0:0:
242,289,257613,1,0,1:1:0:0:
242,289,257723,1,0,1:1:0:0:
242,289,257834,1,8,2:2:0:0:
12,0,258054,5,6,3:2:0:0:
145,241,258275,1,8,2:3:0:0:
145,241,258385,1,8,2:3:0:0:
145,241,258495,1,4,2:3:0:0:
355,70,258715,6,0,P|255:55|208:107,1,180,6|0,3:2|3:3,0:0:0:0:
61,206,259377,1,0,1:1:0:0:
61,206,259487,1,0,1:1:0:0:
61,206,259598,1,8,2:2:0:0:
138,285,259818,1,0,1:1:0:0:
253,230,260039,6,0,L|262:168,1,45,8|0,2:3|0:0,0:0:0:0:
320,327,260260,2,0,L|310:388,1,45,4|4,2:3|2:3,0:0:0:0:
504,246,260481,2,0,L|512:202,1,45,0|0,3:3|3:3,0:0:0:0:
412,382,260701,5,2,2:2:0:0:
412,382,260811,1,2,2:2:0:0:
412,382,260921,1,6,3:2:0:0:
256,192,261032,12,2,267759,2:2:0:0:
