osu file format v14

[General]
AudioFilename: audio.mp3
AudioLeadIn: 0
PreviewTime: 50081
Countdown: 0
SampleSet: Soft
StackLeniency: 0.7
Mode: 0
LetterboxInBreaks: 0
WidescreenStoryboard: 1

[Editor]
Bookmarks: 50281,79081,133481,162281,176681,205481
DistanceSpacing: 1.1
BeatDivisor: 3
GridSize: 4
TimelineZoom: 1

[Metadata]
Title:Negai
TitleUnicode:願い
Artist:Ishida Yoko
ArtistUnicode:石田燿子
Creator:Hollow Wings
Version:Normal.
Source:ああっ女神さまっ
Tags:Ah! My Goddess OPEN YOUR MIND 〜小さな羽根ひろげて〜 多田彰文 ただ あきふみ tada akifumi ending ed Pata-Mon Suzuki_1112 1112deng
BeatmapID:1662883
BeatmapSetID:671268

[Difficulty]
HPDrainRate:4
CircleSize:3
OverallDifficulty:3
ApproachRate:5
SliderMultiplier:1.2
SliderTickRate:1

[Events]
//Background and Video events
0,0,"negai.jpg",0,0
//Break Periods
2,79279,90679
//Storyboard Layer 0 (Background)
//Storyboard Layer 1 (Fail)
//Storyboard Layer 2 (Pass)
//Storyboard Layer 3 (Foreground)
//Storyboard Sound Samples

[TimingPoints]
-921,400,4,2,1,100,1,0
2279,-100,4,2,1,80,0,0
8679,-100,4,2,1,70,0,0
21479,-100,4,2,1,80,0,0
34279,-100,4,2,1,70,0,0
43879,-100,4,2,1,90,0,0
47079,-100,4,2,1,80,0,0
50279,-100,4,2,1,100,0,1
63079,-100,4,2,1,100,0,0
91879,-100,4,2,1,70,0,0
104679,-100,4,2,1,80,0,0
117479,-100,4,2,1,70,0,0
127079,-100,4,2,1,90,0,0
130279,-100,4,2,1,80,0,0
133479,-100,4,2,1,100,0,1
146279,-100,4,2,1,100,0,0
162279,-100,4,2,1,90,0,0
163879,-100,4,2,1,100,0,1
175079,-100,4,2,1,100,0,0
176679,-100,4,2,1,100,0,1
189479,-100,4,2,1,100,0,0
201479,-100,4,2,1,90,0,0
205479,-100,4,2,1,80,0,0
211879,-100,4,2,1,70,0,0
215079,-100,4,2,1,45,0,0
215879,-100,4,2,1,40,0,0
216679,-100,4,2,1,35,0,0
217479,-100,4,2,1,30,0,0
218279,-100,4,2,1,25,0,0
219079,-100,4,2,1,20,0,0
219879,-100,4,2,1,15,0,0
220679,-100,4,2,1,10,0,0
221479,-100,4,2,1,5,0,0

[Colours]
Combo1 : 255,162,208
Combo2 : 11,151,255
Combo3 : 255,255,119

[HitObjects]
253,77,679,6,0,L|174:90,1,80,8|8,0:0|0:3,0:0:0:0:
128,202,1345,2,0,L|142:321,1,120,8|8,0:3|0:0,0:0:0:0:
169,350,1879,1,0,0:0:0:0:
287,330,2279,6,0,P|338:300|366:248,1,120,6|8,0:0|0:0,0:0:0:0:
337,133,3079,1,0,0:0:0:0:
251,216,3479,2,0,P|226:186|216:148,1,80,8|0,0:0|0:0,0:0:0:0:
199,111,3879,6,0,P|147:80|88:82,2,120,2|8|0,0:0|0:0|0:0,0:0:0:0:
252,217,5079,1,8,0:0:0:0:
170,304,5479,6,0,P|119:334|60:333,1,120,2|8,0:0|0:0,0:0:0:0:
89,216,6279,1,0,0:0:0:0:
65,98,6679,2,0,P|103:108|142:101,1,80,8|0,0:0|0:0,0:0:0:0:
166,134,7079,6,0,P|216:164|275:163,2,120,2|8|0,0:0|0:0|0:0,0:0:0:0:
246,45,8279,1,0,0:0:0:0:
346,110,8679,6,0,P|405:111|455:80,1,120,6|8,0:0|0:0,0:0:0:0:
447,200,9479,1,0,0:0:0:0:
327,195,9879,1,8,0:0:0:0:
221,252,10279,6,0,P|190:302|191:361,1,120,2|8,0:0|0:0,0:0:0:0:
113,378,10945,2,0,P|84:326|32:297,1,120,2|0,0:0|0:0,0:0:0:0:
55,263,11479,6,0,P|56:203|25:153,1,120,8|2,0:0|0:0,0:0:0:0:
145,166,12279,1,8,0:0:0:0:
257,125,12679,1,2,0:0:0:0:
329,29,13079,1,8,0:0:0:0:
379,137,13479,5,2,0:0:0:0:
483,196,13879,1,8,0:0:0:0:
367,229,14279,1,2,0:0:0:0:
472,286,14679,1,8,0:0:0:0:
356,318,15079,6,0,P|296:319|246:288,1,120,2|8,0:0|0:0,0:0:0:0:
137,237,15879,1,0,0:0:0:0:
60,329,16279,1,8,0:0:0:0:
37,211,16679,6,0,P|65:159|117:130,1,120,2|8,0:0|0:0,0:0:0:0:
172,73,17345,2,0,P|231:71|281:102,1,120,2|0,0:0|0:0,0:0:0:0:
305,135,17879,6,0,P|355:104|414:105,1,120,8|2,0:0|0:0,0:0:0:0:
387,222,18679,1,8,0:0:0:0:
481,294,19079,2,0,P|452:320|416:337,1,80,2|0,0:0|0:0,0:0:0:0:
376,344,19479,1,8,0:0:0:0:
301,249,19879,6,0,P|250:218|191:219,1,120,2|8,0:0|0:0,0:0:0:0:
147,331,20679,2,0,P|108:339|68:336,1,80,2|8,0:0|0:0,0:0:0:0:
30,322,21079,1,0,0:0:0:0:
39,201,21479,6,0,P|43:142|60:84,1,120,6|8,0:0|0:0,0:0:0:0:
127,40,22145,2,0,P|204:56|273:96,1,160,2|8,0:0|0:0,0:0:0:0:
252,215,23079,6,0,P|311:211|360:178,1,120,2|8,0:0|0:0,0:0:0:0:
395,107,23745,2,0,P|389:185|423:257,1,160,2|8,0:0|0:0,0:0:0:0:
373,366,24679,6,0,P|437:349|479:315,1,120,2|8,0:0|0:0,0:0:0:0:
422,257,25345,2,0,P|343:266|272:301,1,160,2|8,0:0|0:0,0:0:0:0:
213,196,26279,6,0,P|219:137|211:78,1,120,2|8,0:0|0:0,0:0:0:0:
132,60,26945,2,0,P|119:138|134:216,1,160,2|8,0:0|0:0,0:0:0:0:
248,254,27879,6,0,P|195:282|136:295,1,120,2|8,0:0|0:0,0:0:0:0:
134,215,28545,2,0,P|190:159|261:122,1,160,2|8,0:0|0:0,0:0:0:0:
349,198,29479,6,0,P|292:214|248:254,1,120,2|8,0:0|0:0,0:0:0:0:
298,316,30145,2,0,P|373:341|452:350,1,160,2|8,0:0|0:0,0:0:0:0:
471,231,31079,6,0,L|482:111,1,120,2|8,0:0|0:0,0:0:0:0:
381,46,31879,2,0,L|392:165,1,120,2|8,0:0|0:0,0:0:0:0:
291,229,32679,6,0,L|302:109,1,120,2|8,0:0|0:0,0:0:0:0:
201,44,33479,2,0,L|212:163,1,120,6|8,0:0|0:0,0:0:0:0:
214,283,34279,6,0,P|157:298|97:297,1,120,2|8,0:0|0:0,0:0:0:0:
23,202,35079,1,0,0:0:0:0:
142,215,35479,1,10,0:0:0:0:
196,107,35879,6,0,P|254:94|314:93,2,120,2|8|0,0:0|0:0|0:0,0:0:0:0:
75,116,37079,1,10,0:0:0:0:
142,215,37479,6,0,P|198:234|258:234,1,120,2|8,0:0|0:0,0:0:0:0:
350,157,38279,1,0,0:0:0:0:
369,275,38679,1,10,0:0:0:0:
264,335,39079,6,0,P|207:351|147:349,2,120,2|8|0,0:0|0:0|0:0,0:0:0:0:
382,361,40279,1,10,0:0:0:0:
486,301,40679,5,2,0:0:0:0:
369,275,41079,1,10,0:0:0:0:
304,173,41479,1,0,0:0:0:0:
250,280,41879,1,8,0:0:0:0:
142,335,42279,6,0,P|83:344|23:342,1,120,2|8,0:0|0:0,0:0:0:0:
82,237,43079,1,4,0:0:0:0:
30,128,43479,2,0,L|108:111,1,80,8|8,0:0|0:0,0:0:0:0:
114,71,43879,6,0,P|173:76|232:64,1,120,2|8,0:0|0:0,0:0:0:0:
310,76,44545,2,0,P|389:80|463:110,1,160,2|8,0:0|0:0,0:0:0:0:
355,166,45479,6,0,P|296:163|236:173,1,120,2|8,0:0|0:0,0:0:0:0:
207,248,46145,2,0,P|130:267|51:263,1,160,2|8,0:0|0:0,0:0:0:0:
142,184,47079,5,8,0:0:0:0:
261,178,47479,2,0,P|378:200|497:190,1,240,6|0,0:0|0:0,0:0:0:0:
433,291,48679,1,2,0:0:0:0:
312,281,49079,2,0,P|253:279|193:288,2,120,0|10|0,0:0|0:0|0:0,0:0:0:0:
377,180,50279,6,0,P|370:125|238:106,1,200,6|2,0:0|0:0,0:0:0:0:
140,215,51479,2,0,P|101:219|70:196,1,80,8|0,0:0|0:0,0:0:0:0:
56,158,51879,6,0,P|108:128|167:123,1,120,2|8,0:0|0:0,0:0:0:0:
228,226,52679,2,0,P|227:285|202:339,1,120,2|8,0:0|0:0,0:0:0:0:
85,304,53479,6,0,P|132:221|227:225,1,200,2|2,0:0|0:0,0:0:0:0:
350,326,54679,2,0,P|388:330|419:307,1,80,8|0,0:0|0:0,0:0:0:0:
443,274,55079,6,0,P|390:244|331:239,1,120,2|8,0:0|0:0,0:0:0:0:
267,137,55879,2,0,P|242:82|241:23,1,120,2|8,0:0|0:0,0:0:0:0:
142,91,56679,6,0,P|119:141|65:130,1,120,2|8,0:0|0:0,0:0:0:0:
31,202,57345,2,0,P|44:270|108:242,1,160,2|8,0:0|0:0,0:0:0:0:
208,176,58279,6,0,P|263:169|280:222,1,120,2|8,0:0|0:0,0:0:0:0:
360,216,58945,2,0,P|412:170|356:128,1,160,2|10,0:0|0:0,0:0:0:0:
250,70,59879,6,0,P|191:64|134:81,1,120,2|8,0:0|0:0,0:0:0:0:
73,132,60545,2,0,P|47:207|52:286,1,160,2|8,0:0|0:0,0:0:0:0:
146,361,61479,6,0,P|205:365|263:349,1,120,2|8,0:0|0:0,0:0:0:0:
243,231,62279,2,0,P|183:226|125:242,1,120,0|0,0:0|0:0,0:0:0:0:
73,132,63079,5,6,0:0:0:0:
191,149,63479,2,0,P|230:141|267:126,1,80,8|2,0:0|0:0,0:0:0:0:
418,73,64279,2,0,P|457:81|494:96,1,80,8|0,0:0|0:0,0:0:0:0:
378,206,65079,6,0,P|374:265|385:324,2,120,8|0|8,0:0|0:0|0:0,0:0:0:0:
462,290,66279,5,2,0:0:0:0:
461,169,66679,2,0,P|442:135|414:106,1,80,8|2,0:0|0:0,0:0:0:0:
257,140,67479,2,0,P|218:145|182:163,1,80,8|0,0:0|0:0,0:0:0:0:
172,323,68279,6,0,P|113:316|57:296,2,120,8|2|10,0:0|0:0|0:0,0:0:0:0:
286,361,69479,6,0,P|385:360|483:340,1,200,2|2,0:0|0:0,0:0:0:0:
450,183,70679,1,10,0:0:0:0:
349,247,71079,6,0,P|249:241|150:224,1,200,2|2,0:0|0:0,0:0:0:0:
50,349,72279,1,8,0:0:0:0:
168,350,72679,6,0,P|129:306|79:273,1,120,6|2,0:0|0:0,0:0:0:0:
78,192,73345,2,0,P|76:113|60:35,1,160,0|2,0:0|0:0,0:0:0:0:
177,60,74279,5,10,0:0:0:0:
296,47,74679,1,4,0:0:0:0:
213,134,75079,2,0,P|332:134|451:117,1,240,0|6,0:0|0:0,0:0:0:0:
388,220,76279,5,8,0:0:0:0:
267,225,76679,2,0,L|151:255,1,120,0|8,0:0|0:0,0:0:0:0:
60,333,77479,6,0,L|182:343,1,120,2|8,0:0|0:0,0:0:0:0:
296,368,78279,2,0,L|418:378,1,120,0|0,0:0|0:0,0:0:0:0:
475,274,79079,5,4,0:0:0:0:
224,316,91879,6,0,P|165:317|115:286,1,120,6|8,0:0|0:0,0:0:0:0:
73,172,92679,1,2,0:0:0:0:
182,221,93079,1,8,0:0:0:0:
301,234,93479,6,0,P|332:284|331:343,1,120,2|8,0:0|0:0,0:0:0:0:
407,366,94145,2,0,P|436:314|488:285,1,120,0|0,0:0|0:0,0:0:0:0:
462,251,94679,2,0,P|459:212|470:174,1,80,8|0,0:0|0:0,0:0:0:0:
440,147,95079,5,2,0:0:0:0:
392,36,95479,1,8,0:0:0:0:
324,135,95879,1,2,0:0:0:0:
247,42,96279,1,8,0:0:0:0:
212,157,96679,5,2,0:0:0:0:
110,92,97079,1,8,0:0:0:0:
112,211,97479,1,2,0:0:0:0:
31,300,97879,1,8,0:0:0:0:
146,331,98279,6,0,P|206:332|256:301,1,120,2|8,0:0|0:0,0:0:0:0:
256,181,99079,1,2,0:0:0:0:
340,266,99479,1,8,0:0:0:0:
408,364,99879,6,0,P|465:352|508:311,1,120,2|8,0:0|0:0,0:0:0:0:
485,234,100545,2,0,P|427:220|387:177,1,120,0|0,0:0|0:0,0:0:0:0:
361,147,101079,6,0,L|339:269,1,120,8|2,0:0|0:0,0:0:0:0:
258,176,101879,1,8,0:0:0:0:
175,262,102279,2,0,L|167:182,1,80,2|0,0:0|0:0,0:0:0:0:
133,162,102679,1,8,0:0:0:0:
53,71,103079,6,0,P|104:40|163:41,1,120,2|8,0:0|0:0,0:0:0:0:
273,88,103879,2,0,P|312:96|352:93,1,80,2|0,0:0|0:0,0:0:0:0:
388,76,104279,1,0,0:0:0:0:
443,182,104679,6,0,P|459:239|464:299,1,120,6|8,0:0|0:0,0:0:0:0:
383,303,105345,2,0,P|306:319|237:359,1,160,2|8,0:0|0:0,0:0:0:0:
118,340,106279,6,0,P|59:336|10:303,1,120,2|8,0:0|0:0,0:0:0:0:
41,229,106945,2,0,P|75:157|69:78,1,160,2|8,0:0|0:0,0:0:0:0:
184,42,107879,6,0,P|248:59|290:93,1,120,2|8,0:0|0:0,0:0:0:0:
277,171,108545,2,0,P|356:162|427:127,1,160,2|8,0:0|0:0,0:0:0:0:
475,16,109479,6,0,P|483:75|477:134,1,120,2|8,0:0|0:0,0:0:0:0:
450,210,110145,2,0,P|437:288|452:366,1,160,2|8,0:0|0:0,0:0:0:0:
343,316,111079,6,0,P|290:344|231:357,1,120,2|8,0:0|0:0,0:0:0:0:
215,278,111745,2,0,P|159:222|88:185,1,160,2|8,0:0|0:0,0:0:0:0:
37,75,112679,6,0,P|80:34|138:18,1,120,2|8,0:0|0:0,0:0:0:0:
171,91,113345,2,0,P|250:99|326:125,1,160,2|8,0:0|0:0,0:0:0:0:
219,179,114279,6,0,L|230:299,1,120,2|8,0:0|0:0,0:0:0:0:
340,346,115079,2,0,L|459:335,1,120,2|8,0:0|0:0,0:0:0:0:
496,220,115879,6,0,L|485:100,1,120,2|8,0:0|0:0,0:0:0:0:
377,47,116679,2,0,L|258:58,1,120,6|8,0:0|0:0,0:0:0:0:
154,119,117479,6,0,P|94:120|36:105,1,120,2|8,0:0|0:0,0:0:0:0:
133,34,118279,1,0,0:0:0:0:
237,92,118679,1,8,0:0:0:0:
190,202,119079,6,0,P|249:201|308:188,2,120,2|8|0,0:0|0:0|0:0,0:0:0:0:
71,221,120279,1,8,0:0:0:0:
174,282,120679,6,0,P|230:301|290:301,1,120,2|8,0:0|0:0,0:0:0:0:
403,260,121479,1,0,0:0:0:0:
289,222,121879,1,8,0:0:0:0:
216,126,122279,6,0,P|156:123|98:139,2,120,2|8|0,0:0|0:0|0:0,0:0:0:0:
333,150,123479,1,8,0:0:0:0:
263,52,123879,5,2,0:0:0:0:
381,33,124279,1,8,0:0:0:0:
492,77,124679,1,0,0:0:0:0:
500,196,125079,1,8,0:0:0:0:
438,298,125479,6,0,P|378:300|318:291,1,120,2|8,0:0|0:0,0:0:0:0:
255,188,126279,1,0,0:0:0:0:
235,306,126679,2,0,L|157:323,1,80,8|8,0:0|0:0,0:0:0:0:
123,345,127079,6,0,P|87:297|66:241,1,120,6|8,0:0|0:0,0:0:0:0:
40,165,127745,2,0,P|113:134|193:130,1,160,2|8,0:0|0:0,0:0:0:0:
296,68,128679,6,0,P|326:118|345:176,1,120,2|8,0:0|0:0,0:0:0:0:
331,254,129345,2,0,P|408:273|487:269,1,160,2|8,0:0|0:0,0:0:0:0:
470,149,130279,5,8,0:0:0:0:
385,64,130679,2,0,P|268:42|149:52,1,240,4|0,0:0|0:0,0:0:0:0:
101,162,131879,1,2,0:0:0:0:
161,265,132279,2,0,P|220:267|280:258,2,120,0|10|0,0:0|0:0|0:0,0:0:0:0:
49,221,133479,6,0,P|56:166|188:147,1,200,6|2,0:0|0:0,0:0:0:0:
315,222,134679,2,0,P|283:245|244:241,1,80,8|0,0:0|0:0,0:0:0:0:
216,270,135079,6,0,P|268:300|327:305,1,120,2|8,0:0|0:0,0:0:0:0:
369,192,135879,2,0,P|317:162|258:157,1,120,2|8,0:0|0:0,0:0:0:0:
147,109,136679,6,0,P|100:27|5:30,1,200,2|2,0:0|0:0,0:0:0:0:
77,173,137879,2,0,P|99:203|95:242,1,80,8|0,0:0|0:0,0:0:0:0:
83,282,138279,6,0,P|136:252|195:247,1,120,2|8,0:0|0:0,0:0:0:0:
299,304,139079,2,0,P|247:333|188:339,1,120,2|8,0:0|0:0,0:0:0:0:
250,236,139879,6,0,P|227:186|173:197,1,120,2|8,0:0|0:0,0:0:0:0:
120,137,140545,2,0,P|133:69|197:97,1,160,2|8,0:0|0:0,0:0:0:0:
317,108,141479,6,0,P|372:101|389:154,1,120,2|8,0:0|0:0,0:0:0:0:
443,212,142145,2,0,P|499:253|447:299,1,160,2|8,0:0|0:0,0:0:0:0:
351,227,143079,6,0,P|292:221|235:238,1,120,2|8,0:0|0:0,0:0:0:0:
206,163,143745,2,0,P|211:83|185:8,1,160,2|8,0:0|0:0,0:0:0:0:
131,116,144679,6,0,P|72:120|14:104,1,120,2|8,0:0|0:0,0:0:0:0:
14,223,145479,2,0,P|74:228|132:212,1,120,0|0,0:0|0:0,0:0:0:0:
90,325,146279,5,6,0:0:0:0:
206,297,146679,2,0,P|243:312|282:320,1,80,8|2,0:0|0:0,0:0:0:0:
275,159,147479,2,0,P|236:167|199:182,1,80,8|0,0:0|0:0,0:0:0:0:
348,239,148279,6,0,P|407:247|466:239,2,120,8|0|8,0:0|0:0|0:0,0:0:0:0:
406,134,149479,5,2,0:0:0:0:
289,105,149879,2,0,P|308:71|336:42,1,80,8|2,0:0|0:0,0:0:0:0:
499,40,150679,2,0,P|463:22|423:16,1,80,8|0,0:0|0:0,0:0:0:0:
383,172,151479,6,0,P|391:230|412:286,2,120,8|2|10,0:0|0:0|0:0,0:0:0:0:
312,269,152679,6,0,P|213:268|115:248,1,200,2|2,0:0|0:0,0:0:0:0:
66,95,153879,1,10,0:0:0:0:
159,170,154279,6,0,P|259:164|358:147,1,200,2|2,0:0|0:0,0:0:0:0:
462,26,155479,1,8,0:0:0:0:
348,65,155879,6,0,P|289:63|231:46,1,120,2|2,0:0|0:0,0:0:0:0:
161,85,156545,2,0,P|144:163|142:243,1,160,0|2,0:0|0:0,0:0:0:0:
260,268,157479,5,10,0:0:0:0:
155,326,157879,1,4,0:0:0:0:
271,352,158279,2,0,P|389:369|509:369,1,240,0|6,0:0|0:0,0:0:0:0:
422,285,159479,5,8,0:0:0:0:
491,187,159879,2,0,L|375:157,1,120,0|8,0:0|0:0,0:0:0:0:
254,157,160679,6,0,L|132:167,1,120,2|8,0:0|0:0,0:0:0:0:
182,276,161479,2,0,L|301:266,1,120,0|8,0:0|0:0,0:0:0:0:
422,284,162279,6,0,P|479:150|336:182,1,360,8|0,0:0|0:0,0:0:0:0:
302,297,163879,6,0,P|208:301|172:214,1,200,6|2,0:0|0:0,0:0:0:0:
189,55,165079,2,0,P|221:32|260:36,1,80,8|0,0:0|0:0,0:0:0:0:
293,57,165479,6,0,P|344:86|403:92,1,120,2|8,0:0|0:0,0:0:0:0:
496,168,166279,2,0,P|436:173|385:203,1,120,2|8,0:0|0:0,0:0:0:0:
494,253,167079,6,0,P|447:335|352:332,1,200,2|2,0:0|0:0,0:0:0:0:
222,235,168279,2,0,P|200:205|204:166,1,80,8|0,0:0|0:0,0:0:0:0:
198,124,168679,6,0,P|145:94|86:89,1,120,2|8,0:0|0:0,0:0:0:0:
113,206,169479,2,0,P|60:235|1:240,1,120,2|8,0:0|0:0,0:0:0:0:
101,308,170279,6,0,P|124:358|178:347,1,120,2|8,0:0|0:0,0:0:0:0:
204,270,170945,2,0,P|217:202|281:230,1,160,2|8,0:0|0:0,0:0:0:0:
389,283,171879,6,0,P|444:290|461:237,1,120,2|8,0:0|0:0,0:0:0:0:
414,172,172545,2,0,P|360:126|416:85,1,160,2|8,0:0|0:0,0:0:0:0:
305,40,173479,6,0,P|246:34|189:51,1,120,2|8,0:0|0:0,0:0:0:0:
132,108,174145,2,0,P|204:141|283:144,1,160,2|8,0:0|0:0,0:0:0:0:
219,246,175079,6,0,P|278:250|336:234,1,120,2|10,0:0|0:0,0:0:0:0:
374,346,175879,2,0,P|431:362|491:357,1,120,2|2,0:0|0:0,0:0:0:0:
491,237,176679,6,0,P|397:241|361:154,1,200,6|2,0:0|0:0,0:0:0:0:
483,50,177879,2,0,P|451:27|412:31,1,80,8|0,0:0|0:0,0:0:0:0:
373,40,178279,6,0,P|321:69|262:75,1,120,2|8,0:0|0:0,0:0:0:0:
142,60,179079,2,0,P|90:30|31:24,1,120,2|8,0:0|0:0,0:0:0:0:
85,132,179879,6,0,P|132:214|227:211,1,200,2|2,0:0|0:0,0:0:0:0:
365,129,181079,2,0,P|370:167|347:199,1,80,8|0,0:0|0:0,0:0:0:0:
314,221,181479,6,0,P|365:250|424:256,1,120,2|8,0:0|0:0,0:0:0:0:
327,325,182279,2,0,P|274:354|215:359,1,120,2|8,0:0|0:0,0:0:0:0:
96,342,183079,6,0,P|41:354|18:304,1,120,2|8,0:0|0:0,0:0:0:0:
84,259,183745,2,0,P|97:191|161:219,1,160,2|8,0:0|0:0,0:0:0:0:
258,149,184679,6,0,P|275:201|330:194,1,120,2|8,0:0|0:0,0:0:0:0:
407,174,185345,2,0,P|474:191|476:121,1,160,2|8,0:0|0:0,0:0:0:0:
384,44,186279,6,0,P|326:26|267:32,1,120,2|8,0:0|0:0,0:0:0:0:
207,84,186945,2,0,P|134:117|55:120,1,160,2|8,0:0|0:0,0:0:0:0:
58,241,187879,6,0,P|115:257|175:253,1,120,2|10,0:0|0:0,0:0:0:0:
252,161,188679,2,0,P|311:166|369:150,1,120,0|2,0:0|0:0,0:0:0:0:
407,264,189479,5,6,0:0:0:0:
312,338,189879,2,0,P|297:301|289:262,1,80,8|2,0:0|0:0,0:0:0:0:
128,267,190679,2,0,P|120:306|105:343,1,80,8|0,0:0|0:0,0:0:0:0:
209,221,191479,6,0,P|217:161|209:103,2,120,8|0|8,0:0|0:0|0:0,0:0:0:0:
100,168,192679,5,2,0:0:0:0:
8,89,193079,2,0,P|27:54|55:25,1,80,8|2,0:0|0:0,0:0:0:0:
215,16,193879,2,0,P|251:34|291:40,1,80,8|0,0:0|0:0,0:0:0:0:
449,23,194679,6,0,P|441:81|420:137,2,120,10|2|10,0:0|0:0|0:0,0:0:0:0:
352,94,195879,6,0,P|254:114|154:115,1,200,2|2,0:0|0:0,0:0:0:0:
63,247,197079,1,8,0:0:0:0:
165,309,197479,6,0,P|263:325|363:331,1,200,2|2,0:0|0:0,0:0:0:0:
511,270,198679,1,10,0:0:0:0:
400,223,199079,6,0,P|341:225|283:242,1,120,6|2,0:0|0:0,0:0:0:0:
235,177,199745,2,0,P|157:160|77:158,1,160,0|2,0:0|0:0,0:0:0:0:
24,266,200679,5,10,0:0:0:0:
143,252,201079,1,4,0:0:0:0:
235,177,201479,2,0,P|354:177|473:160,1,240,0|6,0:0|0:0,0:0:0:0:
422,268,202679,5,8,0:0:0:0:
320,332,203079,2,0,L|204:362,1,120,0|8,0:0|0:0,0:0:0:0:
124,271,203879,6,0,L|40:185,1,120,6|0,0:0|0:0,0:0:0:0:
146,129,204679,2,0,L|178:13,1,120,2|0,0:0|0:0,0:0:0:0:
269,90,205479,6,0,P|296:142|348:172,1,120,6|8,0:0|0:0,0:0:0:0:
468,179,206279,1,2,0:0:0:0:
492,296,206679,2,0,P|482:334|456:365,1,80,8|0,0:0|0:0,0:0:0:0:
425,339,207079,6,0,P|365:337|315:368,2,120,2|8|0,0:0|0:0|0:0,0:0:0:0:
364,235,208279,1,8,0:0:0:0:
261,298,208679,6,0,P|201:299|150:269,1,120,2|8,0:0|0:0,0:0:0:0:
84,169,209479,1,0,0:0:0:0:
159,75,209879,2,0,P|197:65|236:72,1,80,8|0,0:0|0:0,0:0:0:0:
245,111,210279,6,0,P|304:112|355:82,2,120,2|8|0,0:0|0:0|0:0,0:0:0:0:
172,206,211479,1,8,0:0:0:0:
179,325,211879,6,0,L|257:311,1,80,2|8,0:0|0:3,0:0:0:0:
317,162,212679,2,0,L|395:148,1,80,2|8,0:0|0:3,0:0:0:0:
436,302,213479,2,0,B|316:322|316:322|256:219,1,240,2|8,0:0|0:0,0:0:0:0:
160,147,214679,6,0,L|85:120,1,80,2|4,0:0|0:0,0:0:0:0:
256,192,215079,12,0,221479,0:0:0:0:
