osu file format v14

[General]
AudioFilename: audio.mp3
AudioLeadIn: 0
PreviewTime: 50081
Countdown: 0
SampleSet: Soft
StackLeniency: 0.2
Mode: 0
LetterboxInBreaks: 0
WidescreenStoryboard: 1

[Editor]
DistanceSpacing: 1.1
BeatDivisor: 6
GridSize: 4
TimelineZoom: 2

[Metadata]
Title:Negai
TitleUnicode:願い
Artist:Ishida Yoko
ArtistUnicode:石田燿子
Creator:Hollow Wings
Version:Dance
Source:ああっ女神さまっ
Tags:Ah! My Goddess OPEN YOUR MIND 〜小さな羽根ひろげて〜 多田彰文 ただ あきふみ tada akifumi ending ed Pata-Mon Suzuki_1112 1112deng
BeatmapID:1419358
BeatmapSetID:671268

[Difficulty]
HPDrainRate:6
CircleSize:4.5
OverallDifficulty:8
ApproachRate:9
SliderMultiplier:2
SliderTickRate:1

[Events]
//Background and Video events
0,0,"negai.jpg",0,0
//Break Periods
2,79278,91279
//Storyboard Layer 0 (Background)
//Storyboard Layer 1 (Fail)
//Storyboard Layer 2 (Pass)
//Storyboard Layer 3 (Foreground)
//Storyboard Sound Samples

[TimingPoints]
-921,400,4,2,1,100,1,0
945,-100,4,2,1,40,0,0
1745,-100,4,2,1,100,0,0
2279,-100,4,2,1,80,0,0
8679,-133.333333333333,4,2,1,70,0,0
21479,-133.333333333333,4,2,1,80,0,0
32679,-106.666666666667,4,2,1,80,0,0
32945,-133.333333333333,4,2,1,20,0,0
33079,-133.333333333333,4,2,1,80,0,0
34279,-133.333333333333,4,2,1,70,0,0
43879,-133.333333333333,4,2,1,90,0,0
47079,-133.333333333333,4,2,1,80,0,0
48945,-133.333333333333,4,2,1,50,0,0
49079,-133.333333333333,4,2,1,80,0,0
49745,-133.333333333333,4,2,1,50,0,0
49879,-133.333333333333,4,2,1,80,0,0
50279,-66.6666666666667,4,2,1,100,0,1
51879,-53.3333333333333,4,2,1,100,0,1
52145,-53.3333333333333,4,2,1,20,0,1
52279,-53.3333333333333,4,2,1,100,0,1
52545,-53.3333333333333,4,2,1,20,0,1
52679,-66.6666666666667,4,2,1,100,0,1
52945,-66.6666666666667,4,2,1,20,0,1
53079,-66.6666666666667,4,2,1,100,0,1
53345,-66.6666666666667,4,2,1,50,0,1
53479,-66.6666666666667,4,2,1,100,0,1
55079,-53.3333333333333,4,2,1,100,0,1
55345,-53.3333333333333,4,2,1,20,0,1
55479,-53.3333333333333,4,2,1,100,0,1
55745,-66.6666666666667,4,2,1,20,0,1
55879,-66.6666666666667,4,2,1,100,0,1
56545,-66.6666666666667,4,2,1,50,0,1
56679,-53.3333333333333,4,2,1,100,0,1
56945,-66.6666666666667,4,2,1,20,0,1
57079,-66.6666666666667,4,2,1,100,0,1
57345,-66.6666666666667,4,2,1,20,0,1
57479,-66.6666666666667,4,2,1,100,0,1
58145,-66.6666666666667,4,2,1,50,0,1
58279,-53.3333333333333,4,2,1,100,0,1
58545,-66.6666666666667,4,2,1,20,0,1
58679,-66.6666666666667,4,2,1,100,0,1
59079,-53.3333333333333,4,2,1,100,0,1
59345,-66.6666666666667,4,2,1,20,0,1
59479,-66.6666666666667,4,2,1,100,0,1
61479,-53.3333333333333,4,2,1,100,0,1
61745,-66.6666666666667,4,2,1,20,0,1
61879,-66.6666666666667,4,2,1,100,0,1
62545,-66.6666666666667,4,2,1,70,0,1
62679,-66.6666666666667,4,2,1,100,0,1
63079,-66.6666666666667,4,2,1,100,0,0
66145,-66.6666666666667,4,2,1,50,0,0
66279,-66.6666666666667,4,2,1,100,0,0
67879,-53.3333333333333,4,2,1,100,0,0
68145,-53.3333333333333,4,2,1,20,0,0
68279,-53.3333333333333,4,2,1,100,0,0
68545,-53.3333333333333,4,2,1,20,0,0
68679,-53.3333333333333,4,2,1,100,0,0
68945,-66.6666666666667,4,2,1,20,0,0
69079,-66.6666666666667,4,2,1,100,0,0
69345,-66.6666666666667,4,2,1,50,0,0
69479,-66.6666666666667,4,2,1,100,0,0
72945,-66.6666666666667,4,2,1,60,0,0
73079,-66.6666666666667,4,2,1,100,0,0
73745,-66.6666666666667,4,2,1,60,0,0
73879,-66.6666666666667,4,2,1,100,0,0
75079,-121.212121212121,4,2,1,100,0,0
75745,-133.333333333333,4,2,1,20,0,0
75879,-100,4,2,1,100,0,0
91879,-133.333333333333,4,2,1,70,0,0
104679,-133.333333333333,4,2,1,80,0,0
114279,-106.666666666667,4,2,1,80,0,0
114545,-106.666666666667,4,2,1,20,0,0
114679,-106.666666666667,4,2,1,80,0,0
114945,-133.333333333333,4,2,1,20,0,0
115079,-133.333333333333,4,2,1,80,0,0
115879,-106.666666666667,4,2,1,80,0,0
116145,-106.666666666667,4,2,1,20,0,0
116279,-106.666666666667,4,2,1,80,0,0
116545,-133.333333333333,4,2,1,20,0,0
116679,-133.333333333333,4,2,1,80,0,0
117479,-133.333333333333,4,2,1,70,0,0
127079,-133.333333333333,4,2,1,90,0,0
130279,-133.333333333333,4,2,1,80,0,0
132145,-133.333333333333,4,2,1,50,0,0
132279,-133.333333333333,4,2,1,80,0,0
132945,-133.333333333333,4,2,1,50,0,0
133079,-133.333333333333,4,2,1,80,0,0
133479,-66.6666666666667,4,2,1,100,0,1
135079,-53.3333333333333,4,2,1,100,0,1
135345,-53.3333333333333,4,2,1,20,0,1
135479,-53.3333333333333,4,2,1,100,0,1
135745,-53.3333333333333,4,2,1,20,0,1
135879,-53.3333333333333,4,2,1,100,0,1
136145,-66.6666666666667,4,2,1,20,0,1
136279,-66.6666666666667,4,2,1,100,0,1
136545,-66.6666666666667,4,2,1,50,0,1
136679,-66.6666666666667,4,2,1,100,0,1
138279,-53.3333333333333,4,2,1,100,0,1
138545,-53.3333333333333,4,2,1,20,0,1
138679,-53.3333333333333,4,2,1,100,0,1
138945,-66.6666666666667,4,2,1,20,0,1
139079,-66.6666666666667,4,2,1,100,0,1
139745,-66.6666666666667,4,2,1,50,0,1
139879,-53.3333333333333,4,2,1,100,0,1
140145,-66.6666666666667,4,2,1,20,0,1
140279,-66.6666666666667,4,2,1,100,0,1
141345,-66.6666666666667,4,2,1,50,0,1
141479,-66.6666666666667,4,2,1,100,0,1
144679,-53.3333333333333,4,2,1,100,0,1
144945,-66.6666666666667,4,2,1,20,0,1
145079,-66.6666666666667,4,2,1,100,0,1
145745,-66.6666666666667,4,2,1,70,0,1
145879,-66.6666666666667,4,2,1,100,0,1
146279,-53.3333333333333,4,2,1,100,0,0
146545,-66.6666666666667,4,2,1,20,0,0
146679,-66.6666666666667,4,2,1,100,0,0
149345,-66.6666666666667,4,2,1,50,0,0
149479,-66.6666666666667,4,2,1,100,0,0
151079,-53.3333333333333,4,2,1,100,0,0
151345,-53.3333333333333,4,2,1,20,0,0
151479,-53.3333333333333,4,2,1,100,0,0
151745,-53.3333333333333,4,2,1,20,0,0
151879,-53.3333333333333,4,2,1,100,0,0
152145,-66.6666666666667,4,2,1,20,0,0
152279,-66.6666666666667,4,2,1,100,0,0
152545,-66.6666666666667,4,2,1,50,0,0
152679,-66.6666666666667,4,2,1,100,0,0
156145,-66.6666666666667,4,2,1,60,0,0
156279,-66.6666666666667,4,2,1,100,0,0
156945,-66.6666666666667,4,2,1,60,0,0
157079,-66.6666666666667,4,2,1,100,0,0
158279,-121.212121212121,4,2,1,100,0,0
158945,-133.333333333333,4,2,1,20,0,0
159079,-100,4,2,1,100,0,0
162545,-133.333333333333,4,2,1,100,0,0
162945,-133.333333333333,4,2,1,50,0,0
163479,-66.6666666666667,4,2,1,100,0,0
163879,-66.6666666666667,4,2,1,100,0,1
165479,-53.3333333333333,4,2,1,100,0,1
165745,-53.3333333333333,4,2,1,20,0,1
165879,-53.3333333333333,4,2,1,100,0,1
166145,-53.3333333333333,4,2,1,20,0,1
166279,-53.3333333333333,4,2,1,100,0,1
166545,-66.6666666666667,4,2,1,20,0,1
166679,-66.6666666666667,4,2,1,100,0,1
166945,-66.6666666666667,4,2,1,50,0,1
167079,-66.6666666666667,4,2,1,100,0,1
168679,-53.3333333333333,4,2,1,100,0,1
168945,-53.3333333333333,4,2,1,20,0,1
169079,-53.3333333333333,4,2,1,100,0,1
169345,-66.6666666666667,4,2,1,20,0,1
169479,-66.6666666666667,4,2,1,100,0,1
170145,-66.6666666666667,4,2,1,50,0,1
170279,-53.3333333333333,4,2,1,100,0,1
170545,-66.6666666666667,4,2,1,20,0,1
170679,-66.6666666666667,4,2,1,100,0,1
171745,-66.6666666666667,4,2,1,50,0,1
171879,-53.3333333333333,4,2,1,100,0,1
172145,-66.6666666666667,4,2,1,20,0,1
172279,-66.6666666666667,4,2,1,100,0,1
172679,-53.3333333333333,4,2,1,100,0,1
172945,-66.6666666666667,4,2,1,20,0,1
173079,-66.6666666666667,4,2,1,100,0,1
175079,-66.6666666666667,4,2,1,100,0,0
176679,-66.6666666666667,4,2,1,100,0,1
178279,-53.3333333333333,4,2,1,100,0,1
178545,-53.3333333333333,4,2,1,20,0,1
178679,-53.3333333333333,4,2,1,100,0,1
178945,-53.3333333333333,4,2,1,20,0,1
179079,-53.3333333333333,4,2,1,100,0,1
179345,-66.6666666666667,4,2,1,20,0,1
179479,-66.6666666666667,4,2,1,100,0,1
179745,-66.6666666666667,4,2,1,50,0,1
179879,-66.6666666666667,4,2,1,100,0,1
181479,-53.3333333333333,4,2,1,100,0,1
181745,-53.3333333333333,4,2,1,20,0,1
181879,-53.3333333333333,4,2,1,100,0,1
182145,-66.6666666666667,4,2,1,20,0,1
182279,-66.6666666666667,4,2,1,100,0,1
182945,-66.6666666666667,4,2,1,50,0,1
183079,-53.3333333333333,4,2,1,100,0,1
183345,-66.6666666666667,4,2,1,20,0,1
183479,-66.6666666666667,4,2,1,100,0,1
184545,-66.6666666666667,4,2,1,50,0,1
184679,-53.3333333333333,4,2,1,100,0,1
184945,-66.6666666666667,4,2,1,20,0,1
185079,-66.6666666666667,4,2,1,100,0,1
185479,-53.3333333333333,4,2,1,100,0,1
185745,-66.6666666666667,4,2,1,20,0,1
185879,-66.6666666666667,4,2,1,100,0,1
187879,-53.3333333333333,4,2,1,100,0,1
188145,-66.6666666666667,4,2,1,20,0,1
188279,-66.6666666666667,4,2,1,100,0,1
188679,-66.6666666666667,4,2,1,80,0,1
189079,-66.6666666666667,4,2,1,100,0,1
189479,-66.6666666666667,4,2,1,100,0,0
192545,-66.6666666666667,4,2,1,50,0,0
192679,-66.6666666666667,4,2,1,100,0,0
194345,-66.6666666666667,4,2,1,70,0,0
194679,-66.6666666666667,4,2,1,100,0,0
194745,-66.6666666666667,4,2,1,70,0,0
195079,-53.3333333333333,4,2,1,100,0,0
195345,-53.3333333333333,4,2,1,20,0,0
195479,-53.3333333333333,4,2,1,100,0,0
195745,-66.6666666666667,4,2,1,20,0,0
195879,-66.6666666666667,4,2,1,100,0,0
199345,-66.6666666666667,4,2,1,60,0,0
199479,-66.6666666666667,4,2,1,100,0,0
200145,-66.6666666666667,4,2,1,60,0,0
200279,-66.6666666666667,4,2,1,100,0,0
201479,-121.212121212121,4,2,1,100,0,0
202145,-133.333333333333,4,2,1,20,0,0
202279,-100,4,2,1,100,0,0
205479,-100,4,2,1,80,0,0
211879,-100,4,2,1,50,0,0
212145,-100,4,2,1,20,0,0
212545,-100,4,2,1,50,0,0
212945,-100,4,2,1,20,0,0
213345,-100,4,2,1,50,0,0
215079,-100,4,2,1,45,0,0
215879,-100,4,2,1,40,0,0
216679,-100,4,2,1,35,0,0
217479,-100,4,2,1,30,0,0
218279,-100,4,2,1,25,0,0
219079,-100,4,2,1,20,0,0
219879,-100,4,2,1,15,0,0
220679,-100,4,2,1,10,0,0
221479,-100,4,2,1,5,0,0

[Colours]
Combo1 : 255,176,216
Combo2 : 0,136,236
Combo3 : 255,102,190
Combo4 : 83,169,255

[HitObjects]
29,275,679,5,8,0:0:0:0:
165,246,945,1,8,0:3:0:0:
366,307,1345,1,8,0:3:0:0:
318,102,1745,1,8,0:0:0:0:
281,162,1879,2,0,L|286:212,2,50
77,114,2279,6,0,P|137:99|222:124,1,133.333333333333,6|0,0:0|0:0,0:0:0:0:
281,162,2679,1,8,0:0:0:0:
281,162,3079,1,0,0:0:0:0:
488,200,3479,2,0,P|428:215|343:190,1,133.333333333333,8|0,0:0|0:0,0:0:0:0:
281,162,3879,37,2,0:0:0:0:
135,312,4279,2,0,P|152:252|216:191,1,133.333333333333,8|2,0:0|0:0,0:0:0:0:
281,162,4679,2,0,P|206:169|272:108,1,200,0|8,0:0|0:0,0:0:0:0:
250,319,5479,5,2,0:0:0:0:
348,134,5879,2,0,P|293:173|257:238,1,133.333333333333,8|2,0:0|0:0,0:0:0:0:
250,319,6279,1,0,0:0:0:0:
41,317,6679,2,0,P|102:345|176:343,1,133.333333333333,8|0,0:0|0:0,0:0:0:0:
231,246,7079,38,0,P|170:193|174:277,1,200,2|8,0:0|0:0,0:0:0:0:
358,258,7745,1,2,0:0:0:0:
388,194,7879,1,0,0:0:0:0:
318,30,8145,1,8,0:0:0:0:
362,85,8279,1,0,0:0:0:0:
190,158,8545,1,0,0:0:0:0:
132,199,8679,6,0,P|108:242|120:305,1,100.000003814697,6|0,0:0|0:0,0:0:0:0:
151,350,9079,1,8,0:0:0:0:
332,336,9345,2,0,P|356:267|325:187,1,150.000005722046,2|0,0:0|0:0,0:0:0:0:
276,154,9879,1,8,0:0:0:0:
235,262,10279,37,2,0:0:0:0:
208,54,10545,1,0,0:0:0:0:
180,119,10679,1,8,0:0:0:0:
389,121,10945,1,2,0:0:0:0:
363,186,11479,1,8,0:0:0:0:
208,54,11745,1,0,0:0:0:0:
106,79,11879,6,0,P|68:110|58:158,1,100.000003814697,2|0,0:0|0:0,0:0:0:0:
180,229,12279,2,0,P|218:198|227:150,1,100.000003814697,8|0,0:0|0:0,0:0:0:0:
208,54,12679,1,2,0:0:0:0:
314,247,12945,1,0,0:0:0:0:
390,236,13079,2,0,P|381:284|344:317,1,100.000003814697,8|0,0:0|0:0,0:0:0:0:
344,177,13479,38,0,P|391:161|437:179,1,100.000003814697,2|0,0:0|0:0,0:0:0:0:
314,247,13879,2,0,P|276:214|269:165,1,100.000003814697,8|0,0:0|0:0,0:0:0:0:
390,236,14279,1,2,0:0:0:0:
245,83,14545,1,0,0:0:0:0:
202,141,14679,2,0,P|254:157|295:135,1,100.000003814697,8|0,0:0|0:0,0:0:0:0:
170,76,15079,6,0,P|135:112|132:160,1,100.000003814697,2|0,0:0|0:0,0:0:0:0:
202,141,15479,1,8,0:0:0:0:
390,236,15745,2,0,P|372:311|308:374,1,150.000005722046,2|0,0:0|0:0,0:0:0:0:
242,384,16279,1,8,0:0:0:0:
172,244,16679,37,2,0:0:0:0:
304,80,16945,1,0,0:0:0:0:
343,144,17079,1,8,0:0:0:0:
137,183,17345,1,2,0:0:0:0:
172,244,17879,1,8,0:0:0:0:
304,80,18145,1,0,0:0:0:0:
314,10,18279,6,0,P|252:32|235:75,1,100.000003814697,2|0,0:0|0:0,0:0:0:0:
173,89,18679,2,0,L|137:183,1,100.000003814697,8|0,0:0|0:0,0:0:0:0:
172,244,19079,1,2,0:0:0:0:
370,174,19345,1,0,0:0:0:0:
415,228,19479,1,8,0:0:0:0:
172,244,19745,1,0,0:0:0:0:
137,183,19879,38,0,L|156:82,1,100.000003814697,2|0,0:0|0:0,0:0:0:0:
132,18,20279,1,8,0:0:0:0:
73,265,20679,1,2,0:0:0:0:
208,297,20945,1,8,0:0:0:0:
141,280,21079,1,0,0:0:0:0:
279,185,21345,1,0,0:0:0:0:
350,195,21479,1,6,0:0:0:0:
350,195,21879,5,8,0:0:0:0:
208,297,22145,2,0,P|219:225|280:185,1,150.000005722046,2|0,0:0|0:0,0:0:0:0:
350,195,22679,1,8,0:0:0:0:
320,42,23079,2,0,P|354:77|364:125,1,100.000003814697,2|0,0:0|0:0,0:0:0:0:
350,195,23479,1,8,0:0:0:0:
209,94,23745,1,2,0:0:0:0:
190,162,24145,1,0,0:0:0:0:
209,94,24279,1,8,0:0:0:0:
187,305,24679,38,0,P|155:239|68:204,1,150.000005722046,2|8,0:0|0:0,0:0:0:0:
52,340,25345,1,2,0:0:0:0:
43,270,25479,1,0,0:0:0:0:
460,340,25879,1,8,0:0:0:0:
382,161,26279,2,0,P|316:194|284:260,1,150.000005722046,2|8,0:0|0:0,0:0:0:0:
419,297,26945,1,2,0:0:0:0:
434,228,27079,2,0,L|458:131,1,100.000003814697
380,59,27479,2,0,L|353:172,1,100.000003814697,8|0,0:0|0:0,0:0:0:0:
286,257,27879,6,0,P|204:287|141:253,1,150.000005722046,2|8,0:0|0:0,0:0:0:0:
77,282,28545,2,0,P|185:355|269:348,1,200.000007629395,2|8,0:0|0:0,0:0:0:0:
360,120,29479,2,0,P|291:95|226:127,1,150.000005722046,2|8,0:0|0:0,0:0:0:0:
261,29,30145,2,0,P|364:40|433:102,1,200.000007629395,2|8,0:0|0:0,0:0:0:0:
186,185,31079,38,0,B|190:191|204:200|223:202|239:200|256:193|256:193|269:186|281:184|295:183|313:186|328:198,2,150.000005722046,2|8|2,0:0|0:0|0:0,0:0:0:0:
61,122,32145,1,0,0:0:0:0:
123,155,32279,1,8,0:0:0:0:
223,298,32545,1,0,0:0:0:0:
161,264,32679,6,0,P|110:266|79:336,1,125.000004768372,2|0,0:0|0:0,0:0:0:0:
112,332,33079,2,0,L|217:345,1,100.000003814697,8|0,0:0|0:0,0:0:0:0:
281,353,33479,1,6,0:0:0:0:
351,360,33612,1,8,0:0:0:0:
333,257,33745,1,8,0:0:0:0:
404,266,33879,1,8,0:0:0:0:
404,266,34279,37,2,0:0:0:0:
335,68,34679,1,8,0:0:0:0:
278,196,34945,1,0,0:0:0:0:
257,128,35079,2,0,P|230:81|176:67,1,100.000003814697,0|0,0:0|0:0,0:0:0:0:
133,156,35479,2,0,L|189:140,1,50.0000019073487,10|0,0:0|0:0,0:0:0:0:
217,241,35745,5,0,0:0:0:0:
148,225,35879,1,2,0:0:0:0:
106,358,36145,1,0,0:0:0:0:
174,337,36279,1,8,0:0:0:0:
314,341,36545,1,2,0:0:0:0:
381,363,36679,2,0,B|406:377|406:377|371:301,1,100.000003814697
328,217,37079,2,0,B|318:189|318:189|341:123,1,100.000003814697,10|0,0:0|0:0,0:0:0:0:
365,57,37479,37,2,0:0:0:0:
165,118,37879,1,8,0:0:0:0:
304,124,38145,1,0,0:0:0:0:
367,155,38279,2,0,P|397:200|389:259,1,100.000003814697,0|2,0:0|0:0,0:0:0:0:
291,260,38679,2,0,L|319:213,1,50.0000019073487,10|0,0:0|0:0,0:0:0:0:
220,258,38945,5,0,0:0:0:0:
253,320,39079,1,2,0:0:0:0:
97,238,39345,1,0,0:0:0:0:
137,180,39479,1,8,0:0:0:0:
78,16,39745,1,2,0:0:0:0:
31,69,39879,2,0,P|19:109|48:166,1,100.000003814697,0|0,0:0|0:0,0:0:0:0:
89,109,40279,2,0,L|209:95,1,100.000003814697,10|0,0:0|0:0,0:0:0:0:
259,89,40679,37,2,0:0:0:0:
174,281,41079,2,0,P|221:301|282:304,1,100.000003814697,10|0,0:0|0:0,0:0:0:0:
383,258,41479,2,0,P|336:238|275:235,1,100.000003814697,0|2,0:0|0:0,0:0:0:0:
174,281,41879,2,0,L|70:305,1,100.000003814697,8|0,0:0|0:0,0:0:0:0:
63,181,42279,2,0,L|160:158,1,100.000003814697,2|0,0:0|0:0,0:0:0:0:
229,144,42679,1,8,0:0:0:0:
229,144,42945,5,2,0:0:0:0:
296,311,43079,2,0,L|261:269,1,50.0000019073487,4|0,0:0|0:0,0:0:0:0:
217,220,43345,1,0,0:0:0:0:
333,78,43479,2,0,L|314:128,1,50.0000019073487,8|8,0:0|0:0,0:0:0:0:
293,191,43745,1,8,0:0:0:0:
68,91,43879,38,0,P|126:44|198:29,1,150.000005722046,2|8,0:0|0:0,0:0:0:0:
352,172,44545,2,0,P|297:217|214:233,1,150.000005722046,2|2,0:0|0:0,0:0:0:0:
136,171,45079,1,8,0:0:0:0:
136,171,45345,5,0,0:0:0:0:
139,277,45479,2,0,P|171:322|231:351,1,100.000003814697,2|0,0:0|0:0,0:0:0:0:
315,336,45879,2,0,P|357:300|380:237,1,100.000003814697,8|2,0:0|0:0,0:0:0:0:
390,138,46279,2,0,P|337:119|271:131,1,100.000003814697,0|0,0:0|0:0,0:0:0:0:
181,171,46679,2,0,P|191:225|234:276,1,100.000003814697,8|0,0:0|0:0,0:0:0:0:
315,336,47079,37,8,0:0:0:0:
315,336,47479,5,6,0:0:0:0:
315,336,47879,2,0,P|364:324|400:284,1,100.000003814697
379,81,48545,37,0,0:0:0:0:
313,57,48679,1,2,0:0:0:0:
230,209,48945,5,8,0:3:0:0:
316,228,49079,1,0,0:0:0:0:
214,370,49345,37,8,0:0:0:0:
109,357,49479,1,10,0:0:0:0:
176,199,49745,5,8,0:3:0:0:
281,212,49879,1,0,0:0:0:0:
324,116,50012,1,0,0:0:0:0:
249,46,50145,1,0,0:0:0:0:
156,96,50279,6,0,P|40:116|108:21,1,300.000011444092,6|8,0:0|0:0,0:0:0:0:
135,277,50945,2,0,P|251:290|176:199,1,300.000011444092,2|0,0:0|0:0,0:0:0:0:
317,151,51479,1,8,0:0:0:0:
317,151,51745,5,0,0:0:0:0:
119,227,51879,2,0,P|25:209|113:157,1,250.000009536744,2|0,0:0|0:0,0:0:0:0:
180,112,52279,2,0,P|196:19|120:89,1,250.000009536744,8|0,0:0|0:0,0:0:0:0:
291,55,52679,2,0,B|292:98|281:123|256:154|228:172|228:172|240:191|246:217|241:239,1,200.000007629395,2|0,0:0|0:0,0:0:0:0:
110,166,53079,1,8,0:0:0:0:
110,166,53345,37,8,0:3:0:0:
317,353,53479,2,0,P|279:241|228:347,1,300.000011444092,2|8,0:0|0:0,0:0:0:0:
88,106,54145,2,0,P|165:194|49:185,1,300.000011444092,2|0,0:0|0:0,0:0:0:0:
220,162,54679,1,8,0:0:0:0:
220,162,54945,5,0,0:0:0:0:
313,275,55079,2,0,P|279:364|245:269,1,250.000009536744,2|0,0:0|0:0,0:0:0:0:
351,151,55479,2,0,P|257:122|316:203,1,250.000009536744,8|0,0:0|0:0,0:0:0:0:
398,78,55879,1,2,0:0:0:0:
208,82,56145,37,0,0:0:0:0:
187,185,56279,2,0,P|208:233|263:267,1,100.000003814697,8|0,0:0|0:0,0:0:0:0:
350,258,56545,5,8,0:3:0:0:
351,151,56679,2,0,P|430:89|403:185,1,250.000009536744,2|0,0:0|0:0,0:0:0:0:
281,178,57079,2,0,P|181:153|97:202,1,200.000007629395,8|2,0:0|0:0,0:0:0:0:
83,305,57479,1,0,0:0:0:0:
102,165,57745,5,2,0:0:0:0:
83,305,57879,2,0,P|108:354|159:378,1,100.000003814697,8|0,0:0|0:0,0:0:0:0:
352,338,58145,37,8,0:3:0:0:
383,201,58279,2,0,P|313:136|323:236,1,250.000009536744,2|0,0:0|0:0,0:0:0:0:
457,206,58679,2,0,P|433:110|325:58,1,200.000007629395,8|2,0:0|0:0,0:0:0:0:
128,152,59079,2,0,P|38:182|89:94,1,250.000009536744
193,182,59479,2,0,P|123:259|18:253,1,200.000007629395,10|0,0:0|0:0,0:0:0:0:
153,6,59879,6,0,P|267:94|264:238,1,300.000011444092,2|8,0:0|0:0,0:0:0:0:
189,122,60545,2,0,P|312:197|445:142,1,300.000011444092,2|0,0:0|0:0,0:0:0:0:
323,32,61079,1,8,0:0:0:0:
323,32,61345,37,0,0:0:0:0:
266,121,61479,2,0,P|293:217|328:122,1,250.000009536744,2|0,0:0|0:0,0:0:0:0:
206,142,61879,2,0,P|107:112|76:0,1,200.000007629395,8|2,0:0|0:0,0:0:0:0:
2,44,62279,2,0,P|14:102|47:151,1,100.000003814697,0|0,0:0|0:3,0:0:0:0:
151,213,62545,5,8,0:3:0:0:
290,194,62679,1,0,0:0:0:0:
203,82,62812,1,0,0:0:0:0:
110,308,62945,1,0,0:0:0:0:
361,181,63079,21,6,0:0:0:0:
361,180,63479,2,0,P|327:92|233:122,1,200.000007629395,8|2,0:0|0:0,0:0:0:0:
230,180,63879,1,0,0:0:0:0:
230,180,64145,5,2,0:0:0:0:
174,224,64279,2,0,P|265:241|296:155,1,200.000007629395,8|0,0:0|0:0,0:0:0:0:
239,111,64679,1,2,0:0:0:0:
239,111,64945,37,0,0:0:0:0:
230,40,65079,2,0,P|170:109|230:180,1,200.000007629395,8|2,0:0|0:0,0:0:0:0:
296,152,65479,1,0,0:0:0:0:
296,152,65745,5,0,0:0:0:0:
401,165,65879,2,0,P|337:252|230:235,1,200.000007629395,8|8,0:0|0:3,0:0:0:0:
192,135,66279,38,0,P|256:48|363:65,1,200.000007629395,2|0,0:0|0:0,0:0:0:0:
296,152,66679,1,8,0:0:0:0:
377,344,66945,6,0,P|233:361|121:267,1,300.000011444092,2|2,0:0|0:0,0:0:0:0:
97,164,67479,1,8,0:0:0:0:
97,164,67745,37,0,0:0:0:0:
336,105,67879,2,0,P|270:29|277:129,1,250.000009536744,2|0,0:0|0:0,0:0:0:0:
177,165,68279,2,0,P|266:211|168:227,1,250.000009536744,8|0,0:0|0:0,0:0:0:0:
52,226,68679,2,0,P|31:323|105:258,1,250.000009536744,2|0,0:0|0:0,0:0:0:0:
48,155,69079,1,10,0:0:0:0:
48,155,69345,5,8,0:3:0:0:
139,101,69479,2,0,P|269:90|425:204,1,300.000011444092,2|8,0:0|0:0,0:0:0:0:
64,240,70145,2,0,P|183:162|334:198,1,300.000011444092,2|2,0:0|0:0,0:0:0:0:
420,252,70679,1,10,0:0:0:0:
59,31,71079,38,0,P|50:177|147:287,1,300.000011444092,2|8,0:0|0:0,0:0:0:0:
496,275,71745,2,0,P|374:194|230:223,1,300.000011444092,2|2,0:0|0:0,0:0:0:0:
146,286,72279,2,0,P|43:269|159:238,1,300.000011444092,8|6,0:0|0:0,0:0:0:0:
248,101,72945,5,8,0:3:0:0:
188,66,73079,1,2,0:0:0:0:
332,218,73345,37,0,0:0:0:0:
392,183,73479,1,10,0:0:0:0:
188,235,73745,5,8,0:3:0:0:
188,304,73879,1,2,0:0:0:0:
305,305,74012,37,0,0:0:0:0:
245,270,74145,1,2,0:0:0:0:
187,373,74279,1,10,0:0:0:0:
187,373,74679,5,4,0:0:0:0:
247,337,75079,6,0,P|290:261|195:316,1,275.000010490418
187,373,75879,5,6,0:0:0:0:
187,373,76279,37,8,0:0:0:0:
97,82,76545,1,2,0:0:0:0:
159,115,76679,2,0,B|220:143|220:143|293:129,1,133.333333333333
398,99,77079,1,8,0:0:0:0:
37,192,77345,2,0,L|126:171,1,66.6666666666667,0|2,0:0|0:0,0:0:0:0:
0,270,77745,5,0,0:0:0:0:
181,222,77879,2,0,L|339:185,1,133.333333333333,8|2,0:0|0:0,0:0:0:0:
441,327,78279,2,0,L|311:357,1,133.333333333333
205,307,78679,1,8,0:3:0:0:
352,69,78945,38,0,L|394:61,2,33.3333333333333,0|0|4,0:0|0:0|0:0,0:0:0:0:
261,73,91879,6,0,P|286:116|281:165,1,100.000003814697,6|0,0:0|0:0,0:0:0:0:
256,230,92279,1,8,0:0:0:0:
82,223,92545,1,0,0:0:0:0:
57,158,92679,2,0,P|70:86|132:46,1,150.000005722046,2|8,0:0|0:0,0:0:0:0:
130,46,93479,37,2,0:0:0:0:
132,302,93879,2,0,P|166:260|175:208,1,100.000003814697,8|0,0:0|0:0,0:0:0:0:
172,147,94279,1,2,0:0:0:0:
330,145,94679,1,8,0:0:0:0:
374,326,94945,5,0,0:0:0:0:
321,277,95079,2,0,B|294:251|294:251|317:210|317:210|330:146,1,150.000005722046,2|8,0:0|0:0,0:0:0:0:
500,22,95879,1,2,0:0:0:0:
372,62,96145,1,0,0:0:0:0:
304,80,96279,2,0,B|256:88|256:88|200:80,1,100.000003814697,8|0,0:0|0:0,0:0:0:0:
140,62,96679,37,2,0:0:0:0:
75,179,96945,1,0,0:0:0:0:
140,160,97079,1,8,0:0:0:0:
205,279,97345,1,0,0:0:0:0:
140,260,97479,1,2,0:0:0:0:
75,379,97745,1,0,0:0:0:0:
140,360,97879,1,8,0:0:0:0:
208,380,98012,2,0,L|237:364,1,25.0000009536744
262,380,98145,2,0,L|291:364,1,25.0000009536744
318,380,98279,5,2,0:0:0:0:
375,235,98679,1,8,0:0:0:0:
439,358,98945,1,0,0:0:0:0:
479,299,99079,2,0,P|494:226|470:156,1,150.000005722046,2|8,0:0|0:0,0:0:0:0:
262,135,99879,37,2,0:0:0:0:
213,66,100279,2,0,P|189:109|201:172,1,100.000003814697,8|0,0:0|0:0,0:0:0:0:
211,226,100679,1,2,0:0:0:0:
365,253,101079,2,0,P|339:210|279:189,1,100.000003814697,8|0,0:0|0:0,0:0:0:0:
97,217,101479,6,0,L|150:248,1,50.0000019073487,2|0,0:0|0:0,0:0:0:0:
27,235,101745,1,0,0:0:0:0:
211,226,101879,38,0,L|264:257,1,50.0000019073487,8|0,0:0|0:0,0:0:0:0:
140,242,102145,1,0,0:0:0:0:
322,228,102279,6,0,L|375:259,1,50.0000019073487,2|0,0:0|0:0,0:0:0:0:
254,251,102545,1,0,0:0:0:0:
435,230,102679,38,0,L|488:261,1,50.0000019073487,8|0,0:0|0:0,0:0:0:0:
365,253,102945,1,0,0:0:0:0:
269,181,103079,6,0,L|269:119,1,50.0000019073487,2|0,0:0|0:0,0:0:0:0:
478,255,103345,1,0,0:0:0:0:
339,304,103479,38,0,L|249:249,1,100.000003814697,8|0,0:0|0:0,0:0:0:0:
159,298,103879,1,2,0:0:0:0:
159,298,104145,5,8,0:0:0:0:
254,251,104279,2,0,L|303:223,1,50.0000019073487,2|0,0:0|0:0,0:0:0:0:
349,133,104545,1,0,0:0:0:0:
478,255,104679,38,0,L|505:203,1,50.0000019073487,6|0,0:0|0:0,0:0:0:0:
452,132,104945,1,0,0:0:0:0:
349,133,105079,1,8,0:0:0:0:
250,63,105212,1,0,0:0:0:0:
130,42,105345,2,0,P|93:107|92:181,1,150.000005722046,2|0,0:0|0:0,0:0:0:0:
111,250,105879,1,8,0:0:0:0:
111,250,106279,6,0,P|150:313|212:353,1,150.000005722046,2|8,0:0|0:0,0:0:0:0:
247,218,106945,1,2,0:0:0:0:
127,47,107479,1,8,0:0:0:0:
281,82,107879,38,0,P|343:122|383:186,1,150.000005722046,2|8,0:0|0:0,0:0:0:0:
247,218,108545,1,2,0:0:0:0:
75,339,109079,1,8,0:0:0:0:
90,234,109479,6,0,L|194:167,1,100.000003814697,2|0,0:0|0:0,0:0:0:0:
400,205,109879,2,0,L|296:272,1,100.000003814697,8|2,0:0|0:0,0:0:0:0:
247,218,110279,1,0,0:0:0:0:
94,148,110545,37,0,0:0:0:0:
90,234,110679,1,8,0:0:0:0:
134,310,110812,1,0,0:0:0:0:
212,348,110945,1,0,0:0:0:0:
300,360,111079,6,0,P|377:360|454:337,1,150.000005722046,2|8,0:0|0:0,0:0:0:0:
365,275,111745,1,2,0:0:0:0:
331,214,111879,2,0,B|309:196|309:196|316:157|362:144,1,100.000003814697
400,216,112279,1,8,0:0:0:0:
300,24,112679,38,0,P|377:24|454:47,1,150.000005722046,2|8,0:0|0:0,0:0:0:0:
365,109,113345,1,2,0:0:0:0:
327,169,113479,2,0,B|305:187|305:187|312:226|358:239,1,100.000003814697
397,172,113879,1,8,0:0:0:0:
122,77,114279,6,0,P|64:95|34:167,1,125.000004768372,2|0,0:0|0:0,0:0:0:0:
33,183,114679,2,0,P|62:236|120:254,1,125.000004768372,8|0,0:0|0:0,0:0:0:0:
156,250,115079,1,2,0:0:0:0:
213,183,115345,1,0,0:0:0:0:
156,250,115479,1,8,0:0:0:0:
156,250,115745,37,0,0:0:0:0:
213,183,115879,2,0,P|270:163|337:204,1,125.000004768372,2|0,0:0|0:0,0:0:0:0:
347,216,116279,2,0,P|354:276|318:325,1,125.000004768372,8|0,0:0|0:0,0:0:0:0:
287,342,116679,1,6,0:0:0:0:
216,348,116812,1,8,0:0:0:0:
226,244,116945,1,8,0:0:0:0:
156,250,117079,1,8,0:0:0:0:
30,345,117479,5,2,0:0:0:0:
8,188,117879,1,8,0:0:0:0:
82,262,118145,1,0,0:0:0:0:
149,283,118279,2,0,P|202:287|245:251,1,100.000003814697,0|2,0:0|0:0,0:0:0:0:
304,235,118679,2,0,L|360:219,1,50.0000019073487,8|0,0:0|0:0,0:0:0:0:
435,109,118945,37,0,0:0:0:0:
366,126,119079,1,2,0:0:0:0:
342,298,119345,1,0,0:0:0:0:
411,281,119479,1,8,0:0:0:0:
299,146,119745,1,2,0:0:0:0:
232,168,119879,2,0,P|183:144|163:93,1,100.000003814697
178,18,120279,2,0,P|227:42|247:93,1,100.000003814697,8|0,0:0|0:0,0:0:0:0:
232,168,120679,5,2,0:0:0:0:
42,234,121079,1,8,0:0:0:0:
142,132,121345,1,0,0:0:0:0:
165,199,121479,2,0,P|161:254|115:299,1,100.000003814697,0|2,0:0|0:0,0:0:0:0:
240,363,121879,2,0,L|189:327,1,50.0000019073487,8|0,0:0|0:0,0:0:0:0:
165,199,122145,37,0,0:0:0:0:
227,230,122279,1,2,0:0:0:0:
353,293,122545,1,0,0:0:0:0:
291,262,122679,1,8,0:0:0:0:
42,136,122945,1,2,0:0:0:0:
104,167,123079,2,0,P|151:186|208:175,1,100.000003814697
375,173,123479,2,0,P|328:154|271:165,1,100.000003814697,8|0,0:0|0:0,0:0:0:0:
131,254,123879,5,2,0:0:0:0:
332,85,124279,2,0,P|381:94|434:130,1,100.000003814697,8|0,0:0|0:0,0:0:0:0:
268,164,124679,2,0,P|251:117|255:53,1,100.000003814697,0|2,0:0|0:0,0:0:0:0:
375,173,125079,2,0,P|342:210|285:238,1,100.000003814697,8|0,0:0|0:0,0:0:0:0:
332,85,125479,37,2,0:0:0:0:
200,224,125745,1,0,0:0:0:0:
265,252,125879,1,8,0:0:0:0:
265,252,126145,5,2,0:0:0:0:
332,85,126279,2,0,L|297:127,1,50.0000019073487,4|0,0:0|0:0,0:0:0:0:
253,176,126545,1,0,0:0:0:0:
369,318,126679,2,0,L|350:268,1,50.0000019073487,8|8,0:0|0:0,0:0:0:0:
329,205,126945,1,8,0:0:0:0:
82,235,127079,38,0,P|140:282|212:297,1,150.000005722046,6|8,0:0|0:0,0:0:0:0:
332,85,127745,2,0,P|277:40|194:24,1,150.000005722046,2|2,0:0|0:0,0:0:0:0:
207,164,128279,1,8,0:0:0:0:
207,164,128545,5,0,0:0:0:0:
255,229,128679,2,0,P|291:263|338:281,1,100.000003814697,2|0,0:0|0:0,0:0:0:0:
169,334,129079,2,0,P|160:279|183:216,1,100.000003814697,8|2,0:0|0:0,0:0:0:0:
376,106,129479,2,0,P|332:140|267:151,1,100.000003814697
35,217,129879,2,0,P|78:182|143:171,1,100.000003814697,8|0,0:0|0:0,0:0:0:0:
207,164,130279,37,8,0:0:0:0:
207,164,130679,5,4,0:0:0:0:
207,164,131079,2,0,P|168:205|126:220,1,100.000003814697
98,83,131745,37,0,0:0:0:0:
159,48,131879,1,2,0:0:0:0:
292,90,132145,5,8,0:3:0:0:
213,127,132279,1,0,0:0:0:0:
86,299,132545,37,8,0:0:0:0:
186,263,132679,1,10,0:0:0:0:
391,217,132945,5,8,0:3:0:0:
297,251,133079,1,0,0:0:0:0:
236,172,133212,1,0,0:0:0:0:
292,90,133345,1,0,0:0:0:0:
389,118,133479,6,0,P|497:73|389:28,1,300.000011444092,6|8,0:0|0:0,0:0:0:0:
367,310,134145,2,0,P|351:193|443:266,1,300.000011444092,2|0,0:0|0:0,0:0:0:0:
267,183,134679,1,8,0:0:0:0:
267,183,134945,5,0,0:0:0:0:
383,249,135079,2,0,P|479:282|410:207,1,250.000009536744,2|0,0:0|0:0,0:0:0:0:
312,237,135479,2,0,P|218:266|266:182,1,250.000009536744,8|0,0:0|0:0,0:0:0:0:
392,129,135879,2,0,B|375:135|360:153|357:166|357:166|354:151|341:126|323:102|292:91|259:89|229:97|210:104|196:118,1,250.000009536744,2|0,0:0|0:0,0:0:0:0:
467,126,136279,1,8,0:0:0:0:
467,127,136545,37,8,0:3:0:0:
399,289,136679,2,0,P|482:206|364:209,1,300.000011444092,2|8,0:0|0:0,0:0:0:0:
94,145,137345,2,0,P|35:44|148:74,1,300.000011444092,2|0,0:0|0:0,0:0:0:0:
231,231,137879,1,8,0:0:0:0:
231,231,138145,5,0,0:0:0:0:
81,257,138279,2,0,P|171:306|127:217,1,250.000009536744,2|0,0:0|0:0,0:0:0:0:
294,193,138679,2,0,P|310:289|231:231,1,250.000009536744,8|0,0:0|0:0,0:0:0:0:
193,133,139079,1,2,0:0:0:0:
401,134,139345,37,0,0:0:0:0:
477,207,139479,2,0,P|500:250|512:299,1,100.000003814697,8|0,0:0|0:0,0:0:0:0:
302,317,139745,5,8,0:3:0:0:
193,133,139879,2,0,P|94:144|180:193,1,250.000009536744,2|0,0:0|0:0,0:0:0:0:
105,36,140279,2,0,P|32:105|32:208,1,200.000007629395,8|2,0:0|0:0,0:0:0:0:
193,133,140679,1,0,0:0:0:0:
237,321,140945,37,0,0:0:0:0:
289,227,141079,2,0,P|336:211|385:219,1,100.000003814697,8|0,0:0|0:0,0:0:0:0:
448,307,141345,5,8,0:3:0:0:
343,320,141479,1,2,0:0:0:0:
417,53,141745,1,0,0:0:0:0:
430,158,141879,1,8,0:0:0:0:
64,77,142145,1,2,0:0:0:0:
169,64,142279,1,0,0:0:0:0:
95,331,142545,1,0,0:0:0:0:
82,226,142679,1,8,0:0:0:0:
323,216,142945,37,0,0:0:0:0:
343,319,143079,2,0,P|450:222|448:77,1,300.000011444092,2|8,0:0|0:0,0:0:0:0:
80,118,143745,2,0,P|111:260|238:330,1,300.000011444092,2|0,0:0|0:0,0:0:0:0:
268,147,144279,1,8,0:0:0:0:
268,147,144545,5,0,0:0:0:0:
361,198,144679,2,0,P|342:295|299:203,1,250.000009536744,2|0,0:0|0:0,0:0:0:0:
435,174,145079,2,0,P|442:298|379:356,1,200.000007629395,8|2,0:0|0:0,0:0:0:0:
423,78,145479,2,0,P|484:93|512:123,1,100.000003814697
287,285,145745,5,8,0:3:0:0:
157,232,145879,1,0,0:0:0:0:
174,370,146012,1,0,0:0:0:0:
268,147,146145,1,0,0:0:0:0:
496,231,146279,22,0,P|422:298|441:200,1,250.000009536744,6|0,0:0|0:0,0:0:0:0:
449,95,146679,2,0,P|430:184|338:179,1,200.000007629395,8|2,0:0|0:0,0:0:0:0:
305,80,147079,1,0,0:0:0:0:
305,80,147345,5,2,0:0:0:0:
210,124,147479,2,0,P|297:96|338:178,1,200.000007629395,8|0,0:0|0:0,0:0:0:0:
270,259,147879,1,2,0:0:0:0:
270,259,148145,37,0,0:0:0:0:
358,317,148279,2,0,P|289:255|339:178,1,200.000007629395,8|2,0:0|0:0,0:0:0:0:
441,200,148679,1,0,0:0:0:0:
441,200,148945,5,0,0:0:0:0:
392,293,149079,2,0,P|417:188|335:117,1,200.000007629395,8|8,0:0|0:3,0:0:0:0:
227,149,149479,38,0,P|199:240|258:316,1,200.000007629395,2|0,0:0|0:0,0:0:0:0:
312,223,149879,1,8,0:0:0:0:
507,303,150145,6,0,P|516:154|419:34,1,300.000011444092,2|2,0:0|0:0,0:0:0:0:
326,12,150679,1,8,0:0:0:0:
326,12,150945,37,0,0:0:0:0:
189,162,151079,2,0,P|150:72|240:111,1,250.000009536744,2|0,0:0|0:0,0:0:0:0:
338,111,151479,2,0,P|366:204|410:118,1,250.000009536744,8|0,0:0|0:0,0:0:0:0:
196,266,151879,2,0,P|296:265|218:325,1,250.000009536744,2|0,0:0|0:0,0:0:0:0:
127,275,152279,1,10,0:0:0:0:
127,275,152545,5,8,0:3:0:0:
193,369,152679,2,0,P|271:264|257:71,1,300.000011444092,2|8,0:0|0:0,0:0:0:0:
35,358,153345,2,0,P|164:298|215:157,1,300.000011444092,2|2,0:0|0:0,0:0:0:0:
191,55,153879,1,8,0:0:0:0:
453,228,154279,38,0,P|369:347|225:371,1,300.000011444092,2|8,0:0|0:0,0:0:0:0:
33,79,154945,2,0,P|178:92|272:205,1,300.000011444092,2|2,0:0|0:0,0:0:0:0:
125,304,155479,2,0,P|55:212|162:255,1,300.000011444092,8|2,0:0|0:0,0:0:0:0:
268,345,156145,5,8,0:3:0:0:
208,380,156279,1,2,0:0:0:0:
391,279,156545,37,0,0:0:0:0:
451,314,156679,1,10,0:0:0:0:
272,205,156945,5,8,0:3:0:0:
272,136,157079,1,2,0:0:0:0:
389,135,157212,37,0,0:0:0:0:
329,170,157345,1,2,0:0:0:0:
272,66,157479,1,10,0:0:0:0:
272,66,157879,5,4,0:0:0:0:
331,103,158279,6,0,P|374:178|275:129,1,275.000010490418
272,66,159079,5,6,0:0:0:0:
410,314,159479,1,8,0:0:0:0:
49,248,159745,1,2,0:0:0:0:
76,315,159879,2,0,B|116:294|116:294|137:208,1,133.333333333333
152,140,160279,1,8,0:0:0:0:
165,71,160412,1,0,0:0:0:0:
271,117,160545,1,0,0:0:0:0:
284,48,160679,1,2,0:0:0:0:
307,185,160945,37,0,0:0:0:0:
218,215,161079,1,8,0:0:0:0:
246,213,161345,5,0,0:0:0:0:
366,244,161479,1,0,0:0:0:0:
331,256,161745,37,0,0:0:0:0:
192,282,161879,1,8,0:0:0:0:
149,263,162145,5,0,0:0:0:0:
302,321,162279,1,8,0:0:0:0:
410,188,162545,38,0,P|330:152|250:161,1,150.000005722046,0|8,0:0|0:3,0:0:0:0:
82,254,163345,1,8,0:3:0:0:
161,323,163479,6,0,L|150:368,1,25.0000009536744
190,343,163545,2,0,L|191:389,1,25.0000009536744
222,351,163612,2,0,L|235:395,1,25.0000009536744
257,352,163679,2,0,L|281:391,1,25.0000009536744
291,346,163745,2,0,L|324:377,1,25.0000009536744
323,330,163812,2,0,L|364:352,1,25.0000009536744
350,306,163879,6,0,P|400:214|376:1,1,300.000011444092,6|8,0:0|0:0,0:0:0:0:
64,103,164545,2,0,P|116:207|151:94,1,300.000011444092,2|2,0:0|0:0,0:0:0:0:
42,303,165079,1,8,0:0:0:0:
112,144,165345,5,0,0:0:0:0:
127,219,165479,2,0,P|216:259|184:166,1,250.000009536744,2|0,0:0|0:0,0:0:0:0:
166,359,165879,2,0,P|281:323|321:210,1,250.000009536744,8|0,0:0|0:0,0:0:0:0:
193,8,166279,2,0,P|165:125|243:217,1,250.000009536744,2|0,0:0|0:0,0:0:0:0:
327,127,166679,1,8,0:0:0:0:
127,219,166945,37,8,0:3:0:0:
267,0,167079,2,0,P|424:42|515:153,1,300.000011444092,2|8,0:0|0:0,0:0:0:0:
260,270,167745,2,0,P|149:307|253:361,1,300.000011444092,2|2,0:0|0:0,0:0:0:0:
351,202,168279,1,8,0:0:0:0:
213,312,168545,5,0,0:0:0:0:
268,261,168679,2,0,P|258:163|195:239,1,250.000009536744,2|0,0:0|0:0,0:0:0:0:
171,94,169079,2,0,P|292:85|381:184,1,250.000009536744,8|0,0:0|0:0,0:0:0:0:
379,373,169479,1,2,0:0:0:0:
171,339,169745,37,0,0:0:0:0:
298,218,169879,2,0,P|343:199|393:200,1,100.000003814697,8|0,0:0|0:0,0:0:0:0:
379,373,170145,5,8,0:3:0:0:
320,98,170279,2,0,P|365:33|364:138,1,250.000009536744,2|0,0:0|0:0,0:0:0:0:
298,218,170679,2,0,P|356:281|363:200,1,200.000007629395,8|2,0:0|0:0,0:0:0:0:
221,197,171079,1,0,0:0:0:0:
221,197,171345,37,2,0:0:0:0:
320,98,171479,2,0,P|278:70|228:58,1,100.000003814697,8|0,0:0|0:0,0:0:0:0:
94,86,171745,5,8,0:3:0:0:
35,213,171879,2,0,P|110:281|90:183,1,250.000009536744,2|0,0:0|0:0,0:0:0:0:
54,372,172279,2,0,P|154:363|214:284,1,200.000007629395,8|2,0:0|0:0,0:0:0:0:
477,213,172679,2,0,P|402:281|422:183,1,250.000009536744,0|0,0:0|0:0,0:0:0:0:
299,289,173079,2,0,P|360:364|458:372,1,200.000007629395,8|2,0:0|0:0,0:0:0:0:
256,128,173479,37,2,0:0:0:0:
256,124,173612,1,0,0:0:0:0:
252,128,173745,1,0,0:0:0:0:
256,132,173879,1,8,0:0:0:0:
260,128,174012,1,0,0:0:0:0:
256,128,174145,1,2,0:0:0:0:
82,248,174279,2,0,L|137:55,1,200.000007629395,0|2,0:0|0:0,0:0:0:0:
417,26,174679,2,0,L|361:218,1,200.000007629395,8|0,0:0|0:0,0:0:0:0:
220,305,175079,6,0,B|205:333|205:333|168:316|120:327|120:327|96:338|74:341|52:335|37:320,1,200.000007629395,2|0,0:0|0:0,0:0:0:0:
238,201,175479,37,10,0:0:0:0:
220,305,175612,1,8,0:0:0:0:
318,268,175745,1,8,0:0:0:0:
319,108,175879,5,2,0:0:0:0:
258,256,176012,1,0,0:0:0:0:
417,236,176145,1,0,0:0:0:0:
434,136,176279,37,2,0:0:0:0:
318,268,176412,1,0,0:0:0:0:
490,300,176545,1,0,0:0:0:0:
233,113,176679,6,0,P|269:2|319:107,1,300.000011444092,6|8,0:0|0:0,0:0:0:0:
95,248,177345,2,0,P|17:161|133:171,1,300.000011444092,2|2,0:0|0:0,0:0:0:0:
65,334,177879,1,8,0:0:0:0:
428,192,178145,37,0,0:0:0:0:
389,56,178279,2,0,P|485:27|417:104,1,250.000009536744,2|0,0:0|0:0,0:0:0:0:
239,53,178679,2,0,P|139:46|214:112,1,250.000009536744,8|0,0:0|0:0,0:0:0:0:
351,233,179079,2,0,P|330:330|291:237,1,250.000009536744,2|0,0:0|0:0,0:0:0:0:
428,192,179479,1,8,0:0:0:0:
86,51,179745,5,8,0:3:0:0:
84,205,179879,2,0,P|198:226|131:130,1,300.000011444092,2|8,0:0|0:0,0:0:0:0:
10,279,180545,2,0,P|102:341|280:292,1,300.000011444092,2|2,0:0|0:0,0:0:0:0:
380,205,181079,1,8,0:0:0:0:
272,218,181345,37,0,0:0:0:0:
399,274,181479,2,0,P|477:216|380:205,1,250.000009536744,2|0,0:0|0:0,0:0:0:0:
168,187,181879,2,0,P|132:95|217:145,1,250.000009536744,8|0,0:0|0:0,0:0:0:0:
200,249,182279,1,2,0:0:0:0:
90,27,182545,5,2,0:0:0:0:
266,38,182679,2,0,P|294:78|301:142,1,100.000003814697,8|0,0:0|0:0,0:0:0:0:
34,192,182945,37,8,0:3:0:0:
266,38,183079,2,0,P|359:55|433:189,1,250.000009536744,2|0,0:0|0:0,0:0:0:0:
425,252,183479,2,0,P|370:331|274:335,1,200.000007629395,8|2,0:0|0:0,0:0:0:0:
154,262,183879,1,0,0:0:0:0:
266,38,184145,5,0,0:0:0:0:
154,262,184279,2,0,P|150:312|160:364,1,100.000003814697,8|0,0:0|0:0,0:0:0:0:
438,360,184545,37,8,0:3:0:0:
442,255,184679,2,0,P|398:160|272:92,1,250.000009536744,2|0,0:0|0:0,0:0:0:0:
204,89,185079,2,0,P|101:132|52:224,1,200.000007629395,8|2,0:0|0:0,0:0:0:0:
256,214,185479,2,0,P|220:308|195:211,1,250.000009536744
325,171,185879,2,0,P|350:274|305:358,1,200.000007629395,8|0,0:0|0:0,0:0:0:0:
426,65,186279,6,0,P|456:203|437:362,1,300.000011444092,2|8,0:0|0:0,0:0:0:0:
87,365,186945,2,0,P|57:219|75:71,1,300.000011444092,2|2,0:0|0:0,0:0:0:0:
75,71,187479,1,8,0:0:0:0:
75,71,187745,37,0,0:0:0:0:
201,135,187879,2,0,P|293:95|193:75,1,250.000009536744,2|0,0:0|0:0,0:0:0:0:
340,19,188279,2,0,P|365:119|316:202,1,200.000007629395,10|0,0:0|0:0,0:0:0:0:
47,277,188679,2,0,P|65:324|106:358,1,100.000003814697
234,362,188945,1,8,0:3:0:0:
170,248,189079,1,2,0:0:0:0:
39,201,189212,1,0,0:0:0:0:
319,199,189345,1,0,0:0:0:0:
168,9,189479,6,0,P|126:87|203:49,1,200.000007629395,6|0,0:0|0:0,0:0:0:0:
66,96,189879,1,8,0:0:0:0:
428,305,190145,37,2,0:0:0:0:
401,167,190279,2,0,P|316:162|383:217,1,200.000007629395,0|2,0:0|0:0,0:0:0:0:
274,122,190679,1,8,0:0:0:0:
274,122,190945,5,0,0:0:0:0:
247,260,191079,2,0,P|160:255|229:209,1,200.000007629395,2|0,0:0|0:0,0:0:0:0:
363,198,191479,1,8,0:0:0:0:
142,364,191745,38,0,P|74:247|172:114,1,300.000011444092,2|2,0:0|0:0,0:0:0:0:
335,95,192279,2,0,P|406:51|323:35,1,200.000007629395,8|8,0:0|0:3,0:0:0:0:
258,178,192679,6,0,P|320:308|455:377,1,300.000011444092,2|8,0:0|0:0,0:0:0:0:
258,178,193345,1,2,0:0:0:0:
258,178,193745,37,2,0:0:0:0:
386,347,193879,2,0,P|278:361|181:310,1,200.000007629395,8|0,0:0|0:0,0:0:0:0:
85,240,194279,6,0,L|61:180,5,50.0000019073487,2|0|0|0|0|0,0:0|0:0|0:0|0:0|0:0|2:0,2:0:0:0:
157,139,194679,2,0,L|196:88,5,50.0000019073487,10|0|0|0|0|0,0:0|0:0|0:0|0:0|0:0|0:0,0:0:0:0:
267,138,195079,38,0,P|355:181|263:207,1,250.000009536744,2|0,0:0|0:0,0:0:0:0:
181,229,195479,2,0,P|262:296|403:272,1,250.000009536744,10|0,0:0|0:0,0:0:0:0:
276,378,195879,6,0,P|142:315|71:186,1,300.000011444092,2|8,0:0|0:0,0:0:0:0:
437,154,196545,2,0,P|332:232|138:218,1,300.000011444092,2|2,0:0|0:0,0:0:0:0:
71,187,197079,1,8,0:0:0:0:
71,187,197345,37,2,0:0:0:0:
277,378,197479,2,0,P|415:332|480:201,1,300.000011444092,2|8,0:0|0:0,0:0:0:0:
274,11,198145,2,0,P|136:55|71:186,1,300.000011444092,2|2,0:0|0:0,0:0:0:0:
303,258,198679,2,0,P|285:144|241:252,1,300.000011444092,10|6,0:0|0:0,0:0:0:0:
431,127,199345,5,8,0:3:0:0:
460,26,199479,1,2,0:0:0:0:
303,258,199745,37,0,0:0:0:0:
375,333,199879,1,10,0:0:0:0:
266,76,200145,5,8,0:3:0:0:
165,100,200279,1,2,0:0:0:0:
101,305,200412,37,0,0:0:0:0:
202,281,200545,1,0,0:0:0:0:
135,205,200679,1,10,0:0:0:0:
135,205,201079,5,4,0:0:0:0:
135,205,201479,6,0,P|153:315|311:357,1,275.000010490418
359,335,202279,5,6,0:0:0:0:
304,171,202679,1,8,0:0:0:0:
121,136,202945,1,2,0:0:0:0:
135,205,203079,1,0,0:0:0:0:
289,105,203345,1,0,0:0:0:0:
304,171,203479,2,0,B|324:262|324:262|290:240,1,133.333333333333,8|0,0:0|0:0,0:0:0:0:
149,274,203879,37,6,0:0:0:0:
226,220,204012,1,0,0:0:0:0:
135,205,204145,1,0,0:0:0:0:
367,294,204279,5,0,0:0:0:0:
290,240,204412,1,0,0:0:0:0:
381,225,204545,1,0,0:0:0:0:
135,205,204679,37,2,0:0:0:0:
212,151,204812,1,0,0:0:0:0:
121,136,204945,1,8,0:3:0:0:
381,225,205079,5,0,0:0:0:0:
304,171,205212,1,0,0:0:0:0:
395,156,205345,1,0,0:0:0:0:
179,360,205479,38,0,P|114:365|53:340,1,133.333333333333,6|0,0:0|0:0,0:0:0:0:
135,205,205879,1,8,0:0:0:0:
406,277,206279,1,2,0:0:0:0:
218,69,206679,2,0,P|157:44|91:50,1,133.333333333333,8|0,0:0|0:0,0:0:0:0:
135,205,207079,5,2,0:0:0:0:
294,293,207479,2,0,P|331:233|334:162,1,133.333333333333,8|2,0:0|0:0,0:0:0:0:
135,205,207879,2,0,P|207:218|152:147,1,200,0|8,0:0|0:0,0:0:0:0:
313,166,208679,37,2,0:0:0:0:
436,180,209079,2,0,P|372:195|313:166,1,133.333333333333,8|2,0:0|0:0,0:0:0:0:
246,42,209479,1,0,0:0:0:0:
172,142,209879,2,0,P|192:80|246:43,1,133.333333333333,8|0,0:0|0:0,0:0:0:0:
374,191,210279,6,0,P|309:240|321:154,1,200,2|8,0:0|0:0,0:0:0:0:
488,234,210945,1,2,0:0:0:0:
458,298,211079,1,0,0:0:0:0:
180,186,211345,1,2,0:0:0:0:
210,122,211479,1,8,0:0:0:0:
335,207,211879,38,0,B|359:233|355:291|355:291|403:268,1,133.333333333333,2|8,0:0|0:3,0:0:0:0:
243,214,212545,1,2,0:0:0:0:
186,255,212679,6,0,B|162:281|166:339|166:339|118:316,1,133.333333333333,2|8,0:0|0:3,0:0:0:0:
96,80,213345,1,0,0:0:0:0:
176,67,213479,37,2,0:0:0:0:
219,131,213612,1,0,0:0:0:0:
297,150,213745,1,0,0:0:0:0:
337,91,213879,1,0,0:0:0:0:
399,123,214012,1,0,0:0:0:0:
459,87,214145,1,8,0:0:0:0:
445,18,214279,1,8,0:0:0:0:
265,324,214679,6,0,B|229:297|229:297|260:254|242:213,1,133.333333333333,2|4,0:0|0:0,0:0:0:0:
256,192,215079,12,0,221479,0:0:0:0:
