osu file format v14

[General]
AudioFilename: audio.mp3
AudioLeadIn: 0
PreviewTime: 50081
Countdown: 0
SampleSet: Soft
StackLeniency: 0.2
Mode: 0
LetterboxInBreaks: 0
WidescreenStoryboard: 1

[Editor]
Bookmarks: 21479,50279,79079,104679,133479,163879,189479
DistanceSpacing: 1.4
BeatDivisor: 3
GridSize: 4
TimelineZoom: 2.1

[Metadata]
Title:Negai
TitleUnicode:願い
Artist:Ishida Yoko
ArtistUnicode:石田燿子
Creator:Hollow Wings
Version:Collab Insane
Source:ああっ女神さまっ
Tags:Ah! My Goddess OPEN YOUR MIND 〜小さな羽根ひろげて〜 多田彰文 ただ あきふみ tada akifumi ending ed Pata-Mon Suzuki_1112 1112deng
BeatmapID:1420780
BeatmapSetID:671268

[Difficulty]
HPDrainRate:5.5
CircleSize:4
OverallDifficulty:7
ApproachRate:9
SliderMultiplier:2
SliderTickRate:1

[Events]
//Background and Video events
0,0,"negai.jpg",0,0
//Break Periods
//Storyboard Layer 0 (Background)
//Storyboard Layer 1 (Fail)
//Storyboard Layer 2 (Pass)
//Storyboard Layer 3 (Foreground)
//Storyboard Sound Samples

[TimingPoints]
-921,400,4,2,1,100,1,0
2279,-100,4,2,1,80,0,1
8679,-133.333333333333,4,2,1,70,0,0
21479,-133.333333333333,4,2,1,80,0,0
34279,-133.333333333333,4,2,1,70,0,0
43879,-133.333333333333,4,2,1,90,0,0
47079,-133.333333333333,4,2,1,80,0,0
48945,-133.333333333333,4,2,1,50,0,0
49079,-133.333333333333,4,2,1,80,0,0
49745,-133.333333333333,4,2,1,50,0,0
49879,-133.333333333333,4,2,1,80,0,0
50279,-66.6666666666667,4,2,1,100,0,1
52145,-66.6666666666667,4,2,1,20,0,1
52212,-66.6666666666667,4,2,1,20,0,1
52279,-66.6666666666667,4,2,1,100,0,1
52545,-66.6666666666667,4,2,1,20,0,1
52612,-66.6666666666667,4,2,1,20,0,1
52679,-66.6666666666667,4,2,1,100,0,1
52945,-66.6666666666667,4,2,1,20,0,1
53012,-66.6666666666667,4,2,1,20,0,1
53079,-66.6666666666667,4,2,1,100,0,1
53345,-66.6666666666667,4,2,1,50,0,1
53479,-66.6666666666667,4,2,1,100,0,1
55345,-66.6666666666667,4,2,1,20,0,1
55412,-66.6666666666667,4,2,1,20,0,1
55479,-66.6666666666667,4,2,1,100,0,1
55745,-66.6666666666667,4,2,1,20,0,1
55812,-66.6666666666667,4,2,1,20,0,1
55879,-66.6666666666667,4,2,1,100,0,1
56545,-66.6666666666667,4,2,1,50,0,1
56679,-66.6666666666667,4,2,1,100,0,1
56945,-66.6666666666667,4,2,1,20,0,1
57012,-66.6666666666667,4,2,1,20,0,1
57079,-66.6666666666667,4,2,1,100,0,1
57345,-66.6666666666667,4,2,1,20,0,1
57479,-66.6666666666667,4,2,1,100,0,1
58145,-66.6666666666667,4,2,1,50,0,1
58279,-66.6666666666667,4,2,1,100,0,1
58545,-66.6666666666667,4,2,1,20,0,1
58612,-66.6666666666667,4,2,1,20,0,1
58679,-66.6666666666667,4,2,1,100,0,1
59345,-66.6666666666667,4,2,1,20,0,1
59412,-66.6666666666667,4,2,1,20,0,1
59479,-66.6666666666667,4,2,1,100,0,1
61745,-66.6666666666667,4,2,1,20,0,1
61812,-66.6666666666667,4,2,1,20,0,1
61879,-66.6666666666667,4,2,1,100,0,1
62545,-100,4,2,1,70,0,0
62679,-100,4,2,1,100,0,0
63079,-66.6666666666667,4,2,1,100,0,1
66145,-66.6666666666667,4,2,1,50,0,1
66279,-66.6666666666667,4,2,1,100,0,1
68145,-66.6666666666667,4,2,1,20,0,1
68212,-66.6666666666667,4,2,1,20,0,1
68279,-66.6666666666667,4,2,1,100,0,1
68545,-66.6666666666667,4,2,1,20,0,1
68612,-66.6666666666667,4,2,1,20,0,1
68679,-66.6666666666667,4,2,1,100,0,1
68945,-66.6666666666667,4,2,1,20,0,1
69012,-66.6666666666667,4,2,1,20,0,1
69079,-66.6666666666667,4,2,1,100,0,1
69345,-66.6666666666667,4,2,1,50,0,1
69479,-66.6666666666667,4,2,1,100,0,1
72945,-66.6666666666667,4,2,1,60,0,1
73079,-66.6666666666667,4,2,1,100,0,1
73745,-66.6666666666667,4,2,1,60,0,1
73879,-66.6666666666667,4,2,1,100,0,1
75079,-100,4,2,1,100,0,0
75745,-100,4,2,1,20,0,0
75812,-100,4,2,1,20,0,0
75879,-100,4,2,1,100,0,1
79079,-100,4,2,1,100,0,0
91879,-133.333333333333,4,2,1,70,0,0
104679,-133.333333333333,4,2,1,80,0,0
114545,-133.333333333333,4,2,1,20,0,0
114612,-133.333333333333,4,2,1,20,0,0
114679,-133.333333333333,4,2,1,80,0,0
114945,-133.333333333333,4,2,1,20,0,0
115012,-133.333333333333,4,2,1,20,0,0
115079,-133.333333333333,4,2,1,80,0,0
116145,-133.333333333333,4,2,1,20,0,0
116212,-133.333333333333,4,2,1,20,0,0
116279,-133.333333333333,4,2,1,80,0,0
116612,-133.333333333333,4,2,1,20,0,0
116679,-133.333333333333,4,2,1,80,0,0
117479,-133.333333333333,4,2,1,70,0,0
127079,-133.333333333333,4,2,1,90,0,0
130279,-133.333333333333,4,2,1,80,0,0
132145,-133.333333333333,4,2,1,50,0,0
132279,-133.333333333333,4,2,1,80,0,0
132945,-133.333333333333,4,2,1,50,0,0
133079,-133.333333333333,4,2,1,80,0,0
133479,-66.6666666666667,4,2,1,100,0,1
135345,-66.6666666666667,4,2,1,20,0,1
135412,-66.6666666666667,4,2,1,20,0,1
135479,-66.6666666666667,4,2,1,100,0,1
135745,-66.6666666666667,4,2,1,20,0,1
135812,-66.6666666666667,4,2,1,20,0,1
135879,-66.6666666666667,4,2,1,100,0,1
136145,-66.6666666666667,4,2,1,20,0,1
136212,-66.6666666666667,4,2,1,20,0,1
136279,-66.6666666666667,4,2,1,100,0,1
136545,-66.6666666666667,4,2,1,50,0,1
136679,-66.6666666666667,4,2,1,100,0,1
138545,-66.6666666666667,4,2,1,20,0,1
138612,-66.6666666666667,4,2,1,20,0,1
138679,-66.6666666666667,4,2,1,100,0,1
138945,-66.6666666666667,4,2,1,20,0,1
139012,-66.6666666666667,4,2,1,20,0,1
139079,-66.6666666666667,4,2,1,100,0,1
139745,-66.6666666666667,4,2,1,50,0,1
139879,-66.6666666666667,4,2,1,100,0,1
140145,-66.6666666666667,4,2,1,20,0,1
140212,-66.6666666666667,4,2,1,20,0,1
140279,-66.6666666666667,4,2,1,100,0,1
141345,-66.6666666666667,4,2,1,50,0,1
141479,-66.6666666666667,4,2,1,100,0,1
144945,-66.6666666666667,4,2,1,20,0,1
145012,-66.6666666666667,4,2,1,20,0,1
145079,-66.6666666666667,4,2,1,100,0,1
145745,-100,4,2,1,70,0,0
145879,-100,4,2,1,100,0,0
146279,-66.6666666666667,4,2,1,100,0,1
146545,-66.6666666666667,4,2,1,20,0,1
146612,-66.6666666666667,4,2,1,20,0,1
146679,-66.6666666666667,4,2,1,100,0,1
149345,-66.6666666666667,4,2,1,50,0,1
149479,-66.6666666666667,4,2,1,100,0,1
151345,-66.6666666666667,4,2,1,20,0,1
151412,-66.6666666666667,4,2,1,20,0,1
151479,-66.6666666666667,4,2,1,100,0,1
151812,-66.6666666666667,4,2,1,20,0,1
151879,-66.6666666666667,4,2,1,100,0,1
152145,-66.6666666666667,4,2,1,20,0,1
152212,-66.6666666666667,4,2,1,20,0,1
152279,-66.6666666666667,4,2,1,100,0,1
152545,-66.6666666666667,4,2,1,50,0,1
152679,-66.6666666666667,4,2,1,100,0,1
156145,-66.6666666666667,4,2,1,60,0,1
156279,-66.6666666666667,4,2,1,100,0,1
156945,-66.6666666666667,4,2,1,60,0,1
157079,-66.6666666666667,4,2,1,100,0,1
158279,-100,4,2,1,100,0,0
158945,-100,4,2,1,20,0,0
159012,-100,4,2,1,20,0,0
159079,-100,4,2,1,100,0,1
162279,-133.333333333333,4,2,1,100,0,0
162945,-133.333333333333,4,2,1,50,0,0
163479,-66.6666666666667,4,2,1,100,0,0
163879,-66.6666666666667,4,2,1,100,0,1
165745,-66.6666666666667,4,2,1,20,0,1
165812,-66.6666666666667,4,2,1,20,0,1
165879,-66.6666666666667,4,2,1,100,0,1
166145,-66.6666666666667,4,2,1,20,0,1
166212,-66.6666666666667,4,2,1,20,0,1
166279,-66.6666666666667,4,2,1,100,0,1
166545,-66.6666666666667,4,2,1,20,0,1
166612,-66.6666666666667,4,2,1,20,0,1
166679,-66.6666666666667,4,2,1,100,0,1
166945,-66.6666666666667,4,2,1,50,0,1
167079,-66.6666666666667,4,2,1,100,0,1
168945,-66.6666666666667,4,2,1,20,0,1
169012,-66.6666666666667,4,2,1,20,0,1
169079,-66.6666666666667,4,2,1,100,0,1
169345,-66.6666666666667,4,2,1,20,0,1
169412,-66.6666666666667,4,2,1,20,0,1
169479,-66.6666666666667,4,2,1,100,0,1
170145,-66.6666666666667,4,2,1,50,0,1
170279,-66.6666666666667,4,2,1,100,0,1
170545,-66.6666666666667,4,2,1,20,0,1
170612,-66.6666666666667,4,2,1,20,0,1
170679,-66.6666666666667,4,2,1,100,0,1
171745,-66.6666666666667,4,2,1,50,0,1
171879,-66.6666666666667,4,2,1,100,0,1
172145,-66.6666666666667,4,2,1,20,0,1
172212,-66.6666666666667,4,2,1,20,0,1
172279,-66.6666666666667,4,2,1,100,0,1
172945,-66.6666666666667,4,2,1,20,0,1
173012,-66.6666666666667,4,2,1,20,0,1
173079,-66.6666666666667,4,2,1,100,0,1
176145,-66.6666666666667,4,2,1,100,0,0
176679,-66.6666666666667,4,2,1,100,0,1
178545,-66.6666666666667,4,2,1,20,0,1
178612,-66.6666666666667,4,2,1,20,0,1
178679,-66.6666666666667,4,2,1,100,0,1
178945,-66.6666666666667,4,2,1,20,0,1
179012,-66.6666666666667,4,2,1,20,0,1
179079,-66.6666666666667,4,2,1,100,0,1
179345,-66.6666666666667,4,2,1,20,0,1
179412,-66.6666666666667,4,2,1,20,0,1
179479,-66.6666666666667,4,2,1,100,0,1
179745,-66.6666666666667,4,2,1,50,0,1
179879,-66.6666666666667,4,2,1,100,0,1
181745,-66.6666666666667,4,2,1,20,0,1
181812,-66.6666666666667,4,2,1,20,0,1
181879,-66.6666666666667,4,2,1,100,0,1
182145,-66.6666666666667,4,2,1,20,0,1
182212,-66.6666666666667,4,2,1,20,0,1
182279,-66.6666666666667,4,2,1,100,0,1
182945,-66.6666666666667,4,2,1,50,0,1
183079,-66.6666666666667,4,2,1,100,0,1
183345,-66.6666666666667,4,2,1,20,0,1
183412,-66.6666666666667,4,2,1,20,0,1
183479,-66.6666666666667,4,2,1,100,0,1
184545,-66.6666666666667,4,2,1,50,0,1
184679,-66.6666666666667,4,2,1,100,0,1
184945,-66.6666666666667,4,2,1,20,0,1
185012,-66.6666666666667,4,2,1,20,0,1
185079,-66.6666666666667,4,2,1,100,0,1
185745,-66.6666666666667,4,2,1,20,0,1
185812,-66.6666666666667,4,2,1,20,0,1
185879,-66.6666666666667,4,2,1,100,0,1
188145,-66.6666666666667,4,2,1,20,0,1
188212,-66.6666666666667,4,2,1,20,0,1
188279,-66.6666666666667,4,2,1,100,0,1
188679,-66.6666666666667,4,2,1,80,0,1
188745,-66.6666666666667,4,2,1,80,0,1
188945,-100,4,2,1,80,0,0
189079,-100,4,2,1,100,0,0
189479,-66.6666666666667,4,2,1,100,0,1
192545,-66.6666666666667,4,2,1,50,0,1
192679,-66.6666666666667,4,2,1,100,0,1
194345,-66.6666666666667,4,2,1,70,0,1
194679,-66.6666666666667,4,2,1,100,0,1
194745,-66.6666666666667,4,2,1,70,0,1
195079,-66.6666666666667,4,2,1,100,0,1
195345,-66.6666666666667,4,2,1,20,0,1
195412,-66.6666666666667,4,2,1,20,0,1
195479,-66.6666666666667,4,2,1,100,0,1
195745,-66.6666666666667,4,2,1,20,0,1
195812,-66.6666666666667,4,2,1,20,0,1
195879,-66.6666666666667,4,2,1,100,0,1
199345,-66.6666666666667,4,2,1,60,0,1
199479,-66.6666666666667,4,2,1,100,0,1
200145,-66.6666666666667,4,2,1,60,0,1
200279,-66.6666666666667,4,2,1,100,0,1
201479,-100,4,2,1,100,0,0
202145,-100,4,2,1,20,0,0
202212,-100,4,2,1,20,0,0
202279,-100,4,2,1,100,0,1
204945,-100,4,2,1,100,0,0
205479,-66.6666666666667,4,2,1,80,0,1
211879,-100,4,2,1,50,0,0
212145,-100,4,2,1,20,0,0
212545,-100,4,2,1,50,0,0
212945,-100,4,2,1,20,0,0
213345,-100,4,2,1,50,0,0
214679,-66.6666666666667,4,2,1,50,0,1
215079,-100,4,2,1,45,0,0
215879,-100,4,2,1,40,0,0
216679,-100,4,2,1,35,0,0
217479,-100,4,2,1,30,0,0
218279,-100,4,2,1,25,0,0
219079,-100,4,2,1,20,0,0
219879,-100,4,2,1,15,0,0
220679,-100,4,2,1,10,0,0
221479,-100,4,2,1,5,0,0

[Colours]
Combo1 : 255,162,208
Combo2 : 11,151,255
Combo3 : 255,255,119

[HitObjects]
251,59,679,5,8,0:0:0:0:
249,193,945,1,8,0:3:0:0:
415,309,1345,1,8,0:3:0:0:
219,264,1745,1,8,0:0:0:0:
219,263,1879,2,0,L|169:269,2,50,0|0|0,0:0|0:0|0:0,0:0:0:0:
162,349,2279,6,0,P|99:307|97:238,1,133.333333333333,6|0,0:0|0:0,0:0:0:0:
130,158,2679,2,0,P|197:124|258:157,1,133.333333333333,8|0,0:0|0:0,0:0:0:0:
312,221,3079,1,0,0:0:0:0:
312,221,3479,2,0,P|307:296|248:332,1,133.333333333333,8|0,0:0|0:0,0:0:0:0:
350,296,3879,6,0,P|414:311|472:344,1,133.333333333333,2|0,0:0|0:0,0:0:0:0:
399,225,4279,2,0,P|380:161|380:94,1,133.333333333333,8|2,0:0|0:0,0:0:0:0:
435,30,4679,1,0,0:0:0:0:
312,221,5079,1,8,0:0:0:0:
82,107,5479,6,0,P|144:83|209:94,1,133.333333333333,2|0,0:0|0:0,0:0:0:0:
283,138,5879,1,8,0:0:0:0:
86,331,6145,1,2,0:0:0:0:
174,354,6279,2,0,P|260:305|312:221,1,200,0|8,0:0|0:0,0:0:0:0:
466,364,6945,5,0,0:0:0:0:
473,286,7079,2,0,P|410:268|351:296,1,133.333333333333,2|0,0:0|0:0,0:0:0:0:
311,221,7479,2,0,P|246:221|194:181,1,133.333333333333,8|2,0:0|0:0,0:0:0:0:
152,265,7879,2,0,P|81:261|12:278,1,133.333333333333,0|8,0:0|0:0,0:0:0:0:
85,230,8279,1,0,0:0:0:0:
71,145,8679,6,0,P|85:72|125:9,1,150.000005722046,6|8,0:0|0:0,0:0:0:0:
150,179,9479,1,0,0:0:0:0:
306,225,9879,1,8,0:0:0:0:
363,81,10279,2,0,P|412:85|454:111,1,100.000003814697,2|0,0:0|0:0,0:0:0:0:
464,195,10679,1,8,0:0:0:0:
259,372,10945,2,0,P|221:308|216:233,1,150.000005722046,2|0,0:0|0:0,0:0:0:0:
306,225,11479,1,8,0:0:0:0:
150,179,11745,1,0,0:0:0:0:
133,259,11879,6,0,P|86:318|23:357,1,150.000005722046,2|8,0:0|0:0,0:0:0:0:
205,119,12679,2,0,P|202:69|184:22,1,100.000003814697,2|0,0:0|0:0,0:0:0:0:
105,34,13079,1,8,0:0:0:0:
150,179,13345,1,0,0:0:0:0:
204,119,13479,2,0,P|272:88|347:88,1,150.000005722046,2|8,0:0|0:0,0:0:0:0:
471,275,14145,1,0,0:0:0:0:
389,271,14279,2,0,P|368:225|362:176,1,100.000003814697,2|0,0:0|0:0,0:0:0:0:
432,128,14679,1,8,0:0:0:0:
406,116,15079,6,0,P|339:151|287:215,1,150.000005722046,2|8,0:0|0:0,0:0:0:0:
423,346,15879,1,0,0:0:0:0:
232,276,16279,1,8,0:0:0:0:
20,321,16679,2,0,P|69:325|118:315,1,100.000003814697,2|0,0:0|0:0,0:0:0:0:
193,350,17079,1,8,0:0:0:0:
150,216,17345,2,0,P|95:165|25:138,1,150.000005722046,2|0,0:0|0:0,0:0:0:0:
59,226,17879,1,8,0:0:0:0:
173,126,18145,5,0,0:0:0:0:
149,216,18279,2,0,P|221:195|283:153,1,150.000005722046,2|8,0:0|0:0,0:0:0:0:
502,92,19079,1,2,0:0:0:0:
370,44,19345,1,0,0:0:0:0:
423,104,19479,1,8,0:0:0:0:
240,81,19745,5,0,0:0:0:0:
320,104,19879,2,0,P|322:179|293:248,1,150.000005722046,2|8,0:0|0:0,0:0:0:0:
173,126,20545,1,0,0:0:0:0:
150,216,20679,1,2,0:0:0:0:
242,365,20945,1,8,0:0:0:0:
319,319,21079,1,0,0:0:0:0:
471,232,21345,1,0,0:0:0:0:
413,169,21479,6,0,P|371:135|258:107,1,150.000005722046,6|8,0:0|0:0,0:0:0:0:
202,309,22145,2,0,P|223:252|217:158,1,150.000005722046,2|0,0:0|0:0,0:0:0:0:
207,89,22679,1,8,0:0:0:0:
19,303,23079,6,0,P|70:287|126:289,1,100.000003814697,2|0,0:0|0:0,0:0:0:0:
197,309,23479,1,8,0:0:0:0:
317,384,23745,2,0,P|307:305|348:212,1,150.000005722046,2|0,0:0|0:0,0:0:0:0:
376,175,24279,1,8,0:0:0:0:
191,87,24679,6,0,P|255:70|356:83,1,150.000005722046,2|8,0:0|0:0,0:0:0:0:
230,240,25345,2,0,P|166:223|65:236,1,150.000005722046,2|0,0:0|0:0,0:0:0:0:
28,296,25879,1,8,0:0:0:0:
355,363,26279,6,0,P|399:323|355:276,1,100.000003814697,2|0,0:0|0:0,0:0:0:0:
324,252,26679,1,8,0:0:0:0:
353,112,26945,1,2,0:0:0:0:
303,173,27079,6,0,P|259:133|303:86,1,100.000003814697,0|0,0:0|0:0,0:0:0:0:
181,56,27479,2,0,P|119:61|57:52,1,100.000003814697,8|0,0:0|0:0,0:0:0:0:
30,196,27879,6,0,P|64:245|108:274,1,100.000003814697,2|0,0:0|0:0,0:0:0:0:
176,228,28279,1,8,0:0:0:0:
300,359,28545,2,0,P|315:288|406:219,1,150.000005722046,2|0,0:0|0:0,0:0:0:0:
445,198,29079,1,8,0:0:0:0:
109,300,29479,6,0,P|143:251|187:222,1,100.000003814697,2|0,0:0|0:0,0:0:0:0:
175,137,29879,1,8,0:0:0:0:
306,28,30145,2,0,P|321:99|412:168,1,150.000005722046,2|0,0:0|0:0,0:0:0:0:
445,198,30679,1,8,0:0:0:0:
256,359,31079,6,0,P|264:292|253:245,1,100.000003814697,2|0,0:0|0:0,0:0:0:0:
230,175,31479,2,0,P|186:160|128:107,1,100.000003814697,8|0,0:0|0:0,0:0:0:0:
157,48,31879,1,2,0:0:0:0:
178,241,32145,1,0,0:0:0:0:
258,260,32279,2,0,P|264:309|256:359,1,100.000003814697,8|0,0:0|0:0,0:0:0:0:
343,367,32679,5,2,0:0:0:0:
389,296,32812,1,0,0:0:0:0:
336,227,32945,1,0,0:0:0:0:
371,153,33079,6,0,P|431:153|485:130,1,100.000003814697,8|0,0:0|0:0,0:0:0:0:
486,55,33479,1,6,0:0:0:0:
268,122,33745,1,8,0:0:0:0:
279,40,33879,1,8,0:0:0:0:
279,40,34279,6,0,P|251:104|171:158,1,150.000005722046,2|8,0:0|0:0,0:0:0:0:
148,356,34945,1,0,0:0:0:0:
92,295,35079,2,0,P|101:228|127:183,1,100.000003814697,0|0,0:0|0:0,0:0:0:0:
188,151,35479,2,0,P|233:184|306:199,1,100.000003814697,10|0,0:0|0:0,0:0:0:0:
351,188,35879,5,2,0:0:0:0:
460,326,36145,1,0,0:0:0:0:
476,246,36279,1,8,0:0:0:0:
446,87,36545,1,2,0:0:0:0:
389,32,36679,2,0,P|331:40|274:64,1,100.000003814697,0|0,0:0|0:0,0:0:0:0:
244,117,37079,1,10,0:0:0:0:
238,294,37479,6,0,P|286:275|360:364,1,150.000005722046,2|8,0:0|0:0,0:0:0:0:
156,336,38145,1,0,0:0:0:0:
164,247,38279,2,0,P|158:184|138:132,1,100.000003814697,0|0,0:0|0:0,0:0:0:0:
92,55,38679,2,0,P|140:56|230:98,1,100.000003814697,10|0,0:0|0:0,0:0:0:0:
234,151,39079,5,2,0:0:0:0:
431,127,39345,1,0,0:0:0:0:
423,205,39479,1,8,0:0:0:0:
297,346,39745,1,2,0:0:0:0:
266,268,39879,2,0,P|309:250|355:199,1,100.000003814697,0|0,0:0|0:0,0:0:0:0:
344,134,40279,2,0,L|405:290,1,150.000005722046,10|2,0:0|0:0,0:0:0:0:
187,280,41079,6,0,P|129:283|75:229,1,100.000003814697,10|0,0:0|0:0,0:0:0:0:
31,215,41479,2,0,P|12:157|39:95,1,100.000003814697,0|2,0:0|0:0,0:0:0:0:
74,48,41879,2,0,P|122:97|191:103,1,100.000003814697,8|0,0:0|0:0,0:0:0:0:
234,100,42279,5,2,0:0:0:0:
443,46,42545,1,0,0:0:0:0:
431,126,42679,1,8,0:0:0:0:
289,166,42945,1,2,0:0:0:0:
277,246,43079,1,4,0:0:0:0:
126,265,43345,1,0,0:0:0:0:
116,346,43479,2,0,P|43:326|15:301,1,100.000003814697,8|8,0:0|0:0,0:0:0:0:
12,220,43879,6,0,P|63:205|104:85,1,150.000005722046,2|8,0:0|0:0,0:0:0:0:
262,50,44545,2,0,P|235:106|314:88,1,150.000005722046,2|2,0:0|0:0,0:0:0:0:
346,51,45079,1,8,0:0:0:0:
430,225,45479,6,0,P|446:170|426:58,1,150.000005722046,2|8,0:0|0:0,0:0:0:0:
310,231,46145,2,0,P|336:275|441:326,1,150.000005722046,2|0,0:0|0:0,0:0:0:0:
493,282,46679,1,8,0:0:0:0:
228,327,47079,5,8,0:0:0:0:
228,327,47479,2,0,P|173:348|253:258,1,400.00001525879,6|0,0:0|0:0,0:0:0:0:
311,294,48679,5,2,0:0:0:0:
304,123,48945,1,8,0:3:0:0:
316,200,49079,1,0,0:0:0:0:
377,66,49345,5,8,0:0:0:0:
389,143,49479,1,10,0:0:0:0:
454,9,49745,5,8,0:3:0:0:
464,86,49879,2,0,P|422:133|367:142,1,100.000003814697,0|0,0:0|0:0,0:0:0:0:
265,139,50279,6,0,P|186:228|305:225,1,300.000011444092,6|8,0:0|0:0,0:0:0:0:
3,324,50945,2,0,P|119:347|57:245,1,300.000011444092,2|0,0:0|0:0,0:0:0:0:
25,158,51479,2,0,P|49:65|138:26,1,200.000007629395,8|0,0:0|0:0,0:0:0:0:
229,37,51879,6,0,P|255:105|260:33,1,200.000007629395,2|0,0:0|0:0,0:0:0:0:
424,120,52279,2,0,P|363:80|435:90,1,200.000007629395,8|0,0:0|0:0,0:0:0:0:
285,242,52679,2,0,P|330:185|266:218,1,200.000007629395,2|0,0:0|0:0,0:0:0:0:
285,242,53079,1,8,0:0:0:0:
285,242,53345,5,8,0:3:0:0:
245,311,53479,2,0,P|126:313|204:224,1,300.000011444092,2|8,0:0|0:0,0:0:0:0:
12,101,54145,2,0,P|128:124|66:22,1,300.000011444092,2|0,0:0|0:0,0:0:0:0:
271,87,54679,2,0,P|245:154|240:82,1,200.000007629395,8|0,0:0|0:0,0:0:0:0:
367,84,55079,6,0,P|428:45|356:52,1,200.000007629395,2|0,0:0|0:0,0:0:0:0:
390,246,55479,2,0,P|347:188|412:222,1,200.000007629395,8|0,0:0|0:0,0:0:0:0:
226,265,55879,2,0,P|230:337|256:269,1,200.000007629395,2|0,0:0|0:0,0:0:0:0:
253,176,56279,1,8,0:0:0:0:
253,176,56545,5,8,0:3:0:0:
257,270,56679,2,0,P|213:354|118:368,1,200.000007629395,2|0,0:0|0:0,0:0:0:0:
91,232,57079,2,0,P|184:207|257:270,1,200.000007629395,8|2,0:0|0:0,0:0:0:0:
178,285,57479,1,0,0:0:0:0:
178,285,57745,5,2,0:0:0:0:
257,270,57879,2,0,P|184:207|91:232,1,200.000007629395,8|8,0:0|0:3,0:0:0:0:
73,86,58279,6,0,P|159:128|173:224,1,200.000007629395,2|0,0:0|0:0,0:0:0:0:
261,354,58679,2,0,P|255:258|331:199,1,200.000007629395,8|2,0:0|0:0,0:0:0:0:
235,86,59079,2,0,P|324:121|404:68,1,200.000007629395,0|0,0:0|0:0,0:0:0:0:
331,199,59479,2,0,P|417:241|431:337,1,200.000007629395,10|0,0:0|0:0,0:0:0:0:
339,301,59879,6,0,P|367:157|309:21,1,300.000011444092,2|8,0:0|0:0,0:0:0:0:
121,267,60545,2,0,P|103:120|7:8,1,300.000011444092,2|0,0:0|0:0,0:0:0:0:
49,88,61079,1,8,0:0:0:0:
7,335,61479,5,2,0:0:0:0:
8,9,61879,1,8,0:0:0:0:
7,335,62145,1,2,0:0:0:0:
40,250,62279,1,0,0:0:0:0:
8,9,62545,1,8,0:3:0:0:
49,88,62679,1,0,0:0:0:0:
0,165,63079,5,6,0:0:0:0:
195,188,63479,2,0,P|99:161|0:164,1,200.000007629395,8|2,0:0|0:0,0:0:0:0:
94,194,63879,1,0,0:0:0:0:
172,375,64279,2,0,P|119:290|94:193,1,200.000007629395,8|0,0:0|0:0,0:0:0:0:
195,188,64679,1,2,0:0:0:0:
194,208,64945,5,0,0:0:0:0:
101,178,65079,1,8,0:0:0:0:
270,117,65345,2,0,P|223:204|59:324,1,300.000011444092,2|0,0:0|0:0,0:0:0:0:
163,303,65879,1,8,0:0:0:0:
377,98,66145,5,8,0:3:0:0:
389,184,66279,2,0,P|293:211|194:208,1,200.000007629395,2|0,0:0|0:0,0:0:0:0:
298,221,66679,2,0,P|369:290|416:377,1,200.000007629395,8|2,0:0|0:0,0:0:0:0:
318,360,67079,1,0,0:0:0:0:
452,94,67479,2,0,P|399:179|375:276,1,200.000007629395,8|0,0:0|0:0,0:0:0:0:
288,231,67879,6,0,P|241:172|245:247,1,200.000007629395,2|0,0:0|0:0,0:0:0:0:
254,209,68279,2,0,P|194:164|218:236,1,200.000007629395,8|0,0:0|0:0,0:0:0:0:
218,197,68679,2,0,P|148:168|189:232,1,200.000007629395,2|0,0:0|0:0,0:0:0:0:
194,335,69079,1,10,0:0:0:0:
194,335,69345,5,8,0:3:0:0:
188,232,69479,2,0,P|269:106|394:26,1,300.000011444092,2|8,0:0|0:0,0:0:0:0:
469,308,70144,2,0,P|320:301|188:232,1,300.000011444092,2|2,0:0|0:0,0:0:0:0:
106,152,70679,1,10,0:0:0:0:
414,134,71079,6,0,P|331:250|189:233,1,300.000011444092,2|8,0:0|0:0,0:0:0:0:
43,34,71745,2,0,P|57:176|189:233,1,300.000011444092,2|2,0:0|0:0,0:0:0:0:
194,335,72279,1,8,0:0:0:0:
194,335,72679,6,0,P|274:283|280:187,1,200.000007629395,6|8,0:0|0:3,0:0:0:0:
101,83,73079,2,0,P|107:179|188:233,1,200.000007629395,2|0,0:0|0:0,0:0:0:0:
365,127,73479,2,0,P|279:84|194:128,1,200.000007629395,10|8,0:0|0:3,0:0:0:0:
280,186,73879,1,2,0:0:0:0:
372,343,74145,1,2,0:0:0:0:
473,345,74279,1,10,0:0:0:0:
473,345,74679,1,4,0:0:0:0:
473,345,75079,6,0,P|302:263|150:378,1,400,0|6,0:0|0:0,0:0:0:0:
256,192,76012,12,0,78945,0:0:0:0:
55,271,79079,6,0,P|135:321|211:278,1,133.333333333333,6|0,0:0|0:0,0:0:0:0:
231,255,79479,1,8,0:0:0:0:
210,173,79612,1,0,0:0:0:0:
251,98,79745,1,0,0:0:0:0:
189,43,79879,6,0,P|136:83|102:140,1,133.333333333333,2|0,0:0|0:0,0:0:0:0:
210,173,80279,2,0,P|213:108|173:19,1,133.333333333333,8|0,0:0|0:0,0:0:0:0:
309,37,80679,6,0,P|382:110|490:93,1,200,2|8,0:0|0:0,0:0:0:0:
451,256,81345,1,2,0:0:0:0:
483,320,81479,2,0,P|498:235|479:169,1,133.333333333333
398,170,81879,2,0,L|237:182,1,133.333333333333,8|0,0:0|0:0,0:0:0:0:
193,262,82279,6,0,P|184:174|132:88,1,133.333333333333,2|0,0:0|0:0,0:0:0:0:
106,71,82679,1,8,0:0:0:0:
86,219,82945,1,0,0:0:0:0:
27,287,83079,2,0,P|98:303|157:336,1,133.333333333333,2|0,0:0|0:0,0:0:0:0:
231,324,83479,2,0,P|294:357|354:323,1,133.333333333333,8|0,0:0|0:0,0:0:0:0:
294,281,83879,6,0,P|297:206|262:62,1,200,2|8,0:0|0:0,0:0:0:0:
441,46,84545,1,2,0:0:0:0:
451,124,84679,2,0,P|459:183|446:280,1,133.333333333333
358,198,85079,2,0,P|268:190|186:206,1,133.333333333333,8|0,0:0|0:0,0:0:0:0:
152,226,85479,5,2,0:0:0:0:
143,306,85612,1,0,0:0:0:0:
219,273,85745,1,0,0:0:0:0:
152,226,85879,6,0,P|116:157|102:69,1,133.333333333333,8|2,0:0|0:0,0:0:0:0:
214,34,86279,2,0,P|274:79|431:45,1,200,0|8,0:0|0:0,0:0:0:0:
454,195,86945,1,0,0:0:0:0:
376,221,87079,6,0,P|328:256|300:349,1,133.333333333333,2|0,0:0|0:0,0:0:0:0:
219,273,87479,2,0,P|139:260|48:215,1,133.333333333333,8|2,0:0|0:0,0:0:0:0:
9,297,87879,2,0,P|2:195|138:162,1,200,0|8,0:0|0:0,0:0:0:0:
256,67,88679,6,0,L|415:52,1,133.333333333333,2|0,0:0|0:0,0:0:0:0:
352,133,89079,2,0,L|484:120,1,133.333333333333,8|0,0:0|0:0,0:0:0:0:
500,195,89479,2,0,P|406:232|325:335,1,200,2|8,0:0|0:0,0:0:0:0:
210,340,90145,1,2,0:0:0:0:
251,272,90279,6,0,P|274:173|236:48,1,200,0|8,0:0|0:0,0:0:0:0:
71,46,90945,1,2,0:0:0:0:
61,124,91079,1,2,0:0:0:0:
153,282,91345,1,8,0:3:0:0:
146,198,91479,1,4,0:3:0:0:
134,185,91879,6,0,P|214:194|292:251,1,150.000005722046,6|8,0:0|0:0,0:0:0:0:
373,318,92545,1,0,0:0:0:0:
431,259,92679,2,0,P|436:215|411:138,1,100.000003814697,2|0,0:0|0:0,0:0:0:0:
384,82,93079,2,0,P|334:60|259:52,1,100.000003814697,8|0,0:0|0:0,0:0:0:0:
203,62,93479,6,0,P|123:85|16:68,1,150.000005722046,2|8,0:0|0:0,0:0:0:0:
8,239,94279,2,0,P|65:254|127:303,1,100.000003814697,2|0,0:0|0:0,0:0:0:0:
162,325,94679,1,8,0:0:0:0:
373,308,94945,5,0,0:0:0:0:
316,246,95079,2,0,P|364:227|438:255,1,100.000003814697,2|0,0:0|0:0,0:0:0:0:
339,130,95479,2,0,P|295:101|276:24,1,100.000003814697,8|0,0:0|0:0,0:0:0:0:
243,165,95879,2,0,P|231:215|165:259,1,100.000003814697,2|0,0:0|0:0,0:0:0:0:
128,288,96279,1,8,0:0:0:0:
140,301,96545,5,0,0:0:0:0:
197,248,96679,2,0,P|232:213|243:165,1,100.000003814697,2|0,0:0|0:0,0:0:0:0:
275,58,97079,2,0,P|297:103|339:130,1,100.000003814697,8|0,0:0|0:0,0:0:0:0:
410,235,97479,2,0,P|361:227|335:239,1,50.0000019073487,2|0,0:0|0:0,0:0:0:0:
281,292,97745,2,0,L|286:319,1,25.0000009536744
328,384,97879,2,0,P|369:341|374:279,1,100.000003814697,8|0,0:0|0:0,0:0:0:0:
415,130,98279,6,0,P|354:137|244:192,1,150.000005722046,2|8,0:0|0:0,0:0:0:0:
114,324,99079,2,0,P|141:268|136:211,1,100.000003814697,2|0,0:0|0:0,0:0:0:0:
110,150,99479,2,0,P|61:128|1:130,1,100.000003814697,8|0,0:0|0:0,0:0:0:0:
60,217,99879,5,2,0:0:0:0:
141,231,100012,1,0,0:0:0:0:
215,179,100145,1,0,0:0:0:0:
301,203,100279,2,0,P|282:259|299:328,1,100.000003814697,8|0,0:0|0:0,0:0:0:0:
344,378,100679,2,0,P|382:336|429:316,1,100.000003814697,2|0,0:0|0:0,0:0:0:0:
499,304,101079,1,8,0:0:0:0:
494,283,101345,1,0,0:0:0:0:
421,202,101479,5,2,0:0:0:0:
421,202,101612,2,0,L|469:191,1,50.0000019073487,0|0,0:0|0:0,0:0:0:0:
449,105,101879,1,8,0:0:0:0:
449,105,102012,2,0,L|406:129,1,50.0000019073487,0|0,0:0|0:0,0:0:0:0:
341,86,102279,1,2,0:0:0:0:
341,86,102412,2,0,L|374:48,1,50.0000019073487,0|0,0:0|0:0,0:0:0:0:
289,0,102679,1,8,0:0:0:0:
288,0,102812,2,0,L|271:46,1,50.0000019073487,0|0,0:0|0:0,0:0:0:0:
236,180,103079,5,2,0:0:0:0:
236,180,103212,2,0,L|235:131,1,50.0000019073487,0|0,0:0|0:0,0:0:0:0:
158,120,103479,1,8,0:0:0:0:
158,120,103612,2,0,L|140:166,1,50.0000019073487,0|0,0:0|0:0,0:0:0:0:
54,136,103879,1,2,0:0:0:0:
54,136,104012,2,0,L|86:98,1,50.0000019073487,0|8,0:0|0:0,0:0:0:0:
41,41,104279,1,2,0:0:0:0:
41,41,104412,2,0,L|0:68,1,50.0000019073487,0|0,0:0|0:0,0:0:0:0:
115,27,104679,5,6,0:0:0:0:
86,98,104812,1,0,0:0:0:0:
104,170,104945,1,0,0:0:0:0:
64,233,105079,1,8,0:0:0:0:
102,297,105212,1,0,0:0:0:0:
63,360,105345,2,0,P|126:322|200:323,1,150.000005722046,2|0,0:0|0:0,0:0:0:0:
267,357,105879,1,8,0:0:0:0:
475,272,106279,6,0,P|427:270|375:284,1,100.000003814697,2|0,0:0|0:0,0:0:0:0:
350,354,106679,1,8,0:0:0:0:
499,346,106945,2,0,P|493:271|503:197,1,150.000005722046,2|0,0:0|0:0,0:0:0:0:
455,137,107479,1,8,0:0:0:0:
257,29,107879,6,0,P|262:103|252:177,1,150.000005722046,2|8,0:0|0:0,0:0:0:0:
107,216,108545,2,0,P|101:290|111:364,1,150.000005722046,2|0,0:0|0:0,0:0:0:0:
133,292,109079,1,8,0:0:0:0:
335,193,109479,5,2,0:0:0:0:
107,216,109745,1,0,0:0:0:0:
53,274,109879,1,8,0:0:0:0:
210,155,110145,1,2,0:0:0:0:
184,228,110279,1,0,0:0:0:0:
290,127,110545,1,0,0:0:0:0:
335,193,110679,1,8,0:0:0:0:
297,257,110812,1,0,0:0:0:0:
357,301,110946,1,0,0:0:0:0:
291,336,111079,6,0,P|340:341|387:325,1,100.000003814697,2|0,0:0|0:0,0:0:0:0:
431,264,111479,1,8,0:0:0:0:
228,64,111745,2,0,P|298:39|373:43,1,150.000005722046,2|0,0:0|0:0,0:0:0:0:
419,103,112279,1,8,0:0:0:0:
141,250,112679,6,0,P|180:278|229:288,1,100.000003814697,2|0,0:0|0:0,0:0:0:0:
297,257,113079,1,8,0:0:0:0:
97,176,113345,1,2,0:0:0:0:
139,102,113479,2,0,P|179:73|227:63,1,100.000003814697,0|0,0:0|0:0,0:0:0:0:
238,175,113879,1,8,0:0:0:0:
237,175,114279,6,0,P|205:212|161:235,1,100.000003814697,2|0,0:0|0:0,0:0:0:0:
100,360,114679,2,0,P|83:313|85:263,1,100.000003814697,8|0,0:0|0:0,0:0:0:0:
97,176,115079,1,2,0:0:0:0:
18,56,115345,1,0,0:0:0:0:
6,140,115479,2,0,P|54:148|96:175,1,100.000003814697,8|0,0:0|0:0,0:0:0:0:
155,113,115879,5,2,0:0:0:0:
256,354,116279,1,8,0:0:0:0:
359,245,116545,1,0,0:0:0:0:
290,212,116679,1,6,0:0:0:0:
326,146,116812,1,8,0:0:0:0:
281,85,116945,1,8,0:0:0:0:
306,14,117079,1,8,0:0:0:0:
305,14,117479,6,0,P|291:61|288:111,1,100.000003814697,2|0,0:0|0:0,0:0:0:0:
299,207,117879,1,8,0:0:0:0:
423,120,118145,2,0,L|378:143,1,50.0000019073487,0|0,0:0|0:0,0:0:0:0:
169,200,118545,2,0,L|210:172,1,50.0000019073487,2|8,0:0|0:0,0:0:0:0:
341,290,118945,6,0,P|401:333|473:354,1,150.000005722046,0|0,0:0|0:0,0:0:0:0:
488,211,119479,2,0,P|438:213|389:225,1,100.000003814697,8|2,0:0|0:0,0:0:0:0:
341,290,119879,1,0,0:0:0:0:
189,314,120145,1,0,0:0:0:0:
125,263,120279,2,0,P|75:264|26:274,1,100.000003814697,8|0,0:0|0:0,0:0:0:0:
83,353,120679,6,0,P|109:310|125:263,1,100.000003814697,2|0,0:0|0:0,0:0:0:0:
199,228,121079,1,8,0:0:0:0:
30,190,121345,2,0,L|79:195,1,50.0000019073487,0|0,0:0|0:0,0:0:0:0:
304,294,121745,2,0,L|254:288,1,50.0000019073487,2|8,0:0|0:0,0:0:0:0:
210,145,122145,6,0,P|183:76|131:23,1,150.000005722046,0|0,0:0|0:0,0:0:0:0:
114,161,122679,2,0,P|163:161|210:145,1,100.000003814697,8|2,0:0|0:0,0:0:0:0:
272,101,123079,1,0,0:0:0:0:
409,196,123345,1,0,0:0:0:0:
387,268,123479,2,0,P|387:317|405:364,1,100.000003814697,8|0,0:0|0:0,0:0:0:0:
484,348,123879,5,2,0:0:0:0:
272,101,124279,2,0,P|222:105|175:121,1,100.000003814697,8|0,0:0|0:0,0:0:0:0:
153,194,124679,2,0,P|181:234|219:267,1,100.000003814697,0|2,0:0|0:0,0:0:0:0:
293,251,125079,2,0,P|313:205|323:156,1,100.000003814697,8|0,0:0|0:0,0:0:0:0:
272,101,125479,5,2,0:0:0:0:
220,268,125745,1,0,0:0:0:0:
184,334,125879,2,0,P|137:350|87:355,1,100.000003814697,8|2,0:0|0:0,0:0:0:0:
28,308,126279,1,0,0:0:0:0:
81,168,126545,1,0,0:0:0:0:
68,93,126679,2,0,L|28:61,2,50.0000019073487,8|8|8,0:0|0:0|0:0,0:0:0:0:
139,116,127079,6,0,P|179:87|224:65,1,100.000003814697,6|0,0:0|0:0,0:0:0:0:
308,37,127479,1,8,0:0:0:0:
477,140,127745,1,2,0:0:0:0:
389,123,127879,2,0,P|339:119|289:124,1,100.000003814697,0|2,0:0|0:0,0:0:0:0:
213,162,128279,1,8,0:0:0:0:
21,134,128545,5,0,0:0:0:0:
88,192,128679,2,0,P|129:220|174:240,1,100.000003814697,2|0,0:0|0:0,0:0:0:0:
228,298,129079,2,0,P|268:268|314:247,1,100.000003814697,8|2,0:0|0:0,0:0:0:0:
389,123,129479,2,0,P|394:172|390:222,1,100.000003814697,0|0,0:0|0:0,0:0:0:0:
375,302,129879,1,8,0:0:0:0:
375,302,130279,1,8,0:0:0:0:
375,301,130679,6,0,P|300:307|226:296,1,150.000005722046,4|0,0:0|0:0,0:0:0:0:
16,354,131345,2,0,P|83:321|141:274,1,150.000005722046,0|0,0:0|0:0,0:0:0:0:
202,214,131879,1,2,0:0:0:0:
37,152,132145,5,8,0:3:0:0:
120,190,132279,1,0,0:0:0:0:
141,50,132545,1,8,0:0:0:0:
53,61,132679,1,10,0:0:0:0:
184,130,132945,1,8,0:3:0:0:
266,155,133079,2,0,L|314:142,2,50.0000019073487,0|0|0,0:0|0:0|0:0,0:0:0:0:
321,305,133479,6,0,P|305:199|438:54,1,300.000011444092,6|8,0:0|0:0,0:0:0:0:
220,59,134145,2,0,P|204:165|337:310,1,300.000011444092,2|0,0:0|0:0,0:0:0:0:
139,324,134679,2,0,P|262:280|335:317,1,200.000007629395,8|0,0:0|0:0,0:0:0:0:
466,192,135079,6,0,P|477:150|453:198,1,200.000007629395,2|0,0:0|0:0,0:0:0:0:
273,49,135479,2,0,P|222:96|283:63,1,200.000007629395,8|0,0:0|0:0,0:0:0:0:
223,310,135879,2,0,P|291:325|230:294,1,200.000007629395,2|0,0:0|0:0,0:0:0:0:
83,183,136279,1,8,0:0:0:0:
101,178,136545,5,8,0:3:0:0:
30,288,136679,2,0,P|106:218|326:206,1,300.000011444092,2|8,0:0|0:0,0:0:0:0:
179,49,137345,2,0,P|138:199|-41:305,1,300.000011444092,2|0,0:0|0:0,0:0:0:0:
4,136,137879,2,0,P|112:102|184:43,1,200.000007629395,8|0,0:0|0:0,0:0:0:0:
344,97,138279,6,0,P|394:65|326:83,1,200.000007629395,2|0,0:0|0:0,0:0:0:0:
416,216,138679,2,0,P|473:228|413:193,1,200.000007629395,8|0,0:0|0:0,0:0:0:0:
324,323,139079,2,0,P|356:372|338:305,1,200.000007629395,2|0,0:0|0:0,0:0:0:0:
256,192,139479,1,8,0:0:0:0:
247,203,139745,5,8,0:3:0:0:
147,349,139879,2,0,P|158:259|109:64,1,200.000007629395,2|0,0:0|0:0,0:0:0:0:
121,31,140279,2,0,P|132:117|268:62,1,200.000007629395,8|2,0:0|0:0,0:0:0:0:
299,74,140679,1,0,0:0:0:0:
380,56,140945,5,0,0:0:0:0:
332,167,141079,2,0,P|410:84|492:57,1,200.000007629395,8|8,0:0|0:3,0:0:0:0:
421,307,141479,6,0,P|431:178|391:55,1,200.000007629395,2|0,0:0|0:0,0:0:0:0:
243,174,141879,2,0,P|392:219|488:213,1,200.000007629395,8|2,0:0|0:0,0:0:0:0:
489,57,142279,2,0,P|397:92|332:167,1,200.000007629395,0|0,0:0|0:0,0:0:0:0:
234,277,142679,2,0,P|196:179|224:14,1,200.000007629395,8|0,0:0|0:0,0:0:0:0:
96,61,143079,6,0,P|217:65|340:127,1,200.000007629395,2|0,0:0|0:0,0:0:0:0:
332,166,143479,1,8,0:0:0:0:
123,331,143745,2,0,P|275:320|406:209,1,300.000011444092,2|0,0:0|0:0,0:0:0:0:
332,166,144279,1,8,0:0:0:0:
11,337,144679,5,2,0:0:0:0:
443,332,145079,1,8,0:0:0:0:
11,337,145345,1,2,0:0:0:0:
83,285,145479,1,0,0:0:0:0:
370,282,145745,1,8,0:3:0:0:
443,332,145879,1,0,0:0:0:0:
233,358,146279,6,0,P|172:188|173:122,1,200.000007629395,6|0,0:0|0:0,0:0:0:0:
210,90,146679,1,8,0:0:0:0:
457,167,146945,2,0,P|320:191|201:56,1,300.000011444092,2|2,0:0|0:0,0:0:0:0:
281,29,147479,1,8,0:0:0:0:
53,192,147879,6,0,P|105:210|52:149,1,200.000007629395,2|0,0:0|0:0,0:0:0:0:
89,169,148279,1,8,0:0:0:0:
25,316,148545,2,0,P|134:308|228:92,1,300.000011444092,2|0,0:0|0:0,0:0:0:0:
181,64,149079,1,8,0:0:0:0:
279,358,149479,6,0,P|340:188|339:122,1,200.000007629395,2|0,0:0|0:0,0:0:0:0:
439,260,149879,1,8,0:0:0:0:
302,89,150145,2,0,P|198:189|55:167,1,300.000011444092,2|2,0:0|0:0,0:0:0:0:
95,73,150679,1,8,0:0:0:0:
364,99,151079,6,0,P|358:153|325:79,1,200.000007629395,2|0,0:0|0:0,0:0:0:0:
345,19,151479,1,8,0:0:0:0:
202,314,151745,2,0,P|273:231|503:286,1,300.000011444092,2|0,0:0|0:0,0:0:0:0:
480,315,152279,1,10,0:0:0:0:
87,218,152679,6,0,P|239:259|380:380,1,300.000011444092,2|8,0:0|0:0,0:0:0:0:
331,64,153345,2,0,P|223:174|6:213,1,300.000011444092,2|2,0:0|0:0,0:0:0:0:
140,22,153879,2,0,P|231:62|355:57,1,200.000007629395,10|0,0:0|0:0,0:0:0:0:
281,347,154279,6,0,P|342:195|312:19,1,300.000011444092,2|8,0:0|0:0,0:0:0:0:
67,156,154945,2,0,P|208:229|288:378,1,300.000011444092,2|2,0:0|0:0,0:0:0:0:
65,353,155479,2,0,P|51:246|72:140,1,200.000007629395,8|0,0:0|0:0,0:0:0:0:
151,49,155879,6,0,P|178:178|264:268,1,200.000007629395,2|8,0:0|0:3,0:0:0:0:
199,360,156279,2,0,P|289:263|313:141,1,200.000007629395,2|0,0:0|0:0,0:0:0:0:
439,126,156679,2,0,P|308:107|194:157,1,200.000007629395,10|8,0:0|0:3,0:0:0:0:
310,201,157079,1,2,0:0:0:0:
416,362,157345,1,2,0:0:0:0:
434,283,157479,1,10,0:0:0:0:
434,283,157879,1,4,0:0:0:0:
434,283,158279,6,0,P|310:325|86:232,1,333.333333333333,0|0,0:0|0:0,0:0:0:0:
71,196,159079,5,6,0:0:0:0:
241,147,159345,1,0,0:0:0:0:
188,76,159479,2,0,P|160:123|188:231,1,133.333333333333,8|2,0:0|0:0,0:0:0:0:
247,237,159879,5,0,0:0:0:0:
325,276,160012,1,0,0:0:0:0:
398,224,160145,1,0,0:0:0:0:
474,199,160279,5,8,0:0:0:0:
447,123,160412,1,0,0:0:0:0:
373,94,160545,1,0,0:0:0:0:
297,114,160679,6,0,P|226:103|115:126,1,133.333333333333,2|0,0:0|0:0,0:0:0:0:
83,152,161079,2,0,P|24:207|-1:286,1,133.333333333333,8|0,0:0|0:0,0:0:0:0:
45,335,161479,2,0,P|116:346|227:323,1,133.333333333333
259,297,161879,2,0,P|318:242|343:163,1,133.333333333333,8|0,0:0|0:0,0:0:0:0:
414,107,162279,5,8,0:0:0:0:
338,194,162545,2,0,L|350:324,1,100.000003814697
293,361,162945,2,0,P|262:311|273:251,1,100.000003814697,8|0,0:3|0:0,0:0:0:0:
338,194,163279,2,0,L|386:189,7,25.0000009536744,0|8|0|0|0|0|0|0,0:0|0:3|0:0|0:0|0:0|0:0|0:0|0:0,0:0:0:0:
266,170,163879,6,0,P|174:285|32:323,1,300.000011444092,6|8,0:0|0:0,0:0:0:0:
16,44,164545,2,0,P|161:65|265:169,1,300.000011444092,2|2,0:0|0:0,0:0:0:0:
328,295,165079,2,0,P|399:358|492:332,1,200.000007629395,8|0,0:0|0:0,0:0:0:0:
490,49,165479,6,0,P|464:117|459:45,1,200.000007629395,2|0,0:0|0:0,0:0:0:0:
317,263,165879,2,0,P|389:256|328:295,1,200.000007629395,8|0,0:0|0:0,0:0:0:0:
248,48,166279,2,0,P|182:16|228:72,1,200.000007629395,2|0,0:0|0:0,0:0:0:0:
490,49,166679,1,8,0:0:0:0:
490,64,166945,5,8,0:3:0:0:
349,69,167079,2,0,P|203:90|99:194,1,300.000011444092,2|8,0:0|0:0,0:0:0:0:
334,349,167745,2,0,P|388:212|349:69,1,300.000011444092,2|2,0:0|0:0,0:0:0:0:
289,139,168279,2,0,P|291:237|237:319,1,200.000007629395,8|0,0:0|0:0,0:0:0:0:
229,63,168679,6,0,P|157:54|218:94,1,200.000007629395,2|0,0:0|0:0,0:0:0:0:
300,344,169079,2,0,P|341:284|278:320,1,200.000007629395,8|0,0:0|0:0,0:0:0:0:
54,261,169479,2,0,P|48:333|22:265,1,200.000007629395,2|0,0:0|0:0,0:0:0:0:
218,94,169879,1,8,0:0:0:0:
201,70,170145,5,8,0:3:0:0:
204,212,170279,2,0,P|248:128|343:114,1,200.000007629395,2|0,0:0|0:0,0:0:0:0:
278,279,170679,2,0,P|185:304|112:241,1,200.000007629395,8|2,0:0|0:0,0:0:0:0:
307,207,171079,1,0,0:0:0:0:
360,270,171345,5,2,0:0:0:0:
416,352,171479,2,0,P|453:263|402:181,1,200.000007629395,8|8,0:0|0:3,0:0:0:0:
307,207,171879,6,0,P|221:249|207:345,1,200.000007629395,2|0,0:0|0:0,0:0:0:0:
106,244,172279,2,0,P|112:148|36:89,1,200.000007629395,8|2,0:0|0:0,0:0:0:0:
172,53,172679,2,0,P|251:106|341:71,1,200.000007629395,0|0,0:0|0:0,0:0:0:0:
307,207,173079,2,0,P|221:249|207:345,1,200.000007629395,8|2,0:0|0:0,0:0:0:0:
312,314,173479,5,2,0:0:0:0:
417,317,173612,1,0,0:0:0:0:
508,285,173745,1,0,0:0:0:0:
421,329,173879,5,8,0:0:0:0:
330,297,174012,1,0,0:0:0:0:
225,300,174145,1,2,0:0:0:0:
205,199,174279,6,0,B|101:194|101:194|6:210,1,200.000007629395,0|2,0:0|0:0,0:0:0:0:
199,121,174679,2,0,B|95:116|95:116|0:132,1,200.000007629395,8|0,0:0|0:0,0:0:0:0:
209,45,175079,5,2,0:0:0:0:
273,92,175212,1,0,0:0:0:0:
330,23,175345,1,0,0:0:0:0:
380,109,175478,5,10,0:0:0:0:
470,44,175612,1,8,0:0:0:0:
466,164,175745,1,8,0:0:0:0:
397,55,175878,5,2,0:0:0:0:
379,195,176012,1,0,0:0:0:0:
273,92,176145,1,0,0:0:0:0:
224,244,176278,5,2,0:0:0:0:
199,76,176411,1,0,0:0:0:0:
303,221,176544,1,0,0:0:0:0:
145,261,176679,6,0,P|237:146|379:108,1,300.000011444092,6|8,0:0|0:0,0:0:0:0:
266,359,177345,2,0,P|120:337|16:233,1,300.000011444092,2|2,0:0|0:0,0:0:0:0:
144,176,177879,2,0,P|107:85|28:25,1,200.000007629395,8|0,0:0|0:0,0:0:0:0:
16,233,178279,6,0,P|42:301|47:229,1,200.000007629395,2|0,0:0|0:0,0:0:0:0:
207,48,178679,2,0,P|135:41|196:80,1,200.000007629395,8|0,0:0|0:0,0:0:0:0:
273,308,179079,2,0,P|315:248|251:283,1,200.000007629395,2|0,0:0|0:0,0:0:0:0:
16,233,179479,1,8,0:0:0:0:
36,257,179745,5,8,0:3:0:0:
84,102,179879,2,0,P|230:123|334:227,1,300.000011444092,2|8,0:0|0:0,0:0:0:0:
100,382,180545,2,0,P|46:245|85:102,1,300.000011444092,2|2,0:0|0:0,0:0:0:0:
179,174,181079,2,0,P|224:260|200:355,1,200.000007629395,8|0,0:0|0:0,0:0:0:0:
72,301,181479,6,0,P|133:262|61:269,1,200.000007629395,2|0,0:0|0:0,0:0:0:0:
228,55,181879,2,0,P|235:128|259:59,1,200.000007629395,8|0,0:0|0:0,0:0:0:0:
338,326,182279,2,0,P|274:290|315:350,1,200.000007629395,2|2,0:0|0:0,0:0:0:0:
72,301,182679,1,8,0:0:0:0:
72,301,182945,5,8,0:3:0:0:
198,168,183079,2,0,P|293:180|338:265,1,200.000007629395,2|0,0:0|0:0,0:0:0:0:
72,301,183479,2,0,P|165:326|238:263,1,200.000007629395,8|2,0:0|0:0,0:0:0:0:
122,236,183879,1,0,0:0:0:0:
207,155,184145,5,0,0:0:0:0:
143,234,184279,2,0,P|106:145|157:63,1,200.000007629395,8|8,0:0|0:3,0:0:0:0:
237,263,184679,6,0,P|223:167|136:125,1,200.000007629395,2|0,0:0|0:0,0:0:0:0:
404,216,185079,2,0,P|328:275|334:370,1,200.000007629395,8|2,0:0|0:0,0:0:0:0:
280,93,185479,2,0,P|369:128|449:75,1,200.000007629395,0|0,0:0|0:0,0:0:0:0:
237,263,185879,2,0,P|223:167|136:125,1,200.000007629395,8|0,0:0|0:0,0:0:0:0:
313,196,186279,6,0,P|178:178|148:312,1,300.000011444092,2|8,0:0|0:0,0:0:0:0:
286,33,186945,2,0,P|338:159|468:118,1,300.000011444092,2|2,0:0|0:0,0:0:0:0:
381,67,187479,1,8,0:0:0:0:
381,67,187879,6,0,P|425:156|444:254,1,200.000007629395,2|0,0:0|0:0,0:0:0:0:
345,354,188279,2,0,P|245:348|151:315,1,200.000007629395,10|0,0:0|0:0,0:0:0:0:
114,179,188679,2,0,P|168:95|244:30,1,200.000007629395,0|8,0:0|0:3,0:0:0:0:
381,67,189079,1,2,0:0:0:0:
298,106,189212,1,0,0:0:0:0:
244,30,189345,1,0,0:0:0:0:
162,75,189479,6,0,P|153:156|115:89,1,200.000007629395,6|0,0:0|0:0,0:0:0:0:
106,20,189879,1,8,0:0:0:0:
48,242,190145,2,0,P|117:205|385:243,1,300.000011444092,2|2,0:0|0:0,0:0:0:0:
406,263,190679,1,8,0:0:0:0:
406,263,191079,6,0,P|325:351|189:331,1,200.000007629395,2|0,0:0|0:0,0:0:0:0:
148,333,191479,1,8,0:0:0:0:
125,191,191745,2,0,P|222:185|419:274,1,300.000011444092,2|2,0:0|0:0,0:0:0:0:
505,103,192279,2,0,P|425:174|410:290,1,200.000007629395,8|8,0:0|0:3,0:0:0:0:
435,239,192679,6,0,P|372:233|431:291,1,200.000007629395,2|0,0:0|0:0,0:0:0:0:
506,275,193079,1,8,0:0:0:0:
320,135,193345,2,0,P|220:207|10:199,1,300.000011444092,2|2,0:0|0:0,0:0:0:0:
24,128,193879,1,8,0:0:0:0:
24,128,194279,6,0,P|107:198|146:343,1,200.000007629395,2|0,0:0|0:0,0:0:0:0:
140,370,194679,1,10,0:0:0:0:
289,217,194945,2,0,P|164:222|11:107,1,300.000011444092,0|0,0:0|0:0,0:0:0:0:
6,46,195479,1,10,0:0:0:0:
27,41,195745,5,0,0:0:0:0:
139,41,195879,2,0,P|198:71|123:62,1,200.000007629395,2|0,0:0|0:0,0:0:0:0:
161,72,196279,1,8,0:0:0:0:
161,238,196545,2,0,P|248:321|475:262,1,300.000011444092,2|2,0:0|0:0,0:0:0:0:
474,234,197079,1,8,0:0:0:0:
355,92,197479,6,0,P|296:156|380:155,1,200.000007629395,2|0,0:0|0:0,0:0:0:0:
434,114,197879,1,8,0:0:0:0:
168,357,198145,2,0,P|206:253|193:33,1,300.000011444092,2|2,0:0|0:0,0:0:0:0:
124,14,198679,1,10,0:0:0:0:
93,252,199079,6,0,P|88:192|221:237,1,200.000007629395,6|8,0:0|0:3,0:0:0:0:
185,303,199479,2,0,P|139:264|264:201,1,200.000007629395,2|0,0:0|0:0,0:0:0:0:
287,273,199879,2,0,P|227:278|272:145,1,200.000007629395,10|8,0:0|0:3,0:0:0:0:
281,148,200279,1,2,0:0:0:0:
392,288,200545,1,0,0:0:0:0:
324,371,200679,1,10,0:0:0:0:
324,371,201079,1,4,0:0:0:0:
324,371,201479,6,0,P|296:260|408:44,1,333.333333333333,0|0,0:0|0:0,0:0:0:0:
466,138,202279,6,0,B|370:148|370:148|216:132,1,200,6|8,0:0|0:0,0:0:0:0:
116,114,202945,1,2,0:0:0:0:
62,64,203079,2,0,P|90:146|79:221,1,133.333333333333,0|0,0:0|0:0,0:0:0:0:
61,263,203479,1,8,0:0:0:0:
211,250,203745,1,0,0:0:0:0:
138,301,203879,5,6,0:0:0:0:
138,301,204012,1,0,0:0:0:0:
138,301,204145,1,0,0:0:0:0:
159,323,204279,5,0,0:0:0:0:
189,336,204412,1,0,0:0:0:0:
218,339,204545,1,0,0:0:0:0:
286,368,204679,5,2,0:0:0:0:
350,330,204812,1,0,0:0:0:0:
424,318,204945,1,0,0:0:0:0:
503,331,205079,5,0,0:0:0:0:
463,235,205212,1,0,0:0:0:0:
462,138,205345,1,0,0:0:0:0:
490,42,205479,6,0,P|346:49|241:128,1,200.000007629395,6|0,0:0|0:0,0:0:0:0:
222,65,205879,2,0,P|189:128|298:118,1,200.000007629395,8|0,0:0|0:0,0:0:0:0:
308,254,206279,2,0,P|236:130|90:18,1,300.000011444092,2|8,0:0|0:0,0:0:0:0:
25,194,206945,5,0,0:0:0:0:
31,281,207079,2,0,P|136:261|358:310,1,300.000011444092,2|8,0:0|0:0,0:0:0:0:
54,119,207745,5,2,0:0:0:0:
125,77,207879,2,0,P|213:137|335:328,1,300.000011444092,0|8,0:0|0:0,0:0:0:0:
510,86,208679,6,0,P|440:125|315:43,1,200.000007629395,2|0,0:0|0:0,0:0:0:0:
411,25,209079,2,0,P|461:110|373:236,1,200.000007629395,8|2,0:0|0:0,0:0:0:0:
382,294,209479,2,0,P|340:165|472:-9,1,300.000011444092,0|8,0:0|0:0,0:0:0:0:
195,163,210145,5,0,0:0:0:0:
216,64,210279,2,0,P|126:176|125:343,1,300.000011444092,2|8,0:0|0:0,0:0:0:0:
274,249,210945,5,2,0:0:0:0:
312,327,211079,2,0,P|307:179|216:64,1,300.000011444092,0|8,0:0|0:0,0:0:0:0:
29,167,211879,6,0,L|103:172,1,66.6666666666667,2|0,0:0|0:0,0:0:0:0:
141,251,212145,2,0,L|295:244,1,133.333333333333,8|0,0:3|0:0,0:0:0:0:
194,173,212545,1,2,0:0:0:0:
27,187,212679,6,0,L|101:192,1,66.6666666666667,2|0,0:0|0:0,0:0:0:0:
139,271,212945,2,0,L|293:264,1,133.333333333333,8|0,0:3|0:0,0:0:0:0:
192,193,213345,1,0,0:0:0:0:
277,153,213479,5,2,0:0:0:0:
311,170,213612,1,0,0:0:0:0:
398,173,213745,1,0,0:0:0:0:
379,273,213879,5,0,0:0:0:0:
415,260,214012,1,0,0:0:0:0:
478,201,214145,1,8,0:0:0:0:
460,119,214279,1,8,0:0:0:0:
460,119,214679,6,0,P|384:100|330:110,1,100.000003814697,2|0,0:0|0:0,0:0:0:0:
267,108,214945,1,4,0:0:0:0:
256,192,215079,12,0,221479,0:0:0:0:
