osu file format v14

[General]
AudioFilename: audio.mp3
AudioLeadIn: 0
PreviewTime: 50081
Countdown: 0
SampleSet: Soft
StackLeniency: 0.2
Mode: 0
LetterboxInBreaks: 0
WidescreenStoryboard: 1

[Editor]
Bookmarks: 21479,50279,79079,104679,133479,163879,174679,189479
DistanceSpacing: 1.6
BeatDivisor: 6
GridSize: 4
TimelineZoom: 2.1

[Metadata]
Title:Negai
TitleUnicode:願い
Artist:Ishida Yoko
ArtistUnicode:石田燿子
Creator:Hollow Wings
Version:Collab Hard
Source:ああっ女神さまっ
Tags:Ah! My Goddess OPEN YOUR MIND 〜小さな羽根ひろげて〜 多田彰文 ただ あきふみ tada akifumi ending ed Pata-Mon Suzuki_1112 1112deng
BeatmapID:1420753
BeatmapSetID:671268

[Difficulty]
HPDrainRate:5
CircleSize:3.5
OverallDifficulty:5
ApproachRate:7
SliderMultiplier:1.5
SliderTickRate:1

[Events]
//Background and Video events
0,0,"negai.jpg",0,0
//Break Periods
2,79279,90979
//Storyboard Layer 0 (Background)
//Storyboard Layer 1 (Fail)
//Storyboard Layer 2 (Pass)
//Storyboard Layer 3 (Foreground)
//Storyboard Sound Samples

[TimingPoints]
-921,400,4,2,1,100,1,0
2279,-100,4,2,1,100,0,1
8679,-100,4,2,1,80,0,0
21479,-100,4,2,1,80,0,0
34279,-100,4,2,1,80,0,0
47079,-100,4,2,1,70,0,0
50279,-100,4,2,1,100,0,1
62545,-100,4,2,1,100,0,0
63079,-100,4,2,1,100,0,1
75079,-100,4,2,1,100,0,0
75879,-100,4,2,1,100,0,1
79079,-100,4,2,1,100,0,0
91879,-100,4,2,1,80,0,0
104679,-100,4,2,1,80,0,0
117479,-100,4,2,1,80,0,0
130279,-100,4,2,1,70,0,0
133479,-100,4,2,1,100,0,1
145745,-100,4,2,1,100,0,0
146279,-100,4,2,1,100,0,1
158279,-100,4,2,1,100,0,0
159079,-100,4,2,1,100,0,1
162279,-100,4,2,1,80,0,0
163479,-100,4,2,1,90,0,0
163879,-100,4,2,1,100,0,1
176145,-100,4,2,1,100,0,0
176679,-100,4,2,1,100,0,1
188945,-100,4,2,1,100,0,0
189479,-100,4,2,1,100,0,1
201479,-100,4,2,1,100,0,0
202279,-100,4,2,1,100,0,1
204945,-100,4,2,1,100,0,0
205479,-100,4,2,1,100,0,1
211879,-100,4,2,1,70,0,0
214679,-100,4,2,1,100,0,1
215079,-100,4,2,1,100,0,0
216679,-100,4,2,1,80,0,0
218279,-100,4,2,1,60,0,0
219879,-100,4,2,1,40,0,0
221479,-100,4,2,1,20,0,0

[Colours]
Combo1 : 255,162,208
Combo2 : 11,151,255
Combo3 : 255,255,119

[HitObjects]
124,252,679,6,0,L|135:152,1,100,8|8,0:0|0:3,0:0:0:0:
252,57,1345,2,0,B|164:79|164:79|104:74,1,150,8|8,0:3|0:0,0:0:0:0:
105,75,1879,1,0,0:0:0:0:
221,168,2279,6,0,P|291:144|338:87,1,150,6|8,0:0|0:0,0:0:0:0:
421,212,3079,1,0,0:0:0:0:
344,341,3479,2,0,P|300:318|277:275,1,100,8|0,0:0|0:0,0:0:0:0:
269,225,3879,6,0,P|223:282|150:288,2,150,2|8|0,0:0|0:0|0:0,0:0:0:0:
421,212,5079,1,8,0:0:0:0:
269,225,5479,6,0,P|198:201|151:144,1,150,2|8,0:0|0:0,0:0:0:0:
96,284,6279,1,0,0:0:0:0:
74,135,6679,2,0,P|96:91|140:69,1,100,8|0,0:0|0:0,0:0:0:0:
188,84,7079,6,0,P|142:26|69:20,2,150,2|8|0,0:0|0:0|0:0,0:0:0:0:
281,50,8145,1,8,0:0:0:0:
281,50,8279,1,0,0:0:0:0:
430,65,8679,5,6,0:0:0:0:
294,129,9079,1,8,0:0:0:0:
378,253,9479,2,0,P|393:180|366:111,1,150,0|8,0:0|0:0,0:0:0:0:
298,244,10279,5,2,0:0:0:0:
412,340,10679,2,0,P|449:307|470:262,1,100,8|2,0:0|0:0,0:0:0:0:
473,212,11079,1,0,0:0:0:0:
298,244,11479,2,0,P|288:195|260:154,1,100,8|0,0:0|0:0,0:0:0:0:
197,114,11879,5,2,0:0:0:0:
50,79,12279,1,8,0:0:0:0:
94,223,12679,1,2,0:0:0:0:
181,271,12945,1,0,0:0:0:0:
181,271,13079,1,8,0:0:0:0:
96,323,13345,1,0,0:0:0:0:
96,323,13479,6,0,B|138:350|138:350|187:349,1,100,2|0,0:0|0:0,0:0:0:0:
233,329,13879,1,8,0:0:0:0:
275,238,14145,1,0,0:0:0:0:
275,238,14279,1,2,0:0:0:0:
334,318,14545,1,0,0:0:0:0:
334,318,14679,1,8,0:0:0:0:
481,342,15079,5,2,0:0:0:0:
428,201,15479,1,8,0:0:0:0:
334,318,15879,2,0,P|318:245|345:176,1,150,0|8,0:0|0:0,0:0:0:0:
462,269,16679,5,2,0:0:0:0:
492,122,17079,2,0,P|471:76|433:44,1,100,8|2,0:0|0:0,0:0:0:0:
386,26,17479,1,0,0:0:0:0:
345,176,17879,2,0,P|335:224|307:265,1,100,8|0,0:0|0:0,0:0:0:0:
243,307,18279,5,2,0:0:0:0:
94,329,18679,1,8,0:0:0:0:
243,307,19079,1,2,0:0:0:0:
157,256,19345,1,0,0:0:0:0:
157,256,19479,1,8,0:0:0:0:
59,235,19745,1,0,0:0:0:0:
59,235,19879,6,0,B|55:184|55:184|82:142,1,100,2|0,0:0|0:0,0:0:0:0:
119,175,20279,1,8,0:0:0:0:
97,272,20545,1,0,0:0:0:0:
97,272,20679,2,0,B|145:274|145:274|187:245,1,100,2|8,0:0|0:0,0:0:0:0:
202,197,21079,2,0,B|179:153|179:153|133:131,1,100,0|0,0:0|0:0,0:0:0:0:
164,62,21479,6,0,B|233:95|233:95|267:161,1,150,6|8,0:0|0:0,0:0:0:0:
267,259,22145,2,0,B|232:325|232:325|163:358,1,150,2|0,0:0|0:0,0:0:0:0:
120,381,22679,1,8,0:0:0:0:
24,265,23079,6,0,P|102:232|152:234,1,100,2|0,0:0|0:0,0:0:0:0:
166,237,23479,1,8,0:0:0:0:
232,311,23745,2,0,P|261:212|221:154,1,150,2|0,0:0|0:0,0:0:0:0:
203,143,24279,1,8,0:0:0:0:
56,174,24679,6,0,P|27:273|67:331,1,150,2|8,0:0|0:0,0:0:0:0:
124,247,25345,1,2,0:0:0:0:
124,247,25479,2,0,P|204:228|258:237,1,100,0|0,0:0|0:0,0:0:0:0:
268,247,25879,1,8,0:0:0:0:
200,112,26279,6,0,P|280:93|334:102,1,100,2|0,0:0|0:0,0:0:0:0:
344,112,26679,1,8,0:0:0:0:
364,209,26945,1,2,0:0:0:0:
364,209,27079,2,0,P|284:228|230:219,1,100,0|0,0:0|0:0,0:0:0:0:
220,209,27479,1,8,0:0:0:0:
271,349,27879,6,0,P|345:346|416:321,1,150,2|8,0:0|0:0,0:0:0:0:
395,224,28545,2,0,P|320:226|249:251,1,150,2|0,0:0|0:0,0:0:0:0:
219,291,29079,2,0,P|172:302|108:261,1,100,8|0,0:0|0:0,0:0:0:0:
178,228,29479,6,0,P|195:154|177:82,1,150,2|8,0:0|0:0,0:0:0:0:
78,83,30145,2,0,P|60:156|79:229,1,150,2|0,0:0|0:0,0:0:0:0:
102,271,30679,2,0,P|92:323|47:357,1,100,8|0,0:0|0:0,0:0:0:0:
28,284,31079,6,0,P|97:318|200:326,2,150,2|8|2,0:0|0:0|0:0,0:0:0:0:
85,202,32145,1,0,0:0:0:0:
85,202,32279,2,0,P|130:224|199:229,1,100,8|0,0:0|0:0,0:0:0:0:
212,193,32679,6,0,P|281:159|384:151,2,150,2|8|6,0:0|0:0|0:0,0:0:0:0:
171,284,33745,1,8,0:0:0:0:
171,284,33879,1,8,0:0:0:0:
316,319,34279,5,2,0:0:0:0:
394,191,34679,1,8,0:0:0:0:
171,284,35345,1,0,0:0:0:0:
171,284,35479,1,10,0:0:0:0:
316,319,35879,5,2,0:0:0:0:
394,191,36279,1,8,0:0:0:0:
171,284,36945,1,0,0:0:0:0:
171,284,37079,1,10,0:0:0:0:
160,136,37479,5,2,0:0:0:0:
298,80,37879,1,8,0:0:0:0:
171,284,38545,1,0,0:0:0:0:
171,284,38679,1,10,0:0:0:0:
160,136,39079,5,2,0:0:0:0:
298,80,39479,1,8,0:0:0:0:
171,284,40145,1,0,0:0:0:0:
171,284,40279,1,10,0:0:0:0:
160,136,40679,6,0,P|110:95|26:106,2,150,2|10|0,0:0|0:0|0:0,0:0:0:0:
77,192,41745,1,2,0:0:0:0:
77,192,41879,2,0,P|75:240|91:328,1,100,8|0,0:0|0:0,0:0:0:0:
127,314,42279,6,0,P|169:290|237:233,1,100,2|0,0:0|0:0,0:0:0:0:
207,209,42679,2,0,P|165:183|82:153,1,100,8|2,0:0|0:0,0:0:0:0:
77,192,43079,1,4,0:0:0:0:
55,95,43345,1,0,0:0:0:0:
55,95,43479,2,0,P|59:66|74:40,2,50,8|8|8,0:0|0:0|0:0,0:0:0:0:
130,90,43879,6,0,P|198:119|263:158,1,150,2|8,0:0|0:0,0:0:0:0:
346,212,44545,1,2,0:0:0:0:
346,212,44679,2,0,P|344:146|359:98,1,100,0|2,0:0|0:0,0:0:0:0:
370,66,45079,1,8,0:0:0:0:
220,79,45479,6,0,P|204:152|210:226,1,150,2|8,0:0|0:0,0:0:0:0:
258,313,46145,1,2,0:0:0:0:
258,313,46279,2,0,P|192:311|144:326,1,100,0|0,0:0|0:0,0:0:0:0:
115,343,46679,1,8,0:0:0:0:
32,218,47079,5,8,0:0:0:0:
32,218,47479,2,0,P|172:158|72:258,1,400,6|0,0:0|0:0,0:0:0:0:
102,188,48679,5,2,0:0:0:0:
27,293,48945,1,8,0:3:0:0:
27,293,49079,2,0,L|15:364,2,50,0|0|8,0:0|0:0|0:0,0:0:0:0:
69,265,49479,2,0,P|121:252|183:247,1,100,10|8,0:0|0:3,0:0:0:0:
171,197,49879,2,0,P|119:184|57:179,1,100,0|0,0:0|0:0,0:0:0:0:
41,107,50279,6,0,P|104:68|178:70,1,150,6|8,0:0|0:0,0:0:0:0:
295,178,50945,2,0,P|297:252|258:315,1,150,2|0,0:0|0:0,0:0:0:0:
182,339,51479,1,8,0:0:0:0:
215,183,51745,5,0,0:0:0:0:
295,178,51879,2,0,P|343:166|386:142,1,100,2|0,0:0|0:0,0:0:0:0:
464,163,52279,2,0,P|450:210|449:259,1,100,8|0,0:0|0:0,0:0:0:0:
396,320,52679,2,0,P|361:284|319:259,1,100,2|0,0:0|0:0,0:0:0:0:
295,178,53079,1,8,0:0:0:0:
284,337,53345,1,8,0:3:0:0:
234,273,53479,6,0,P|160:271|97:310,1,150,2|8,0:0|0:0,0:0:0:0:
192,181,54145,2,0,P|129:141|55:143,1,150,2|0,0:0|0:0,0:0:0:0:
93,214,54679,1,8,0:0:0:0:
186,84,54945,5,0,0:0:0:0:
260,53,55079,2,0,P|308:65|351:89,1,100,2|0,0:0|0:0,0:0:0:0:
349,169,55479,2,0,P|301:156|258:133,1,100,8|0,0:0|0:0,0:0:0:0:
186,84,55879,1,2,0:0:0:0:
422,39,56145,1,0,0:0:0:0:
352,90,56279,1,8,0:0:0:0:
425,231,56545,1,8,0:3:0:0:
353,278,56679,6,0,P|309:302|261:314,1,100,2|0,0:0|0:0,0:0:0:0:
180,314,57079,1,8,0:0:0:0:
22,341,57345,1,2,0:0:0:0:
22,341,57479,2,0,L|70:330,1,50,0|0,0:0|0:0,0:0:0:0:
180,314,57745,1,2,0:0:0:0:
119,260,57879,2,0,P|96:215|85:166,1,100,8|8,0:0|0:3,0:0:0:0:
165,171,58279,6,0,P|205:199|252:216,1,100,2|0,0:0|0:0,0:0:0:0:
252,36,58679,2,0,P|206:57|169:90,1,100,8|2,0:0|0:0,0:0:0:0:
324,176,59079,2,0,P|328:127|320:78,1,100,0|0,0:0|0:0,0:0:0:0:
393,45,59479,1,10,0:0:0:0:
393,45,59612,2,0,L|445:35,1,50,0|0,0:0|0:0,0:0:0:0:
454,115,59879,6,0,P|428:184|379:241,1,150,2|8,0:0|0:0,0:0:0:0:
225,285,60545,2,0,P|150:278|83:245,1,150,2|0,0:0|0:0,0:0:0:0:
90,165,61079,1,8,0:0:0:0:
329,179,61479,6,0,P|283:199|234:207,1,100,2|0,0:0|0:0,0:0:0:0:
162,139,61879,2,0,P|202:168|233:206,1,100,8|2,0:0|0:0,0:0:0:0:
212,303,62279,2,0,P|216:253|234:206,1,100,0|8,0:0|0:3,0:0:0:0:
302,280,62679,1,0,0:0:0:0:
302,280,63079,6,0,P|227:273|160:240,1,150,6|8,0:0|0:0,0:0:0:0:
90,96,63745,2,0,L|139:84,1,50,2|0,0:0|0:0,0:0:0:0:
73,230,64145,2,0,L|24:242,1,50,2|8,0:0|0:0,0:0:0:0:
218,99,64679,5,2,0:0:0:0:
370,53,64945,1,0,0:0:0:0:
370,53,65079,1,8,0:0:0:0:
334,208,65345,2,0,P|339:282|370:350,1,150,2|0,0:0|0:0,0:0:0:0:
384,271,65879,1,8,0:0:0:0:
384,271,66279,5,2,0:0:0:0:
481,144,66545,2,0,L|432:132,1,50,0|8,0:0|0:0,0:0:0:0:
285,196,66945,2,0,L|334:208,1,50,2|0,0:0|0:0,0:0:0:0:
93,229,67479,1,8,0:0:0:0:
93,229,67879,5,2,0:0:0:0:
12,367,68145,1,0,0:0:0:0:
12,367,68279,1,8,0:0:0:0:
150,287,68545,2,0,P|82:254|8:247,1,150,0|0,0:0|0:0,0:0:0:0:
93,229,69079,1,10,0:0:0:0:
93,229,69479,6,0,P|98:153|129:86,1,150,2|8,0:0|0:0,0:0:0:0:
286,58,70145,2,0,P|348:100|391:160,1,150,2|2,0:0|0:0,0:0:0:0:
391,160,70679,1,10,0:0:0:0:
199,304,71079,6,0,P|267:337|341:343,1,150,2|8,0:0|0:0,0:0:0:0:
444,222,71745,2,0,P|438:146|407:79,1,150,2|2,0:0|0:0,0:0:0:0:
408,80,72279,1,8,0:0:0:0:
408,80,72679,6,0,P|358:83|311:101,1,100,6|8,0:0|0:3,0:0:0:0:
235,75,73079,2,0,P|223:123|225:173,1,100,2|0,0:0|0:0,0:0:0:0:
181,240,73479,2,0,P|223:266|271:279,1,100,10|8,0:0|0:3,0:0:0:0:
326,338,73879,2,0,P|364:305|391:264,1,100,2|2,0:0|0:0,0:0:0:0:
468,244,74279,2,0,P|434:179|369:144,1,150,10|4,0:0|0:0,0:0:0:0:
203,319,75079,6,0,P|315:229|306:85,1,300,0|6,0:0|0:0,0:0:0:0:
74,19,76279,1,8,0:0:0:0:
218,210,76679,2,0,L|317:211,1,100,0|0,0:0|0:0,0:0:0:0:
392,180,77079,1,8,0:0:0:0:
442,28,77345,6,0,B|469:132|469:132|470:178,1,150,0|0,0:0|0:0,0:0:0:0:
434,247,77879,1,8,0:0:0:0:
327,365,78145,2,0,L|376:357,1,50,2|0,0:0|0:0,0:0:0:0:
231,290,78545,2,0,L|181:297,1,50,0|0,0:0|0:0,0:0:0:0:
392,180,79079,5,4,0:0:0:0:
263,307,91879,6,0,P|331:334|431:234,1,150,6|8,0:0|0:0,0:0:0:0:
331,234,92545,1,0,0:0:0:0:
331,234,92679,2,0,L|331:74,1,150,2|8,0:0|0:0,0:0:0:0:
181,84,93479,6,0,L|181:244,1,150,2|8,0:0|0:0,0:0:0:0:
249,307,94145,1,0,0:0:0:0:
249,307,94279,2,0,P|181:334|81:234,1,150,2|8,0:0|0:0,0:0:0:0:
181,234,94945,1,0,0:0:0:0:
181,234,95079,6,0,P|205:194|219:142,1,100,2|0,0:0|0:0,0:0:0:0:
206,94,95479,2,0,P|166:69|114:56,1,100,8|0,0:0|0:0,0:0:0:0:
66,69,95879,1,2,0:0:0:0:
124,150,96145,1,0,0:0:0:0:
124,150,96279,1,8,0:0:0:0:
206,94,96545,1,0,0:0:0:0:
206,94,96679,6,0,P|246:69|298:56,1,100,2|0,0:0|0:0,0:0:0:0:
345,69,97079,2,0,P|370:109|383:161,1,100,8|0,0:0|0:0,0:0:0:0:
371,209,97479,1,2,0:0:0:0:
289,152,97745,1,0,0:0:0:0:
289,152,97879,1,8,0:0:0:0:
326,298,98279,6,0,P|455:264|466:177,1,150,2|8,0:0|0:0,0:0:0:0:
459,161,98945,1,0,0:0:0:0:
459,161,99079,2,0,P|328:119|274:184,1,150,2|8,0:0|0:0,0:0:0:0:
207,206,99879,6,0,P|78:172|67:85,1,150,2|8,0:0|0:0,0:0:0:0:
74,69,100545,1,0,0:0:0:0:
74,69,100679,2,0,P|205:27|259:92,1,150,2|8,0:0|0:0,0:0:0:0:
162,117,101345,1,0,0:0:0:0:
162,117,101479,6,0,P|206:132|268:137,1,100,2|0,0:0|0:0,0:0:0:0:
296,104,101879,2,0,P|340:89|402:84,1,100,8|0,0:0|0:0,0:0:0:0:
441,96,102279,1,2,0:0:0:0:
409,190,102545,1,0,0:0:0:0:
409,190,102679,1,8,0:0:0:0:
441,284,102945,1,0,0:0:0:0:
441,284,103079,6,0,P|391:279|343:263,1,100,2|0,0:0|0:0,0:0:0:0:
308,227,103479,2,0,P|258:232|210:248,1,100,8|0,0:0|0:0,0:0:0:0:
171,278,103879,1,2,0:0:0:0:
74,251,104145,1,8,0:0:0:0:
74,251,104279,2,0,P|47:248|16:248,2,50,2|0|2,0:0|0:0|0:0,0:0:0:0:
85,298,104679,6,0,P|101:227|164:192,1,150,6|8,0:0|0:0,0:0:0:0:
264,200,105345,2,0,P|318:248|317:321,1,150,2|0,0:0|0:0,0:0:0:0:
295,366,105879,1,8,0:0:0:0:
170,277,106279,6,0,P|166:327|139:369,1,100,2|0,0:0|0:0,0:0:0:0:
92,352,106679,1,8,0:0:0:0:
74,251,106945,2,0,P|89:179|152:144,1,150,2|0,0:0|0:0,0:0:0:0:
202,142,107479,1,8,0:0:0:0:
202,142,107879,6,0,P|217:213|280:248,1,150,2|8,0:0|0:0,0:0:0:0:
380,243,108545,2,0,P|434:194|433:121,1,150,2|0,0:0|0:0,0:0:0:0:
389,96,109079,1,8,0:0:0:0:
239,110,109479,1,2,0:0:0:0:
159,49,109745,2,0,L|111:38,1,50,0|8,0:0|0:0,0:0:0:0:
34,103,110145,2,0,L|82:114,1,50,2|0,0:0|0:0,0:0:0:0:
164,172,110545,1,0,0:0:0:0:
164,172,110679,2,0,L|150:230,2,50,8|0|0,0:0|0:0|0:0,0:0:0:0:
116,186,111079,6,0,P|188:189|239:137,1,150,2|8,0:0|0:0,0:0:0:0:
318,77,111745,2,0,P|278:138|298:208,1,150,2|0,0:0|0:0,0:0:0:0:
332,244,112279,1,8,0:0:0:0:
481,238,112679,6,0,P|447:173|377:155,1,150,2|8,0:0|0:0,0:0:0:0:
318,77,113345,2,0,P|390:80|441:28,1,150,2|0,0:0|0:0,0:0:0:0:
391,22,113879,1,8,0:0:0:0:
391,21,114279,6,0,P|355:85|377:154,2,150,2|8|2,0:0|0:0|0:0,0:0:0:0:
457,96,115345,1,0,0:0:0:0:
457,96,115479,2,0,P|473:142|468:192,1,100,8|0,0:0|0:0,0:0:0:0:
439,233,115879,6,0,P|389:286|316:287,2,150,2|8|6,0:0|0:0|0:0,0:0:0:0:
488,237,116812,2,0,L|493:289,1,50,8|8,0:0|0:0,0:0:0:0:
462,327,117079,1,8,0:0:0:0:
317,287,117479,5,2,0:0:0:0:
172,246,117879,1,8,0:0:0:0:
99,314,118145,2,0,L|50:304,1,50,0|0,0:0|0:0,0:0:0:0:
15,209,118545,1,2,0:0:0:0:
15,209,118679,2,0,P|64:208|107:183,1,100,8|0,0:0|0:0,0:0:0:0:
135,141,119079,5,2,0:0:0:0:
89,52,119345,2,0,L|137:42,1,50,0|8,0:0|0:0,0:0:0:0:
222,96,119745,2,0,L|270:86,1,50,2|0,0:0|0:0,0:0:0:0:
354,141,120145,1,0,0:0:0:0:
354,141,120279,2,0,P|367:85|357:42,1,100,8|0,0:0|0:0,0:0:0:0:
307,47,120679,5,2,0:0:0:0:
164,92,121079,1,8,0:0:0:0:
101,14,121345,2,0,L|52:4,1,50,0|0,0:0|0:0,0:0:0:0:
70,102,121745,1,2,0:0:0:0:
70,102,121879,2,0,P|72:152|61:201,1,100,8|0,0:0|0:0,0:0:0:0:
84,244,122279,5,2,0:0:0:0:
233,235,122679,1,8,0:0:0:0:
153,295,122945,2,0,L|203:305,1,50,2|0,0:0|0:0,0:0:0:0:
301,294,123345,1,0,0:0:0:0:
301,293,123479,2,0,P|347:274|396:268,1,100,8|0,0:0|0:0,0:0:0:0:
445,276,123879,5,2,0:0:0:0:
321,190,124279,2,0,P|341:120|409:96,2,150,8|0|8,0:0|0:0|0:0,0:0:0:0:
471,180,125479,1,2,0:0:0:0:
445,276,125745,2,0,L|397:291,1,50,0|8,0:0|0:0,0:0:0:0:
297,288,126145,1,2,0:0:0:0:
297,288,126279,2,0,L|284:345,2,50,0|0|0,0:0|0:0|0:0,0:0:0:0:
252,264,126679,2,0,L|238:215,2,50,8|8|8,0:0|0:0|0:0,0:0:0:0:
208,290,127079,6,0,P|135:305|60:306,1,150,6|8,0:0|0:0,0:0:0:0:
50,201,127745,2,0,P|123:185|198:184,1,150,2|2,0:0|0:0,0:0:0:0:
238,216,128279,1,8,0:0:0:0:
383,247,128679,6,0,P|404:175|405:100,1,150,2|8,0:0|0:0,0:0:0:0:
329,35,129345,2,0,P|308:106|307:181,1,150,2|0,0:0|0:0,0:0:0:0:
313,231,129879,1,8,0:0:0:0:
313,231,130279,5,8,0:0:0:0:
313,231,130679,2,0,B|310:256|290:281|290:281|200:265|206:122|334:106|408:147|407:235|389:272|359:308,1,450,4|2,0:0|0:0,0:0:0:0:
271,355,132145,6,0,L|224:339,1,50,8|0,0:3|0:0,0:0:0:0:
123,330,132545,2,0,L|90:292,1,50,8|10,0:0|0:0,0:0:0:0:
15,225,132945,1,8,0:3:0:0:
15,225,133079,2,0,L|5:176,2,50,0|0|0,0:0|0:0|0:0,0:0:0:0:
107,185,133479,6,0,P|134:266|90:292,1,150,6|8,0:0|0:0,0:0:0:0:
153,120,134145,2,0,P|206:175|220:260,1,150,2|0,0:0|0:0,0:0:0:0:
195,321,134679,1,8,0:0:0:0:
302,207,134945,1,0,0:0:0:0:
275,131,135079,6,0,P|291:58|343:5,1,150,2|8,0:0|0:0,0:0:0:0:
490,87,135745,1,0,0:0:0:0:
490,87,135879,2,0,P|446:111|397:114,1,100,2|0,0:0|0:0,0:0:0:0:
340,171,136279,2,0,P|395:192|449:189,1,100,8|8,0:0|0:3,0:0:0:0:
442,271,136679,6,0,P|367:268|298:239,1,150,2|8,0:0|0:0,0:0:0:0:
406,108,137345,2,0,P|422:182|359:172,1,150,2|0,0:0|0:0,0:0:0:0:
326,115,137879,1,8,0:0:0:0:
473,54,138145,1,0,0:0:0:0:
397,26,138279,6,0,P|355:20|258:28,1,100,2|0,0:0|0:0,0:0:0:0:
243,80,138679,2,0,P|201:86|104:78,1,100,8|0,0:0|0:0,0:0:0:0:
65,65,139079,1,2,0:0:0:0:
187,167,139345,1,0,0:0:0:0:
187,167,139479,2,0,P|137:168|87:162,1,100,8|8,0:0|0:3,0:0:0:0:
267,160,139879,6,0,P|265:217|253:286,1,100,2|0,0:0|0:0,0:0:0:0:
186,347,140279,2,0,P|179:297|177:247,1,100,8|2,0:0|0:0,0:0:0:0:
187,167,140679,1,0,0:0:0:0:
340,257,140945,1,0,0:0:0:0:
349,176,141078,1,8,0:0:0:0:
502,266,141345,1,8,0:3:0:0:
511,185,141479,6,0,P|509:128|497:59,1,100,2|0,0:0|0:0,0:0:0:0:
473,11,141879,1,8,0:0:0:0:
314,24,142145,1,2,0:0:0:0:
305,105,142279,2,0,P|307:162|319:231,1,100,0|0,0:0|0:0,0:0:0:0:
343,279,142679,2,0,P|257:262|234:219,1,100,8|0,0:0|0:0,0:0:0:0:
393,216,143079,6,0,P|423:286|394:341,1,100,2|0,0:0|0:0,0:0:0:0:
357,358,143479,1,8,0:0:0:0:
313,205,143745,2,0,P|263:286|307:350,1,150,2|0,0:0|0:0,0:0:0:0:
185,289,144279,2,0,P|192:229|229:168,1,100,8|0,0:0|0:0,0:0:0:0:
150,138,144679,6,0,P|94:161|23:160,1,100,2|0,0:0|0:0,0:0:0:0:
37,243,145079,2,0,P|85:279|119:341,1,100,8|2,0:0|0:0,0:0:0:0:
185,289,145479,2,0,P|188:244|202:203,1,50,0|0,0:0|0:0,0:0:0:0:
225,168,145745,1,8,0:3:0:0:
225,168,145879,2,0,P|273:204|307:266,1,100,0|0,0:0|0:0,0:0:0:0:
272,332,146279,6,0,P|279:272|316:211,1,100,6|0,0:0|0:0,0:0:0:0:
362,192,146679,1,8,0:0:0:0:
295,47,146945,2,0,P|229:39|125:52,1,150,2|2,0:0|0:0,0:0:0:0:
170,123,147479,2,0,L|298:123,1,100,8|0,0:0|0:0,0:0:0:0:
295,199,147879,6,0,P|229:207|125:194,1,150,2|8,0:0|0:0,0:0:0:0:
146,47,148545,2,0,P|212:39|316:52,1,150,2|0,0:0|0:0,0:0:0:0:
270,123,149079,2,0,L|142:123,1,100,8|8,0:0|0:3,0:0:0:0:
97,155,149479,6,0,P|88:235|125:274,1,100,2|0,0:0|0:0,0:0:0:0:
161,203,149879,1,8,0:0:0:0:
18,130,150145,2,0,P|17:274|100:351,1,150,2|2,0:0|0:0,0:0:0:0:
79,327,150679,2,0,P|134:333|200:321,1,100,8|0,0:0|0:0,0:0:0:0:
238,274,151079,6,0,P|239:130|156:53,1,150,2|8,0:0|0:0,0:0:0:0:
95,201,151745,1,0,0:0:0:0:
159,249,151879,2,0,P|168:169|131:130,1,100,2|0,0:0|0:0,0:0:0:0:
87,121,152279,2,0,P|23:165|19:227,1,100,10|8,0:0|0:3,0:0:0:0:
160,155,152679,6,0,P|228:126|266:62,1,150,2|8,0:0|0:0,0:0:0:0:
423,86,153345,2,0,P|355:115|317:179,1,150,2|2,0:0|0:0,0:0:0:0:
365,243,153879,2,0,P|332:318|275:332,1,100,10|0,0:0|0:0,0:0:0:0:
286,253,154279,6,0,P|218:282|180:346,1,150,2|8,0:0|0:0,0:0:0:0:
23,322,154945,2,0,P|91:293|129:229,1,150,2|2,0:0|0:0,0:0:0:0:
81,165,155479,2,0,P|114:90|171:76,1,100,8|0,0:0|0:0,0:0:0:0:
160,155,155879,5,2,0:0:0:0:
283,53,156145,1,8,0:3:0:0:
317,125,156279,1,2,0:0:0:0:
440,23,156545,1,0,0:0:0:0:
474,95,156679,2,0,P|475:146|453:235,1,100,10|8,0:0|0:3,0:0:0:0:
387,188,157079,2,0,P|386:137|408:48,1,100,2|2,0:0|0:0,0:0:0:0:
421,260,157479,5,10,0:0:0:0:
235,112,157879,2,0,P|286:89|321:120,1,100,4|0,0:0|0:0,0:0:0:0:
394,89,158279,2,0,P|297:12|157:93,1,300,0|6,0:0|0:0,0:0:0:0:
276,299,159479,5,8,0:0:0:0:
276,139,159745,1,2,0:0:0:0:
260,218,159879,2,0,P|333:196|356:139,1,100,0|0,0:0|0:0,0:0:0:0:
346,99,160279,2,0,P|285:59|226:76,1,100,8|0,0:0|0:0,0:0:0:0:
276,139,160679,5,2,0:0:0:0:
416,219,160945,1,0,0:0:0:0:
416,219,161079,1,8,0:0:0:0:
416,59,161345,1,0,0:0:0:0:
416,59,161479,1,0,0:0:0:0:
276,139,161745,1,0,0:0:0:0:
276,139,161879,1,8,0:0:0:0:
416,219,162145,1,0,0:0:0:0:
416,219,162279,5,8,0:0:0:0:
276,139,162545,2,0,P|202:128|128:138,2,150,0|8|8,0:0|0:3|0:3,0:0:0:0:
251,216,163479,2,0,P|192:209|124:227,1,100,0|0,0:0|0:0,0:0:0:0:
203,342,163879,6,0,P|140:303|66:305,1,150,6|8,0:0|0:0,0:0:0:0:
276,139,164545,2,0,P|274:213|313:276,1,150,2|2,0:0|0:0,0:0:0:0:
381,319,165079,1,8,0:0:0:0:
386,304,165345,5,0,0:0:0:0:
306,292,165479,2,0,P|258:280|215:256,1,100,2|0,0:0|0:0,0:0:0:0:
179,99,165879,2,0,P|213:63|256:37,1,100,8|0,0:0|0:0,0:0:0:0:
410,86,166279,2,0,P|424:133|424:183,1,100,2|0,0:0|0:0,0:0:0:0:
458,256,166679,1,8,0:0:0:0:
441,269,166945,5,8,0:3:0:0:
445,188,167079,2,0,P|382:149|308:151,1,150,2|8,0:0|0:0,0:0:0:0:
165,344,167745,2,0,P|91:345|28:305,1,150,2|2,0:0|0:0,0:0:0:0:
25,225,168279,1,8,0:0:0:0:
37,216,168545,5,0,0:0:0:0:
9,291,168679,2,0,P|52:315|100:327,1,100,2|0,0:0|0:0,0:0:0:0:
175,185,169079,2,0,P|131:161|82:148,1,100,8|0,0:0|0:0,0:0:0:0:
37,216,169479,1,2,0:0:0:0:
121,77,169745,1,0,0:0:0:0:
47,105,169879,1,8,0:0:0:0:
266,182,170145,1,8,0:3:0:0:
338,216,170279,6,0,P|336:165|323:118,1,100,2|0,0:0|0:0,0:0:0:0:
282,48,170679,1,8,0:0:0:0:
414,247,170945,1,2,0:0:0:0:
414,247,171079,2,0,L|462:258,1,50,0|0,0:0|0:0,0:0:0:0:
336,324,171345,1,2,0:0:0:0:
399,272,171479,2,0,P|422:227|433:178,1,100,8|8,0:0|0:3,0:0:0:0:
338,216,171879,6,0,P|298:244|251:261,1,100,2|0,0:0|0:0,0:0:0:0:
161,128,172279,2,0,P|207:149|244:182,1,100,8|2,0:0|0:0,0:0:0:0:
174,328,172679,2,0,P|170:279|178:230,1,100,0|0,0:0|0:0,0:0:0:0:
107,191,173079,1,8,0:0:0:0:
107,191,173212,2,0,L|55:181,1,50,0|2,0:0|0:0,0:0:0:0:
44,51,173479,6,0,L|51:114,2,50,2|0|0,0:0|0:0|0:0,0:0:0:0:
128,112,173879,2,0,L|135:49,2,50,8|0|2,0:0|0:0|0:0,0:0:0:0:
214,77,174279,2,0,L|321:72,1,100,0|2,0:0|0:0,0:0:0:0:
486,105,174679,2,0,L|386:108,1,100,8|0,0:0|0:0,0:0:0:0:
318,152,175079,6,0,P|277:181|246:220,1,100,2|0,0:0|0:0,0:0:0:0:
167,204,175479,2,0,P|117:195|72:176,1,100,10|8,0:0|0:0,0:0:0:0:
193,281,175879,2,0,P|211:328|215:378,1,100,2|0,0:0|0:0,0:0:0:0:
246,220,176279,1,2,0:0:0:0:
246,220,176679,6,0,P|309:181|383:183,1,150,6|8,0:0|0:0,0:0:0:0:
212,16,177345,2,0,P|214:90|175:153,1,150,2|2,0:0|0:0,0:0:0:0:
95,140,177879,1,8,0:0:0:0:
84,160,178145,5,0,0:0:0:0:
163,172,178279,2,0,P|211:160|254:136,1,100,2|0,0:0|0:0,0:0:0:0:
373,272,178679,2,0,P|338:236|295:210,1,100,8|0,0:0|0:0,0:0:0:0:
356,41,179079,2,0,P|341:88|341:138,1,100,2|0,0:0|0:0,0:0:0:0:
407,183,179479,1,8,0:0:0:0:
419,173,179745,5,8,0:3:0:0:
352,127,179879,2,0,P|278:124|215:163,1,150,2|8,0:0|0:0,0:0:0:0:
70,358,180545,2,0,P|143:359|206:319,1,150,2|2,0:0|0:0,0:0:0:0:
185,241,181079,1,8,0:0:0:0:
197,229,181345,5,0,0:0:0:0:
263,273,181479,2,0,P|219:297|171:309,1,100,2|0,0:0|0:0,0:0:0:0:
4,238,181879,2,0,P|47:214|96:201,1,100,8|0,0:0|0:0,0:0:0:0:
98,281,182279,1,2,0:0:0:0:
336,267,182545,1,2,0:0:0:0:
319,346,182679,1,8,0:0:0:0:
315,105,182945,1,8,0:3:0:0:
305,184,183079,6,0,P|303:133|290:86,1,100,2|0,0:0|0:0,0:0:0:0:
245,19,183479,1,8,0:0:0:0:
227,177,183745,1,2,0:0:0:0:
227,177,183879,2,0,L|179:188,1,50,0|0,0:0|0:0,0:0:0:0:
98,182,184145,1,0,0:0:0:0:
129,255,184279,2,0,P|152:210|163:161,1,100,8|8,0:0|0:3,0:0:0:0:
219,258,184679,6,0,P|259:286|306:303,1,100,2|0,0:0|0:0,0:0:0:0:
411,155,185079,2,0,P|365:176|328:209,1,100,8|2,0:0|0:0,0:0:0:0:
403,375,185479,2,0,P|407:326|399:277,1,100,0|0,0:0|0:0,0:0:0:0:
458,222,185879,1,8,0:0:0:0:
458,222,186012,2,0,L|488:179,1,50,0|0,0:0|0:0,0:0:0:0:
411,155,186279,6,0,P|336:156|264:136,1,150,2|8,0:0|0:0,0:0:0:0:
34,56,186945,2,0,P|106:35|180:37,1,150,2|2,0:0|0:0,0:0:0:0:
186,117,187479,2,0,P|170:163|161:213,1,100,8|0,0:0|0:0,0:0:0:0:
66,244,187879,6,0,P|106:273|137:312,1,100,2|0,0:0|0:0,0:0:0:0:
237,284,188279,2,0,P|240:234|258:187,1,100,10|0,0:0|0:0,0:0:0:0:
187,117,188679,2,0,P|141:136|92:144,1,100,0|8,0:0|0:3,0:0:0:0:
12,53,189079,1,2,0:0:0:0:
12,53,189212,2,0,L|58:71,1,50,0|0,0:0|0:0,0:0:0:0:
27,192,189479,6,0,P|24:239|30:304,1,100,6|0,0:0|0:0,0:0:0:0:
52,368,189879,1,8,0:0:0:0:
108,162,190145,2,0,P|104:236|109:311,1,150,2|2,0:0|0:0,0:0:0:0:
188,286,190679,2,0,P|184:236|186:186,1,100,8|0,0:0|0:0,0:0:0:0:
239,125,191079,6,0,P|318:184|386:182,1,150,2|8,0:0|0:0,0:0:0:0:
359,27,191745,2,0,P|305:70|386:79,1,150,2|2,0:0|0:0,0:0:0:0:
425,72,192279,2,0,P|492:117|498:169,1,100,8|8,0:0|0:3,0:0:0:0:
405,245,192679,6,0,P|399:189|420:152,1,100,2|0,0:0|0:0,0:0:0:0:
476,209,193079,1,8,0:0:0:0:
320,175,193345,2,0,P|240:167|137:184,1,150,2|2,0:0|0:0,0:0:0:0:
118,236,193879,2,0,P|34:215|12:169,1,100,8|0,0:0|0:0,0:0:0:0:
84,80,194279,6,0,P|150:104|171:175,1,150,2|10,0:0|0:0,0:0:0:0:
112,324,194945,1,0,0:0:0:0:
182,284,195079,2,0,P|237:282|313:288,1,100,2|0,0:0|0:0,0:0:0:0:
281,365,195479,2,0,P|226:367|150:361,1,100,10|0,0:0|0:0,0:0:0:0:
351,325,195879,6,0,P|417:320|492:367,1,150,2|8,0:0|0:0,0:0:0:0:
392,232,196545,2,0,P|387:166|434:91,1,150,2|2,0:0|0:0,0:0:0:0:
486,40,197079,2,0,P|439:39|370:17,1,100,8|2,0:0|0:0,0:0:0:0:
197,49,197479,6,0,P|259:88|333:85,1,150,2|8,0:0|0:0,0:0:0:0:
188,151,198145,2,0,P|149:213|152:287,1,150,2|2,0:0|0:0,0:0:0:0:
210,344,198679,2,0,P|163:345|94:367,1,100,10|0,0:0|0:0,0:0:0:0:
288,364,199079,5,6,0:0:0:0:
254,207,199345,1,8,0:3:0:0:
332,227,199479,1,2,0:0:0:0:
298,70,199745,1,0,0:0:0:0:
376,90,199879,2,0,P|447:141|472:195,1,100,10|8,0:0|0:3,0:0:0:0:
474,228,200279,2,0,P|451:306|412:345,1,100,2|0,0:0|0:0,0:0:0:0:
332,227,200679,5,10,0:0:0:0:
93,208,201079,2,0,P|104:141|149:85,1,100,4|0,0:0|0:0,0:0:0:0:
274,151,201479,2,0,P|231:258|232:135,1,300,0|6,0:0|0:0,0:0:0:0:
431,114,202679,5,8,0:0:0:0:
381,265,202945,2,0,L|374:179,1,50,2|0,0:0|0:0,0:0:0:0:
482,335,203345,2,0,L|489:249,1,50,0|8,0:0|0:0,0:0:0:0:
352,374,203745,1,0,0:0:0:0:
294,318,203879,6,0,L|287:232,2,50,6|0|0,0:0|0:0|0:0,0:0:0:0:
213,242,204279,2,0,L|206:328,2,50,0|0|0,0:0|0:0|0:0,0:0:0:0:
132,318,204679,2,0,L|125:232,2,50,2|0|0,0:0|0:0|0:0,0:0:0:0:
51,242,205079,2,0,L|44:328,2,50,0|0|0,0:0|0:0|0:0,0:0:0:0:
112,189,205479,6,0,P|126:119|41:51,2,150,6|8|2,0:0|0:0|0:0,0:0:0:0:
251,132,206679,1,8,0:0:0:0:
333,189,206945,1,0,0:0:0:0:
333,189,207079,6,0,P|388:208|453:206,1,100,2|0,0:0|0:0,0:0:0:0:
446,256,207479,2,0,P|391:275|326:273,1,100,8|2,0:0|0:0,0:0:0:0:
333,323,207879,2,0,P|403:349|477:353,1,150,0|8,0:0|0:0,0:0:0:0:
512,203,208679,6,0,P|442:177|368:173,2,150,2|8|0,0:0|0:0|0:0,0:0:0:0:
333,323,209879,1,8,0:0:0:0:
287,234,210145,1,0,0:0:0:0:
287,234,210279,6,0,P|268:179|270:114,1,100,2|0,0:0|0:0,0:0:0:0:
220,121,210679,2,0,P|201:176|203:241,1,100,8|2,0:0|0:0,0:0:0:0:
153,234,211079,2,0,P|127:164|123:90,1,150,0|8,0:0|0:0,0:0:0:0:
273,55,211879,5,2,0:0:0:0:
273,55,212145,2,0,P|299:125|303:199,1,150,8|2,0:3|0:0,0:0:0:0:
258,222,212679,1,2,0:0:0:0:
258,222,212945,2,0,P|232:292|228:366,1,150,8|0,0:3|0:0,0:0:0:0:
275,384,213479,6,0,L|341:379,2,50,2|0|0,0:0|0:0|0:0,0:0:0:0:
228,366,213879,2,0,L|162:361,2,50,0|0|8,0:0|0:0|0:0,0:0:0:0:
267,335,214279,1,8,0:0:0:0:
256,186,214679,6,0,L|256:58,1,100,2|4,0:0|0:0,0:0:0:0:
256,192,215079,12,0,221479,0:0:0:0:
