osu file format v14

[General]
AudioFilename: audio.mp3
AudioLeadIn: 0
PreviewTime: 152827
Countdown: 0
SampleSet: Soft
StackLeniency: 0.3
Mode: 0
LetterboxInBreaks: 0
WidescreenStoryboard: 1

[Editor]
Bookmarks: 2142,9112,25102,41102,55082,73102,89102,105102,121102,129102,135102,137102,183102,195102,211102,219102
DistanceSpacing: 1.1
BeatDivisor: 2
GridSize: 16
TimelineZoom: 1.2

[Metadata]
Title:Replica
TitleUnicode:レプリカ
Artist:Isekaijoucho
ArtistUnicode:ヰ世界情緒
Creator:LeeGod
Version:Apis' Normal
Source:
Tags:japanese rock jrock j-rock UKRampage kamitsubaki studio sasakure.uk odyssey ささくれP sasakureP sasakuration ササクレイション 佐々木秀尚 sasaki hidehisa 二家本亮介 nikamoto ryosuke 今井義頼 yoshinori imai 岸田勇気 yuki kishida O K U O_K_U Uzawa Reisa Apis035 Silent Rock JHC_ WM W_M cover
BeatmapID:3998156
BeatmapSetID:1879663

[Difficulty]
HPDrainRate:3
CircleSize:3
OverallDifficulty:4
ApproachRate:6
SliderMultiplier:0.9
SliderTickRate:1

[Events]
//Background and Video events
0,0,"82603886_p0.jpg",0,0
//Break Periods
2,121302,127977
2,183052,194052
//Storyboard Layer 0 (Background)
//Storyboard Layer 1 (Fail)
//Storyboard Layer 2 (Pass)
//Storyboard Layer 3 (Foreground)
Sprite,Foreground,Centre,"sb\sprites\bigDot.png",0,0 C,0,57102,,192,192,192 M,0,57102,57164,419,72,396.9474,68.14455 F,2,57102,57977,1,0 S,2,57102,57977,2,0.4 P,0,57102,57977,A M,0,57164,57227,396.9474,68.14455,375.317,73.4704 M,0,57227,57289,375.317,73.4704,357.8425,87.50517 M,0,57289,57352,357.8425,87.50517,340.7138,101.9957 M,0,57352,57414,340.7138,101.9957,319.3747,108.3887 M,0,57414,57477,319.3747,108.3887,297.1517,105.6556
Sprite,Foreground,Centre,"sb\sprites\bigDot.png",252,101 C,0,57602,,192,192,192 F,2,57602,58102,1,0 S,2,57602,58102,2,0.4 P,0,57602,58102,A
Sprite,Foreground,Centre,"sb\sprites\bigDot.png",0,0 C,0,57727,,192,192,192 M,0,57727,57789,252,101,247.5874,123.0631 F,2,57727,58477,1,0 S,2,57727,58477,2,0.4 P,0,57727,58477,A M,0,57789,57852,247.5874,123.0631,243.1748,145.1261 M,0,57852,57914,243.1748,145.1261,238.7622,167.1892 M,0,57914,57977,238.7622,167.1892,234.3495,189.2523
Sprite,Foreground,Centre,"sb\sprites\bigDot.png",242,242 C,0,58102,,192,192,192 F,2,58102,58602,1,0 S,2,58102,58602,2,0.4 P,0,58102,58602,A
Sprite,Foreground,Centre,"sb\sprites\bigDot.png",0,0 C,0,58227,,192,192,192 M,0,58227,58289,242,242,237.5874,264.063 F,2,58227,58977,1,0 S,2,58227,58977,2,0.4 P,0,58227,58977,A M,0,58289,58352,237.5874,264.063,233.1748,286.1261 M,0,58352,58414,233.1748,286.1261,228.7622,308.1892 M,0,58414,58477,228.7622,308.1892,224.3495,330.2523
Sprite,Foreground,Centre,"sb\sprites\bigDot.png",217,379 C,0,58602,,192,192,192 F,2,58602,59102,1,0 S,2,58602,59102,2,0.4 P,0,58602,59102,A
Sprite,Foreground,Centre,"sb\sprites\bigDot.png",314,360 C,0,58852,,192,192,192 F,2,58852,59352,1,0 S,2,58852,59352,2,0.4 P,0,58852,59352,A
Sprite,Foreground,Centre,"sb\sprites\bigDot.png",0,0 C,0,59102,,252,141,129 M,0,59102,59164,378,435,399.7146,429.1101 F,2,59102,59977,1,0 S,2,59102,59977,2,0.4 P,0,59102,59977,A M,0,59164,59227,399.7146,429.1101,421.5444,423.6638 M,0,59227,59289,421.5444,423.6638,443.488,418.6951 M,0,59289,59352,443.488,418.6951,465.5351,414.2062 M,0,59352,59414,465.5351,414.2062,487.683,410.2459 M,0,59414,59477,487.683,410.2459,509.9068,406.7389
Sprite,Foreground,Centre,"sb\sprites\bigDot.png",560,393 C,0,59602,,252,141,129 F,2,59602,60102,1,0 S,2,59602,60102,2,0.4 P,0,59602,60102,A
Sprite,Foreground,Centre,"sb\sprites\bigDot.png",0,0 C,0,59727,,252,141,129 M,0,59727,59789,560,393,572.0802,374.159 F,2,59727,60477,1,0 S,2,59727,60477,2,0.4 P,0,59727,60477,A M,0,59789,59852,572.0802,374.159,579.2618,352.9952 M,0,59852,59914,579.2618,352.9952,580.7367,330.6451 M,0,59914,59977,580.7367,330.6451,575.8221,308.8165
Sprite,Foreground,Centre,"sb\sprites\bigDot.png",575,263 C,0,60102,,252,141,129 F,2,60102,60602,1,0 S,2,60102,60602,2,0.4 P,0,60102,60602,A
Sprite,Foreground,Centre,"sb\sprites\bigDot.png",0,0 C,0,60227,,252,141,129 M,0,60227,60289,575,263,563.4987,243.7752 F,2,60227,60977,1,0 S,2,60227,60977,2,0.4 P,0,60227,60977,A M,0,60289,60352,563.4987,243.7752,548.0542,227.5915 M,0,60352,60414,548.0542,227.5915,529.1951,215.5077 M,0,60414,60477,529.1951,215.5077,507.8968,208.5959
Sprite,Foreground,Centre,"sb\sprites\bigDot.png",459,198 C,0,60602,,252,141,129 F,2,60602,61102,1,0 S,2,60602,61102,2,0.4 P,0,60602,61102,A
Sprite,Foreground,Centre,"sb\sprites\bigDot.png",0,0 C,0,60852,,252,141,129 M,0,60852,60914,379,257,383.4126,279.063 F,2,60852,61477,1,0 S,2,60852,61477,2,0.4 P,0,60852,61477,A M,0,60914,60977,383.4126,279.063,387.8252,301.1261
Sprite,Foreground,Centre,"sb\sprites\bigDot.png",0,0 C,0,61102,,157,201,255 M,0,61102,61164,381,350,364.9319,365.5572 F,2,61102,61852,1,0 S,2,61102,61852,2,0.4 P,0,61102,61852,A M,0,61164,61227,364.9319,365.5572,345.457,376.4842 M,0,61227,61289,345.457,376.4842,323.675,381.6723 M,0,61289,61352,323.675,381.6723,301.374,380.0418
Sprite,Foreground,Centre,"sb\sprites\bigDot.png",256,374 C,0,61477,,157,201,255 F,2,61477,61977,1,0 S,2,61477,61977,2,0.4 P,0,61477,61977,A
Sprite,Foreground,Centre,"sb\sprites\bigDot.png",256,374 C,0,61602,,157,201,255 F,2,61602,62102,1,0 S,2,61602,62102,2,0.4 P,0,61602,62102,A
Sprite,Foreground,Centre,"sb\sprites\bigDot.png",0,0 C,0,61852,,157,201,255 M,0,61852,61914,165,413,160.5874,390.937 F,2,61852,62477,1,0 S,2,61852,62477,2,0.4 P,0,61852,62477,A M,0,61914,61977,160.5874,390.937,156.1748,368.8739
Sprite,Foreground,Centre,"sb\sprites\bigDot.png",0,0 C,0,62102,,157,201,255 M,0,62102,62164,145,320,140.5874,297.937 F,2,62102,62852,1,0 S,2,62102,62852,2,0.4 P,0,62102,62852,A M,0,62164,62227,140.5874,297.937,136.1748,275.8739 M,0,62227,62289,136.1748,275.8739,131.7622,253.8108 M,0,62289,62352,131.7622,253.8108,127.3495,231.7477
Sprite,Foreground,Centre,"sb\sprites\bigDot.png",0,0 C,0,62602,,157,201,255 M,0,62602,62664,73,148,92.58699,137.169 F,2,62602,63352,1,0 S,2,62602,63352,2,0.4 P,0,62602,63352,A M,0,62664,62727,92.58699,137.169,114.1636,131.3271 M,0,62727,62789,114.1636,131.3271,136.5732,131.2081 M,0,62789,62852,136.5732,131.2081,158.0651,137.449
Sprite,Foreground,Centre,"sb\sprites\bigDot.png",0,0 C,0,63102,,222,215,199 M,0,63102,63164,220,214,241.3194,206.8135 F,2,63102,63852,1,0 S,2,63102,63852,2,0.4 P,0,63102,63852,A M,0,63164,63227,241.3194,206.8135,262.8516,200.2943 M,0,63227,63289,262.8516,200.2943,284.5902,194.4977 M,0,63289,63352,284.5902,194.4977,306.5238,189.4906
Sprite,Foreground,Centre,"sb\sprites\bigDot.png",358,180 C,0,63477,,222,215,199 F,2,63477,63977,1,0 S,2,63477,63977,2,0.4 P,0,63477,63977,A
Sprite,Foreground,Centre,"sb\sprites\bigDot.png",358,180 C,0,63602,,222,215,199 F,2,63602,64102,1,0 S,2,63602,64102,2,0.4 P,0,63602,64102,A
Sprite,Foreground,Centre,"sb\sprites\bigDot.png",443,230 C,0,63852,,222,215,199 F,2,63852,64352,1,0 S,2,63852,64352,2,0.4 P,0,63852,64352,A
Sprite,Foreground,Centre,"sb\sprites\bigDot.png",0,0 C,0,64102,,222,215,199 M,0,64102,64164,534,191,544.8885,171.3316 F,2,64102,65102,1,0 S,2,64102,65102,2,0.4 P,0,64102,65102,A M,0,64164,64227,544.8885,171.3316,552.5516,150.2072 M,0,64227,64289,552.5516,150.2072,556.1375,128.033 M,0,64289,64352,556.1375,128.033,555.1514,105.5944 M,0,64352,64414,555.1514,105.5944,549.777,83.77969 M,0,64414,64477,549.777,83.77969,540.7444,63.19749 M,0,64477,64539,540.7444,63.19749,520.554,63.90285 M,0,64539,64602,520.554,63.90285,499.0074,70.34782
Sprite,Foreground,Centre,"sb\sprites\bigDot.png",438,149 C,0,64852,,222,215,199 F,2,64852,65352,1,0 S,2,64852,65352,2,0.4 P,0,64852,65352,A
Sprite,Foreground,Centre,"sb\sprites\bigDot.png",0,0 C,0,65102,,192,192,192 M,0,65102,65164,367,79,345.6546,71.88487 F,2,65102,65977,1,0 S,2,65102,65977,2,0.4 P,0,65102,65977,A M,0,65164,65227,345.6546,71.88487,324.3093,64.76975 M,0,65227,65289,324.3093,64.76975,303.881,70.5595 M,0,65289,65352,303.881,70.5595,283.7564,80.62181 M,0,65352,65414,283.7564,80.62181,263.6318,90.68411 M,0,65414,65477,263.6318,90.68411,243.5072,100.7464
Sprite,Foreground,Centre,"sb\sprites\bigDot.png",215,143 C,0,65602,,192,192,192 F,2,65602,66102,1,0 S,2,65602,66102,2,0.4 P,0,65602,66102,A
Sprite,Foreground,Centre,"sb\sprites\bigDot.png",0,0 C,0,65727,,192,192,192 M,0,65727,65789,215,143,222.62,164.1672 F,2,65727,66477,1,0 S,2,65727,66477,2,0.4 P,0,65727,66477,A M,0,65789,65852,222.62,164.1672,229.4085,185.6145 M,0,65852,65914,229.4085,185.6145,235.2938,207.3282 M,0,65914,65977,235.2938,207.3282,240.1881,229.286
Sprite,Foreground,Centre,"sb\sprites\bigDot.png",270,275 C,0,66102,,192,192,192 F,2,66102,66602,1,0 S,2,66102,66602,2,0.4 P,0,66102,66602,A
Sprite,Foreground,Centre,"sb\sprites\bigDot.png",0,0 C,0,66227,,192,192,192 M,0,66227,66289,270,275,265.5092,297.045 F,2,66227,66977,1,0 S,2,66227,66977,2,0.4 P,0,66227,66977,A M,0,66289,66352,265.5092,297.045,260.2909,318.9286 M,0,66352,66414,260.2909,318.9286,254.2986,340.6137 M,0,66414,66477,254.2986,340.6137,247.4832,362.0542
Sprite,Foreground,Centre,"sb\sprites\bigDot.png",233,409 C,0,66602,,192,192,192 F,2,66602,67102,1,0 S,2,66602,67102,2,0.4 P,0,66602,67102,A
Sprite,Foreground,Centre,"sb\sprites\bigDot.png",134,418 C,0,66852,,192,192,192 F,2,66852,67352,1,0 S,2,66852,67352,2,0.4 P,0,66852,67352,A
Sprite,Foreground,Centre,"sb\sprites\bigDot.png",0,0 C,0,67102,,252,141,129 M,0,67102,67164,64,347,76.02405,328.113 F,2,67102,67977,1,0 S,2,67102,67977,2,0.4 P,0,67102,67977,A M,0,67164,67227,76.02405,328.113,92.12221,312.6038 M,0,67227,67289,92.12221,312.6038,111.6306,301.6252 M,0,67289,67352,111.6306,301.6252,133.3669,296.3062 M,0,67352,67414,133.3669,296.3062,155.7058,296.4103 M,0,67414,67477,155.7058,296.4103,177.3187,302.132
Sprite,Foreground,Centre,"sb\sprites\bigDot.png",226,328 C,0,67602,,252,141,129 F,2,67602,68102,1,0 S,2,67602,68102,2,0.4 P,0,67602,68102,A
Sprite,Foreground,Centre,"sb\sprites\bigDot.png",0,0 C,0,67727,,252,141,129 M,0,67727,67789,226,328,248.0631,323.5874 F,2,67727,68477,1,0 S,2,67727,68477,2,0.4 P,0,67727,68477,A M,0,67789,67852,248.0631,323.5874,270.1261,319.1748 M,0,67852,67914,270.1261,319.1748,292.1892,314.7621 M,0,67914,67977,292.1892,314.7621,314.2523,310.3495
Sprite,Foreground,Centre,"sb\sprites\bigDot.png",367,321 C,0,68102,,252,141,129 F,2,68102,68602,1,0 S,2,68102,68602,2,0.4 P,0,68102,68602,A
Sprite,Foreground,Centre,"sb\sprites\bigDot.png",0,0 C,0,68227,,252,141,129 M,0,68227,68289,367,321,389.063,316.5874 F,2,68227,68977,1,0 S,2,68227,68977,2,0.4 P,0,68227,68977,A M,0,68289,68352,389.063,316.5874,411.1261,312.1748 M,0,68352,68414,411.1261,312.1748,433.1892,307.7621 M,0,68414,68477,433.1892,307.7621,455.2523,303.3495
Sprite,Foreground,Centre,"sb\sprites\bigDot.png",503,293 C,0,68602,,252,141,129 F,2,68602,69102,1,0 S,2,68602,69102,2,0.4 P,0,68602,69102,A
Sprite,Foreground,Centre,"sb\sprites\bigDot.png",0,0 C,0,68852,,252,141,129 M,0,68852,68914,451,208,455.4126,185.9369 F,2,68852,69477,1,0 S,2,68852,69477,2,0.4 P,0,68852,69477,A M,0,68914,68977,455.4126,185.9369,459.8252,163.8739
Sprite,Foreground,Centre,"sb\sprites\bigDot.png",0,0 C,0,69102,,157,201,255 M,0,69102,69164,454,114,437.9319,98.44283 F,2,69102,69852,1,0 S,2,69102,69852,2,0.4 P,0,69102,69852,A M,0,69164,69227,437.9319,98.44283,418.457,87.51581 M,0,69227,69289,418.457,87.51581,396.675,82.32773 M,0,69289,69352,396.675,82.32773,374.374,83.95821
Sprite,Foreground,Centre,"sb\sprites\bigDot.png",0,0 C,0,69602,,157,201,255 M,0,69602,69664,311,159,316.457,180.8282 F,2,69602,70352,1,0 S,2,69602,70352,2,0.4 P,0,69602,70352,A M,0,69664,69727,316.457,180.8282,321.9141,202.6564 M,0,69727,69789,321.9141,202.6564,327.3712,224.4846 M,0,69789,69852,327.3712,224.4846,332.8282,246.3128
Sprite,Foreground,Centre,"sb\sprites\bigDot.png",347,298 C,0,69977,,157,201,255 F,2,69977,70477,1,0 S,2,69977,70477,2,0.4 P,0,69977,70477,A
Sprite,Foreground,Centre,"sb\sprites\bigDot.png",347,298 C,0,70102,,157,201,255 F,2,70102,70602,1,0 S,2,70102,70602,2,0.4 P,0,70102,70602,A
Sprite,Foreground,Centre,"sb\sprites\bigDot.png",255,335 C,0,70352,,157,201,255 F,2,70352,70852,1,0 S,2,70352,70852,2,0.4 P,0,70352,70852,A
Sprite,Foreground,Centre,"sb\sprites\bigDot.png",0,0 C,0,70602,,157,201,255 M,0,70602,70664,313,415,294.159,427.0802 F,2,70602,71352,1,0 S,2,70602,71352,2,0.4 P,0,70602,71352,A M,0,70664,70727,294.159,427.0802,272.9952,434.2618 M,0,70727,70789,272.9952,434.2618,250.645,435.7368 M,0,70789,70852,250.645,435.7368,228.8165,430.8222
Sprite,Foreground,Centre,"sb\sprites\bigDot.png",0,0 C,0,71102,,222,215,199 M,0,71102,71164,129,428,123.543,406.1718 F,2,71102,71852,1,0 S,2,71102,71852,2,0.4 P,0,71102,71852,A M,0,71164,71227,123.543,406.1718,118.0859,384.3436 M,0,71227,71289,118.0859,384.3436,112.6288,362.5154 M,0,71289,71352,112.6288,362.5154,107.1718,340.6872
Sprite,Foreground,Centre,"sb\sprites\bigDot.png",86,301 C,0,71477,,222,215,199 F,2,71477,71977,1,0 S,2,71477,71977,2,0.4 P,0,71477,71977,A
Sprite,Foreground,Centre,"sb\sprites\bigDot.png",0,0 C,0,71602,,222,215,199 M,0,71602,71664,86,301,91.45705,279.1718 F,2,71602,72227,1,0 S,2,71602,72227,2,0.4 P,0,71602,72227,A M,0,71664,71727,91.45705,279.1718,96.91411,257.3436
Sprite,Foreground,Centre,"sb\sprites\bigDot.png",111,209 C,0,71852,,222,215,199 F,2,71852,72352,1,0 S,2,71852,72352,2,0.4 P,0,71852,72352,A
Sprite,Foreground,BottomCentre,"sb\sprites\blend_light.png",574,480 V,1,2132,2232,1,0,1,1.15 P,0,2132,3132,A F,0,2232,3132,1,0 V,2,2232,3132,1,1.15,1,1.3
Sprite,Foreground,BottomCentre,"sb\sprites\blend_light.png",175,480 V,1,4091,4191,1,0,1,1.15 P,0,4091,5091,A F,0,4191,5091,1,0 V,2,4191,5091,1,1.15,1,1.3
Sprite,Foreground,BottomCentre,"sb\sprites\blend_light.png",428,480 V,1,6091,6191,1,0,1,1.15 P,0,6091,7091,A F,0,6191,7091,1,0 V,2,6191,7091,1,1.15,1,1.3
Sprite,Foreground,BottomCentre,"sb\sprites\blend_light.png",470,480 V,1,9112,9212,1,0,1,1.15 P,0,9112,10112,A F,0,9212,10112,1,0 V,2,9212,10112,1,1.15,1,1.3
Sprite,Foreground,BottomCentre,"sb\sprites\blend_light.png",325,480 V,1,17102,17202,1,0,1,1.15 P,0,17102,18102,A F,0,17202,18102,1,0 V,2,17202,18102,1,1.15,1,1.3
Sprite,Foreground,BottomCentre,"sb\sprites\blend_light.png",456,480 V,1,25102,25202,1,0,1,1.15 P,0,25102,26102,A F,0,25202,26102,1,0 V,2,25202,26102,1,1.15,1,1.3
Sprite,Foreground,BottomCentre,"sb\sprites\blend_light.png",284,480 V,1,41102,41202,1,0,1,1.15 P,0,41102,42102,A F,0,41202,42102,1,0 V,2,41202,42102,1,1.15,1,1.3
Sprite,Foreground,BottomCentre,"sb\sprites\blend_light.png",504,480 V,1,43122,43222,1,0,1,1.15 P,0,43122,44122,A F,0,43222,44122,1,0 V,2,43222,44122,1,1.15,1,1.3
Sprite,Foreground,BottomCentre,"sb\sprites\blend_light.png",190,480 V,1,45122,45222,1,0,1,1.15 P,0,45122,46122,A F,0,45222,46122,1,0 V,2,45222,46122,1,1.15,1,1.3
Sprite,Foreground,BottomCentre,"sb\sprites\blend_light.png",296,480 V,1,47102,47202,1,0,1,1.15 P,0,47102,48102,A F,0,47202,48102,1,0 V,2,47202,48102,1,1.15,1,1.3
Sprite,Foreground,BottomCentre,"sb\sprites\blend_light.png",534,480 V,1,49091,49191,1,0,1,1.15 P,0,49091,50091,A F,0,49191,50091,1,0 V,2,49191,50091,1,1.15,1,1.3
Sprite,Foreground,BottomCentre,"sb\sprites\blend_light.png",463,480 V,1,51082,51182,1,0,1,1.15 P,0,51082,52082,A F,0,51182,52082,1,0 V,2,51182,52082,1,1.15,1,1.3
Sprite,Foreground,BottomCentre,"sb\sprites\blend_light.png",240,480 V,1,53082,53182,1,0,1,1.15 P,0,53082,54082,A F,0,53182,54082,1,0 V,2,53182,54082,1,1.15,1,1.3
Sprite,Foreground,BottomCentre,"sb\sprites\blend_light.png",419,480 V,1,57102,57202,1,0,1,1.15 P,0,57102,58102,A F,0,57202,58102,1,0 V,2,57202,58102,1,1.15,1,1.3
Sprite,Foreground,BottomCentre,"sb\sprites\blend_light.png",252,480 V,1,57602,57702,1,0,1,1.15 P,0,57602,58602,A F,0,57702,58602,1,0 V,2,57702,58602,1,1.15,1,1.3
Sprite,Foreground,BottomCentre,"sb\sprites\blend_light.png",242,480 V,1,58102,58202,1,0,1,1.15 P,0,58102,59102,A F,0,58202,59102,1,0 V,2,58202,59102,1,1.15,1,1.3
Sprite,Foreground,BottomCentre,"sb\sprites\blend_light.png",217,480 V,1,58602,58702,1,0,1,1.15 P,0,58602,59602,A F,0,58702,59602,1,0 V,2,58702,59602,1,1.15,1,1.3
Sprite,Foreground,BottomCentre,"sb\sprites\blend_light.png",378,480 V,1,59102,59202,1,0,1,1.15 P,0,59102,60102,A F,0,59202,60102,1,0 V,2,59202,60102,1,1.15,1,1.3
Sprite,Foreground,BottomCentre,"sb\sprites\blend_light.png",560,480 V,1,59602,59702,1,0,1,1.15 P,0,59602,60602,A F,0,59702,60602,1,0 V,2,59702,60602,1,1.15,1,1.3
Sprite,Foreground,BottomCentre,"sb\sprites\blend_light.png",575,480 V,1,60102,60202,1,0,1,1.15 P,0,60102,61102,A F,0,60202,61102,1,0 V,2,60202,61102,1,1.15,1,1.3
Sprite,Foreground,BottomCentre,"sb\sprites\blend_light.png",459,480 V,1,60602,60702,1,0,1,1.15 P,0,60602,61602,A F,0,60702,61602,1,0 V,2,60702,61602,1,1.15,1,1.3
Sprite,Foreground,BottomCentre,"sb\sprites\blend_light.png",381,480 V,1,61102,61202,1,0,1,1.15 P,0,61102,62102,A F,0,61202,62102,1,0 V,2,61202,62102,1,1.15,1,1.3
Sprite,Foreground,BottomCentre,"sb\sprites\blend_light.png",256,480 V,1,61602,61702,1,0,1,1.15 P,0,61602,62602,A F,0,61702,62602,1,0 V,2,61702,62602,1,1.15,1,1.3
Sprite,Foreground,BottomCentre,"sb\sprites\blend_light.png",145,480 V,1,62102,62202,1,0,1,1.15 P,0,62102,63102,A F,0,62202,63102,1,0 V,2,62202,63102,1,1.15,1,1.3
Sprite,Foreground,BottomCentre,"sb\sprites\blend_light.png",73,480 V,1,62602,62702,1,0,1,1.15 P,0,62602,63602,A F,0,62702,63602,1,0 V,2,62702,63602,1,1.15,1,1.3
Sprite,Foreground,BottomCentre,"sb\sprites\blend_light.png",220,480 V,1,63102,63202,1,0,1,1.15 P,0,63102,64102,A F,0,63202,64102,1,0 V,2,63202,64102,1,1.15,1,1.3
Sprite,Foreground,BottomCentre,"sb\sprites\blend_light.png",358,480 V,1,63602,63702,1,0,1,1.15 P,0,63602,64602,A F,0,63702,64602,1,0 V,2,63702,64602,1,1.15,1,1.3
Sprite,Foreground,BottomCentre,"sb\sprites\blend_light.png",534,480 V,1,64102,64202,1,0,1,1.15 P,0,64102,65102,A F,0,64202,65102,1,0 V,2,64202,65102,1,1.15,1,1.3
Sprite,Foreground,BottomCentre,"sb\sprites\blend_light.png",499.0074,480 V,1,64602,64702,1,0,1,1.15 P,0,64602,65602,A F,0,64702,65602,1,0 V,2,64702,65602,1,1.15,1,1.3
Sprite,Foreground,BottomCentre,"sb\sprites\blend_light.png",367,480 V,1,65102,65202,1,0,1,1.15 P,0,65102,66102,A F,0,65202,66102,1,0 V,2,65202,66102,1,1.15,1,1.3
Sprite,Foreground,BottomCentre,"sb\sprites\blend_light.png",215,480 V,1,65602,65702,1,0,1,1.15 P,0,65602,66602,A F,0,65702,66602,1,0 V,2,65702,66602,1,1.15,1,1.3
Sprite,Foreground,BottomCentre,"sb\sprites\blend_light.png",270,480 V,1,66102,66202,1,0,1,1.15 P,0,66102,67102,A F,0,66202,67102,1,0 V,2,66202,67102,1,1.15,1,1.3
Sprite,Foreground,BottomCentre,"sb\sprites\blend_light.png",233,480 V,1,66602,66702,1,0,1,1.15 P,0,66602,67602,A F,0,66702,67602,1,0 V,2,66702,67602,1,1.15,1,1.3
Sprite,Foreground,BottomCentre,"sb\sprites\blend_light.png",64,480 V,1,67102,67202,1,0,1,1.15 P,0,67102,68102,A F,0,67202,68102,1,0 V,2,67202,68102,1,1.15,1,1.3
Sprite,Foreground,BottomCentre,"sb\sprites\blend_light.png",226,480 V,1,67602,67702,1,0,1,1.15 P,0,67602,68602,A F,0,67702,68602,1,0 V,2,67702,68602,1,1.15,1,1.3
Sprite,Foreground,BottomCentre,"sb\sprites\blend_light.png",367,480 V,1,68102,68202,1,0,1,1.15 P,0,68102,69102,A F,0,68202,69102,1,0 V,2,68202,69102,1,1.15,1,1.3
Sprite,Foreground,BottomCentre,"sb\sprites\blend_light.png",503,480 V,1,68602,68702,1,0,1,1.15 P,0,68602,69602,A F,0,68702,69602,1,0 V,2,68702,69602,1,1.15,1,1.3
Sprite,Foreground,BottomCentre,"sb\sprites\blend_light.png",454,480 V,1,69102,69202,1,0,1,1.15 P,0,69102,70102,A F,0,69202,70102,1,0 V,2,69202,70102,1,1.15,1,1.3
Sprite,Foreground,BottomCentre,"sb\sprites\blend_light.png",311,480 V,1,69602,69702,1,0,1,1.15 P,0,69602,70602,A F,0,69702,70602,1,0 V,2,69702,70602,1,1.15,1,1.3
Sprite,Foreground,BottomCentre,"sb\sprites\blend_light.png",347,480 V,1,70102,70202,1,0,1,1.15 P,0,70102,71102,A F,0,70202,71102,1,0 V,2,70202,71102,1,1.15,1,1.3
Sprite,Foreground,BottomCentre,"sb\sprites\blend_light.png",313,480 V,1,70602,70702,1,0,1,1.15 P,0,70602,71602,A F,0,70702,71602,1,0 V,2,70702,71602,1,1.15,1,1.3
Sprite,Foreground,BottomCentre,"sb\sprites\blend_light.png",129,480 V,1,71102,71202,1,0,1,1.15 P,0,71102,72102,A F,0,71202,72102,1,0 V,2,71202,72102,1,1.15,1,1.3
Sprite,Foreground,BottomCentre,"sb\sprites\blend_light.png",86,480 V,1,71602,71702,1,0,1,1.15 P,0,71602,72602,A F,0,71702,72602,1,0 V,2,71702,72602,1,1.15,1,1.3
Sprite,Foreground,BottomCentre,"sb\sprites\blend_light.png",111,480 V,1,73102,73202,1,0,1,1.15 P,0,73102,74102,A F,0,73202,74102,1,0 V,2,73202,74102,1,1.15,1,1.3
Sprite,Foreground,BottomCentre,"sb\sprites\blend_light.png",312,480 V,1,89102,89202,1,0,1,1.15 P,0,89102,90102,A F,0,89202,90102,1,0 V,2,89202,90102,1,1.15,1,1.3
Sprite,Foreground,BottomCentre,"sb\sprites\blend_light.png",379,480 V,1,105102,105202,1,0,1,1.15 P,0,105102,106102,A F,0,105202,106102,1,0 V,2,105202,106102,1,1.15,1,1.3
Sprite,Foreground,BottomCentre,"sb\sprites\blend_light.png",158,480 V,1,107102,107202,1,0,1,1.15 P,0,107102,108102,A F,0,107202,108102,1,0 V,2,107202,108102,1,1.15,1,1.3
Sprite,Foreground,BottomCentre,"sb\sprites\blend_light.png",299,480 V,1,108082,108182,1,0,1,1.15 P,0,108082,109082,A F,0,108182,109082,1,0 V,2,108182,109082,1,1.15,1,1.3
Sprite,Foreground,BottomCentre,"sb\sprites\blend_light.png",252,480 V,1,109071,109171,1,0,1,1.15 P,0,109071,110071,A F,0,109171,110071,1,0 V,2,109171,110071,1,1.15,1,1.3
Sprite,Foreground,BottomCentre,"sb\sprites\blend_light.png",87,480 V,1,110092,110192,1,0,1,1.15 P,0,110092,111092,A F,0,110192,111092,1,0 V,2,110192,111092,1,1.15,1,1.3
Sprite,Foreground,BottomCentre,"sb\sprites\blend_light.png",182,480 V,1,111113,111213,1,0,1,1.15 P,0,111113,112113,A F,0,111213,112113,1,0 V,2,111213,112113,1,1.15,1,1.3
Sprite,Foreground,BottomCentre,"sb\sprites\blend_light.png",442,480 V,1,113092,113192,1,0,1,1.15 P,0,113092,114092,A F,0,113192,114092,1,0 V,2,113192,114092,1,1.15,1,1.3
Sprite,Foreground,BottomCentre,"sb\sprites\blend_light.png",189,480 V,1,114102,114202,1,0,1,1.15 P,0,114102,115102,A F,0,114202,115102,1,0 V,2,114202,115102,1,1.15,1,1.3
Sprite,Foreground,BottomCentre,"sb\sprites\blend_light.png",93,480 V,1,115102,115202,1,0,1,1.15 P,0,115102,116102,A F,0,115202,116102,1,0 V,2,115202,116102,1,1.15,1,1.3
Sprite,Foreground,BottomCentre,"sb\sprites\blend_light.png",215,480 V,1,116102,116202,1,0,1,1.15 P,0,116102,117102,A F,0,116202,117102,1,0 V,2,116202,117102,1,1.15,1,1.3
Sprite,Foreground,BottomCentre,"sb\sprites\blend_light.png",264,480 V,1,117102,117202,1,0,1,1.15 P,0,117102,118102,A F,0,117202,118102,1,0 V,2,117202,118102,1,1.15,1,1.3
Sprite,Foreground,BottomCentre,"sb\sprites\blend_light.png",567,480 V,1,118102,118202,1,0,1,1.15 P,0,118102,119102,A F,0,118202,119102,1,0 V,2,118202,119102,1,1.15,1,1.3
Sprite,Foreground,BottomCentre,"sb\sprites\blend_light.png",447,480 V,1,119102,119202,1,0,1,1.15 P,0,119102,120102,A F,0,119202,120102,1,0 V,2,119202,120102,1,1.15,1,1.3
Sprite,Foreground,BottomCentre,"sb\sprites\blend_light.png",434,480 V,1,129102,129202,1,0,1,1.15 P,0,129102,130102,A F,0,129202,130102,1,0 V,2,129202,130102,1,1.15,1,1.3
Sprite,Foreground,BottomCentre,"sb\sprites\blend_light.png",196,480 V,1,137102,137202,1,0,1,1.15 P,0,137102,138102,A F,0,137202,138102,1,0 V,2,137202,138102,1,1.15,1,1.3
Sprite,Foreground,BottomCentre,"sb\sprites\blend_light.png",128,480 V,1,153102,153202,1,0,1,1.15 P,0,153102,154102,A F,0,153202,154102,1,0 V,2,153202,154102,1,1.15,1,1.3
Sprite,Foreground,BottomCentre,"sb\sprites\blend_light.png",123,480 V,1,153602,153702,1,0,1,1.15 P,0,153602,154602,A F,0,153702,154602,1,0 V,2,153702,154602,1,1.15,1,1.3
Sprite,Foreground,BottomCentre,"sb\sprites\blend_light.png",257,480 V,1,154102,154202,1,0,1,1.15 P,0,154102,155102,A F,0,154202,155102,1,0 V,2,154202,155102,1,1.15,1,1.3
Sprite,Foreground,BottomCentre,"sb\sprites\blend_light.png",394,480 V,1,154602,154702,1,0,1,1.15 P,0,154602,155602,A F,0,154702,155602,1,0 V,2,154702,155602,1,1.15,1,1.3
Sprite,Foreground,BottomCentre,"sb\sprites\blend_light.png",519,480 V,1,155102,155202,1,0,1,1.15 P,0,155102,156102,A F,0,155202,156102,1,0 V,2,155202,156102,1,1.15,1,1.3
Sprite,Foreground,BottomCentre,"sb\sprites\blend_light.png",369,480 V,1,155602,155702,1,0,1,1.15 P,0,155602,156602,A F,0,155702,156602,1,0 V,2,155702,156602,1,1.15,1,1.3
Sprite,Foreground,BottomCentre,"sb\sprites\blend_light.png",377,480 V,1,156102,156202,1,0,1,1.15 P,0,156102,157102,A F,0,156202,157102,1,0 V,2,156202,157102,1,1.15,1,1.3
Sprite,Foreground,BottomCentre,"sb\sprites\blend_light.png",403,480 V,1,156602,156702,1,0,1,1.15 P,0,156602,157602,A F,0,156702,157602,1,0 V,2,156702,157602,1,1.15,1,1.3
Sprite,Foreground,BottomCentre,"sb\sprites\blend_light.png",223,480 V,1,157102,157202,1,0,1,1.15 P,0,157102,158102,A F,0,157202,158102,1,0 V,2,157202,158102,1,1.15,1,1.3
Sprite,Foreground,BottomCentre,"sb\sprites\blend_light.png",92,480 V,1,157602,157702,1,0,1,1.15 P,0,157602,158602,A F,0,157702,158602,1,0 V,2,157702,158602,1,1.15,1,1.3
Sprite,Foreground,BottomCentre,"sb\sprites\blend_light.png",91,480 V,1,158102,158202,1,0,1,1.15 P,0,158102,159102,A F,0,158202,159102,1,0 V,2,158202,159102,1,1.15,1,1.3
Sprite,Foreground,BottomCentre,"sb\sprites\blend_light.png",156,480 V,1,158602,158702,1,0,1,1.15 P,0,158602,159602,A F,0,158702,159602,1,0 V,2,158702,159602,1,1.15,1,1.3
Sprite,Foreground,BottomCentre,"sb\sprites\blend_light.png",260,480 V,1,159102,159202,1,0,1,1.15 P,0,159102,160102,A F,0,159202,160102,1,0 V,2,159202,160102,1,1.15,1,1.3
Sprite,Foreground,BottomCentre,"sb\sprites\blend_light.png",392,480 V,1,159602,159702,1,0,1,1.15 P,0,159602,160602,A F,0,159702,160602,1,0 V,2,159702,160602,1,1.15,1,1.3
Sprite,Foreground,BottomCentre,"sb\sprites\blend_light.png",405,480 V,1,160102,160202,1,0,1,1.15 P,0,160102,161102,A F,0,160202,161102,1,0 V,2,160202,161102,1,1.15,1,1.3
Sprite,Foreground,BottomCentre,"sb\sprites\blend_light.png",242.7838,480 V,1,160602,160702,1,0,1,1.15 P,0,160602,161602,A F,0,160702,161602,1,0 V,2,160702,161602,1,1.15,1,1.3
Sprite,Foreground,BottomCentre,"sb\sprites\blend_light.png",186,480 V,1,161102,161202,1,0,1,1.15 P,0,161102,162102,A F,0,161202,162102,1,0 V,2,161202,162102,1,1.15,1,1.3
Sprite,Foreground,BottomCentre,"sb\sprites\blend_light.png",165,480 V,1,161602,161702,1,0,1,1.15 P,0,161602,162602,A F,0,161702,162602,1,0 V,2,161702,162602,1,1.15,1,1.3
Sprite,Foreground,BottomCentre,"sb\sprites\blend_light.png",303,480 V,1,162102,162202,1,0,1,1.15 P,0,162102,163102,A F,0,162202,163102,1,0 V,2,162202,163102,1,1.15,1,1.3
Sprite,Foreground,BottomCentre,"sb\sprites\blend_light.png",349,480 V,1,162602,162702,1,0,1,1.15 P,0,162602,163602,A F,0,162702,163602,1,0 V,2,162702,163602,1,1.15,1,1.3
Sprite,Foreground,BottomCentre,"sb\sprites\blend_light.png",332,480 V,1,163102,163202,1,0,1,1.15 P,0,163102,164102,A F,0,163202,164102,1,0 V,2,163202,164102,1,1.15,1,1.3
Sprite,Foreground,BottomCentre,"sb\sprites\blend_light.png",502,480 V,1,163602,163702,1,0,1,1.15 P,0,163602,164602,A F,0,163702,164602,1,0 V,2,163702,164602,1,1.15,1,1.3
Sprite,Foreground,BottomCentre,"sb\sprites\blend_light.png",543,480 V,1,164102,164202,1,0,1,1.15 P,0,164102,165102,A F,0,164202,165102,1,0 V,2,164202,165102,1,1.15,1,1.3
Sprite,Foreground,BottomCentre,"sb\sprites\blend_light.png",570,480 V,1,164602,164702,1,0,1,1.15 P,0,164602,165602,A F,0,164702,165602,1,0 V,2,164702,165602,1,1.15,1,1.3
Sprite,Foreground,BottomCentre,"sb\sprites\blend_light.png",387,480 V,1,165102,165202,1,0,1,1.15 P,0,165102,166102,A F,0,165202,166102,1,0 V,2,165202,166102,1,1.15,1,1.3
Sprite,Foreground,BottomCentre,"sb\sprites\blend_light.png",273,480 V,1,165602,165702,1,0,1,1.15 P,0,165602,166602,A F,0,165702,166602,1,0 V,2,165702,166602,1,1.15,1,1.3
Sprite,Foreground,BottomCentre,"sb\sprites\blend_light.png",415,480 V,1,166102,166202,1,0,1,1.15 P,0,166102,167102,A F,0,166202,167102,1,0 V,2,166202,167102,1,1.15,1,1.3
Sprite,Foreground,BottomCentre,"sb\sprites\blend_light.png",409,480 V,1,166602,166702,1,0,1,1.15 P,0,166602,167602,A F,0,166702,167602,1,0 V,2,166702,167602,1,1.15,1,1.3
Sprite,Foreground,BottomCentre,"sb\sprites\blend_light.png",289,480 V,1,167102,167202,1,0,1,1.15 P,0,167102,168102,A F,0,167202,168102,1,0 V,2,167202,168102,1,1.15,1,1.3
Sprite,Foreground,BottomCentre,"sb\sprites\blend_light.png",155,480 V,1,167602,167702,1,0,1,1.15 P,0,167602,168602,A F,0,167702,168602,1,0 V,2,167702,168602,1,1.15,1,1.3
Sprite,Foreground,BottomCentre,"sb\sprites\blend_light.png",238,480 V,1,169102,169202,1,0,1,1.15 P,0,169102,170102,A F,0,169202,170102,1,0 V,2,169202,170102,1,1.15,1,1.3
Sprite,Foreground,BottomCentre,"sb\sprites\blend_light.png",238,480 V,1,169852,169952,1,0,1,1.15 P,0,169852,170852,A F,0,169952,170852,1,0 V,2,169952,170852,1,1.15,1,1.3
Sprite,Foreground,BottomCentre,"sb\sprites\blend_light.png",145,480 V,1,170102,170202,1,0,1,1.15 P,0,170102,171102,A F,0,170202,171102,1,0 V,2,170202,171102,1,1.15,1,1.3
Sprite,Foreground,BottomCentre,"sb\sprites\blend_light.png",125,480 V,1,170477,170577,1,0,1,1.15 P,0,170477,171477,A F,0,170577,171477,1,0 V,2,170577,171477,1,1.15,1,1.3
Sprite,Foreground,BottomCentre,"sb\sprites\blend_light.png",282,480 V,1,171102,171202,1,0,1,1.15 P,0,171102,172102,A F,0,171202,172102,1,0 V,2,171202,172102,1,1.15,1,1.3
Sprite,Foreground,BottomCentre,"sb\sprites\blend_light.png",556,480 V,1,171852,171952,1,0,1,1.15 P,0,171852,172852,A F,0,171952,172852,1,0 V,2,171952,172852,1,1.15,1,1.3
Sprite,Foreground,BottomCentre,"sb\sprites\blend_light.png",538,480 V,1,172102,172202,1,0,1,1.15 P,0,172102,173102,A F,0,172202,173102,1,0 V,2,172202,173102,1,1.15,1,1.3
Sprite,Foreground,BottomCentre,"sb\sprites\blend_light.png",516,480 V,1,172477,172577,1,0,1,1.15 P,0,172477,173477,A F,0,172577,173477,1,0 V,2,172577,173477,1,1.15,1,1.3
Sprite,Foreground,BottomCentre,"sb\sprites\blend_light.png",444,480 V,1,172852,172952,1,0,1,1.15 P,0,172852,173852,A F,0,172952,173852,1,0 V,2,172952,173852,1,1.15,1,1.3
Sprite,Foreground,BottomCentre,"sb\sprites\blend_light.png",353,480 V,1,173102,173202,1,0,1,1.15 P,0,173102,174102,A F,0,173202,174102,1,0 V,2,173202,174102,1,1.15,1,1.3
Sprite,Foreground,BottomCentre,"sb\sprites\blend_light.png",353,480 V,1,173852,173952,1,0,1,1.15 P,0,173852,174852,A F,0,173952,174852,1,0 V,2,173952,174852,1,1.15,1,1.3
Sprite,Foreground,BottomCentre,"sb\sprites\blend_light.png",369,480 V,1,174102,174202,1,0,1,1.15 P,0,174102,175102,A F,0,174202,175102,1,0 V,2,174202,175102,1,1.15,1,1.3
Sprite,Foreground,BottomCentre,"sb\sprites\blend_light.png",141,480 V,1,174852,174952,1,0,1,1.15 P,0,174852,175852,A F,0,174952,175852,1,0 V,2,174952,175852,1,1.15,1,1.3
Sprite,Foreground,BottomCentre,"sb\sprites\blend_light.png",70,480 V,1,175102,175202,1,0,1,1.15 P,0,175102,176102,A F,0,175202,176102,1,0 V,2,175202,176102,1,1.15,1,1.3
Sprite,Foreground,BottomCentre,"sb\sprites\blend_light.png",193.3804,480 V,1,175852,175952,1,0,1,1.15 P,0,175852,176852,A F,0,175952,176852,1,0 V,2,175952,176852,1,1.15,1,1.3
Sprite,Foreground,BottomCentre,"sb\sprites\blend_light.png",234,480 V,1,176102,176202,1,0,1,1.15 P,0,176102,177102,A F,0,176202,177102,1,0 V,2,176202,177102,1,1.15,1,1.3
Sprite,Foreground,BottomCentre,"sb\sprites\blend_light.png",365,480 V,1,176852,176952,1,0,1,1.15 P,0,176852,177852,A F,0,176952,177852,1,0 V,2,176952,177852,1,1.15,1,1.3
Sprite,Foreground,BottomCentre,"sb\sprites\blend_light.png",421,480 V,1,177102,177202,1,0,1,1.15 P,0,177102,178102,A F,0,177202,178102,1,0 V,2,177202,178102,1,1.15,1,1.3
Sprite,Foreground,BottomCentre,"sb\sprites\blend_light.png",421,480 V,1,177852,177952,1,0,1,1.15 P,0,177852,178852,A F,0,177952,178852,1,0 V,2,177952,178852,1,1.15,1,1.3
Sprite,Foreground,BottomCentre,"sb\sprites\blend_light.png",346,480 V,1,178102,178202,1,0,1,1.15 P,0,178102,179102,A F,0,178202,179102,1,0 V,2,178202,179102,1,1.15,1,1.3
Sprite,Foreground,BottomCentre,"sb\sprites\blend_light.png",212,480 V,1,178477,178577,1,0,1,1.15 P,0,178477,179477,A F,0,178577,179477,1,0 V,2,178577,179477,1,1.15,1,1.3
Sprite,Foreground,BottomCentre,"sb\sprites\blend_light.png",136,480 V,1,178852,178952,1,0,1,1.15 P,0,178852,179852,A F,0,178952,179852,1,0 V,2,178952,179852,1,1.15,1,1.3
Sprite,Foreground,BottomCentre,"sb\sprites\blend_light.png",173,480 V,1,179102,179202,1,0,1,1.15 P,0,179102,180102,A F,0,179202,180102,1,0 V,2,179202,180102,1,1.15,1,1.3
Sprite,Foreground,BottomCentre,"sb\sprites\blend_light.png",448,480 V,1,179852,179952,1,0,1,1.15 P,0,179852,180852,A F,0,179952,180852,1,0 V,2,179952,180852,1,1.15,1,1.3
Sprite,Foreground,BottomCentre,"sb\sprites\blend_light.png",546,480 V,1,180102,180202,1,0,1,1.15 P,0,180102,181102,A F,0,180202,181102,1,0 V,2,180202,181102,1,1.15,1,1.3
Sprite,Foreground,BottomCentre,"sb\sprites\blend_light.png",518,480 V,1,180477,180577,1,0,1,1.15 P,0,180477,181477,A F,0,180577,181477,1,0 V,2,180577,181477,1,1.15,1,1.3
Sprite,Foreground,BottomCentre,"sb\sprites\blend_light.png",425,480 V,1,180852,180952,1,0,1,1.15 P,0,180852,181852,A F,0,180952,181852,1,0 V,2,180952,181852,1,1.15,1,1.3
Sprite,Foreground,BottomCentre,"sb\sprites\blend_light.png",343,480 V,1,181102,181202,1,0,1,1.15 P,0,181102,182102,A F,0,181202,182102,1,0 V,2,181202,182102,1,1.15,1,1.3
Sprite,Foreground,BottomCentre,"sb\sprites\blend_light.png",343,480 V,1,181852,181952,1,0,1,1.15 P,0,181852,182852,A F,0,181952,182852,1,0 V,2,181952,182852,1,1.15,1,1.3
Sprite,Foreground,BottomCentre,"sb\sprites\blend_light.png",339,480 V,1,182102,182202,1,0,1,1.15 P,0,182102,183102,A F,0,182202,183102,1,0 V,2,182202,183102,1,1.15,1,1.3
Sprite,Foreground,BottomCentre,"sb\sprites\blend_light.png",195,480 V,1,182852,182952,1,0,1,1.15 P,0,182852,183852,A F,0,182952,183852,1,0 V,2,182952,183852,1,1.15,1,1.3
Sprite,Foreground,BottomCentre,"sb\sprites\blend_light.png",532,480 V,1,195102,195202,1,0,1,1.15 P,0,195102,196102,A F,0,195202,196102,1,0 V,2,195202,196102,1,1.15,1,1.3
Sprite,Foreground,BottomCentre,"sb\sprites\blend_light.png",131,480 V,1,211102,211202,1,0,1,1.15 P,0,211102,212102,A F,0,211202,212102,1,0 V,2,211202,212102,1,1.15,1,1.3
Sprite,Foreground,BottomCentre,"sb\sprites\blend_light.png",320,480 V,1,215102,215202,1,0,1,1.15 P,0,215102,216102,A F,0,215202,216102,1,0 V,2,215202,216102,1,1.15,1,1.3
Sprite,Foreground,Centre,"sb\font\introduction\credit-outline\_006.png",220,175 S,0,17101,,0.4 F,0,25101,,1
Sprite,Foreground,BottomCentre,"sb\sprites\blend_light.png",0,0 M,0,121102,,115,480 C,0,121102,,222,215,199 P,0,121102,,A F,2,121102,121602,0.35,0 V,3,121102,121602,2,0.5,2,0.1 F,0,129102,,0.35 C,0,129102,,192,192,192 P,0,129102,,A M,0,129102,129164,434,480,429.981,480 V,3,129102,130352,2,0.5,2,0.1 M,0,129164,129227,429.981,480,432.9622,480 M,0,129227,129289,432.9622,480,443.1194,480 M,0,129289,129352,443.1194,480,459.666,480 M,0,129352,129414,459.666,480,480.0505,480 M,0,129414,129477,480.0505,480,502.2475,480 M,0,129477,129539,502.2475,480,480.0505,480 M,0,129539,129602,480.0505,480,459.666,480 M,0,129602,129664,459.666,480,443.1194,480 M,0,129664,129727,443.1194,480,432.9622,480 M,0,129727,129789,432.9622,480,429.981,480 M,0,129789,129852,429.981,480,434,480 F,2,129852,130352,0.35,0 M,0,130477,,333,480 C,0,130477,,192,192,192 P,0,130477,,A F,2,130477,130977,0.35,0 V,3,130477,130977,2,0.5,2,0.1 F,0,131102,,0.35 C,0,131102,,252,141,129 P,0,131102,,A M,0,131102,131164,147,480,150.0595,480 V,3,131102,132352,2,0.5,2,0.1 M,0,131164,131227,150.0595,480,153.1191,480 M,0,131227,131289,153.1191,480,148.0496,480 M,0,131289,131352,148.0496,480,142.8565,480 M,0,131352,131414,142.8565,480,145.9595,480 M,0,131414,131477,145.9595,480,149.0625,480 M,0,131477,131539,149.0625,480,145.9595,480 M,0,131539,131602,145.9595,480,142.8565,480 M,0,131602,131664,142.8565,480,148.0496,480 M,0,131664,131727,148.0496,480,153.1191,480 M,0,131727,131789,153.1191,480,150.0595,480 M,0,131789,131852,150.0595,480,147,480 F,2,131852,132352,0.35,0 M,0,132477,,203,480 C,0,132477,,252,141,129 P,0,132477,,A F,2,132477,132977,0.35,0 V,3,132477,132977,2,0.5,2,0.1 F,0,133102,,0.35 C,0,133102,,157,201,255 P,0,133102,,A M,0,133102,133164,366,480,361.9751,480 V,3,133102,134352,2,0.5,2,0.1 M,0,133164,133227,361.9751,480,357.9502,480 M,0,133227,133289,357.9502,480,353.9252,480 M,0,133289,133352,353.9252,480,349.9003,480 M,0,133352,133414,349.9003,480,345.8754,480 M,0,133414,133477,345.8754,480,341.8505,480 M,0,133477,133539,341.8505,480,345.8754,480 M,0,133539,133602,345.8754,480,349.9003,480 M,0,133602,133664,349.9003,480,353.9252,480 M,0,133664,133727,353.9252,480,357.9502,480 M,0,133727,133789,357.9502,480,361.9751,480 M,0,133789,133852,361.9751,480,366,480 F,2,133852,134352,0.35,0 M,0,134477,,450,480 C,0,134477,,157,201,255 P,0,134477,,A F,2,134477,134977,0.35,0 V,3,134477,134977,2,0.5,2,0.1 F,0,135102,,0.35 C,0,135102,,222,215,199 P,0,135102,,A M,0,135102,135164,451,480,467.0612,480 V,3,135102,136352,2,0.5,2,0.1 M,0,135164,135227,467.0612,480,486.1863,480 M,0,135227,135289,486.1863,480,507.5927,480 M,0,135289,135352,507.5927,480,529.9772,480 M,0,135352,135414,529.9772,480,551.9257,480 M,0,135414,135477,551.9257,480,572.2399,480 M,0,135477,135539,572.2399,480,551.9257,480 M,0,135539,135602,551.9257,480,529.9772,480 M,0,135602,135664,529.9772,480,507.5927,480 M,0,135664,135727,507.5927,480,486.1863,480 M,0,135727,135789,486.1863,480,467.0612,480 M,0,135789,135852,467.0612,480,451,480 F,2,135852,136352,0.35,0 M,0,136602,,168,480 C,0,136602,,222,215,199 P,0,136602,,A F,2,136602,137102,0.35,0 V,3,136602,137102,2,0.5,2,0.1
Sprite,Foreground,BottomCentre,"sb\sprites\blend_light.png",0,0 M,0,121102,,115,0 R,0,121102,,3.141593 R,0,121102,,3.141593 R,0,121102,,3.141593 R,0,121102,,3.141593 R,0,121102,,3.141593 R,0,121102,,3.141593 R,0,121102,,3.141593 R,0,121102,,3.141593 R,0,121102,,3.141593 C,0,121102,,222,215,199 P,0,121102,,A F,2,121102,121602,0.35,0 V,3,121102,121602,2,0.5,2,0.1 F,0,129102,,0.35 C,0,129102,,192,192,192 P,0,129102,,A M,0,129102,129164,434,0,429.981,0 V,3,129102,130352,2,0.5,2,0.1 M,0,129164,129227,429.981,0,432.9622,0 M,0,129227,129289,432.9622,0,443.1194,0 M,0,129289,129352,443.1194,0,459.666,0 M,0,129352,129414,459.666,0,480.0505,0 M,0,129414,129477,480.0505,0,502.2475,0 M,0,129477,129539,502.2475,0,480.0505,0 M,0,129539,129602,480.0505,0,459.666,0 M,0,129602,129664,459.666,0,443.1194,0 M,0,129664,129727,443.1194,0,432.9622,0 M,0,129727,129789,432.9622,0,429.981,0 M,0,129789,129852,429.981,0,434,0 F,2,129852,130352,0.35,0 M,0,130477,,333,0 C,0,130477,,192,192,192 P,0,130477,,A F,2,130477,130977,0.35,0 V,3,130477,130977,2,0.5,2,0.1 F,0,131102,,0.35 C,0,131102,,252,141,129 P,0,131102,,A M,0,131102,131164,147,0,150.0595,0 V,3,131102,132352,2,0.5,2,0.1 M,0,131164,131227,150.0595,0,153.1191,0 M,0,131227,131289,153.1191,0,148.0496,0 M,0,131289,131352,148.0496,0,142.8565,0 M,0,131352,131414,142.8565,0,145.9595,0 M,0,131414,131477,145.9595,0,149.0625,0 M,0,131477,131539,149.0625,0,145.9595,0 M,0,131539,131602,145.9595,0,142.8565,0 M,0,131602,131664,142.8565,0,148.0496,0 M,0,131664,131727,148.0496,0,153.1191,0 M,0,131727,131789,153.1191,0,150.0595,0 M,0,131789,131852,150.0595,0,147,0 F,2,131852,132352,0.35,0 M,0,132477,,203,0 C,0,132477,,252,141,129 P,0,132477,,A F,2,132477,132977,0.35,0 V,3,132477,132977,2,0.5,2,0.1 F,0,133102,,0.35 C,0,133102,,157,201,255 P,0,133102,,A M,0,133102,133164,366,0,361.9751,0 V,3,133102,134352,2,0.5,2,0.1 M,0,133164,133227,361.9751,0,357.9502,0 M,0,133227,133289,357.9502,0,353.9252,0 M,0,133289,133352,353.9252,0,349.9003,0 M,0,133352,133414,349.9003,0,345.8754,0 M,0,133414,133477,345.8754,0,341.8505,0 M,0,133477,133539,341.8505,0,345.8754,0 M,0,133539,133602,345.8754,0,349.9003,0 M,0,133602,133664,349.9003,0,353.9252,0 M,0,133664,133727,353.9252,0,357.9502,0 M,0,133727,133789,357.9502,0,361.9751,0 M,0,133789,133852,361.9751,0,366,0 F,2,133852,134352,0.35,0 M,0,134477,,450,0 C,0,134477,,157,201,255 P,0,134477,,A F,2,134477,134977,0.35,0 V,3,134477,134977,2,0.5,2,0.1 F,0,135102,,0.35 C,0,135102,,222,215,199 P,0,135102,,A M,0,135102,135164,451,0,467.0612,0 V,3,135102,136352,2,0.5,2,0.1 M,0,135164,135227,467.0612,0,486.1863,0 M,0,135227,135289,486.1863,0,507.5927,0 M,0,135289,135352,507.5927,0,529.9772,0 M,0,135352,135414,529.9772,0,551.9257,0 M,0,135414,135477,551.9257,0,572.2399,0 M,0,135477,135539,572.2399,0,551.9257,0 M,0,135539,135602,551.9257,0,529.9772,0 M,0,135602,135664,529.9772,0,507.5927,0 M,0,135664,135727,507.5927,0,486.1863,0 M,0,135727,135789,486.1863,0,467.0612,0 M,0,135789,135852,467.0612,0,451,0 F,2,135852,136352,0.35,0 M,0,136602,,168,0 C,0,136602,,222,215,199 P,0,136602,,A F,2,136602,137102,0.35,0 V,3,136602,137102,2,0.5,2,0.1
Sprite,Foreground,BottomCentre,"sb\sprites\blend_light.png",0,0 F,0,130102,,0.35 C,0,130102,,192,192,192 P,0,130102,,A M,0,130102,130164,468,480,445.8629,480 V,3,130102,130852,2,0.5,2,0.1 M,0,130164,130227,445.8629,480,423.7259,480 M,0,130227,130289,423.7259,480,401.5888,480 M,0,130289,130352,401.5888,480,379.4517,480 F,2,130352,130852,0.35,0 F,0,132102,,0.35 C,0,132102,,252,141,129 P,0,132102,,A M,0,132102,132164,71,480,87.06118,480 V,3,132102,132852,2,0.5,2,0.1 M,0,132164,132227,87.06118,480,106.1864,480 M,0,132227,132289,106.1864,480,127.5927,480 M,0,132289,132352,127.5927,480,149.9771,480 F,2,132352,132852,0.35,0 F,0,134102,,0.35 C,0,134102,,157,201,255 P,0,134102,,A M,0,134102,134164,462,480,457.9751,480 V,3,134102,134852,2,0.5,2,0.1 M,0,134164,134227,457.9751,480,453.9502,480 M,0,134227,134289,453.9502,480,449.9252,480 M,0,134289,134352,449.9252,480,445.9003,480 F,2,134352,134852,0.35,0 F,0,136102,,0.35 C,0,136102,,222,215,199 P,0,136102,,A M,0,136102,136164,351,480,328.983,480 V,3,136102,136977,2,0.5,2,0.1 M,0,136164,136227,328.983,480,306.9317,480 M,0,136227,136289,306.9317,480,284.8452,480 M,0,136289,136352,284.8452,480,262.7247,480 M,0,136352,136414,262.7247,480,240.569,480 M,0,136414,136477,240.569,480,218.3843,480 F,2,136477,136977,0.35,0
Sprite,Foreground,BottomCentre,"sb\sprites\blend_light.png",0,0 F,0,130102,,0.35 R,0,130102,,3.141593 R,0,130102,,3.141593 R,0,130102,,3.141593 R,0,130102,,3.141593 C,0,130102,,192,192,192 P,0,130102,,A M,0,130102,130164,468,0,445.8629,0 V,3,130102,130852,2,0.5,2,0.1 M,0,130164,130227,445.8629,0,423.7259,0 M,0,130227,130289,423.7259,0,401.5888,0 M,0,130289,130352,401.5888,0,379.4517,0 F,2,130352,130852,0.35,0 F,0,132102,,0.35 C,0,132102,,252,141,129 P,0,132102,,A M,0,132102,132164,71,0,87.06118,0 V,3,132102,132852,2,0.5,2,0.1 M,0,132164,132227,87.06118,0,106.1864,0 M,0,132227,132289,106.1864,0,127.5927,0 M,0,132289,132352,127.5927,0,149.9771,0 F,2,132352,132852,0.35,0 F,0,134102,,0.35 C,0,134102,,157,201,255 P,0,134102,,A M,0,134102,134164,462,0,457.9751,0 V,3,134102,134852,2,0.5,2,0.1 M,0,134164,134227,457.9751,0,453.9502,0 M,0,134227,134289,453.9502,0,449.9252,0 M,0,134289,134352,449.9252,0,445.9003,0 F,2,134352,134852,0.35,0 F,0,136102,,0.35 C,0,136102,,222,215,199 P,0,136102,,A M,0,136102,136164,351,0,328.983,0 V,3,136102,136977,2,0.5,2,0.1 M,0,136164,136227,328.983,0,306.9317,0 M,0,136227,136289,306.9317,0,284.8452,0 M,0,136289,136352,284.8452,0,262.7247,0 M,0,136352,136414,262.7247,0,240.569,0 M,0,136414,136477,240.569,0,218.3843,0 F,2,136477,136977,0.35,0
Sprite,Foreground,BottomCentre,"sb\sprites\blend_light.png",0,0 F,0,130602,,0.35 C,0,130602,,192,192,192 P,0,130602,,A M,0,130602,130664,333,480,310.8629,480 V,3,130602,131352,2,0.5,2,0.1 M,0,130664,130727,310.8629,480,288.7259,480 M,0,130727,130789,288.7259,480,266.5888,480 M,0,130789,130852,266.5888,480,244.4517,480 F,2,130852,131352,0.35,0 M,0,132602,,203,480 C,0,132602,,252,141,129 P,0,132602,,A F,2,132602,133102,0.35,0 V,3,132602,133102,2,0.5,2,0.1 F,0,134602,,0.35 C,0,134602,,157,201,255 P,0,134602,,A M,0,134602,134664,450,480,445.9751,480 V,3,134602,135352,2,0.5,2,0.1 M,0,134664,134727,445.9751,480,441.9502,480 M,0,134727,134789,441.9502,480,437.9252,480 M,0,134789,134852,437.9252,480,433.9003,480 F,2,134852,135352,0.35,0 M,0,136852,,115,480 C,0,136852,,222,215,199 P,0,136852,,A F,2,136852,137352,0.35,0 V,3,136852,137352,2,0.5,2,0.1
Sprite,Foreground,BottomCentre,"sb\sprites\blend_light.png",0,0 F,0,130602,,0.35 R,0,130602,,3.141593 R,0,130602,,3.141593 R,0,130602,,3.141593 R,0,130602,,3.141593 C,0,130602,,192,192,192 P,0,130602,,A M,0,130602,130664,333,0,310.8629,0 V,3,130602,131352,2,0.5,2,0.1 M,0,130664,130727,310.8629,0,288.7259,0 M,0,130727,130789,288.7259,0,266.5888,0 M,0,130789,130852,266.5888,0,244.4517,0 F,2,130852,131352,0.35,0 M,0,132602,,203,0 C,0,132602,,252,141,129 P,0,132602,,A F,2,132602,133102,0.35,0 V,3,132602,133102,2,0.5,2,0.1 F,0,134602,,0.35 C,0,134602,,157,201,255 P,0,134602,,A M,0,134602,134664,450,0,445.9751,0 V,3,134602,135352,2,0.5,2,0.1 M,0,134664,134727,445.9751,0,441.9502,0 M,0,134727,134789,441.9502,0,437.9252,0 M,0,134789,134852,437.9252,0,433.9003,0 F,2,134852,135352,0.35,0 M,0,136852,,115,0 C,0,136852,,222,215,199 P,0,136852,,A F,2,136852,137352,0.35,0 V,3,136852,137352,2,0.5,2,0.1
Sprite,Foreground,BottomCentre,"sb\sprites\blend_light.png",0,0 M,0,132852,,271,480 C,0,132852,,252,141,129 P,0,132852,,A F,2,132852,133352,0.35,0 V,3,132852,133352,2,0.5,2,0.1
Sprite,Foreground,BottomCentre,"sb\sprites\blend_light.png",0,0 M,0,132852,,271,0 R,0,132852,,3.141593 C,0,132852,,252,141,129 P,0,132852,,A F,2,132852,133352,0.35,0 V,3,132852,133352,2,0.5,2,0.1
Sprite,Foreground,Centre,"sb\sprites\bigDot.png",0,0 C,0,153102,,192,192,192 M,0,153102,153164,128,439,115.5192,420.2789 F,2,153102,153977,1,0 S,2,153102,153977,2,0.4 P,0,153102,153977,A M,0,153164,153227,115.5192,420.2789,103.0385,401.5577 M,0,153227,153289,103.0385,401.5577,99.64378,381.8905 M,0,153289,153352,99.64378,381.8905,108.0001,360.9998 M,0,153352,153414,108.0001,360.9998,116.3564,340.1091 M,0,153414,153477,116.3564,340.1091,124.7127,319.2184
Sprite,Foreground,Centre,"sb\sprites\bigDot.png",123,273 C,0,153602,,192,192,192 F,2,153602,154102,1,0 S,2,153602,154102,2,0.4 P,0,153602,154102,A
Sprite,Foreground,Centre,"sb\sprites\bigDot.png",0,0 C,0,153727,,192,192,192 M,0,153727,153789,123,273,145.1371,268.9751 F,2,153727,154477,1,0 S,2,153727,154477,2,0.4 P,0,153727,154477,A M,0,153789,153852,145.1371,268.9751,167.2741,264.9501 M,0,153852,153914,167.2741,264.9501,189.4112,260.9252 M,0,153914,153977,189.4112,260.9252,211.5483,256.9003
Sprite,Foreground,Centre,"sb\sprites\bigDot.png",257,267 C,0,154102,,192,192,192 F,2,154102,154602,1,0 S,2,154102,154602,2,0.4 P,0,154102,154602,A
Sprite,Foreground,Centre,"sb\sprites\bigDot.png",0,0 C,0,154227,,192,192,192 M,0,154227,154289,257,267,279.1146,262.8535 F,2,154227,154977,1,0 S,2,154227,154977,2,0.4 P,0,154227,154977,A M,0,154289,154352,279.1146,262.8535,301.2292,258.707 M,0,154352,154414,301.2292,258.707,323.3439,254.5605 M,0,154414,154477,323.3439,254.5605,345.4585,250.414
Sprite,Foreground,Centre,"sb\sprites\bigDot.png",394,242 C,0,154602,,192,192,192 F,2,154602,155102,1,0 S,2,154602,155102,2,0.4 P,0,154602,155102,A
Sprite,Foreground,Centre,"sb\sprites\bigDot.png",491,224 C,0,154852,,192,192,192 F,2,154852,155352,1,0 S,2,154852,155352,2,0.4 P,0,154852,155352,A
Sprite,Foreground,Centre,"sb\sprites\bigDot.png",0,0 C,0,155102,,252,141,129 M,0,155102,155164,519,129,506.976,110.113 F,2,155102,155977,1,0 S,2,155102,155977,2,0.4 P,0,155102,155977,A M,0,155164,155227,506.976,110.113,490.8778,94.60382 M,0,155227,155289,490.8778,94.60382,471.3694,83.62527 M,0,155289,155352,471.3694,83.62527,449.6331,78.3062 M,0,155352,155414,449.6331,78.3062,427.2942,78.41036 M,0,155414,155477,427.2942,78.41036,405.6812,84.13194
Sprite,Foreground,Centre,"sb\sprites\bigDot.png",369,117 C,0,155602,,252,141,129 F,2,155602,156102,1,0 S,2,155602,156102,2,0.4 P,0,155602,156102,A
Sprite,Foreground,Centre,"sb\sprites\bigDot.png",0,0 C,0,155727,,252,141,129 M,0,155727,155789,369,117,373.0249,139.1371 F,2,155727,156477,1,0 S,2,155727,156477,2,0.4 P,0,155727,156477,A M,0,155789,155852,373.0249,139.1371,377.0498,161.2741 M,0,155852,155914,377.0498,161.2741,381.0748,183.4112 M,0,155914,155977,381.0748,183.4112,385.0997,205.5483
Sprite,Foreground,Centre,"sb\sprites\bigDot.png",377,257 C,0,156102,,252,141,129 F,2,156102,156602,1,0 S,2,156102,156602,2,0.4 P,0,156102,156602,A
Sprite,Foreground,Centre,"sb\sprites\bigDot.png",0,0 C,0,156227,,252,141,129 M,0,156227,156289,377,257,381.0249,279.1371 F,2,156227,156977,1,0 S,2,156227,156977,2,0.4 P,0,156227,156977,A M,0,156289,156352,381.0249,279.1371,385.0498,301.2741 M,0,156352,156414,385.0498,301.2741,389.0748,323.4112 M,0,156414,156477,389.0748,323.4112,393.0997,345.5483
Sprite,Foreground,Centre,"sb\sprites\bigDot.png",403,394 C,0,156602,,252,141,129 F,2,156602,157102,1,0 S,2,156602,157102,2,0.4 P,0,156602,157102,A
Sprite,Foreground,Centre,"sb\sprites\bigDot.png",0,0 C,0,156852,,252,141,129 M,0,156852,156914,312,434,290.1718,428.5429 F,2,156852,157477,1,0 S,2,156852,157477,2,0.4 P,0,156852,157477,A M,0,156914,156977,290.1718,428.5429,268.3436,423.0859
Sprite,Foreground,Centre,"sb\sprites\bigDot.png",0,0 C,0,157102,,157,201,255 M,0,157102,157164,223,403,201.8328,410.62 F,2,157102,157852,1,0 S,2,157102,157852,2,0.4 P,0,157102,157852,A M,0,157164,157227,201.8328,410.62,180.3855,417.4085 M,0,157227,157289,180.3855,417.4085,158.6718,423.2938 M,0,157289,157352,158.6718,423.2938,136.714,428.1881
Sprite,Foreground,Centre,"sb\sprites\bigDot.png",92,440 C,0,157477,,157,201,255 F,2,157477,157977,1,0 S,2,157477,157977,2,0.4 P,0,157477,157977,A
Sprite,Foreground,Centre,"sb\sprites\bigDot.png",92,440 C,0,157602,,157,201,255 F,2,157602,158102,1,0 S,2,157602,158102,2,0.4 P,0,157602,158102,A
Sprite,Foreground,Centre,"sb\sprites\bigDot.png",0,0 C,0,157852,,157,201,255 M,0,157852,157914,64,344,69.45705,322.1718 F,2,157852,158477,1,0 S,2,157852,158477,2,0.4 P,0,157852,158477,A M,0,157914,157977,69.45705,322.1718,74.9141,300.3436
Sprite,Foreground,Centre,"sb\sprites\bigDot.png",0,0 C,0,158102,,157,201,255 M,0,158102,158164,91,253,86.58739,230.9369 F,2,158102,158852,1,0 S,2,158102,158852,2,0.4 P,0,158102,158852,A M,0,158164,158227,86.58739,230.9369,82.17477,208.8739 M,0,158227,158289,82.17477,208.8739,77.76216,186.8108 M,0,158289,158352,77.76216,186.8108,73.34955,164.7477
Sprite,Foreground,Centre,"sb\sprites\bigDot.png",0,0 C,0,158602,,157,201,255 M,0,158602,158664,156,111,160.4126,133.0631 F,2,158602,159352,1,0 S,2,158602,159352,2,0.4 P,0,158602,159352,A M,0,158664,158727,160.4126,133.0631,164.8252,155.1261 M,0,158727,158789,164.8252,155.1261,169.2378,177.1892 M,0,158789,158852,169.2378,177.1892,173.6505,199.2523
Sprite,Foreground,Centre,"sb\sprites\bigDot.png",0,0 C,0,159102,,222,215,199 M,0,159102,159164,260,245,276.0612,229.3917 F,2,159102,159852,1,0 S,2,159102,159852,2,0.4 P,0,159102,159852,A M,0,159164,159227,276.0612,229.3917,295.1863,217.7843 M,0,159227,159289,295.1863,217.7843,316.5927,211.1036 M,0,159289,159352,316.5927,211.1036,338.9771,210.403
Sprite,Foreground,Centre,"sb\sprites\bigDot.png",392,216 C,0,159477,,222,215,199 F,2,159477,159977,1,0 S,2,159477,159977,2,0.4 P,0,159477,159977,A
Sprite,Foreground,Centre,"sb\sprites\bigDot.png",392,216 C,0,159602,,222,215,199 F,2,159602,160102,1,0 S,2,159602,160102,2,0.4 P,0,159602,160102,A
Sprite,Foreground,Centre,"sb\sprites\bigDot.png",452,294 C,0,159852,,222,215,199 F,2,159852,160352,1,0 S,2,159852,160352,2,0.4 P,0,159852,160352,A
Sprite,Foreground,Centre,"sb\sprites\bigDot.png",0,0 C,0,160102,,222,215,199 M,0,160102,160164,405,381,383.0761,376.1981 F,2,160102,161102,1,0 S,2,160102,161102,2,0.4 P,0,160102,161102,A M,0,160164,160227,383.0761,376.1981,360.7128,377.5547 M,0,160227,160289,360.7128,377.5547,340.2242,386.5386 M,0,160289,160352,340.2242,386.5386,323.1812,401.1726 M,0,160352,160414,323.1812,401.1726,306.7239,416.4951 M,0,160414,160477,306.7239,416.4951,287.1494,427.3568 M,0,160477,160539,287.1494,427.3568,265.0154,430.7561 M,0,160539,160602,265.0154,430.7561,242.7838,427.6928
Sprite,Foreground,Centre,"sb\sprites\bigDot.png",150,390 C,0,160852,,222,215,199 F,2,160852,161352,1,0 S,2,160852,161352,2,0.4 P,0,160852,161352,A
Sprite,Foreground,Centre,"sb\sprites\bigDot.png",0,0 C,0,161102,,192,192,192 M,0,161102,161164,186,297,182.5787,274.7617 F,2,161102,161977,1,0 S,2,161102,161977,2,0.4 P,0,161102,161977,A M,0,161164,161227,182.5787,274.7617,179.1574,252.5233 M,0,161227,161289,179.1574,252.5233,168.9914,233.1466 M,0,161289,161352,168.9914,233.1466,158.1662,214.0708 M,0,161352,161414,158.1662,214.0708,155.033,191.79 M,0,161414,161477,155.033,191.79,151.8997,169.5092
Sprite,Foreground,Centre,"sb\sprites\bigDot.png",165,124 C,0,161602,,192,192,192 F,2,161602,162102,1,0 S,2,161602,162102,2,0.4 P,0,161602,162102,A
Sprite,Foreground,Centre,"sb\sprites\bigDot.png",0,0 C,0,161727,,192,192,192 M,0,161727,161789,165,124,184.7814,113.5642 F,2,161727,162477,1,0 S,2,161727,162477,2,0.4 P,0,161727,162477,A M,0,161789,161852,184.7814,113.5642,206.5368,108.5272 M,0,161852,161914,206.5368,108.5272,228.9003,109.6456 M,0,161914,161977,228.9003,109.6456,249.8526,117.4551
Sprite,Foreground,Centre,"sb\sprites\bigDot.png",303,115 C,0,162102,,192,192,192 F,2,162102,162602,1,0 S,2,162102,162602,2,0.4 P,0,162102,162602,A
Sprite,Foreground,Centre,"sb\sprites\bigDot.png",0,0 C,0,162227,,192,192,192 M,0,162227,162289,303,115,322.1022,126.6197 F,2,162227,162977,1,0 S,2,162227,162977,2,0.4 P,0,162227,162977,A M,0,162289,162352,322.1022,126.6197,337.4669,142.8099 M,0,162352,162414,337.4669,142.8099,347.6875,162.7186 M,0,162414,162477,347.6875,162.7186,351.2731,184.7802
Sprite,Foreground,Centre,"sb\sprites\bigDot.png",349,235 C,0,162602,,192,192,192 F,2,162602,163102,1,0 S,2,162602,163102,2,0.4 P,0,162602,163102,A
Sprite,Foreground,Centre,"sb\sprites\bigDot.png",284,309 C,0,162852,,192,192,192 F,2,162852,163352,1,0 S,2,162852,163352,2,0.4 P,0,162852,163352,A
Sprite,Foreground,Centre,"sb\sprites\bigDot.png",0,0 C,0,163102,,252,141,129 M,0,163102,163164,332,395,354.1186,398.4392 F,2,163102,163977,1,0 S,2,163102,163977,2,0.4 P,0,163102,163977,A M,0,163164,163227,354.1186,398.4392,375.6003,392.5779 M,0,163227,163289,375.6003,392.5779,392.8181,378.2155 M,0,163289,163352,392.8181,378.2155,409.9641,363.7579 M,0,163352,163414,409.9641,363.7579,431.3698,357.5914 M,0,163414,163477,431.3698,357.5914,453.5629,360.5622
Sprite,Foreground,Centre,"sb\sprites\bigDot.png",502,365 C,0,163602,,252,141,129 F,2,163602,164102,1,0 S,2,163602,164102,2,0.4 P,0,163602,164102,A
Sprite,Foreground,Centre,"sb\sprites\bigDot.png",0,0 C,0,163727,,252,141,129 M,0,163727,163789,502,365,506.0249,342.8629 F,2,163727,164477,1,0 S,2,163727,164477,2,0.4 P,0,163727,164477,A M,0,163789,163852,506.0249,342.8629,510.0498,320.7259 M,0,163852,163914,510.0498,320.7259,514.0748,298.5888 M,0,163914,163977,514.0748,298.5888,518.0997,276.4517
Sprite,Foreground,Centre,"sb\sprites\bigDot.png",543,235 C,0,164102,,252,141,129 F,2,164102,164602,1,0 S,2,164102,164602,2,0.4 P,0,164102,164602,A
Sprite,Foreground,Centre,"sb\sprites\bigDot.png",0,0 C,0,164227,,252,141,129 M,0,164227,164289,543,235,547.0249,212.8629 F,2,164227,164977,1,0 S,2,164227,164977,2,0.4 P,0,164227,164977,A M,0,164289,164352,547.0249,212.8629,551.0498,190.7259 M,0,164352,164414,551.0498,190.7259,555.0748,168.5888 M,0,164414,164477,555.0748,168.5888,559.0997,146.4517
Sprite,Foreground,Centre,"sb\sprites\bigDot.png",570,98 C,0,164602,,252,141,129 F,2,164602,165102,1,0 S,2,164602,165102,2,0.4 P,0,164602,165102,A
Sprite,Foreground,Centre,"sb\sprites\bigDot.png",0,0 C,0,164852,,252,141,129 M,0,164852,164914,479,57,457.1718,62.45705 F,2,164852,165477,1,0 S,2,164852,165477,2,0.4 P,0,164852,165477,A M,0,164914,164977,457.1718,62.45705,435.3436,67.9141
Sprite,Foreground,Centre,"sb\sprites\bigDot.png",0,0 C,0,165102,,157,201,255 M,0,165102,165164,387,82,365.3557,75.88268 F,2,165102,165852,1,0 S,2,165102,165852,2,0.4 P,0,165102,165852,A M,0,165164,165227,365.3557,75.88268,343.3692,71.15319 M,0,165227,165289,343.3692,71.15319,321.1103,67.92941 M,0,165289,165352,321.1103,67.92941,298.681,66.22084
Sprite,Foreground,Centre,"sb\sprites\bigDot.png",0,0 C,0,165602,,157,201,255 M,0,165602,165664,273,162,294.7947,167.5704 F,2,165602,166352,1,0 S,2,165602,166352,2,0.4 P,0,165602,166352,A M,0,165664,165727,294.7947,167.5704,316.8352,172.0629 M,0,165727,165789,316.8352,172.0629,339.0825,175.3903 M,0,165789,165852,339.0825,175.3903,361.4752,177.5489
Sprite,Foreground,Centre,"sb\sprites\bigDot.png",415,183 C,0,165977,,157,201,255 F,2,165977,166477,1,0 S,2,165977,166477,2,0.4 P,0,165977,166477,A
Sprite,Foreground,Centre,"sb\sprites\bigDot.png",415,183 C,0,166102,,157,201,255 F,2,166102,166602,1,0 S,2,166102,166602,2,0.4 P,0,166102,166602,A
Sprite,Foreground,Centre,"sb\sprites\bigDot.png",470,264 C,0,166352,,157,201,255 F,2,166352,166852,1,0 S,2,166352,166852,2,0.4 P,0,166352,166852,A
Sprite,Foreground,Centre,"sb\sprites\bigDot.png",0,0 C,0,166602,,157,201,255 M,0,166602,166664,409,342,389.2186,331.5642 F,2,166602,167352,1,0 S,2,166602,167352,2,0.4 P,0,166602,167352,A M,0,166664,166727,389.2186,331.5642,367.4632,326.5272 M,0,166727,166789,367.4632,326.5272,345.0998,327.6456 M,0,166789,166852,345.0998,327.6456,324.1474,335.4552
Sprite,Foreground,Centre,"sb\sprites\bigDot.png",289,371 C,0,166977,,157,201,255 F,2,166977,167477,1,0 S,2,166977,167477,2,0.4 P,0,166977,167477,A
Sprite,Foreground,Centre,"sb\sprites\bigDot.png",0,0 C,0,167102,,222,215,199 M,0,167102,167164,289,371,266.8629,366.9751 F,2,167102,167852,1,0 S,2,167102,167852,2,0.4 P,0,167102,167852,A M,0,167164,167227,266.8629,366.9751,244.7259,362.9502 M,0,167227,167289,244.7259,362.9502,222.5888,358.9252 M,0,167289,167352,222.5888,358.9252,200.4517,354.9003
Sprite,Foreground,Centre,"sb\sprites\bigDot.png",155,351 C,0,167477,,222,215,199 F,2,167477,167977,1,0 S,2,167477,167977,2,0.4 P,0,167477,167977,A
Sprite,Foreground,Centre,"sb\sprites\bigDot.png",155,351 C,0,167602,,222,215,199 F,2,167602,168102,1,0 S,2,167602,168102,2,0.4 P,0,167602,168102,A
Sprite,Foreground,Centre,"sb\sprites\bigDot.png",84,281 C,0,167852,,222,215,199 F,2,167852,168352,1,0 S,2,167852,168352,2,0.4 P,0,167852,168352,A
Sprite,Foreground,Centre,"sb\sprites\bigDot.png",0,0 C,0,168102,,222,215,199 M,0,168102,168164,134,195,130.301,172.8061 F,2,168102,168852,1,0 S,2,168102,168852,2,0.4 P,0,168102,168852,A M,0,168164,168227,130.301,172.8061,126.6021,150.6123 M,0,168227,168289,126.6021,150.6123,122.9031,128.4184 M,0,168289,168352,122.9031,128.4184,119.2041,106.2245
Sprite,Foreground,Centre,"sb\sprites\bigDot.png",0,0 C,0,168602,,222,215,199 M,0,168602,168664,204,56,207.699,78.19386 F,2,168602,169352,1,0 S,2,168602,169352,2,0.4 P,0,168602,169352,A M,0,168664,168727,207.699,78.19386,211.3979,100.3877 M,0,168727,168789,211.3979,100.3877,215.0969,122.5816 M,0,168789,168852,215.0969,122.5816,218.7959,144.7755
Sprite,Foreground,Centre,"sb\sprites\bigDot.png",0,0 C,0,169102,,192,192,192 M,0,169102,169164,238,241,254.0682,225.4407 F,2,169102,170352,1,0 S,2,169102,170352,2,0.4 P,0,169102,170352,A M,0,169164,169227,254.0682,225.4407,273.556,214.5485 M,0,169227,169289,273.556,214.5485,295.3282,209.4243 M,0,169289,169352,295.3282,209.4243,317.6285,210.9712 M,0,169352,169414,317.6285,210.9712,338.6889,218.3276 M,0,169414,169477,338.6889,218.3276,356.9384,231.2052 M,0,169477,169539,356.9384,231.2052,338.6889,218.3276 M,0,169539,169602,338.6889,218.3276,317.6285,210.9712 M,0,169602,169664,317.6285,210.9712,295.3282,209.4243 M,0,169664,169727,295.3282,209.4243,273.556,214.5485 M,0,169727,169789,273.556,214.5485,254.0682,225.4407 M,0,169789,169852,254.0682,225.4407,238,241
Sprite,Foreground,Centre,"sb\sprites\bigDot.png",0,0 C,0,170102,,192,192,192 M,0,170102,170164,145,205,141.301,227.1939 F,2,170102,170852,1,0 S,2,170102,170852,2,0.4 P,0,170102,170852,A M,0,170164,170227,141.301,227.1939,137.6021,249.3877 M,0,170227,170289,137.6021,249.3877,133.9031,271.5816 M,0,170289,170352,133.9031,271.5816,130.2041,293.7755
Sprite,Foreground,Centre,"sb\sprites\bigDot.png",125,346 C,0,170477,,192,192,192 F,2,170477,170977,1,0 S,2,170477,170977,2,0.4 P,0,170477,170977,A
Sprite,Foreground,Centre,"sb\sprites\bigDot.png",125,346 C,0,170602,,192,192,192 F,2,170602,171102,1,0 S,2,170602,171102,2,0.4 P,0,170602,171102,A
Sprite,Foreground,Centre,"sb\sprites\bigDot.png",188,421 C,0,170852,,192,192,192 F,2,170852,171352,1,0 S,2,170852,171352,2,0.4 P,0,170852,171352,A
Sprite,Foreground,Centre,"sb\sprites\bigDot.png",0,0 C,0,171102,,252,141,129 M,0,171102,171164,282,390,304.1371,394.0249 F,2,171102,171852,1,0 S,2,171102,171852,2,0.4 P,0,171102,171852,A M,0,171164,171227,304.1371,394.0249,326.2741,398.0498 M,0,171227,171289,326.2741,398.0498,348.4112,402.0748 M,0,171289,171352,348.4112,402.0748,370.5483,406.0997
Sprite,Foreground,Centre,"sb\sprites\bigDot.png",0,0 C,0,171477,,252,141,129 M,0,171477,171539,419,416,441.1371,420.0249 F,2,171477,172227,1,0 S,2,171477,172227,2,0.4 P,0,171477,172227,A M,0,171539,171602,441.1371,420.0249,463.2741,424.0498 M,0,171602,171664,463.2741,424.0498,485.4112,428.0748 M,0,171664,171727,485.4112,428.0748,507.5483,432.0997
Sprite,Foreground,Centre,"sb\sprites\bigDot.png",556,440 C,0,171852,,252,141,129 F,2,171852,172352,1,0 S,2,171852,172352,2,0.4 P,0,171852,172352,A
Sprite,Foreground,Centre,"sb\sprites\bigDot.png",0,0 C,0,172102,,252,141,129 M,0,172102,172164,538,342,533.9751,319.8629 F,2,172102,172852,1,0 S,2,172102,172852,2,0.4 P,0,172102,172852,A M,0,172164,172227,533.9751,319.8629,529.9502,297.7259 M,0,172227,172289,529.9502,297.7259,525.9252,275.5888 M,0,172289,172352,525.9252,275.5888,521.9003,253.4517
Sprite,Foreground,Centre,"sb\sprites\bigDot.png",516,209 C,0,172477,,252,141,129 F,2,172477,172977,1,0 S,2,172477,172977,2,0.4 P,0,172477,172977,A
Sprite,Foreground,Centre,"sb\sprites\bigDot.png",516,209 C,0,172602,,252,141,129 F,2,172602,173102,1,0 S,2,172602,173102,2,0.4 P,0,172602,173102,A
Sprite,Foreground,Centre,"sb\sprites\bigDot.png",444,140 C,0,172852,,252,141,129 F,2,172852,173352,1,0 S,2,172852,173352,2,0.4 P,0,172852,173352,A
Sprite,Foreground,Centre,"sb\sprites\bigDot.png",0,0 C,0,173102,,157,201,255 M,0,173102,173164,353,179,330.6668,181.7347 F,2,173102,174352,1,0 S,2,173102,174352,2,0.4 P,0,173102,174352,A M,0,173164,173227,330.6668,181.7347,308.3336,184.4694 M,0,173227,173289,308.3336,184.4694,289.8397,196.3282 M,0,173289,173352,289.8397,196.3282,270.4583,206.1474 M,0,173352,173414,270.4583,206.1474,248.1586,209.1429 M,0,173414,173477,248.1586,209.1429,225.8589,212.1384 M,0,173477,173539,225.8589,212.1384,248.1586,209.1429 M,0,173539,173602,248.1586,209.1429,270.4583,206.1474 M,0,173602,173664,270.4583,206.1474,289.8397,196.3282 M,0,173664,173727,289.8397,196.3282,308.3336,184.4694 M,0,173727,173789,308.3336,184.4694,330.6668,181.7347 M,0,173789,173852,330.6668,181.7347,353,179
Sprite,Foreground,Centre,"sb\sprites\bigDot.png",0,0 C,0,174102,,157,201,255 M,0,174102,174164,369,80,346.6737,82.79078 F,2,174102,174852,1,0 S,2,174102,174852,2,0.4 P,0,174102,174852,A M,0,174164,174227,346.6737,82.79078,324.3475,85.58156 M,0,174227,174289,324.3475,85.58156,302.0212,88.37234 M,0,174289,174352,302.0212,88.37234,279.695,91.16312
Sprite,Foreground,Centre,"sb\sprites\bigDot.png",234,102 C,0,174477,,157,201,255 F,2,174477,174977,1,0 S,2,174477,174977,2,0.4 P,0,174477,174977,A
Sprite,Foreground,Centre,"sb\sprites\bigDot.png",234,102 C,0,174602,,157,201,255 F,2,174602,175102,1,0 S,2,174602,175102,2,0.4 P,0,174602,175102,A
Sprite,Foreground,Centre,"sb\sprites\bigDot.png",141,67 C,0,174852,,157,201,255 F,2,174852,175352,1,0 S,2,174852,175352,2,0.4 P,0,174852,175352,A
Sprite,Foreground,Centre,"sb\sprites\bigDot.png",0,0 C,0,175102,,222,215,199 M,0,175102,175164,70,137,77.61998,158.1672 F,2,175102,175852,1,0 S,2,175102,175852,2,0.4 P,0,175102,175852,A M,0,175164,175227,77.61998,158.1672,84.40848,179.6145 M,0,175227,175289,84.40848,179.6145,90.29378,201.3282 M,0,175289,175352,90.29378,201.3282,95.18813,223.286
Sprite,Foreground,Centre,"sb\sprites\bigDot.png",0,0 C,0,175602,,222,215,199 M,0,175602,175664,175,281,178.2375,258.7372 F,2,175602,176352,1,0 S,2,175602,176352,2,0.4 P,0,175602,176352,A M,0,175664,175727,178.2375,258.7372,182.3405,236.6185 M,0,175727,175789,182.3405,236.6185,187.3658,214.6898 M,0,175789,175852,187.3658,214.6898,193.3804,193.012
Sprite,Foreground,Centre,"sb\sprites\bigDot.png",234,102 C,0,176102,,222,215,199 F,2,176102,176602,1,0 S,2,176102,176602,2,0.4 P,0,176102,176602,A
Sprite,Foreground,Centre,"sb\sprites\bigDot.png",331,86 C,0,176352,,222,215,199 F,2,176352,176852,1,0 S,2,176352,176852,2,0.4 P,0,176352,176852,A
Sprite,Foreground,Centre,"sb\sprites\bigDot.png",394,161 C,0,176602,,222,215,199 F,2,176602,177102,1,0 S,2,176602,177102,2,0.4 P,0,176602,177102,A
Sprite,Foreground,Centre,"sb\sprites\bigDot.png",365,255 C,0,176852,,222,215,199 F,2,176852,177352,1,0 S,2,176852,177352,2,0.4 P,0,176852,177352,A
Sprite,Foreground,Centre,"sb\sprites\bigDot.png",0,0 C,0,177102,,192,192,192 M,0,177102,177164,421,336,443.1186,339.4393 F,2,177102,178352,1,0 S,2,177102,178352,2,0.4 P,0,177102,178352,A M,0,177164,177227,443.1186,339.4393,464.6003,333.578 M,0,177227,177289,464.6003,333.578,481.8181,319.2155 M,0,177289,177352,481.8181,319.2155,498.9641,304.7579 M,0,177352,177414,498.9641,304.7579,520.3698,298.5914 M,0,177414,177477,520.3698,298.5914,542.5628,301.5622 M,0,177477,177539,542.5628,301.5622,520.3698,298.5914 M,0,177539,177602,520.3698,298.5914,498.9641,304.7579 M,0,177602,177664,498.9641,304.7579,481.8181,319.2155 M,0,177664,177727,481.8181,319.2155,464.6003,333.578 M,0,177727,177789,464.6003,333.578,443.1186,339.4393 M,0,177789,177852,443.1186,339.4393,421,336
Sprite,Foreground,Centre,"sb\sprites\bigDot.png",0,0 C,0,178102,,192,192,192 M,0,178102,178164,346,271,323.8062,274.699 F,2,178102,178852,1,0 S,2,178102,178852,2,0.4 P,0,178102,178852,A M,0,178164,178227,323.8062,274.699,301.6123,278.3979 M,0,178227,178289,301.6123,278.3979,279.4184,282.0969 M,0,178289,178352,279.4184,282.0969,257.2245,285.7959
Sprite,Foreground,Centre,"sb\sprites\bigDot.png",212,298 C,0,178477,,192,192,192 F,2,178477,178977,1,0 S,2,178477,178977,2,0.4 P,0,178477,178977,A
Sprite,Foreground,Centre,"sb\sprites\bigDot.png",212,298 C,0,178602,,192,192,192 F,2,178602,179102,1,0 S,2,178602,179102,2,0.4 P,0,178602,179102,A
Sprite,Foreground,Centre,"sb\sprites\bigDot.png",136,233 C,0,178852,,192,192,192 F,2,178852,179352,1,0 S,2,178852,179352,2,0.4 P,0,178852,179352,A
Sprite,Foreground,Centre,"sb\sprites\bigDot.png",0,0 C,0,179102,,252,141,129 M,0,179102,179164,173,141,195.1939,137.301 F,2,179102,179852,1,0 S,2,179102,179852,2,0.4 P,0,179102,179852,A M,0,179164,179227,195.1939,137.301,217.3877,133.6021 M,0,179227,179289,217.3877,133.6021,239.5816,129.9031 M,0,179289,179352,239.5816,129.9031,261.7755,126.2041
Sprite,Foreground,Centre,"sb\sprites\bigDot.png",0,0 C,0,179477,,252,141,129 M,0,179477,179539,311,118,333.1938,114.301 F,2,179477,180227,1,0 S,2,179477,180227,2,0.4 P,0,179477,180227,A M,0,179539,179602,333.1938,114.301,355.3877,110.6021 M,0,179602,179664,355.3877,110.6021,377.5816,106.9031 M,0,179664,179727,377.5816,106.9031,399.7755,103.2041
Sprite,Foreground,Centre,"sb\sprites\bigDot.png",448,96 C,0,179852,,252,141,129 F,2,179852,180352,1,0 S,2,179852,180352,2,0.4 P,0,179852,180352,A
Sprite,Foreground,Centre,"sb\sprites\bigDot.png",0,0 C,0,180102,,252,141,129 M,0,180102,180164,546,83,540.1101,104.7146 F,2,180102,180852,1,0 S,2,180102,180852,2,0.4 P,0,180102,180852,A M,0,180164,180227,540.1101,104.7146,534.6638,126.5443 M,0,180227,180289,534.6638,126.5443,529.6951,148.488 M,0,180289,180352,529.6951,148.488,525.2062,170.535
Sprite,Foreground,Centre,"sb\sprites\bigDot.png",518,222 C,0,180477,,252,141,129 F,2,180477,180977,1,0 S,2,180477,180977,2,0.4 P,0,180477,180977,A
Sprite,Foreground,Centre,"sb\sprites\bigDot.png",518,222 C,0,180602,,252,141,129 F,2,180602,181102,1,0 S,2,180602,181102,2,0.4 P,0,180602,181102,A
Sprite,Foreground,Centre,"sb\sprites\bigDot.png",425,186 C,0,180852,,252,141,129 F,2,180852,181352,1,0 S,2,180852,181352,2,0.4 P,0,180852,181352,A
Sprite,Foreground,Centre,"sb\sprites\bigDot.png",0,0 C,0,181102,,157,201,255 M,0,181102,181164,343,241,346.0595,263.291 F,2,181102,182352,1,0 S,2,181102,182352,2,0.4 P,0,181102,182352,A M,0,181164,181227,346.0595,263.291,349.1191,285.582 M,0,181227,181289,349.1191,285.582,344.0496,306.8759 M,0,181289,181352,344.0496,306.8759,338.8784,328.1484 M,0,181352,181414,338.8784,328.1484,342.0603,350.4223 M,0,181414,181477,342.0603,350.4223,345.2423,372.6962 M,0,181477,181539,345.2423,372.6962,342.0603,350.4223 M,0,181539,181602,342.0603,350.4223,338.8784,328.1484 M,0,181602,181664,338.8784,328.1484,344.0496,306.8759 M,0,181664,181727,344.0496,306.8759,349.1191,285.582 M,0,181727,181789,349.1191,285.582,346.0595,263.291 M,0,181789,181852,346.0595,263.291,343,241
Sprite,Foreground,Centre,"sb\sprites\bigDot.png",339,195 C,0,181977,,157,201,255 F,2,181977,182477,1,0 S,2,181977,182477,2,0.4 P,0,181977,182477,A
Sprite,Foreground,Centre,"sb\sprites\bigDot.png",339,195 C,0,182102,,157,201,255 F,2,182102,182602,1,0 S,2,182102,182602,2,0.4 P,0,182102,182602,A
Sprite,Foreground,Centre,"sb\sprites\bigDot.png",258,252 C,0,182352,,157,201,255 F,2,182352,182852,1,0 S,2,182352,182852,2,0.4 P,0,182352,182852,A
Sprite,Foreground,Centre,"sb\sprites\bigDot.png",0,0 C,0,182602,,157,201,255 M,0,182602,182664,177,193,181.4126,170.9369 F,2,182602,183227,1,0 S,2,182602,183227,2,0.4 P,0,182602,183227,A M,0,182664,182727,181.4126,170.9369,185.8252,148.8739
Sprite,Foreground,Centre,"sb\sprites\bigDot.png",195,100 C,0,182852,,157,201,255 F,2,182852,183352,1,0 S,2,182852,183352,2,0.4 P,0,182852,183352,A
//Storyboard Layer 4 (Overlay)
//Storyboard Sound Samples

[TimingPoints]
2132,244.897959183673,4,2,1,80,1,0
4091,250,4,2,1,80,1,0
8091,-100,4,2,1,30,0,0
8216,255.31914893617,4,2,1,80,1,0
8854,266.666666666667,4,2,1,80,1,0
9112,248.96265560166,4,2,2,70,1,0
11102,250,4,2,2,70,1,0
25102,-100,4,2,2,55,0,0
41102,255.31914893617,4,2,1,80,1,0
42122,250,4,2,1,80,1,0
43122,244.897959183673,4,2,1,80,1,0
44102,255.31914893617,4,2,1,80,1,0
45122,244.897959183673,4,2,1,80,1,0
46102,250,4,2,1,80,1,0
48102,247.422680412371,4,2,1,80,1,0
50082,250,4,2,1,80,1,0
55082,247.933884297521,4,2,1,45,1,0
56816,285.714285714286,4,2,1,45,1,0
57102,250,4,2,1,90,1,1
72102,-100,4,2,1,50,0,0
73102,-100,4,2,2,70,0,0
89102,-100,4,2,2,65,0,0
104477,187.5,4,2,1,70,1,0
104570,272.727272727273,4,2,1,70,1,0
104842,260.869565217391,4,2,1,70,1,0
105102,250,4,2,1,80,1,0
107102,244.897959183673,4,2,1,80,1,0
108082,247.422680412371,4,2,1,80,1,0
109071,255.31914893617,4,2,1,80,1,0
111113,244.897959183673,4,2,1,80,1,0
112582,255.31914893617,4,2,1,80,1,0
113092,252.631578947368,4,2,1,80,1,0
114102,250,4,2,1,80,1,0
121102,-100,4,2,1,45,0,0
128331,250,4,2,1,80,1,0
129102,250,4,2,3,80,1,0
129102,-100,4,2,3,80,0,0
135102,-100,4,2,3,45,0,0
137102,-100,4,2,2,65,0,0
152102,-100,4,2,2,45,0,0
153102,-100,4,2,1,90,0,1
169102,-100,4,2,1,90,0,1
183102,-100,4,2,1,5,0,0
190352,-100,4,2,1,8,0,0
190852,-100,4,2,1,15,0,0
191102,-100,4,2,1,25,0,0
195102,-100,4,2,2,65,0,0
203102,-100,4,2,2,92,0,0
203164,-100,4,2,2,65,0,0
211102,-100,4,1,1,45,0,0
212102,-100,4,1,1,40,0,0
213102,-100,4,1,1,35,0,0
214102,-100,4,1,1,30,0,0
215102,-100,4,1,1,25,0,0
216102,-100,4,1,1,20,0,0
217102,-100,4,1,1,15,0,0
218102,-100,4,1,1,10,0,0
219102,-100,4,1,1,5,0,0

[Colours]
Combo1 : 192,192,192
Combo2 : 252,141,129
Combo3 : 157,201,255
Combo4 : 222,215,199

[HitObjects]
510,198,2132,6,0,B|521:164|510:130|476:142|465:108|476:74,2,135,14|8|10,0:0|0:0|0:0,0:0:0:0:
451,277,3111,2,0,L|323:245,1,90,10|0,0:0|3:0,0:0:0:0:
317,270,3478,2,0,L|189:238,1,90,8|0,0:0|3:0,0:0:0:0:
181,237,3846,1,8,0:0:0:0:
111,168,4091,6,0,B|71:208|71:208|95:296,2,135,14|8|10,0:0|0:0|0:0,0:0:0:0:
59,83,5091,2,0,L|187:51,1,90,10|0,0:0|3:0,0:0:0:0:
198,51,5466,1,8,0:0:0:0:
198,51,5591,1,0,3:0:0:0:
286,95,5841,1,8,0:0:0:0:
364,34,6091,6,0,P|492:34|512:58,2,135,14|8|10,0:0|0:0|0:0,0:0:0:0:
427,110,7091,2,0,L|411:206,1,90,10|0,0:0|3:0,0:0:0:0:
381,237,7466,2,0,L|397:333,1,90,8|0,0:0|3:0,0:0:0:0:
406,374,7841,1,8,0:0:0:0:
406,374,9112,6,0,B|413:318|413:318|432:297|432:297|444:217,1,135,12|8,3:2|0:0,0:0:0:0:
475,212,9609,2,0,L|443:52,1,90,8|8,3:2|0:0,0:0:0:0:
512,41,10107,2,0,P|400:41|384:57,1,90,0|0,3:2|0:0,0:0:0:0:
386,54,10481,1,8,0:0:0:0:
386,54,10605,1,8,3:2:0:0:
297,9,10854,2,0,L|233:25,1,45,8|0,0:0|0:0,0:0:0:0:
207,38,11102,6,0,P|159:22|79:6,1,90,8|8,3:2|0:0,0:0:0:0:
88,106,11602,2,0,P|136:122|216:138,1,90,8|0,3:2|0:0,0:0:0:0:
270,152,12102,2,0,P|286:200|302:280,1,90,0|0,3:2|0:0,0:0:0:0:
310,290,12477,1,8,0:0:0:0:
310,290,12602,1,8,3:2:0:0:
260,375,12852,1,8,0:0:0:0:
170,333,13102,6,0,B|122:317|122:317|26:365,1,135,8|8,3:2|0:0,0:0:0:0:
3,379,13602,2,0,L|35:203,1,90,8|0,3:2|0:0,0:0:0:0:
89,221,14102,2,0,L|57:45,1,90,0|0,3:0|0:0,0:0:0:0:
67,87,14477,1,8,0:0:0:0:
67,87,14602,1,8,3:2:0:0:
139,19,14852,2,0,L|187:35,1,45,8|0,0:0|0:0,0:0:0:0:
227,51,15102,6,0,B|260:62|294:51|282:17|316:6|350:17,1,135,8|8,3:2|0:0,0:0:0:0:
395,34,15602,1,8,3:2:0:0:
491,13,15852,2,0,L|475:93,1,45,0|8,0:0|0:0,0:0:0:0:
472,105,16102,2,0,L|440:249,1,90,0|0,3:0|0:0,0:0:0:0:
375,254,16602,2,0,L|343:110,1,90,8|8,3:2|0:0,0:0:0:0:
261,135,17102,6,0,P|149:135|125:103,1,135,12|8,3:2|0:0,0:0:0:0:
101,93,17602,2,0,L|-27:125,1,90,8|0,3:2|0:0,0:0:0:0:
0,212,18102,2,0,L|128:180,1,90,0|0,3:0|0:0,0:0:0:0:
139,182,18477,1,8,0:0:0:0:
139,182,18602,1,8,3:2:0:0:
219,239,18852,2,0,L|283:223,1,45,8|0,0:0|0:0,0:0:0:0:
312,229,19102,6,0,P|328:245|328:357,1,90,8|8,3:2|0:0,0:0:0:0:
427,366,19602,2,0,P|432:344|529:288,1,90,8|0,3:2|0:0,0:0:0:0:
488,197,20102,2,0,P|466:202|369:146,1,90,0|0,3:0|0:0,0:0:0:0:
364,164,20477,1,8,0:0:0:0:
364,164,20602,1,8,3:2:0:0:
403,73,20852,1,8,0:0:0:0:
332,3,21102,6,0,B|276:10|276:10|255:29|255:29|191:38,1,135,8|8,3:2|0:0,0:0:0:0:
156,47,21602,2,0,L|124:207,1,90,8|0,3:2|0:0,0:0:0:0:
42,160,22102,2,0,L|74:320,1,90,0|0,3:0|0:0,0:0:0:0:
74,300,22477,1,8,0:0:0:0:
74,300,22602,1,8,3:2:0:0:
166,336,22852,2,0,P|186:327|214:320,1,45,8|0,0:0|0:0,0:0:0:0:
255,307,23102,6,0,B|287:267|287:267|263:163,1,135,8|8,3:2|0:0,0:0:0:0:
257,137,23602,1,8,3:2:0:0:
312,55,23852,2,0,L|392:71,1,45,0|8,0:0|0:0,0:0:0:0:
403,77,24102,2,0,P|419:125|435:205,1,90,0|0,3:0|0:0,0:0:0:0:
511,216,24602,2,0,P|500:265|474:342,1,90,8|8,3:2|0:0,0:0:0:0:
392,322,25102,6,0,B|346:306|300:322|316:367|270:382|224:367,1,180,6|2,3:2|3:2,0:0:0:0:
131,383,25852,2,0,L|115:303,1,45,10|2,0:3|0:0,0:0:0:0:
89,302,26102,2,0,L|57:126,1,90,2|8,3:2|0:3,0:0:0:0:
68,168,26477,1,8,0:3:0:0:
68,168,26602,1,2,3:2:0:0:
50,25,26977,1,2,0:0:0:0:
50,25,27102,6,0,B|98:9|146:25|130:73|178:89|226:73,1,180,2|2,3:2|3:2,0:0:0:0:
298,29,27852,2,0,L|378:15,1,45,10|2,0:3|0:0,0:0:0:0:
391,26,28102,2,0,P|407:42|407:154,1,90,2|8,3:2|0:3,0:0:0:0:
421,158,28477,1,8,0:3:0:0:
421,158,28602,1,2,3:2:0:0:
324,137,28852,1,12,0:3:0:0:
294,231,29102,6,0,L|326:359,1,90,2|10,3:2|0:3,0:0:0:0:
235,376,29602,2,0,L|203:248,1,90,2|10,3:2|0:3,0:0:0:0:
192,249,29977,1,0,0:0:0:0:
192,249,30102,2,0,P|176:233|80:233,1,90,2|10,3:0|0:3,0:0:0:0:
68,237,30477,1,10,0:3:0:0:
1,104,30852,1,10,0:3:0:0:
78,41,31102,6,0,L|222:9,1,90,2|10,3:2|0:3,0:0:0:0:
217,12,31477,1,2,0:0:0:0:
217,12,31602,1,0,3:0:0:0:
273,93,31852,1,8,0:3:0:0:
217,175,32102,2,0,P|216:271|233:286,2,90,10|8|0,3:3|0:3|3:0,0:0:0:0:
294,308,32977,1,2,0:0:0:0:
294,308,33102,6,0,B|339:292|385:308|369:353|415:368|461:353,1,180,2|0,3:2|3:0,0:0:0:0:
443,256,33852,2,0,L|459:176,1,45,10|10,0:3|0:3,0:0:0:0:
465,164,34102,2,0,L|497:-12,1,90,2|0,3:2|0:0,0:0:0:0:
494,31,34477,1,10,0:3:0:0:
494,31,34602,1,10,3:3:0:0:
355,75,34977,1,2,0:0:0:0:
355,75,35102,6,0,B|310:91|264:75|280:30|234:15|188:30,1,180,10|2,3:3|3:2,0:0:0:0:
106,77,35852,2,0,L|118:141,1,45,10|10,0:3|0:3,0:0:0:0:
124,169,36102,2,0,L|149:298,1,90,2|10,3:2|0:3,0:0:0:0:
159,354,36602,1,2,3:2:0:0:
236,228,36977,1,10,0:3:0:0:
236,228,37102,6,0,P|257:222|354:278,1,90,10|10,3:3|0:3,0:0:0:0:
371,323,37602,2,0,P|392:328|489:272,1,90,2|0,3:2|0:0,0:0:0:0:
510,228,38102,1,2,3:2:0:0:
449,149,38352,1,0,0:0:0:0:
285,260,38852,2,0,L|201:274,1,45,10|10,0:3|0:3,0:0:0:0:
191,275,39102,6,0,L|95:291,1,90,10|2,3:3|0:0,0:0:0:0:
57,303,39477,1,10,0:3:0:0:
57,303,39602,1,2,3:2:0:0:
3,219,39852,1,10,0:3:0:0:
51,132,40102,2,0,P|22:24|2:13,2,90,2|8|8,3:2|0:3|3:3,0:0:0:0:
138,156,40852,1,10,0:3:0:0:
220,105,41102,6,0,L|364:137,1,90,14|2,0:0|3:2,0:0:0:0:
353,154,41484,1,10,0:0:0:0:
353,154,41612,2,0,L|497:186,1,90,2|10,3:2|0:0,0:0:0:0:
512,245,42122,2,0,B|524:281|512:317|476:305|464:341|476:377,2,135,10|8|10,0:0|0:0|0:0,0:0:0:0:
440,173,43122,6,0,P|356:221|351:242,1,90,14|2,0:0|3:2,0:0:0:0:
347,259,43489,1,10,0:0:0:0:
347,259,43611,1,2,3:2:0:0:
248,246,43856,1,10,0:0:0:0:
210,333,44102,2,0,P|186:357|66:357,2,135,10|8|10,0:0|0:0|0:0,0:0:0:0:
126,272,45122,6,0,L|158:144,1,90,14|2,0:0|3:2,0:0:0:0:
174,144,45489,1,10,0:0:0:0:
174,144,45611,2,0,L|142:16,1,90,2|10,3:2|0:0,0:0:0:0:
129,18,45979,1,2,3:2:0:0:
129,18,46102,2,0,B|95:6|61:18|73:51|39:62|5:51,2,135,10|10|10,0:0|0:0|0:0,0:0:0:0:
232,38,47102,6,0,L|392:6,1,90,14|2,0:0|3:2,0:0:0:0:
372,13,47477,1,8,0:0:0:0:
372,13,47602,1,2,3:2:0:0:
455,65,47852,1,10,0:0:0:0:
399,148,48102,2,0,P|399:252|407:260,1,90,2|2,3:2|3:2,0:0:0:0:
387,281,48473,2,0,P|477:333|487:330,1,90,0|0,3:0|3:0,0:0:0:0:
503,336,48844,1,10,0:0:0:0:
470,242,49091,6,0,L|502:82,1,90,14|2,0:0|3:2,0:0:0:0:
485,108,49462,1,10,0:0:0:0:
485,108,49586,2,0,L|517:-52,1,90,2|10,3:2|0:0,0:0:0:0:
404,3,50082,2,0,B|356:9|356:9|334:28|334:28|263:38,2,135,10|8|10,0:0|0:0|0:0,0:0:0:0:
399,105,51082,6,0,L|287:121,1,90,14|2,0:0|3:2,0:0:0:0:
265,130,51457,1,10,0:0:0:0:
265,130,51582,1,2,3:2:0:0:
178,82,51832,1,10,0:0:0:0:
90,128,52082,2,0,B|58:88|58:88|82:0,2,135,10|8|10,0:0|0:0|0:0,0:0:0:0:
176,176,53082,6,0,P|176:272|192:288,1,90,14|2,0:0|3:2,0:0:0:0:
100,333,53582,2,0,P|183:381|204:375,1,90,2|10,3:2|0:0,0:0:0:0:
219,366,53957,1,0,3:0:0:0:
219,366,54082,2,0,P|283:350|379:334,1,135,10|10,0:0|0:0,0:0:0:0:
475,256,54832,1,10,0:0:0:0:
418,173,55082,6,0,L|434:77,1,90,2|2,0:0|0:0,0:0:0:0:
335,65,55577,2,0,L|319:161,1,90,2|2,0:0|0:0,0:0:0:0:
354,247,56073,1,0,0:0:0:0:
468,16,56816,1,2,0:0:0:0:
355,16,57102,6,0,B|321:4|287:16|299:49|265:60|231:49,1,135,14|0,0:0|3:0,0:0:0:0:
188,45,57602,1,14,0:0:0:0:
188,45,57727,2,0,L|156:205,1,90,0|2,3:0|3:2,0:0:0:0:
178,186,58102,1,14,0:0:0:0:
178,186,58227,2,0,L|146:346,1,90,0|2,3:0|3:2,0:0:0:0:
153,323,58602,1,14,0:0:0:0:
250,304,58852,1,2,3:2:0:0:
314,379,59102,6,0,P|378:363|474:347,1,135,14|0,0:0|3:0,0:0:0:0:
496,337,59602,1,14,0:0:0:0:
496,337,59727,2,0,P|496:225|488:217,1,90,0|2,3:0|3:2,0:0:0:0:
511,207,60102,1,14,0:0:0:0:
511,207,60227,2,0,P|414:151|403:153,1,90,0|2,3:0|3:2,0:0:0:0:
395,142,60602,1,14,0:0:0:0:
315,201,60852,2,0,L|331:281,1,45,10|10,0:0|0:0,0:0:0:0:
317,294,61102,6,0,P|301:310|205:310,1,90,14|2,0:0|3:2,0:0:0:0:
192,318,61477,1,2,3:2:0:0:
192,318,61602,1,12,0:0:0:0:
101,357,61852,2,0,L|85:277,1,45,2|2,3:2|3:2,0:0:0:0:
81,264,62102,2,0,L|49:104,1,90,14|2,0:0|3:2,0:0:0:0:
9,92,62602,2,0,P|113:92|129:108,1,90,14|2,0:0|3:2,0:0:0:0:
156,158,63102,6,0,P|207:142|284:126,1,90,14|0,0:0|3:0,0:0:0:0:
294,124,63477,1,2,3:2:0:0:
294,124,63602,1,14,0:0:0:0:
379,174,63852,1,2,3:2:0:0:
470,135,64102,2,0,B|512:70|475:4|475:4|425:13|400:33,1,180,14|14,0:0|0:0,0:0:0:0:
374,93,64852,1,10,0:0:0:0:
303,23,65102,6,0,B|255:7|255:7|159:55,1,135,14|0,0:0|3:0,0:0:0:0:
151,87,65602,1,14,0:0:0:0:
151,87,65727,2,0,P|167:135|183:215,1,90,0|2,3:0|3:2,0:0:0:0:
206,219,66102,1,12,0:0:0:0:
206,219,66227,2,0,P|195:268|169:345,1,90,0|2,3:0|3:2,0:0:0:0:
169,353,66602,1,14,0:0:0:0:
70,362,66852,1,2,3:2:0:0:
0,291,67102,6,0,P|16:267|144:267,1,135,14|0,0:0|3:0,0:0:0:0:
162,272,67602,1,14,0:0:0:0:
162,272,67727,2,0,L|322:240,1,90,0|2,3:0|3:2,0:0:0:0:
303,265,68102,1,14,0:0:0:0:
303,265,68227,2,0,L|463:233,1,90,0|2,3:0|3:2,0:0:0:0:
439,237,68602,1,14,0:0:0:0:
387,152,68852,2,0,L|403:72,1,45,10|10,0:0|0:0,0:0:0:0:
390,58,69102,6,0,P|374:42|278:42,1,90,14|2,0:0|3:2,0:0:0:0:
247,103,69602,2,0,L|279:231,1,90,14|2,0:0|3:2,0:0:0:0:
283,242,69977,1,2,3:2:0:0:
283,242,70102,1,14,0:0:0:0:
191,279,70352,1,2,3:2:0:0:
249,359,70602,2,0,P|137:359|129:351,1,90,14|2,0:0|3:2,0:0:0:0:
65,372,71102,6,0,L|33:244,1,90,14|2,0:0|3:2,0:0:0:0:
22,245,71477,1,8,0:0:0:0:
22,245,71602,2,0,L|38:181,1,45,14|0,0:0|3:0,0:0:0:0:
47,153,71852,1,10,0:0:0:0:
47,153,73102,6,0,B|80:141|114:153|102:186|136:197|170:186,1,135,12|8,3:2|0:0,0:0:0:0:
216,174,73602,2,0,L|344:206,1,90,8|8,3:2|0:0,0:0:0:0:
329,100,74102,2,0,L|201:68,1,90,0|0,3:0|0:0,0:0:0:0:
197,71,74477,1,8,0:0:0:0:
197,71,74602,1,8,3:2:0:0:
124,3,74852,2,0,L|60:19,1,45,8|0,0:0|0:0,0:0:0:0:
45,48,75102,6,0,P|61:64|61:160,1,90,8|8,3:2|0:0,0:0:0:0:
30,216,75602,2,0,P|51:210|134:258,1,90,8|0,3:2|0:0,0:0:0:0:
171,310,76102,2,0,P|176:288|259:240,1,90,0|0,3:0|0:0,0:0:0:0:
275,231,76477,1,8,0:0:0:0:
275,231,76602,1,8,3:2:0:0:
357,285,76852,1,8,0:0:0:0:
449,249,77102,6,0,B|456:193|456:193|445:159|445:159|455:88,1,135,8|8,3:2|0:0,0:0:0:0:
447,67,77602,2,0,P|431:51|335:51,1,90,8|0,3:2|0:0,0:0:0:0:
293,102,78102,2,0,L|325:262,1,90,0|0,3:0|0:0,0:0:0:0:
323,243,78477,1,8,0:0:0:0:
323,243,78602,1,8,3:2:0:0:
410,289,78852,2,0,L|394:369,1,45,8|0,0:0|0:0,0:0:0:0:
389,381,79102,6,0,P|325:365|229:349,1,135,8|8,3:2|0:0,0:0:0:0:
207,347,79602,1,8,3:2:0:0:
108,347,79852,2,0,L|92:267,1,45,0|8,0:0|0:0,0:0:0:0:
72,260,80102,2,0,L|104:100,1,90,0|0,3:0|0:0,0:0:0:0:
186,152,80602,2,0,L|154:312,1,90,8|8,3:2|0:0,0:0:0:0:
203,332,81102,6,0,P|219:316|331:316,1,135,8|8,3:2|0:0,0:0:0:0:
368,335,81602,2,0,P|416:319|496:303,1,90,8|0,3:2|0:0,0:0:0:0:
461,211,82102,2,0,P|413:227|333:243,1,90,0|0,3:0|0:0,0:0:0:0:
330,252,82477,1,8,0:0:0:0:
330,252,82602,1,8,3:2:0:0:
315,154,82852,2,0,L|251:138,1,45,8|0,0:0|0:0,0:0:0:0:
229,115,83102,6,0,L|53:147,1,90,8|8,3:2|0:0,0:0:0:0:
47,97,83602,2,0,L|79:273,1,90,8|0,3:2|0:0,0:0:0:0:
33,280,84102,2,0,L|209:248,1,90,0|0,3:0|0:0,0:0:0:0:
174,258,84477,1,8,0:0:0:0:
174,258,84602,1,8,3:2:0:0:
269,283,84852,1,8,0:0:0:0:
289,379,85102,6,0,P|385:363|449:347,1,135,8|8,3:2|0:0,0:0:0:0:
468,336,85602,2,0,L|484:240,1,90,8|0,3:2|0:0,0:0:0:0:
403,188,86102,2,0,L|387:284,1,90,0|0,3:0|0:0,0:0:0:0:
384,322,86477,1,8,0:0:0:0:
384,322,86602,1,8,3:2:0:0:
293,361,86852,2,0,P|264:352|229:345,1,45,8|0,0:0|0:0,0:0:0:0:
200,351,87102,6,0,P|88:351|56:311,1,135,8|8,3:2|0:0,0:0:0:0:
40,307,87602,1,8,3:2:0:0:
27,208,87852,2,0,P|56:199|91:192,1,45,0|8,0:0|0:0,0:0:0:0:
118,181,88102,2,0,L|150:53,1,90,0|0,3:0|0:0,0:0:0:0:
237,79,88602,2,0,L|205:207,1,90,8|8,3:2|0:0,0:0:0:0:
248,259,89102,5,14,3:2:0:0:
346,271,89352,1,2,0:0:0:0:
399,187,89602,1,10,3:2:0:0:
356,97,89852,2,0,L|372:33,1,45,0|10,0:0|0:0,0:0:0:0:
408,26,90102,2,0,P|424:26|488:105,1,90,2|2,3:2|0:0,0:0:0:0:
506,111,90477,1,10,0:0:0:0:
487,258,90852,2,0,P|439:274|407:290,1,45,10|2,0:0|0:0,0:0:0:0:
405,303,91102,6,0,P|341:287|245:271,1,90,10|10,3:2|0:0,0:0:0:0:
271,280,91477,1,10,0:0:0:0:
271,280,91602,1,8,3:2:0:0:
203,352,91852,1,2,0:0:0:0:
115,306,92102,2,0,B|83:178|83:178|131:226,1,180,2|8,3:2|3:2,0:0:0:0:
299,135,93102,5,10,3:2:0:0:
279,37,93352,1,0,0:0:0:0:
186,0,93602,1,10,3:2:0:0:
91,29,93852,2,0,L|75:109,1,45,2|10,0:0|0:0,0:0:0:0:
72,121,94102,2,0,L|40:281,1,90,2|0,3:2|0:0,0:0:0:0:
47,258,94477,1,10,0:0:0:0:
130,380,94852,2,0,L|194:364,1,45,10|2,0:0|0:0,0:0:0:0:
216,344,95102,6,0,L|344:376,1,90,10|10,3:2|0:0,0:0:0:0:
355,380,95477,1,10,0:0:0:0:
355,380,95602,1,8,3:2:0:0:
357,281,95852,2,0,L|293:265,1,45,2|10,0:0|0:0,0:0:0:0:
267,250,96102,2,0,P|267:154|283:138,1,90,10|10,3:2|0:0,0:0:0:0:
303,76,96602,1,8,3:2:0:0:
395,110,96852,1,10,0:0:0:0:
472,48,97102,6,0,L|504:176,1,90,10|10,3:2|0:0,0:0:0:0:
512,186,97477,1,10,0:0:0:0:
512,186,97602,2,0,L|480:314,1,90,10|2,3:2|0:0,0:0:0:0:
480,324,97977,1,10,0:0:0:0:
480,324,98102,2,0,L|496:404,1,45,2|10,3:2|0:0,0:0:0:0:
344,336,98602,1,8,3:2:0:0:
300,253,98852,1,10,0:0:0:0:
300,253,98977,2,0,L|284:173,1,45,2|10,0:0|3:2,0:0:0:0:
266,165,99227,6,0,P|250:149|154:149,1,90,2|10,0:0|0:0,0:0:0:0:
140,153,99602,2,0,L|12:121,1,90,10|2,3:2|0:0,0:0:0:0:
9,119,99977,1,10,0:0:0:0:
9,119,100102,2,0,L|25:39,1,45,2|10,3:2|0:0,0:0:0:0:
148,3,100602,1,8,3:2:0:0:
242,48,100852,1,10,0:0:0:0:
242,48,100977,6,0,B|230:81|242:115|275:103|286:137|275:171,1,135,2|8,0:0|0:0,0:0:0:0:
249,265,101602,1,8,3:2:0:0:
276,360,101852,2,0,L|340:344,1,45,2|10,0:0|0:0,0:0:0:0:
365,327,102102,1,2,3:2:0:0:
365,327,102227,2,0,B|420:334|420:334|441:353|441:353|505:362,1,135,8|8,0:0|3:2,0:0:0:0:
473,263,102852,2,0,L|457:183,1,45,10|2,0:0|0:0,0:0:0:0:
438,176,103102,6,0,B|390:160|390:160|294:208,1,135,10|10,3:2|0:0,0:0:0:0:
275,226,103602,1,10,3:2:0:0:
275,226,103727,2,0,L|179:210,1,90,10|10,0:0|0:0,0:0:0:0:
137,204,104102,1,2,3:2:0:0:
400,301,104842,1,10,0:0:0:0:
315,359,105102,6,0,L|155:391,1,90,14|2,0:0|3:2,0:0:0:0:
183,366,105477,1,10,0:0:0:0:
183,366,105602,2,0,L|23:398,1,90,2|10,3:2|0:0,0:0:0:0:
21,317,106102,2,0,P|21:205|5:189,2,135,10|8|10,0:0|0:0|0:0,0:0:0:0:
94,383,107102,6,0,P|142:367|222:351,1,90,14|2,0:0|3:2,0:0:0:0:
232,348,107469,1,8,0:0:0:0:
232,348,107591,1,2,3:2:0:0:
294,271,107836,1,10,0:0:0:0:
235,191,108082,2,0,B|283:159|283:159|395:191,2,135,14|8|10,0:0|0:0|0:0,0:0:0:0:
188,274,109071,6,0,P|92:274|76:258,1,90,14|2,0:0|3:2,0:0:0:0:
57,280,109453,1,8,0:0:0:0:
57,280,109581,2,0,P|8:196|14:175,1,90,2|10,3:2|0:0,0:0:0:0:
23,165,109964,1,2,3:2:0:0:
23,165,110092,2,0,P|7:69|-9:5,2,135,14|10|10,0:0|0:0|0:0,0:0:0:0:
118,203,111113,6,0,L|246:171,1,90,14|2,0:0|3:2,0:0:0:0:
259,186,111480,1,10,0:0:0:0:
259,186,111602,2,0,L|387:154,1,90,0|10,3:0|0:0,0:0:0:0:
424,102,112092,2,0,L|552:134,1,90,0|10,3:0|0:0,0:0:0:0:
495,217,112582,1,8,3:2:0:0:
476,314,112837,1,10,3:2:0:0:
378,333,113092,6,0,P|362:317|250:317,1,90,14|0,0:0|3:0,0:0:0:0:
256,286,113470,1,10,3:2:0:0:
256,286,113597,2,0,P|234:291|178:388,1,90,2|10,3:2|0:0,0:0:0:0:
125,254,114102,2,0,L|157:94,2,135,14|8|10,0:0|0:0|3:2,0:0:0:0:
29,280,115102,6,0,L|-3:120,1,90,14|2,0:0|3:2,0:0:0:0:
7,146,115477,1,8,0:0:0:0:
7,146,115602,1,2,3:2:0:0:
67,67,115852,1,10,0:0:0:0:
151,121,116102,2,0,P|215:137|311:153,2,135,14|8|10,0:0|0:0|0:0,0:0:0:0:
200,35,117102,6,0,P|264:48|361:61,1,90,14|2,0:0|3:2,0:0:0:0:
339,72,117477,1,10,0:0:0:0:
339,72,117602,2,0,P|404:62|499:41,1,90,0|10,3:0|0:0,0:0:0:0:
503,123,118102,2,0,L|471:283,1,90,12|2,0:0|3:2,0:0:0:0:
454,250,118477,1,10,0:0:0:0:
454,250,118602,2,0,L|486:410,1,90,0|10,3:0|0:0,0:0:0:0:
383,382,119102,6,0,L|351:222,1,90,14|2,0:0|3:2,0:0:0:0:
358,249,119477,1,10,0:0:0:0:
358,249,119602,1,2,3:2:0:0:
268,206,119852,1,10,0:0:0:0:
192,269,120102,2,0,B|146:253|100:269|116:314|70:329|24:314,1,180,0|8,3:0|0:0,0:0:0:0:
1,220,120852,1,8,0:0:0:0:
51,134,121102,1,2,0:0:0:0:
370,160,129102,6,0,P|370:112|466:80,2,135,14|10|10,0:0|0:0|0:0,0:0:0:0:
404,252,130102,2,0,L|228:220,1,90,14|2,0:0|0:0,0:0:0:0:
269,244,130477,1,10,0:0:0:0:
269,244,130602,2,0,L|93:212,1,90,6|10,0:0|0:0,0:0:0:0:
83,209,131102,6,0,B|90:260|90:260|78:290|78:290|89:369,2,135,14|10|10,0:0|0:0|0:0,0:0:0:0:
7,144,132102,2,0,P|23:128|135:128,1,90,14|2,0:0|0:0,0:0:0:0:
139,118,132477,1,10,0:0:0:0:
139,118,132602,1,6,0:0:0:0:
207,46,132852,1,10,0:0:0:0:
302,72,133102,6,0,L|270:248,2,135,14|10|10,0:0|0:0|0:0,0:0:0:0:
398,47,134102,2,0,L|366:223,1,90,14|2,0:0|0:0,0:0:0:0:
386,189,134477,1,10,0:0:0:0:
386,189,134602,2,0,L|354:365,1,90,6|10,0:0|0:0,0:0:0:0:
387,375,135102,6,0,P|403:359|515:359,2,135,2|2|2,0:0|0:0|0:0,0:0:0:0:
287,378,136102,2,0,P|207:362|111:346,1,135
104,346,136602,1,0,0:0:0:0:
51,262,136852,1,0,0:0:0:0:
132,205,137102,6,0,B|165:193|199:205|187:238|221:249|255:238,1,135,14|8,3:2|0:0,0:0:0:0:
300,219,137602,2,0,L|444:251,1,135,10|10,3:2|0:0,0:0:0:0:
480,256,138102,1,2,3:2:0:0:
503,159,138352,1,0,0:0:0:0:
406,136,138602,1,10,3:2:0:0:
427,39,138852,1,10,0:0:0:0:
335,1,139102,6,0,L|175:33,1,135,10|8,3:2|0:0,0:0:0:0:
155,42,139602,2,0,P|43:42|27:58,1,135,10|10,3:2|0:0,0:0:0:0:
1,90,140102,1,2,3:2:0:0:
76,154,140352,1,0,0:0:0:0:
40,246,140602,1,10,3:2:0:0:
128,291,140852,1,10,0:0:0:0:
219,253,141102,6,0,L|235:349,1,90,10|10,3:2|0:0,0:0:0:0:
330,364,141602,2,0,L|314:268,1,90,10|2,3:2|0:0,0:0:0:0:
318,176,142102,2,0,P|401:224|406:245,1,90,2|2,3:2|0:0,0:0:0:0:
492,190,142602,2,0,P|492:286|475:302,1,90,10|10,3:2|0:0,0:0:0:0:
423,339,143102,6,0,P|375:323|279:307,1,90,10|10,3:2|0:0,0:0:0:0:
297,295,143477,1,8,0:0:0:0:
297,295,143602,2,0,P|246:296|150:314,1,90,10|2,3:2|0:0,0:0:0:0:
122,352,144102,2,0,L|90:192,1,90,2|2,3:2|0:0,0:0:0:0:
93,215,144477,1,10,0:0:0:0:
64,69,144852,1,10,0:0:0:0:
136,1,145102,6,0,B|168:33|168:33|152:145,1,135,10|8,3:2|0:0,0:0:0:0:
194,164,145602,2,0,P|258:164|270:156,2,67.5,10|2|10,3:2|0:0|0:0,0:0:0:0:
144,161,146102,2,0,P|96:161|32:241,1,135,2|10,3:2|0:0,0:0:0:0:
26,267,146602,1,10,3:2:0:0:
97,335,146852,1,10,0:0:0:0:
185,290,147102,6,0,P|281:306|329:322,1,135,10|8,3:2|0:0,0:0:0:0:
366,318,147602,2,0,L|382:398,2,67.5,10|2|10,3:2|0:0|0:0,0:0:0:0:
389,274,148102,2,0,L|357:114,1,135,2|10,3:2|0:0,0:0:0:0:
352,93,148602,1,10,3:2:0:0:
257,64,148852,2,0,L|200:76,1,45,10|2,0:0|0:0,0:0:0:0:
164,85,149102,6,0,P|142:79|59:127,1,90,10|10,3:2|0:0,0:0:0:0:
35,113,149477,1,10,0:0:0:0:
35,113,149602,2,0,P|18:128|18:224,1,90,10|2,3:2|0:0,0:0:0:0:
65,268,150102,2,0,L|209:236,1,90,2|2,3:2|0:0,0:0:0:0:
246,280,150602,2,0,L|390:248,1,90,10|10,3:2|0:0,0:0:0:0:
430,239,151102,6,0,B|462:111|462:111|488:176,2,180,10|10|2,3:2|3:2|0:0,0:0:0:0:
145,326,152852,1,2,0:0:0:0:
64,383,153102,6,0,B|32:335|32:335|64:255,1,135,14|0,0:0|3:0,0:0:0:0:
59,217,153602,1,14,0:0:0:0:
59,217,153727,2,0,L|235:185,1,90,0|2,3:0|3:2,0:0:0:0:
193,211,154102,1,14,0:0:0:0:
193,211,154227,2,0,L|369:178,1,90,0|2,3:0|3:2,0:0:0:0:
330,186,154602,1,14,0:0:0:0:
427,168,154852,1,2,3:2:0:0:
455,73,155102,6,0,P|439:49|311:49,1,135,14|0,0:0|3:0,0:0:0:0:
305,61,155602,1,14,0:0:0:0:
305,61,155727,2,0,L|337:237,1,90,0|2,3:0|3:2,0:0:0:0:
313,201,156102,1,14,0:0:0:0:
313,201,156227,2,0,L|345:377,1,90,0|2,3:0|3:2,0:0:0:0:
339,338,156602,1,14,0:0:0:0:
248,378,156852,2,0,L|184:362,1,45,10|10,0:0|0:0,0:0:0:0:
159,347,157102,6,0,P|111:363|31:379,1,90,14|2,0:0|3:2,0:0:0:0:
28,384,157477,1,2,3:2:0:0:
28,384,157602,1,12,0:0:0:0:
0,288,157852,2,0,L|16:224,1,45,2|2,3:2|3:2,0:0:0:0:
27,197,158102,2,0,L|-5:37,1,90,14|2,0:0|3:2,0:0:0:0:
92,55,158602,2,0,L|124:215,1,90,14|2,0:0|3:2,0:0:0:0:
196,189,159102,6,0,P|212:173|324:173,1,90,14|0,0:0|3:0,0:0:0:0:
328,160,159477,1,2,3:2:0:0:
328,160,159602,1,14,0:0:0:0:
388,238,159852,1,2,3:2:0:0:
341,325,160102,2,0,B|295:309|249:325|265:370|219:385|173:370,1,180,14|14,0:0|0:0,0:0:0:0:
86,334,160852,1,10,0:0:0:0:
122,241,161102,6,0,B|114:189|114:189|95:164|95:164|86:100,1,135,14|2,0:0|3:2,0:0:0:0:
101,68,161602,1,14,0:0:0:0:
101,68,161727,2,0,P|197:68|213:84,1,90,0|2,3:0|3:2,0:0:0:0:
239,59,162102,1,14,0:0:0:0:
239,59,162227,2,0,P|287:142|281:163,1,90,0|2,3:0|3:2,0:0:0:0:
285,179,162602,1,14,0:0:0:0:
220,253,162852,1,2,3:2:0:0:
268,339,163102,6,0,B|301:350|335:339|323:305|357:294|391:305,1,135,14|0,0:0|3:0,0:0:0:0:
438,309,163602,1,14,0:0:0:0:
438,309,163727,2,0,L|470:133,1,90,0|2,3:0|3:2,0:0:0:0:
479,179,164102,1,14,0:0:0:0:
479,179,164227,2,0,L|511:3,1,90,0|2,3:0|3:2,0:0:0:0:
506,42,164602,1,14,0:0:0:0:
415,1,164852,2,0,L|351:17,1,45,10|10,0:0|0:0,0:0:0:0:
323,26,165102,6,0,P|273:14|227:10,1,90,14|2,0:0|3:2,0:0:0:0:
209,106,165602,2,0,P|258:117|305:122,1,90,14|2,0:0|3:2,0:0:0:0:
351,127,165977,1,2,3:2:0:0:
351,127,166102,1,14,0:0:0:0:
406,208,166352,1,2,3:2:0:0:
345,286,166602,2,0,P|249:286|233:302,1,90,14|2,0:0|3:2,0:0:0:0:
225,315,166977,1,2,3:2:0:0:
225,315,167102,6,0,L|49:283,1,90,14|2,0:0|3:2,0:0:0:0:
91,295,167477,1,2,3:2:0:0:
91,295,167602,1,14,0:0:0:0:
20,225,167852,1,2,3:2:0:0:
70,139,168102,2,0,L|54:43,1,90,10|8,0:0|0:0,0:0:0:0:
140,0,168602,2,0,L|156:96,1,90,2|0,3:2|3:0,0:0:0:0:
174,185,169102,6,0,P|190:169|302:185,2,135,14|8|14,0:0|0:0|0:0,0:0:0:0:
81,149,170102,2,0,L|65:245,1,90,14|0,0:0|3:0,0:0:0:0:
61,290,170477,1,12,0:0:0:0:
61,290,170602,1,0,3:0:0:0:
124,365,170852,1,10,0:0:0:0:
218,334,171102,6,0,L|394:366,1,90,14|0,0:0|3:0,0:0:0:0:
355,360,171477,2,0,L|531:392,1,90,8|0,0:0|3:0,0:0:0:0:
492,384,171852,1,14,0:0:0:0:
474,286,172102,2,0,L|442:110,1,90,14|2,0:0|3:2,0:0:0:0:
452,153,172477,1,12,0:0:0:0:
452,153,172602,1,2,3:2:0:0:
380,84,172852,1,14,0:0:0:0:
289,123,173102,6,0,B|240:129|240:129|215:149|215:149|148:158,2,135,12|8|14,0:0|0:0|0:0,0:0:0:0:
305,24,174102,2,0,L|177:40,1,90,14|2,0:0|3:2,0:0:0:0:
170,46,174477,1,8,0:0:0:0:
170,46,174602,1,2,3:2:0:0:
77,11,174852,1,14,0:0:0:0:
6,81,175102,6,0,P|22:129|38:209,1,90,14|2,0:0|3:2,0:0:0:0:
111,225,175602,2,0,P|127:145|143:97,1,90,2|14,3:2|0:0,0:0:0:0:
170,46,176102,1,14,0:0:0:0:
267,30,176352,1,2,3:2:0:0:
330,105,176602,1,2,3:2:0:0:
301,199,176852,1,14,0:0:0:0:
357,280,177102,6,0,B|390:291|424:280|412:246|446:235|480:246,2,135,12|8|14,0:0|0:0|0:0,0:0:0:0:
282,215,178102,2,0,L|186:231,1,90,14|0,0:0|3:0,0:0:0:0:
148,242,178477,1,12,0:0:0:0:
148,242,178602,1,0,3:0:0:0:
72,177,178852,1,14,0:0:0:0:
109,85,179102,6,0,L|205:69,1,90,14|0,0:0|3:0,0:0:0:0:
247,62,179477,2,0,L|343:46,1,90,8|0,0:0|3:0,0:0:0:0:
384,40,179852,1,14,0:0:0:0:
482,27,180102,2,0,P|466:91|450:187,1,90,14|2,0:0|3:2,0:0:0:0:
454,166,180477,1,12,0:0:0:0:
454,166,180602,1,2,3:2:0:0:
361,130,180852,1,14,0:0:0:0:
279,185,181102,6,0,B|286:236|286:236|274:266|274:266|283:329,2,135,12|8|14,3:2|3:2|3:2,0:0:0:0:
275,139,181977,1,2,3:2:0:0:
275,139,182102,1,14,3:2:0:0:
194,196,182352,1,2,3:2:0:0:
113,137,182602,2,0,L|129:57,1,45,2|2,3:2|3:2,0:0:0:0:
131,44,182852,1,14,3:2:0:0:
468,313,195102,6,0,B|420:306|420:306|386:317|386:317|323:308,1,135,14|8,3:2|0:0,0:0:0:0:
287,302,195602,2,0,L|175:286,1,90,10|2,3:2|0:0,0:0:0:0:
104,322,196102,2,0,P|88:242|72:194,1,90,2|2,3:0|0:0,0:0:0:0:
75,190,196477,1,10,0:0:0:0:
75,190,196602,1,10,3:2:0:0:
0,124,196852,2,0,L|16:60,1,45,10|2,0:0|0:0,0:0:0:0:
34,36,197102,6,0,P|130:36|146:52,1,90,10|10,3:2|0:0,0:0:0:0:
186,101,197602,2,0,P|281:92|296:75,1,90,10|2,3:2|0:0,0:0:0:0:
334,24,198102,2,0,L|430:40,1,90,2|2,3:0|0:0,0:0:0:0:
475,48,198477,1,10,0:0:0:0:
475,48,198602,1,10,3:2:0:0:
511,140,198852,1,10,0:0:0:0:
428,194,199102,6,0,B|396:242|396:242|428:338,1,135,10|8,3:2|0:0,0:0:0:0:
437,362,199602,2,0,L|341:346,1,90,10|2,3:2|0:0,0:0:0:0:
252,370,200102,2,0,L|156:354,1,90,2|2,3:0|0:0,0:0:0:0:
119,348,200477,1,10,0:0:0:0:
119,348,200602,1,10,3:2:0:0:
20,344,200852,2,0,L|36:280,1,45,10|2,0:0|0:0,0:0:0:0:
48,253,201102,6,0,B|59:219|48:185|14:197|3:163|14:129,1,135,10|10,3:2|0:0,0:0:0:0:
27,83,201602,1,10,3:2:0:0:
123,106,201852,2,0,L|187:90,1,45,2|10,0:0|0:0,0:0:0:0:
214,83,202102,2,0,L|342:51,1,90,2|2,3:0|0:0,0:0:0:0:
365,136,202602,2,0,L|237:168,1,90,10|10,3:2|0:0,0:0:0:0:
195,213,203102,6,0,P|195:325|211:341,1,135,10|8,3:2|0:0,0:0:0:0:
250,356,203602,2,0,P|298:340|378:324,1,90,10|2,3:2|0:0,0:0:0:0:
432,352,204102,2,0,P|448:280|464:224,1,90,2|2,3:0|0:0,0:0:0:0:
469,220,204477,1,10,0:0:0:0:
469,220,204602,1,10,3:2:0:0:
391,158,204852,2,0,L|375:78,1,45,10|2,0:0|0:0,0:0:0:0:
361,69,205102,6,0,P|345:53|249:53,1,90,10|10,3:2|0:0,0:0:0:0:
187,6,205602,2,0,P|165:11|117:94,1,90,10|2,3:2|0:0,0:0:0:0:
49,128,206102,2,0,P|72:208|81:256,1,90,2|2,3:0|0:0,0:0:0:0:
89,267,206477,1,10,0:0:0:0:
89,267,206602,1,10,3:2:0:0:
182,235,206852,1,10,0:0:0:0:
254,302,207102,6,0,P|362:273|373:253,1,135,10|8,3:2|0:0,0:0:0:0:
388,214,207602,2,0,L|404:118,1,90,10|2,3:2|0:0,0:0:0:0:
312,83,208102,2,0,L|296:179,1,90,2|2,3:0|0:0,0:0:0:0:
293,224,208477,1,10,0:0:0:0:
293,224,208602,1,10,3:2:0:0:
336,312,208852,2,0,L|272:328,1,45,10|2,0:0|0:0,0:0:0:0:
245,339,209102,6,0,P|181:323|85:307,1,135,10|10,3:2|0:0,0:0:0:0:
63,302,209602,1,10,3:2:0:0:
87,206,209852,2,0,L|71:142,1,45,2|10,0:0|0:0,0:0:0:0:
67,113,210102,2,0,L|195:145,1,90,2|2,3:0|0:0,0:0:0:0:
218,59,210602,2,0,L|90:27,1,90,10|10,3:2|0:0,0:0:0:0:
67,113,211102,6,0,P|99:193|115:273,2,135,4|0|0,0:0|0:0|0:0,0:0:0:0:
130,37,212102,2,0,B|178:21|226:37|210:85|258:101|306:85,1,180
383,126,212852,1,0,1:0:0:0:
455,58,213102,6,0,B|487:90|487:90|471:186,2,135
383,126,214102,2,0,L|351:318,1,180
279,369,214852,1,0,1:0:0:0:
256,192,215102,12,4,219102,0:0:0:0:
