osu file format v14

[General]
AudioFilename: audio.mp3
AudioLeadIn: 0
PreviewTime: 90096
Countdown: 0
SampleSet: Soft
StackLeniency: 0.3
Mode: 0
LetterboxInBreaks: 0
WidescreenStoryboard: 1

[Editor]
DistanceSpacing: 0.7
BeatDivisor: 4
GridSize: 32
TimelineZoom: 1

[Metadata]
Title:Tomedonaki Hakujou
TitleUnicode:とめどなき白情
Artist:Isekai Joucho
ArtistUnicode:ヰ世界情緒
Creator:Rtyzen
Version:Insane
Source:
Tags:KAMITSUBAKI STUDIO vtuber vtb virtual youtuber isekaijoucho Electronic Japanese
BeatmapID:2737991
BeatmapSetID:1318186

[Difficulty]
HPDrainRate:5
CircleSize:4
OverallDifficulty:7.5
ApproachRate:9
SliderMultiplier:1.5
SliderTickRate:1

[Events]
//Background and Video events
0,0,"bg.jpg",0,0
//Break Periods
2,192069,201472
//Storyboard Layer 0 (Background)
//Storyboard Layer 1 (Fail)
//Storyboard Layer 2 (Pass)
//Storyboard Layer 3 (Foreground)
//Storyboard Layer 4 (Overlay)
//Storyboard Sound Samples

[TimingPoints]
445,348.837209302326,4,2,1,20,1,0
1840,-142.857142857143,4,2,1,20,0,0
13003,-142.857142857143,4,2,1,40,0,0
14224,-142.857142857143,4,2,1,20,0,0
15793,-142.857142857143,4,2,1,40,0,0
17014,-142.857142857143,4,2,1,20,0,0
18584,-142.857142857143,4,2,1,40,0,0
18933,-142.857142857143,4,2,1,20,0,0
19282,-142.857142857143,4,2,1,25,0,0
19631,-142.857142857143,4,2,1,30,0,0
19979,-142.857142857143,4,2,1,35,0,0
20677,-142.857142857143,4,2,1,40,0,0
24514,-142.857142857143,4,2,1,20,0,0
26956,-142.857142857143,4,2,1,40,0,0
27305,-142.857142857143,4,2,1,20,0,0
29747,-142.857142857143,4,2,1,40,0,0
30096,-142.857142857143,4,2,1,20,0,0
30445,-142.857142857143,4,2,1,25,0,0
30793,-142.857142857143,4,2,1,30,0,0
31317,-142.857142857143,4,2,1,35,0,0
32014,-142.857142857143,4,2,1,40,0,0
32538,-142.857142857143,4,2,1,50,0,0
35328,-83.3333333333333,4,2,1,60,0,0
46491,-100,4,2,1,45,0,0
47363,-133.333333333333,4,2,1,45,0,0
47712,-71.4285714285714,4,2,1,45,0,0
48061,-83.3333333333333,4,2,1,45,0,0
54689,-83.3333333333333,4,2,1,35,0,0
55386,-83.3333333333333,4,2,1,45,0,0
55910,-83.3333333333333,4,2,1,55,0,0
56433,-83.3333333333333,4,2,1,65,0,0
57654,-111.111111111111,4,2,1,45,0,0
58003,-66.6666666666667,4,2,1,45,0,0
58526,-133.333333333333,4,2,1,45,0,0
58875,-71.4285714285714,4,2,1,45,0,0
59224,-83.3333333333333,4,2,1,45,0,0
61317,-111.111111111111,4,2,1,45,0,0
61665,-83.3333333333333,4,2,1,45,0,0
65677,-71.4285714285714,4,2,1,45,0,0
66026,-71.4285714285714,4,2,1,35,0,0
66549,-71.4285714285714,4,2,1,45,0,0
67072,-71.4285714285714,4,2,1,55,0,0
67596,-71.4285714285714,4,2,1,65,0,0
68468,-83.3333333333333,4,2,1,65,0,0
68817,-111.111111111111,4,2,1,30,0,0
79979,-111.111111111111,4,2,1,40,0,0
84863,-90.9090909090908,4,2,1,40,0,0
85561,-90.9090909090908,4,2,1,50,0,0
86258,-133.333333333333,4,2,1,50,0,0
86956,-100,4,2,1,50,0,0
87305,-100,4,2,1,55,0,0
87654,-76.9230769230769,4,2,1,60,0,0
88003,-76.9230769230769,4,2,1,65,0,0
88351,-76.9230769230769,4,2,1,70,0,0
90096,-83.3333333333333,4,2,1,50,0,0
91142,-181.818181818182,4,2,1,40,0,1
91491,-76.9230769230769,4,2,1,75,0,1
96724,-133.333333333333,4,2,1,75,0,1
97072,-71.4285714285714,4,2,1,75,0,1
97945,-76.9230769230769,4,2,1,75,0,1
102305,-133.333333333333,4,2,1,35,0,1
102654,-66.6666666666667,4,2,1,75,0,1
104049,-76.9230769230769,4,2,1,75,0,1
105096,-133.333333333333,4,2,1,75,0,1
105445,-66.6666666666667,4,2,1,75,0,1
106317,-76.9230769230769,4,2,1,75,0,1
107886,-133.333333333333,4,2,1,75,0,1
108235,-66.6666666666667,4,2,1,75,0,1
109107,-76.9230769230769,4,2,1,75,0,1
110328,-58.8235294117647,4,2,1,75,0,1
111898,-76.9230769230769,4,2,1,75,0,1
113468,-76.9230769230769,4,2,1,35,0,0
113817,-58.8235294117647,4,2,1,50,0,0
114689,-83.3333333333333,4,2,1,50,0,0
115910,-71.4285714285714,4,2,1,50,0,0
116258,-153.846153846153,4,2,1,50,0,0
116607,-66.6666666666667,4,2,1,50,0,0
117305,-83.3333333333333,4,2,1,50,0,0
118700,-66.6666666666667,4,2,1,50,0,0
119049,-133.333333333333,4,2,1,30,0,0
119398,-58.8235294117647,4,2,1,65,0,0
119572,-58.8235294117647,4,2,1,50,0,0
119747,-83.3333333333333,4,2,1,50,0,0
121840,-133.333333333333,4,2,1,50,0,0
122189,-66.6666666666667,4,2,1,50,0,0
122886,-83.3333333333333,4,2,1,50,0,0
123061,-100,4,2,1,50,0,0
123584,-83.3333333333333,4,2,1,55,0,0
124282,-83.3333333333333,4,2,1,60,0,0
124631,-83.3333333333333,4,2,1,40,0,0
125328,-100,4,2,1,40,0,0
132305,-100,4,2,1,55,0,0
132654,-100,4,2,1,60,0,0
135793,-100,4,2,1,40,0,0
136142,-83.3333333333333,4,2,1,40,0,0
136665,-133.333333333333,4,2,1,40,0,0
137886,-83.3333333333333,4,2,1,40,0,0
138235,-71.4285714285714,4,2,1,40,0,0
138584,-133.333333333333,4,2,1,40,0,0
139107,-83.3333333333333,4,2,1,40,0,0
139805,-100,4,2,1,40,0,0
141026,-83.3333333333333,4,2,1,40,0,0
141375,-100,4,2,1,40,0,0
141724,-133.333333333333,4,2,1,40,0,0
141985,-66.6666666666667,4,2,1,40,0,0
142596,-133.333333333333,4,2,1,40,0,0
143119,-100,4,2,1,40,0,0
143468,-55.5555555555556,4,2,1,40,0,0
143817,-50,4,2,1,40,0,0
144165,-50,4,2,1,45,0,0
144689,-50,4,2,1,50,0,0
145212,-50,4,2,1,55,0,0
145910,-50,4,2,1,60,0,0
146956,-50,4,2,1,30,0,0
148351,-133.333333333333,4,2,1,30,0,0
149747,-100,4,2,1,30,0,0
151142,-133.333333333333,4,2,1,30,0,0
154631,-90.9090909090909,4,2,1,30,0,0
155328,-71.4285714285714,4,2,1,30,0,0
156026,-90.9090909090909,4,2,1,30,0,0
156724,-125,4,2,1,30,0,0
157421,-250,4,2,1,30,0,0
158119,-250,4,2,1,40,0,0
158468,-90.9090909090909,4,2,1,40,0,0
161258,-76.9230769230769,4,2,1,40,0,0
163700,-100,4,2,1,50,0,0
164398,-133.333333333333,4,2,1,50,0,0
165096,-100,4,2,1,50,0,0
165444,-100,4,2,1,55,0,0
165794,-76.9230769230769,4,2,1,60,0,0
166142,-76.9230769230769,4,2,1,65,0,0
166491,-76.9230769230769,4,2,1,70,0,0
168235,-83.3333333333333,4,2,1,50,0,0
169282,-181.818181818182,4,2,1,40,0,1
169631,-76.9230769230769,4,2,1,75,0,1
174863,-166.666666666667,4,2,1,75,0,1
175212,-66.6666666666667,4,2,1,75,0,1
176258,-76.9230769230769,4,2,1,75,0,1
180445,-166.666666666667,4,2,1,35,0,1
180793,-58.8235294117647,4,2,1,75,0,1
181840,-76.9230769230769,4,2,1,75,0,1
183235,-133.333333333333,4,2,1,75,0,1
183584,-58.8235294117647,4,2,1,75,0,1
184282,-76.9230769230769,4,2,1,75,0,1
186026,-166.666666666667,4,2,1,75,0,1
186375,-66.6666666666667,4,2,1,75,0,1
187247,-76.9230769230769,4,2,1,75,0,1
187770,-66.6666666666667,4,2,1,75,0,1
190038,-76.9230769230769,4,2,1,75,0,1
191607,-76.9230769230769,4,2,1,55,0,1
191956,-76.9230769230769,4,2,1,25,0,0
202072,-100,4,2,1,25,0,0
202770,-100,4,2,1,45,0,0
203119,-100,4,2,1,25,0,0
203817,-133.333333333333,4,2,1,25,0,0
204514,-166.666666666667,4,2,1,25,0,0
205561,-166.666666666667,4,2,1,45,0,0
205910,-166.666666666667,4,2,1,25,0,0
206956,-100,4,2,1,25,0,0
208351,-100,4,2,1,45,0,0
208700,-100,4,2,1,25,0,0
211142,-100,4,2,1,45,0,0
211491,-100,4,2,1,25,0,0
213933,-100,4,2,1,55,0,0
214282,-100,4,2,1,35,0,0
216724,-100,4,2,1,55,0,0
217072,-100,4,2,1,35,0,0
219165,-83.3333333333333,4,2,1,35,0,0
219514,-83.3333333333333,4,2,1,55,0,0
219863,-83.3333333333333,4,2,1,35,0,0
222305,-83.3333333333333,4,2,1,55,0,0
222654,-83.3333333333333,4,2,1,35,0,0
222828,-83.3333333333333,4,2,1,30,0,0
224049,-83.3333333333333,4,2,1,30,0,0
224224,-83.3333333333333,4,2,1,30,0,0
224398,-83.3333333333333,4,2,1,35,0,0
224572,-83.3333333333333,4,2,1,40,0,0
224747,-100,4,2,1,45,0,0
225096,-83.3333333333333,4,2,1,65,0,0
236258,-83.3333333333333,4,2,1,75,0,1
247421,-166.666666666667,4,2,1,35,0,1
247770,-83.3333333333333,4,2,1,75,0,1
255445,-71.4285714285714,4,2,1,75,0,1
255793,-83.3333333333333,4,2,1,75,0,1
258584,-117.647058823529,4,2,1,25,0,0

[Colours]
Combo1 : 230,216,205
Combo2 : 209,108,64
Combo3 : 33,51,75

[HitObjects]
65,89,1840,6,0,B|59:127|39:153|39:153|96:132|113:55|113:55|219:20|219:20|240:44|218:87,1,367.49998878479,2|2,0:2|0:2,0:2:0:0:
224,75,4631,6,0,B|217:126|179:153|179:153|302:116|302:116|322:105|331:82|335:55|335:55|410:35,1,367.49998878479,2|2,0:2|0:2,0:2:0:0:
406,34,7421,6,0,B|337:22|337:22|318:52|327:103|360:124|360:124|391:112|391:112|441:126|459:172|443:205|443:205|414:194,1,367.49998878479,2|2,0:2|0:2,0:2:0:0:
416,195,10212,6,0,B|431:169|486:155|486:155|392:114|392:114|360:129|348:155|348:155|291:172|291:172|273:141|297:103,1,367.49998878479,2|2,0:2|0:2,0:2:0:0:
291,113,12305,6,0,P|336:148|320:198,1,104.999996795654,2|2,0:2|0:2,0:2:0:0:
327,189,13003,1,0,3:2:0:0:
374,322,13177,1,0,3:2:0:0:
93,207,14224,6,0,P|83:158|166:92,1,157.499995193482,2|0,0:2|0:2,0:2:0:0:
224,41,15096,6,0,P|262:66|320:79,1,104.999996795654,2|2,0:2|0:2,0:2:0:0:
319,78,15793,1,0,3:2:0:0:
412,218,15968,1,0,3:2:0:0:
267,272,17014,6,0,B|230:263|198:302|201:301|205:301|190:346|126:341,1,157.499995193482,2|0,0:2|0:2,0:2:0:0:
36,212,17886,6,0,B|53:188|52:162|52:162|71:181|115:180,1,104.999996795654,2|2,0:2|0:2,0:2:0:0:
99,179,18584,1,0,3:2:0:0:
188,65,18758,1,0,3:2:0:0:
252,122,18933,5,0,0:2:0:0:
255,132,19107,1,0,0:2:0:0:
258,142,19282,1,0,0:2:0:0:
261,152,19456,1,0,0:2:0:0:
312,213,19631,5,0,0:2:0:0:
309,223,19805,1,0,0:2:0:0:
245,278,19979,6,0,P|212:269|176:261,1,52.4999983978272,0|0,0:2|0:2,0:2:0:0:
201,344,20328,2,0,P|168:335|132:327,1,52.4999983978272,0|0,0:2|0:2,0:2:0:0:
112,248,20677,6,0,P|121:215|129:179,1,52.4999983978272,0|0,0:2|0:2,0:2:0:0:
46,204,21026,2,0,P|55:171|63:135,1,52.4999983978272,2|0,0:2|0:2,0:2:0:0:
43,78,21375,5,2,3:2:0:0:
207,142,21549,1,0,3:2:0:0:
247,69,21724,5,0,0:2:0:0:
257,66,21898,1,0,0:2:0:0:
267,63,22073,1,0,0:2:0:0:
277,60,22247,1,0,0:2:0:0:
362,88,22421,6,0,P|385:120|375:151,1,52.4999983978272,2|2,0:2|0:2,0:0:0:0:
393,236,22770,2,0,P|430:200|500:172,1,104.999996795654,2|2,0:2|0:2,0:2:0:0:
298,321,23293,2,0,P|262:288|274:217,1,104.999996795654,2|0,0:2|0:2,0:2:0:0:
263,148,23817,2,0,P|229:160|191:167,1,52.4999983978272,2|0,0:2|0:2,0:2:0:0:
179,246,24165,5,2,3:2:0:0:
200,79,24340,1,0,3:2:0:0:
98,111,24514,1,2,0:2:0:0:
156,168,24689,2,0,P|192:161|219:155,1,52.4999983978272,2|0,0:2|0:0,0:2:0:0:
294,55,25038,1,0,0:2:0:0:
294,55,25212,1,2,0:2:0:0:
385,131,25386,1,2,0:2:0:0:
433,64,25561,5,0,0:2:0:0:
376,145,25735,2,0,P|364:176|368:203,1,52.4999983978272,2|0,0:2|0:0,0:2:0:0:
463,348,26084,1,0,0:2:0:0:
365,270,26258,2,0,P|378:300|400:316,1,52.4999983978272,2|0,0:2|0:2,0:2:0:0:
464,269,26607,2,0,P|450:238|428:222,1,52.4999983978272,2|0,0:2|0:2,0:2:0:0:
239,251,26956,5,2,3:2:0:0:
288,121,27131,1,0,3:2:0:0:
212,151,27305,1,2,0:2:0:0:
149,103,27479,2,0,P|120:95|90:90,1,52.4999983978272,2|0,0:2|0:2,0:2:0:0:
251,44,27828,1,0,0:2:0:0:
251,44,28003,1,2,0:2:0:0:
367,168,28177,1,2,0:2:0:0:
453,102,28351,5,0,0:2:0:0:
373,79,28526,2,0,P|343:83|303:90,1,52.4999983978272,2|0,0:2|0:2,0:2:0:0:
281,249,28875,1,0,0:2:0:0:
211,196,29049,2,0,P|206:170|203:144,1,52.4999983978272,2|0,0:2|0:2,0:2:0:0:
130,215,29398,2,0,P|125:189|122:163,1,52.4999983978272,2|0,0:2|0:2,0:2:0:0:
65,275,29747,5,2,3:2:0:0:
207,328,29921,1,0,3:2:0:0:
249,249,30096,5,0,0:2:0:0:
246,239,30270,1,0,0:2:0:0:
243,229,30445,1,0,0:2:0:0:
240,219,30619,1,0,0:2:0:0:
267,139,30793,5,2,0:2:0:0:
342,102,30968,2,0,P|373:108|405:135,1,52.4999983978272,2|0,0:2|0:2,0:2:0:0:
201,78,31317,1,0,0:2:0:0:
201,78,31491,1,2,0:2:0:0:
126,41,31665,2,0,P|95:47|63:74,1,52.4999983978272,2|0,0:2|0:2,0:2:0:0:
273,34,32014,1,0,0:2:0:0:
228,161,32189,2,0,P|246:196|258:251,1,78.7499975967408,2|0,0:2|0:0,0:0:0:0:
228,311,32538,5,2,3:2:0:0:
228,311,32712,1,2,3:2:0:0:
144,271,32886,2,0,P|134:246|143:215,1,52.4999983978272,0|0,0:2|0:2,0:2:0:0:
89,156,33235,1,0,0:2:0:0:
138,81,33410,5,2,0:2:0:0:
252,161,33584,1,2,0:2:0:0:
280,30,33758,1,2,0:2:0:0:
256,192,33846,12,2,35154,0:2:0:0:
105,70,35328,6,0,P|149:108|146:170,1,89.9999972534181,2|2,3:2|3:2,0:2:0:0:
90,217,35677,1,10,0:2:0:0:
170,300,35851,1,2,3:2:0:0:
183,309,35939,2,0,P|233:296|278:293,1,89.9999972534181,8|0,0:2|0:2,0:0:0:0:
338,334,36200,2,0,P|376:296|369:250,1,89.9999972534181,2|8,3:2|0:2,0:2:0:0:
290,98,36549,5,2,3:2:0:0:
287,110,36636,1,0,3:2:0:0:
284,122,36724,2,0,B|333:204,1,89.9999972534181,0|0,3:2|3:2,0:2:0:0:
413,190,36985,1,0,3:2:0:0:
413,190,37072,2,0,L|459:155,2,44.999998626709,8|0|0,0:2|3:2|3:2,0:0:0:0:
425,275,37334,1,8,0:2:0:0:
425,275,37421,2,0,P|391:318|340:307,1,89.9999972534181,0|0,3:2|3:2,0:2:0:0:
159,134,37770,2,0,P|111:122|76:157,1,89.9999972534181,8|0,0:2|0:2,0:2:0:0:
62,233,38032,1,0,3:2:0:0:
64,254,38119,6,0,L|166:219,1,89.9999972534181,2|2,3:2|3:2,0:0:0:0:
282,172,38468,1,10,0:2:0:0:
245,281,38642,1,2,3:2:0:0:
242,293,38729,1,8,0:2:0:0:
239,305,38817,2,0,P|295:296|316:252,1,89.9999972534181,0|2,3:2|3:2,0:2:0:0:
218,46,39165,2,0,P|197:98|225:139,1,89.9999972534181,8|2,0:2|0:2,0:2:0:0:
282,172,39427,1,0,3:2:0:0:
308,170,39514,5,0,3:2:0:0:
406,74,39689,1,0,3:2:0:0:
406,74,39776,1,0,3:2:0:0:
406,74,39863,1,8,0:2:0:0:
480,214,40038,1,0,3:2:0:0:
489,222,40125,2,0,B|444:240|444:240|443:245|443:245|391:268,1,89.9999972534181,8|0,0:0|0:0,0:0:0:0:
351,314,40386,2,0,P|305:296|264:284,1,89.9999972534181,0|8,3:2|0:2,0:0:0:0:
107,184,40735,5,0,3:2:0:0:
101,198,40822,1,0,3:2:0:0:
95,212,40910,2,0,P|152:199|198:180,1,89.9999972534181,6|2,3:2|3:2,0:2:0:0:
312,140,41258,1,10,0:2:0:0:
141,84,41433,1,2,3:2:0:0:
123,89,41520,2,0,L|222:110,1,89.9999972534181,8|0,0:2|0:2,0:2:0:0:
295,121,41782,2,0,P|322:78|299:34,1,89.9999972534181,2|8,3:2|0:2,0:2:0:0:
261,215,42131,5,2,3:2:0:0:
267,229,42218,1,0,3:2:0:0:
273,243,42305,2,0,L|372:222,1,89.9999972534181,0|0,3:2|3:2,0:2:0:0:
442,204,42567,1,0,3:2:0:0:
442,204,42654,2,0,L|427:149,2,44.999998626709,8|0|0,0:2|3:2|3:2,0:0:0:0:
467,281,42915,1,8,0:2:0:0:
467,281,43003,2,0,P|426:319|387:299,1,89.9999972534181,0|0,3:2|3:2,0:0:0:0:
212,166,43351,2,0,P|156:159|129:184,1,89.9999972534181,8|0,0:2|0:2,0:0:0:0:
130,255,43613,1,0,3:0:0:0:
148,269,43700,5,2,3:2:0:0:
236,276,43875,1,2,3:2:0:0:
324,283,44049,1,10,0:2:0:0:
406,143,44224,1,2,3:2:0:0:
411,132,44311,1,8,0:2:0:0:
415,122,44398,1,2,3:2:0:0:
327,129,44572,1,2,3:2:0:0:
239,136,44746,1,10,0:2:0:0:
74,52,44921,5,2,0:2:0:0:
148,21,45096,2,0,B|169:37|169:37|176:80|141:101,1,89.9999972534181,0|2,3:2|3:2,0:0:0:0:
86,143,45357,1,0,3:2:0:0:
74,148,45445,2,0,L|17:158,2,44.999998626709,10|0|2,0:2|3:0|3:2,0:0:0:0:
145,203,45706,1,8,3:2:0:0:
162,208,45793,1,2,3:2:0:0:
266,228,45968,1,2,3:2:0:0:
326,170,46142,1,10,0:2:0:0:
401,150,46317,1,2,0:2:0:0:
479,183,46491,6,0,L|500:266,2,75,4|0|8,3:2|3:2|0:2,0:0:0:0:
354,39,47014,1,0,3:2:0:0:
354,39,47101,2,0,P|312:65|262:55,1,75,8|0,0:2|0:2,0:2:0:0:
216,36,47363,6,0,L|147:58,1,56.2500021457673,2|2,3:2|0:2,0:0:0:0:
9,107,47712,6,0,B|49:127|49:127|54:141|54:141|113:172,1,104.999996795654,10|0,0:2|3:2,0:0:0:0:
223,231,48061,5,10,0:2:0:0:
234,237,48148,1,8,0:2:0:0:
246,243,48235,2,0,P|259:215|247:176,1,44.999998626709,10|8,0:2|0:2,0:0:0:0:
300,324,48410,2,0,P|298:354|269:383,1,44.999998626709,2|8,3:2|0:2,0:0:0:0:
184,335,48584,2,0,P|136:324|142:264,1,89.9999972534181,0|2,0:2|3:2,0:2:0:0:
258,201,48933,2,0,B|313:189|340:235|336:236|334:236|355:284|432:263,1,179.999994506836,10|2,0:2|3:2,0:2:0:0:
459,110,49456,5,0,3:2:0:0:
376,96,49631,2,0,P|356:52|365:7,1,89.9999972534181,10|2,0:2|3:2,0:0:0:0:
439,6,49892,1,8,0:2:0:0:
449,23,49979,1,0,3:0:0:0:
272,78,50154,1,0,3:2:0:0:
418,187,50328,2,0,L|472:195,2,44.999998626709,2|0|10,0:2|0:0|0:2,0:0:0:0:
315,268,50677,5,0,3:2:0:0:
192,195,50851,2,0,L|145:228,1,44.999998626709,0|0,3:2|0:2,0:2:0:0:
119,150,51026,2,0,L|72:183,1,44.999998626709,8|0,0:2|0:2,0:2:0:0:
46,105,51200,2,0,L|-1:138,1,44.999998626709,0|8,0:2|0:2,0:0:0:0:
124,49,51375,2,0,P|179:52|208:23,1,89.9999972534181,2|0,0:2|3:2,0:0:0:0:
287,228,51724,2,0,P|341:217|423:305,1,179.999994506836,10|4,0:2|3:2,0:2:0:0:
249,360,52247,5,0,3:2:0:0:
182,302,52421,2,0,P|199:245|206:197,1,89.9999972534181,8|0,0:2|3:0,0:2:0:0:
185,142,52683,1,8,0:2:0:0:
178,126,52770,1,0,3:2:0:0:
340,136,52945,2,0,B|396:162|396:162|407:210|407:210|493:252,1,179.999994506836,0|10,3:2|0:2,0:2:0:0:
485,150,53468,5,0,3:2:0:0:
287,220,53642,1,0,3:2:0:0:
276,224,53729,1,0,3:2:0:0:
266,228,53817,2,0,L|254:285,2,44.999998626709,10|0|2,0:2|3:2|3:2,0:0:0:0:
276,134,54078,1,8,0:2:0:0:
276,134,54165,2,0,P|219:147|186:153,1,89.9999972534181,0|0,3:2|3:2,0:0:0:0:
26,264,54514,2,0,P|62:302|105:296,1,89.9999972534181,10|2,0:2|0:2,0:0:0:0:
134,235,54776,1,0,3:2:0:0:
125,218,54863,5,0,3:2:0:0:
149,133,55038,1,0,3:2:0:0:
173,48,55212,1,8,0:2:0:0:
313,69,55386,5,0,3:2:0:0:
313,69,55474,2,0,P|281:117|241:111,1,89.9999972534181,8|0,0:2|0:2,0:0:0:0:
187,77,55735,2,0,P|130:68|67:144,1,134.999995880127,0|0,3:2|0:0,0:0:0:0:
53,187,56084,1,10,0:2:0:0:
164,285,56258,5,0,3:2:0:0:
226,229,56433,1,0,3:2:0:0:
146,203,56607,1,8,0:2:0:0:
249,310,56782,6,0,L|288:346,2,44.999998626709,0|8|0,3:2|0:2|3:2,0:2:0:0:
177,250,57131,5,0,3:2:0:0:
201,165,57306,1,8,0:2:0:0:
225,80,57480,1,0,0:2:0:0:
147,22,57654,6,0,B|132:34|117:42|117:42|132:43|161:59,1,67.4999979400635,4|0,3:2|3:2,0:0:0:0:
313,35,58003,6,0,B|359:50|359:50|368:61|368:61|439:83,1,112.500004291535,8|0,0:2|3:2,0:0:0:0:
481,46,58264,1,10,0:2:0:0:
493,34,58351,1,0,3:0:0:0:
411,82,58526,6,0,P|388:118|397:141,1,56.2500021457673,2|2,3:2|0:2,0:2:0:0:
511,233,58875,6,0,P|445:218|397:257,1,104.999996795654,10|0,0:2|3:2,0:2:0:0:
402,355,59224,1,2,3:2:0:0:
414,359,59311,1,0,3:2:0:0:
426,364,59398,2,0,P|398:336|383:330,1,44.999998626709,10|0,0:2|3:2,0:0:0:0:
311,285,59572,2,0,P|272:274|256:277,1,44.999998626709,2|8,3:2|0:2,0:0:0:0:
182,308,59747,1,0,3:2:0:0:
182,308,59921,1,2,3:2:0:0:
90,275,60096,2,0,P|71:225|91:202,1,89.9999972534181,10|2,0:2|0:2,0:2:0:0:
171,192,60357,1,0,3:2:0:0:
192,201,60445,5,2,3:2:0:0:
122,100,60619,1,0,3:2:0:0:
219,57,60793,2,0,P|266:50|316:39,1,89.9999972534181,10|2,0:2|3:2,0:0:0:0:
313,37,61055,1,10,0:2:0:0:
318,32,61142,1,0,3:0:0:0:
373,103,61317,6,0,P|385:138|367:166,1,67.4999979400635,0|2,3:2|0:2,0:2:0:0:
367,171,61665,6,0,L|379:220,1,44.999998626709,10|0,0:2|0:0,0:0:0:0:
428,278,61840,1,0,3:2:0:0:
277,339,62014,2,0,P|255:334|218:333,1,44.999998626709,0|0,3:2|0:2,0:2:0:0:
201,258,62189,2,0,P|216:241|235:209,1,44.999998626709,8|0,0:2|0:2,0:2:0:0:
309,232,62363,2,0,P|315:253|333:286,1,44.999998626709,0|8,0:2|0:2,0:2:0:0:
223,337,62538,6,0,P|176:335|121:351,1,89.9999972534181,2|0,0:2|3:2,0:0:0:0:
19,255,62886,2,0,P|40:210|97:209,1,89.9999972534181,10|2,0:2|0:2,0:0:0:0:
124,257,63148,1,0,3:2:0:0:
121,273,63235,5,4,3:2:0:0:
194,217,63410,1,0,3:2:0:0:
281,244,63584,1,8,0:2:0:0:
345,188,63758,1,0,3:0:0:0:
345,188,63846,1,8,0:2:0:0:
345,188,63933,2,0,P|333:138|292:124,1,89.9999972534181,0|0,3:2|3:2,0:0:0:0:
208,290,64282,1,2,0:2:0:0:
142,227,64456,1,10,0:2:0:0:
217,299,64631,6,0,P|271:289|317:282,1,89.9999972534181,0|0,3:2|3:2,0:0:0:0:
315,287,64892,1,0,3:2:0:0:
325,291,64979,1,10,0:2:0:0:
336,295,65066,1,0,3:2:0:0:
346,300,65154,2,0,P|400:290|424:288,1,44.999998626709,2|8,3:2|0:2,0:0:0:0:
476,301,65328,2,0,P|502:257|477:211,1,89.9999972534181,0|0,3:2|3:2,0:2:0:0:
379,172,65677,6,0,P|365:116|400:78,1,104.999996795654,10|2,0:2|0:2,0:2:0:0:
475,80,65939,1,0,0:2:0:0:
490,85,66026,5,0,3:2:0:0:
452,11,66200,1,0,3:2:0:0:
366,47,66375,1,8,0:2:0:0:
286,30,66549,5,0,0:2:0:0:
253,141,66724,1,0,0:2:0:0:
286,30,66898,1,0,3:2:0:0:
201,49,67072,5,0,0:2:0:0:
283,157,67247,1,8,0:2:0:0:
186,235,67421,1,0,3:2:0:0:
252,288,67596,5,0,3:2:0:0:
193,152,67770,1,8,0:2:0:0:
171,148,67857,1,0,3:2:0:0:
150,153,67944,1,0,3:2:0:0:
132,164,68031,1,8,0:2:0:0:
119,181,68118,1,2,3:2:0:0:
82,263,68293,5,0,3:2:0:0:
165,311,68468,2,0,P|217:295|262:286,1,89.9999972534181,10|0,0:2|0:2,0:2:0:0:
363,338,68817,6,0,P|406:308|373:227,1,134.999995880127,6|0,3:2|3:2,0:0:0:0:
237,100,69514,2,0,P|194:130|227:211,1,134.999995880127,0|0,3:2|3:2,0:0:0:0:
449,111,70212,6,0,P|463:73|475:45,1,67.4999979400635,0|0,3:2|0:2,0:2:0:0:
371,85,70561,2,0,P|385:47|397:19,1,67.4999979400635,0|0,3:2|0:2,0:2:0:0:
279,114,70910,6,0,P|293:152|305:180,1,67.4999979400635,0|0,3:2|0:2,0:2:0:0:
201,140,71259,2,0,P|215:178|227:206,1,67.4999979400635,0|0,3:2|0:2,0:2:0:0:
134,85,71607,6,0,B|80:70|80:70|67:47|67:47|9:29,1,134.999995880127,0|0,3:2|3:2,0:0:0:0:
139,172,72305,2,0,B|193:157|193:157|206:134|206:134|264:116,1,134.999995880127,0|0,3:2|3:2,0:0:0:0:
98,261,73003,6,0,B|69:248|69:248|60:247|60:247|27:231,1,67.4999979400635,0|0,3:2|0:2,0:2:0:0:
88,343,73351,2,0,B|59:330|59:330|50:329|50:329|17:313,1,67.4999979400635,0|0,3:2|0:2,0:2:0:0:
225,234,73700,6,0,B|254:221|254:221|263:220|263:220|296:204,1,67.4999979400635,0|0,3:2|0:2,0:2:0:0:
235,316,74049,2,0,B|264:303|264:303|273:302|273:302|306:286,1,67.4999979400635,0|0,3:2|0:2,0:2:0:0:
390,288,74398,5,0,3:2:0:0:
387,279,74572,1,0,0:2:0:0:
384,270,74746,1,0,3:2:0:0:
381,261,74921,1,0,0:2:0:0:
429,194,75096,5,0,3:2:0:0:
432,185,75270,1,0,0:2:0:0:
435,176,75444,1,0,3:2:0:0:
438,167,75619,1,0,0:2:0:0:
378,107,75793,6,0,B|404:84|404:84|452:91,1,67.4999979400635,0|0,3:2|0:2,0:2:0:0:
349,26,76142,2,0,B|323:49|323:49|275:42,1,67.4999979400635,0|0,3:2|0:2,0:0:0:0:
240,142,76491,6,0,B|266:119|266:119|314:126,1,67.4999979400635,0|0,3:2|0:2,0:0:0:0:
211,61,76840,2,0,B|185:84|185:84|137:77,1,67.4999979400635,0|0,3:2|0:2,0:0:0:0:
71,73,77189,5,2,3:2:0:0:
74,82,77363,1,2,0:2:0:0:
77,91,77537,1,2,3:2:0:0:
80,100,77712,1,2,0:2:0:0:
53,178,77886,5,2,3:2:0:0:
58,197,78061,1,2,0:2:0:0:
63,216,78235,1,2,3:2:0:0:
68,235,78410,1,2,0:2:0:0:
152,287,78584,6,0,P|187:268|226:278,1,67.4999979400635,2|2,3:2|0:2,0:0:0:0:
231,344,78933,2,0,P|196:363|157:353,1,67.4999979400635,2|2,3:2|0:2,0:0:0:0:
70,328,79282,5,2,3:2:0:0:
70,328,79456,1,2,0:2:0:0:
39,242,79631,5,2,3:2:0:0:
39,242,79805,1,2,0:2:0:0:
115,181,79979,5,6,3:2:0:0:
90,23,80328,6,0,P|125:45|136:80,1,67.4999979400635,0|0,3:2|0:2,0:2:0:0:
199,15,80677,2,0,P|218:51|210:87,1,67.4999979400635,0|0,3:2|0:2,0:2:0:0:
297,62,81026,2,0,P|295:103|270:130,1,67.4999979400635,0|0,3:2|0:2,0:2:0:0:
358,152,81375,2,0,P|336:187|301:198,1,67.4999979400635,0|0,3:2|0:2,0:2:0:0:
366,260,81724,2,0,P|329:279|293:271,1,67.4999979400635,0|0,3:2|0:2,0:2:0:0:
213,217,82072,6,0,L|228:147,1,67.4999979400635,0|0,3:2|0:2,0:2:0:0:
153,138,82421,2,0,L|138:204,1,67.4999979400635,0|0,3:2|0:2,0:2:0:0:
153,347,82770,5,0,3:2:0:0:
12,276,83119,6,0,P|34:241|69:230,1,67.4999979400635,0|0,3:2|0:2,0:2:0:0:
4,167,83468,2,0,P|40:147|76:155,1,67.4999979400635,0|0,3:2|0:2,0:2:0:0:
51,69,83817,2,0,P|92:70|119:95,1,67.4999979400635,0|0,3:2|0:2,0:2:0:0:
141,8,84166,2,0,P|176:30|187:65,1,67.4999979400635,0|0,3:2|0:2,0:2:0:0:
249,0,84515,2,0,P|268:36|260:72,1,67.4999979400635,0|0,3:2|0:2,0:2:0:0:
350,175,84863,6,0,P|308:162|267:145,1,82.5000025177003,0|0,3:2|0:2,0:2:0:0:
69,253,85212,2,0,P|111:266|152:283,1,82.5000025177003,0|0,3:2|0:2,0:2:0:0:
317,272,85561,2,0,B|242:293|209:223|211:223|213:222|197:145|108:162,1,247.500007553101,0|0,3:2|0:0,0:2:0:0:
43,18,86258,6,0,L|30:76,1,56.2500021457673,0|0,3:2|0:2,0:2:0:0:
106,84,86607,2,0,L|119:26,1,56.2500021457673,0|0,3:2|0:2,0:2:0:0:
161,166,86956,6,0,L|183:247,1,75,0|0,3:2|0:2,0:2:0:0:
256,221,87305,2,0,L|236:148,1,75,0|0,3:2|0:2,0:2:0:0:
351,41,87654,6,0,L|335:143,1,97.4999955368044,0|0,3:2|0:2,0:2:0:0:
409,153,88003,2,0,L|424:56,1,97.4999955368044,0|0,3:2|0:2,0:2:0:0:
493,199,88351,5,4,3:2:0:0:
256,192,88439,12,0,89747,0:2:0:0:
138,290,90096,6,0,L|151:221,1,44.999998626709,4|0,0:3|0:2,0:2:0:0:
148,169,90270,1,4,0:3:0:0:
145,153,90357,1,4,0:3:0:0:
142,138,90444,1,4,0:3:0:0:
222,219,90619,1,4,0:3:0:0:
305,236,90793,5,4,0:3:0:0:
319,239,90880,1,4,0:3:0:0:
334,243,90967,1,4,0:3:0:0:
348,247,91054,1,4,0:3:0:0:
359,249,91142,2,0,L|368:172,1,61.8750018882752,2|0,3:2|0:2,0:2:0:0:
438,176,91491,6,0,B|376:151|376:151|365:129|365:129|296:101,1,146.249993305207,14|0,0:2|0:2,0:2:0:0:
271,49,91840,1,0,3:2:0:0:
214,196,92014,1,0,3:2:0:0:
271,49,92189,1,10,0:2:0:0:
132,19,92363,2,0,L|79:8,2,48.7499977684022,2|0|0,3:2|3:2|3:2,0:0:0:0:
36,131,92712,5,0,3:2:0:0:
178,148,92886,2,0,P|226:159|263:248,1,146.249993305207,8|0,0:2|0:2,0:2:0:0:
218,303,93235,1,2,3:2:0:0:
416,194,93410,1,2,3:2:0:0:
371,343,93584,2,0,P|346:300|362:254,1,97.4999955368044,10|2,0:2|0:2,0:0:0:0:
475,114,93933,6,0,B|403:131|396:73|392:72|387:72|376:17|301:31,1,194.999991073609,0|10,3:2|0:2,0:2:0:0:
94,108,94456,1,2,3:2:0:0:
94,108,94543,1,8,0:2:0:0:
94,108,94631,1,0,3:2:0:0:
175,26,94805,1,0,3:2:0:0:
241,113,94979,2,0,P|256:170|235:213,1,97.4999955368044,10|2,0:2|3:2,0:2:0:0:
169,241,95241,1,0,3:2:0:0:
146,238,95328,5,0,3:2:0:0:
230,318,95503,1,0,3:2:0:0:
342,210,95677,1,8,0:2:0:0:
342,210,95764,1,0,3:2:0:0:
342,210,95851,2,0,L|403:227,1,48.7499977684022,0|8,3:0|0:2,0:0:0:0:
460,267,96026,2,0,P|503:229|479:175,1,97.4999955368044,0|2,3:2|3:2,0:2:0:0:
313,42,96375,2,0,P|324:98|383:104,1,97.4999955368044,10|2,0:2|0:2,0:0:0:0:
508,48,96724,6,0,B|469:56|469:56|462:64|462:64|420:72,1,84.3750032186509,0|0,3:2|0:2,0:2:0:0:
357,111,97072,6,0,B|298:93|298:93|286:61|286:61|210:36,1,157.499995193482,14|0,0:2|0:2,0:2:0:0:
150,59,97421,1,0,3:2:0:0:
150,59,97596,1,2,3:2:0:0:
73,127,97770,1,8,0:2:0:0:
232,202,97945,5,2,3:2:0:0:
232,202,98032,1,0,3:2:0:0:
232,202,98119,2,0,P|280:175|290:130,1,97.4999955368044,0|0,3:2|3:2,0:0:0:0:
33,21,98468,2,0,B|34:44|23:65|23:65|45:46|80:46,1,97.4999955368044,10|2,0:2|0:2,0:2:0:0:
177,20,98817,1,0,3:2:0:0:
152,122,98991,1,0,3:2:0:0:
127,224,99165,2,0,B|165:205|195:233|194:233|191:234|219:272|276:251,1,146.249993305207,10|0,0:2|0:0,0:0:0:0:
330,217,99514,5,4,3:2:0:0:
330,217,99689,1,0,0:0:0:0:
436,101,99863,5,8,0:2:0:0:
436,101,100038,1,0,0:0:0:0:
425,200,100212,5,0,3:2:0:0:
333,60,100386,1,0,3:2:0:0:
233,191,100561,1,8,0:2:0:0:
119,80,100735,2,0,L|66:88,2,48.7499977684022,0|0|0,3:2|3:2|3:2,0:0:0:0:
198,36,101084,5,0,3:2:0:0:
241,145,101258,1,8,0:2:0:0:
284,254,101433,1,0,0:2:0:0:
333,187,101607,5,0,3:2:0:0:
304,259,101781,1,2,3:2:0:0:
275,332,101956,1,10,0:2:0:0:
279,339,102131,1,2,0:2:0:0:
148,185,102305,6,0,P|196:188|232:221,1,84.3750032186509,0|0,3:2|0:0,0:0:0:0:
219,218,102654,6,0,P|155:182|165:86,1,168.750006437302,14|0,0:2|0:2,0:2:0:0:
226,55,103003,1,0,3:2:0:0:
338,139,103177,1,0,3:2:0:0:
374,15,103351,1,10,0:2:0:0:
230,142,103526,5,2,3:2:0:0:
230,142,103613,1,0,3:2:0:0:
230,142,103700,1,0,3:2:0:0:
290,214,103875,1,0,3:2:0:0:
218,281,104049,2,0,P|169:257|78:231,1,146.249993305207,8|0,0:2|0:2,0:2:0:0:
26,283,104398,5,2,3:2:0:0:
150,151,104572,1,2,3:2:0:0:
20,79,104747,1,10,0:2:0:0:
58,152,104921,1,2,0:2:0:0:
104,21,105096,6,0,B|141:29|141:29|149:35|149:35|194:44,1,84.3750032186509,0|0,3:2|0:2,0:2:0:0:
254,81,105445,6,0,P|304:48|373:27,1,112.500004291535,10|0,0:2|3:0,0:2:0:0:
430,42,105706,1,8,0:2:0:0:
447,51,105793,1,0,3:2:0:0:
344,144,105968,1,0,3:2:0:0:
463,228,106142,1,10,0:2:0:0:
355,313,106317,6,0,L|347:368,2,48.7499977684022,2|0|0,3:2|3:2|3:2,0:0:0:0:
253,222,106665,1,0,3:2:0:0:
166,290,106840,1,8,0:2:0:0:
135,295,106927,1,0,3:2:0:0:
107,284,107014,1,0,3:2:0:0:
87,261,107101,1,8,0:2:0:0:
83,230,107188,1,0,3:2:0:0:
121,144,107363,1,2,3:2:0:0:
172,67,107538,1,10,0:2:0:0:
120,0,107712,1,2,0:2:0:0:
38,30,107886,6,0,P|80:45|115:14,1,84.3750032186509,0|0,3:2|0:2,0:2:0:0:
120,0,108235,6,0,P|121:62|226:89,1,168.750006437302,14|0,0:2|0:2,0:2:0:0:
277,62,108584,1,0,3:2:0:0:
222,139,108758,1,0,3:2:0:0:
262,223,108933,1,10,0:2:0:0:
390,284,109107,6,0,L|444:277,2,48.7499977684022,2|0|0,3:2|3:0|3:0,0:2:0:0:
290,347,109456,1,0,3:2:0:0:
344,187,109631,2,0,P|371:129|440:65,1,146.249993305207,10|0,0:2|0:0,0:0:0:0:
502,107,109979,1,0,3:2:0:0:
502,107,110154,1,0,3:2:0:0:
310,30,110328,6,0,B|235:52|235:52|224:86|224:86|137:113,1,191.250003647804,10|0,0:2|0:2,0:2:0:0:
81,78,110677,5,0,3:2:0:0:
81,78,110851,1,0,0:2:0:0:
240,194,111026,5,8,0:2:0:0:
240,194,111200,1,0,0:2:0:0:
57,284,111375,5,0,3:2:0:0:
64,202,111549,1,0,3:2:0:0:
131,248,111724,1,8,0:2:0:0:
229,326,111898,6,0,L|211:383,2,48.7499977684022,0|0|0,3:2|3:2|3:2,0:0:0:0:
353,285,112247,5,0,3:2:0:0:
315,184,112421,1,8,0:2:0:0:
277,83,112596,1,0,0:2:0:0:
336,21,112770,5,0,3:2:0:0:
323,100,112945,1,0,3:2:0:0:
415,51,113119,5,8,0:2:0:0:
407,98,113294,1,0,0:2:0:0:
489,89,113468,5,0,3:2:0:0:
489,89,113817,6,0,P|435:119|386:191,1,127.50000243187,14|0,0:2|0:2,0:2:0:0:
310,333,114165,1,0,3:2:0:0:
231,287,114340,1,0,3:2:0:0:
310,333,114514,1,10,0:2:0:0:
404,309,114689,6,0,L|458:290,2,44.999998626709,2|0|0,3:2|3:0|3:0,0:2:0:0:
198,362,115038,1,0,3:2:0:0:
251,187,115212,2,0,B|288:195|288:195|291:201|291:201|351:213,1,89.9999972534181,8|0,0:2|0:2,0:2:0:0:
452,161,115561,1,0,3:2:0:0:
452,161,115735,1,0,3:2:0:0:
335,209,115910,6,0,P|297:150|322:56,1,157.499995193482,8|0,0:2|0:2,0:2:0:0:
371,12,116258,6,0,P|396:49|387:91,1,73.1249966526033,2|0,3:2|0:2,0:2:0:0:
259,124,116607,6,0,P|231:66|262:17,1,112.500004291535,8|0,0:2|3:2,0:0:0:0:
314,54,116869,1,0,3:2:0:0:
312,67,116956,1,2,3:2:0:0:
422,154,117131,1,0,3:2:0:0:
226,216,117305,1,8,0:2:0:0:
308,260,117479,5,2,3:2:0:0:
308,260,117567,1,0,3:0:0:0:
308,260,117654,2,0,B|344:232|344:232|405:252,1,89.9999972534181,0|0,3:2|3:2,0:0:0:0:
506,293,118003,1,8,0:2:0:0:
368,347,118177,1,0,3:2:0:0:
354,352,118264,1,8,0:2:0:0:
341,357,118351,1,0,3:2:0:0:
249,316,118526,1,0,3:2:0:0:
171,252,118700,2,0,B|131:224|134:132|187:108|227:139|216:169,1,168.750006437302,8|0,0:2|0:2,0:2:0:0:
207,154,119049,6,0,P|164:130|186:103,1,84.3750032186509,0|0,3:2|0:2,0:2:0:0:
281,100,119398,6,0,B|337:91|360:148|359:149|355:149|385:207|448:180,1,191.250003647804,14|0,0:2|0:2,0:0:0:0:
451,191,119747,2,0,L|495:182,1,44.999998626709,0|0,3:0|0:2,0:0:0:0:
433,106,119921,1,0,3:2:0:0:
364,268,120096,1,10,0:2:0:0:
468,325,120270,5,2,3:2:0:0:
480,331,120357,1,0,3:0:0:0:
492,337,120445,2,0,L|384:357,1,89.9999972534181,0|0,3:0|3:2,0:0:0:0:
217,241,120793,2,0,B|151:262|151:262|136:309|136:309|75:327,1,179.999994506836,8|0,0:2|3:2,0:2:0:0:
186,113,121317,1,0,3:2:0:0:
251,55,121491,2,0,P|282:95|262:148,1,89.9999972534181,8|0,0:2|0:0,0:2:0:0:
47,202,121840,6,0,P|21:176|39:130,1,84.3750032186509,2|0,3:2|0:2,0:2:0:0:
47,127,122189,6,0,B|57:161|57:161|23:304,1,168.750006437302,8|0,0:2|0:2,0:0:0:0:
51,366,122538,1,0,3:2:0:0:
177,300,122712,1,0,3:2:0:0:
71,197,122886,2,0,L|121:182,1,44.999998626709,8|0,0:2|0:0,0:0:0:0:
273,107,123061,6,0,B|212:80|165:56|165:56|148:82|123:111,1,187.5,2|0,3:2|0:0,0:2:0:0:
49,114,123584,2,0,P|51:87|71:68,1,44.999998626709,4|0,0:3|0:2,0:2:0:0:
229,197,123758,5,0,0:2:0:0:
235,207,123846,1,4,0:3:0:0:
241,217,123933,2,0,L|187:210,1,44.999998626709,0|0,3:2|0:2,0:2:0:0:
69,192,124107,2,0,L|123:199,1,44.999998626709,0|0,3:2|0:2,0:2:0:0:
209,291,124282,1,4,0:3:0:0:
176,300,124369,1,0,3:2:0:0:
144,310,124456,1,0,3:2:0:0:
111,319,124543,1,4,0:3:0:0:
79,329,124631,5,4,3:2:0:0:
100,115,124979,5,0,3:2:0:0:
250,263,125328,6,0,L|338:246,1,75,2|0,3:2|0:0,0:2:0:0:
377,189,125677,1,2,3:2:0:0:
226,188,125851,6,0,L|314:171,1,75,2|0,0:2|3:2,0:2:0:0:
353,114,126200,1,2,0:2:0:0:
353,114,126375,1,2,3:2:0:0:
210,69,126549,6,0,P|162:76|131:108,1,75,2|0,0:2|3:2,0:2:0:0:
85,151,126898,1,2,0:2:0:0:
113,18,127072,2,0,P|74:48|64:91,1,75,2|2,3:2|0:2,0:2:0:0:
72,233,127421,5,0,3:2:0:0:
275,153,127770,5,2,3:2:0:0:
77,233,128119,6,0,L|155:247,1,75,0|0,3:2|0:2,0:0:0:0:
231,306,128468,1,2,3:2:0:0:
321,262,128642,5,2,3:2:0:0:
321,262,128729,1,0,3:0:0:0:
321,262,128817,2,0,P|329:205|315:181,1,75,0|0,3:2|0:2,0:0:0:0:
183,106,129165,2,0,P|228:141|256:141,1,75,0|0,3:2|0:2,0:2:0:0:
356,56,129514,6,0,P|402:49|435:40,1,75,2|0,3:2|0:2,0:0:0:0:
239,223,129863,2,0,P|202:213|165:208,1,75,2|2,3:2|0:2,0:2:0:0:
88,231,130125,1,0,3:2:0:0:
62,251,130212,5,4,3:2:0:0:
228,113,130561,5,0,3:2:0:0:
64,240,130910,6,0,L|80:162,1,75,2|0,3:2|0:2,0:2:0:0:
54,94,131258,1,2,3:2:0:0:
146,261,131433,6,0,L|162:183,1,75,2|0,0:2|3:2,0:2:0:0:
136,115,131781,1,0,0:2:0:0:
228,282,131956,6,0,L|244:204,1,75,2|2,3:2|0:2,0:0:0:0:
216,37,132305,2,0,P|236:63|251:71,1,37.5,0|0,3:2|0:2,0:2:0:0:
313,96,132479,2,0,P|345:100|361:95,1,37.5,0|0,3:2|0:2,0:2:0:0:
433,65,132654,5,10,3:2:0:0:
428,52,132741,1,0,3:2:0:0:
424,39,132828,1,2,3:2:0:0:
421,27,132915,1,8,0:2:0:0:
416,14,133003,1,0,3:2:0:0:
329,7,133177,5,0,3:2:0:0:
235,53,133351,2,0,P|182:44|154:39,1,75,8|0,0:2|3:2,0:2:0:0:
74,17,133613,1,8,0:2:0:0:
61,40,133700,5,2,3:2:0:0:
164,193,133875,2,0,P|206:189|226:151,1,75,0|2,3:2|0:2,0:2:0:0:
7,101,134224,2,0,P|36:119|63:114,1,37.5,2|0,3:2|0:2,0:2:0:0:
101,68,134398,5,0,3:2:0:0:
179,88,134572,1,0,3:2:0:0:
257,108,134747,1,8,0:2:0:0:
371,200,134921,5,0,3:2:0:0:
377,209,135008,1,8,0:2:0:0:
384,218,135096,1,0,3:2:0:0:
281,244,135270,1,0,3:2:0:0:
178,270,135445,1,8,0:2:0:0:
74,177,135619,2,0,P|99:188|118:217,1,37.5,0|8,0:2|0:2,0:0:0:0:
114,336,135793,5,4,3:2:0:0:
114,336,135968,1,0,3:2:0:0:
21,246,136142,6,0,P|16:187|80:131,1,134.999995880127,8|8,0:2|0:2,0:2:0:0:
136,100,136491,6,0,L|201:120,1,44.999998626709,2|0,0:2|0:2,0:2:0:0:
259,136,136665,6,0,B|293:127|293:127|301:119|301:119|344:109,1,84.3750032186509,2|0,3:2|0:0,0:2:0:0:
431,86,137014,6,0,L|425:116,1,28.1250010728836,10|0,0:2|0:2,0:2:0:0:
424,125,137189,1,0,3:2:0:0:
498,239,137363,5,2,3:2:0:0:
502,273,137450,1,0,3:2:0:0:
488,305,137537,1,10,0:2:0:0:
459,325,137624,1,0,3:2:0:0:
425,327,137711,1,2,3:2:0:0:
414,320,137799,5,8,0:2:0:0:
407,312,137886,2,0,P|409:286|427:272,1,44.999998626709,0|0,0:2|0:2,0:2:0:0:
498,239,138061,1,2,3:2:0:0:
299,324,138235,2,0,B|266:340|175:351|179:256|231:269|234:308,1,157.499995193482,10|0,0:2|0:0,0:2:0:0:
231,305,138584,6,0,L|242:255,1,28.1250010728836,0|0,3:2|0:2,0:2:0:0:
279,101,138758,2,0,L|272:128,1,28.1250010728836,0|0,3:2|0:2,0:2:0:0:
254,204,138933,1,10,0:2:0:0:
423,210,139107,5,2,3:2:0:0:
441,207,139195,2,0,B|400:187|400:187|345:208,1,89.9999972534181,8|0,0:2|0:2,0:0:0:0:
269,282,139456,6,0,B|243:291|223:331|223:331|223:286|183:245,1,134.999995880127,0|0,3:2|0:0,0:2:0:0:
141,215,139805,6,0,L|97:225,1,37.5,10|0,0:2|0:2,0:0:0:0:
11,307,139979,6,0,L|37:208,1,75,0|0,3:2|3:2,0:2:0:0:
29,217,140241,1,0,3:2:0:0:
25,189,140328,1,8,0:2:0:0:
21,161,140415,1,0,3:2:0:0:
17,133,140502,1,0,0:2:0:0:
13,105,140590,1,8,0:2:0:0:
9,77,140677,5,2,0:2:0:0:
179,108,140851,1,0,3:2:0:0:
183,15,141026,2,0,B|160:8|160:8|122:11|103:56,1,89.9999972534181,10|2,0:2|0:2,0:0:0:0:
41,142,141288,1,0,3:2:0:0:
33,160,141375,6,0,L|81:168,1,37.5,4|0,3:2|0:2,0:2:0:0:
159,185,141549,2,0,L|207:193,1,37.5,0|0,3:2|0:2,0:2:0:0:
380,210,141724,6,0,L|320:235,1,56.2500021457673,8|0,0:2|0:2,0:2:0:0:
257,300,141985,6,0,B|222:299|200:320|200:320|212:289|198:252,1,112.500004291535,8|0,0:2|0:2,0:0:0:0:
195,191,142247,6,0,B|244:158|243:104|200:39|152:99|158:138,1,168.750006437302,0|0,3:2|0:0,0:2:0:0:
163,115,142596,6,0,L|176:152,1,28.1250010728836,10|0,0:2|0:2,0:2:0:0:
129,27,142770,1,0,3:2:0:0:
56,185,142945,5,0,3:2:0:0:
51,194,143032,1,0,3:2:0:0:
46,204,143119,2,0,L|102:182,1,37.5,10|0,0:2|3:2,0:2:0:0:
281,105,143293,2,0,L|246:118,1,37.5,2|8,3:2|0:2,0:0:0:0:
181,209,143468,6,0,P|187:245|243:269,1,67.4999979400635,0|0,3:2|0:0,0:0:0:0:
217,260,143642,2,0,P|211:224|155:200,1,67.4999979400635,0|0,3:2|0:0,0:0:0:0:
48,133,143817,6,0,B|39:190|63:198|61:199|60:200|107:224|95:272,1,150,10|2,0:2|0:2,0:2:0:0:
60,340,144078,1,0,3:2:0:0:
41,331,144165,5,0,3:2:0:0:
178,269,144340,1,0,3:2:0:0:
41,331,144514,1,8,0:2:0:0:
95,267,144689,5,0,0:2:0:0:
76,178,144863,1,0,0:2:0:0:
57,89,145038,1,0,3:2:0:0:
111,24,145212,5,0,0:2:0:0:
216,136,145386,1,8,0:2:0:0:
281,10,145561,1,0,3:2:0:0:
131,109,145735,5,0,3:2:0:0:
280,216,145910,1,8,0:2:0:0:
308,240,145997,1,0,3:2:0:0:
322,274,146084,1,0,3:2:0:0:
319,311,146171,1,8,0:2:0:0:
299,342,146258,1,0,3:2:0:0:
195,357,146433,1,0,3:2:0:0:
123,283,146607,6,0,B|99:259|104:198|145:180|201:181|158:245,1,150,8|0,0:2|0:0,0:2:0:0:
51,322,146869,1,0,3:2:0:0:
38,337,146956,5,4,3:2:0:0:
143,106,147305,1,0,3:2:0:0:
288,28,147654,5,0,3:2:0:0:
393,259,148003,1,0,3:2:0:0:
459,68,148351,6,0,L|383:85,1,56.2500021457673,0|0,3:2|0:2,0:2:0:0:
342,132,148700,2,0,L|266:149,1,56.2500021457673,0|0,3:2|0:2,0:2:0:0:
103,95,149049,6,0,P|144:100|161:121,1,56.2500021457673,0|0,3:2|0:2,0:2:0:0:
117,234,149398,2,0,P|76:229|59:208,1,56.2500021457673,0|0,3:2|0:2,0:2:0:0:
111,164,149747,6,0,P|142:206|160:313,1,150,0|0,3:2|3:2,0:0:0:0:
401,220,150445,2,0,P|370:178|352:71,1,150,0|0,3:2|3:2,0:0:0:0:
350,83,151142,6,0,P|397:94|426:95,1,56.2500021457673,0|0,3:2|0:2,0:2:0:0:
198,247,151491,2,0,P|151:258|122:259,1,56.2500021457673,0|0,3:2|0:2,0:2:0:0:
261,76,151840,6,0,P|279:112|272:134,1,56.2500021457673,0|0,3:2|0:2,0:2:0:0:
200,146,152189,2,0,P|182:110|189:88,1,56.2500021457673,0|0,3:2|0:2,0:2:0:0:
338,31,152538,5,0,3:2:0:0:
347,34,152712,1,0,0:2:0:0:
356,37,152886,1,0,3:2:0:0:
365,40,153061,1,0,0:2:0:0:
461,42,153235,5,0,3:2:0:0:
444,64,153410,1,0,0:2:0:0:
433,90,153584,1,0,3:2:0:0:
427,118,153758,1,0,0:2:0:0:
469,192,153933,6,0,P|485:227|484:249,1,56.2500021457673,0|0,3:2|0:2,0:2:0:0:
409,263,154282,2,0,P|393:228|394:206,1,56.2500021457673,0|0,3:2|0:2,0:0:0:0:
308,39,154631,6,0,P|302:88|271:115,1,82.5000025177003,0|0,3:2|0:2,0:0:0:0:
205,81,154979,2,0,P|211:32|242:5,1,82.5000025177003,0|0,3:2|0:2,0:0:0:0:
171,184,155328,6,0,P|203:231|195:288,1,104.999996795654,2|2,3:2|0:2,0:0:0:0:
68,317,155677,2,0,P|36:270|44:213,1,104.999996795654,2|2,3:2|0:2,0:0:0:0:
161,195,156026,6,0,P|188:235|181:285,1,82.5000025177003,2|2,3:2|0:2,0:0:0:0:
78,306,156375,2,0,P|50:265|57:215,1,82.5000025177003,2|2,3:2|0:2,0:0:0:0:
157,206,156724,6,0,P|178:237|172:275,1,60,2|2,3:2|0:2,0:0:0:0:
82,295,157073,2,0,P|60:263|66:225,1,60,2|2,3:2|0:2,0:0:0:0:
154,223,157421,6,0,P|164:239|162:258,1,30,2|2,3:2|0:2,0:0:0:0:
85,278,157770,2,0,P|74:261|76:242,1,30,2|2,3:2|0:2,0:0:0:0:
124,44,158119,5,6,3:2:0:0:
330,223,158468,2,0,P|367:212|389:155,1,82.5000025177003,0|0,3:2|0:2,0:2:0:0:
182,161,158817,2,0,P|145:172|123:229,1,82.5000025177003,0|0,3:2|0:2,0:2:0:0:
319,143,159165,2,0,P|328:105|290:58,1,82.5000025177003,0|0,3:2|0:2,0:2:0:0:
192,240,159514,2,0,P|183:278|221:325,1,82.5000025177003,0|0,3:2|0:2,0:2:0:0:
245,112,159863,2,0,P|217:85|157:95,1,82.5000025177003,0|0,3:2|0:2,0:2:0:0:
266,271,160212,2,0,P|294:298|354:288,1,82.5000025177003,0|0,3:2|0:2,0:2:0:0:
182,161,160561,2,0,P|145:172|123:229,1,82.5000025177003,0|0,3:2|0:2,0:2:0:0:
330,223,160910,5,0,3:2:0:0:
330,223,161258,2,0,P|388:233|441:246,1,97.4999955368044,0|0,3:2|0:2,0:2:0:0:
182,161,161607,2,0,P|124:151|71:138,1,97.4999955368044,0|0,3:2|0:2,0:2:0:0:
319,143,161956,2,0,P|357:98|395:58,1,97.4999955368044,0|0,3:2|0:2,0:2:0:0:
192,240,162305,2,0,P|154:285|116:325,1,97.4999955368044,0|0,3:2|0:2,0:2:0:0:
245,112,162654,2,0,P|225:57|210:4,1,97.4999955368044,0|0,3:2|0:2,0:2:0:0:
266,271,163003,2,0,P|286:326|301:379,1,97.4999955368044,0|0,3:2|0:2,0:2:0:0:
182,161,163351,2,0,P|124:151|71:138,1,97.4999955368044,0|0,3:2|0:2,0:2:0:0:
330,223,163700,6,0,P|426:260|494:158,1,225,0|0,3:2|0:0,0:2:0:0:
489,30,164398,6,0,L|502:88,1,56.2500021457673,0|0,3:2|0:2,0:2:0:0:
426,96,164747,2,0,L|413:38,1,56.2500021457673,0|0,3:2|0:2,0:2:0:0:
371,178,165096,6,0,L|349:259,1,75,0|0,3:2|0:2,0:2:0:0:
276,233,165445,2,0,L|296:160,1,75,0|0,3:2|0:2,0:2:0:0:
181,53,165794,6,0,L|197:155,1,97.4999955368044,0|0,3:2|0:2,0:2:0:0:
123,165,166143,2,0,L|108:68,1,97.4999955368044,0|0,3:2|0:2,0:2:0:0:
39,211,166491,5,4,3:2:0:0:
256,192,166578,12,0,167886,0:2:0:0:
103,65,168235,6,0,P|135:78|153:107,1,44.999998626709,4|0,0:3|0:2,0:2:0:0:
195,150,168410,1,4,0:3:0:0:
206,169,168497,1,4,0:3:0:0:
209,191,168584,1,4,0:3:0:0:
147,261,168758,1,4,0:3:0:0:
69,225,168933,5,4,0:3:0:0:
74,192,169020,1,4,0:3:0:0:
95,166,169107,1,4,0:3:0:0:
127,154,169194,1,4,0:3:0:0:
160,159,169282,2,0,P|196:172|212:201,1,61.8750018882752,2|0,3:2|0:2,0:2:0:0:
207,202,169631,6,0,P|174:143|246:76,1,146.249993305207,14|0,0:2|0:2,0:2:0:0:
286,45,169979,1,0,3:2:0:0:
286,45,170154,1,0,3:2:0:0:
356,168,170328,1,10,0:2:0:0:
108,77,170503,2,0,L|51:57,2,48.7499977684022,2|0|0,3:2|3:2|3:2,0:0:0:0:
273,146,170851,5,0,3:2:0:0:
248,352,171026,2,0,B|231:289|231:289|232:279|232:279|209:194,1,146.249993305207,8|0,0:2|0:2,0:2:0:0:
158,152,171375,1,2,3:2:0:0:
336,258,171549,1,2,3:2:0:0:
123,330,171724,2,0,P|87:291|109:242,1,97.4999955368044,10|2,0:2|0:2,0:0:0:0:
302,142,172072,6,0,B|374:165|374:165|404:137|390:96,1,146.249993305207,0|0,3:2|0:2,0:2:0:0:
319,66,172421,1,10,0:2:0:0:
163,133,172596,1,2,3:2:0:0:
154,139,172683,1,8,0:2:0:0:
145,145,172770,1,0,3:2:0:0:
50,28,172945,5,0,3:2:0:0:
143,43,173119,1,10,0:2:0:0:
236,58,173293,1,2,3:2:0:0:
236,58,173381,1,0,3:0:0:0:
236,58,173467,1,0,3:0:0:0:
147,208,173642,5,0,3:2:0:0:
64,233,173817,2,0,P|29:197|50:145,1,97.4999955368044,8|0,0:2|3:2,0:2:0:0:
112,116,174078,1,8,0:2:0:0:
139,123,174165,1,0,3:2:0:0:
229,281,174340,1,2,3:2:0:0:
409,195,174514,2,0,B|363:208|346:177|348:177|349:177|324:125|270:157,1,146.249993305207,10|0,0:2|0:0,0:2:0:0:
217,215,174863,6,0,B|220:247|220:247|224:251|224:251|230:294,1,67.4999979400635,0|0,3:2|0:2,0:2:0:0:
153,326,175212,6,0,B|121:307|74:286|74:286|96:258|121:188,1,168.750006437302,14|0,0:2|0:2,0:2:0:0:
147,142,175561,5,0,3:2:0:0:
252,101,175735,1,2,3:2:0:0:
310,18,175910,5,8,0:2:0:0:
161,3,176084,1,2,3:2:0:0:
161,3,176171,1,0,3:2:0:0:
161,3,176258,2,0,P|136:57|173:99,1,97.4999955368044,0|0,3:2|3:2,0:0:0:0:
383,199,176607,2,0,P|374:140|319:126,1,97.4999955368044,10|2,0:2|0:2,0:2:0:0:
265,177,176869,1,0,3:2:0:0:
249,196,176956,6,0,L|263:253,1,48.7499977684022,0|0,3:2|0:0,0:0:0:0:
182,235,177131,2,0,L|196:292,1,48.7499977684022,0|0,3:2|0:2,0:2:0:0:
43,157,177305,2,0,B|18:134|18:134|137:165,1,146.249993305207,10|0,0:2|0:0,0:2:0:0:
193,119,177654,5,0,3:2:0:0:
193,119,177828,1,0,0:2:0:0:
74,254,178003,5,8,0:2:0:0:
74,254,178177,1,0,0:2:0:0:
234,327,178351,5,0,3:2:0:0:
307,255,178526,1,0,3:2:0:0:
218,200,178700,1,8,0:2:0:0:
117,328,178875,2,0,L|59:345,2,48.7499977684022,0|0|0,3:2|3:2|3:2,0:0:0:0:
234,327,179224,5,0,3:2:0:0:
193,237,179398,1,8,0:2:0:0:
152,147,179572,1,0,0:2:0:0:
109,215,179747,5,0,3:2:0:0:
141,143,179921,1,2,3:2:0:0:
173,72,180095,1,10,0:2:0:0:
168,62,180270,1,2,0:2:0:0:
231,202,180445,6,0,L|306:217,1,67.4999979400635,0|0,3:2|0:2,0:2:0:0:
372,194,180793,6,0,B|379:149|332:129|273:164|270:269|366:296,1,191.250003647804,14|0,0:2|0:2,0:2:0:0:
398,279,181142,1,0,3:2:0:0:
398,279,181317,1,0,3:2:0:0:
247,345,181491,1,10,0:2:0:0:
141,231,181665,5,2,3:2:0:0:
141,231,181753,1,0,3:0:0:0:
141,231,181840,2,0,P|99:201|43:208,1,97.4999955368044,0|0,3:2|3:2,0:0:0:0:
238,143,182189,2,0,P|301:154|369:81,1,146.249993305207,8|0,0:2|0:0,0:2:0:0:
356,27,182538,5,2,3:2:0:0:
258,10,182712,1,2,3:2:0:0:
189,60,182886,5,10,0:2:0:0:
115,93,183061,1,2,0:2:0:0:
55,32,183235,6,0,B|84:1|84:1|132:13,1,84.3750032186509,0|0,3:2|0:2,0:2:0:0:
189,60,183584,6,0,B|197:105|162:112|164:113|167:113|137:126|141:178,1,127.50000243187,10|2,0:2|3:2,0:2:0:0:
189,229,183846,1,8,0:2:0:0:
205,243,183933,1,0,3:2:0:0:
114,314,184107,1,0,3:2:0:0:
60,211,184282,1,10,0:2:0:0:
205,243,184456,6,0,L|276:258,2,48.7499977684022,2|0|0,3:2|3:2|3:2,0:0:0:0:
60,211,184805,1,0,3:2:0:0:
203,154,184979,1,8,0:2:0:0:
228,135,185066,1,0,3:2:0:0:
240,108,185153,1,0,3:2:0:0:
238,77,185240,1,8,0:2:0:0:
219,52,185328,1,0,3:2:0:0:
65,27,185503,1,2,3:2:0:0:
25,103,185677,1,10,0:2:0:0:
82,159,185851,1,2,0:2:0:0:
219,52,186026,6,0,P|174:65|154:89,1,67.4999979400635,0|0,3:2|0:2,0:2:0:0:
157,87,186375,6,0,B|194:73|231:121|227:122|223:122|248:166|305:157,1,168.750006437302,14|0,0:2|0:0,0:2:0:0:
371,125,186724,1,0,3:2:0:0:
347,219,186898,1,0,3:2:0:0:
404,282,187072,1,10,0:2:0:0:
477,183,187247,6,0,L|483:128,2,48.7499977684022,2|0|0,3:2|3:0|3:0,0:2:0:0:
498,279,187596,1,0,3:2:0:0:
336,336,187770,2,0,B|282:317|282:317|258:276|258:276|187:251,1,168.750006437302,10|0,0:2|0:0,0:2:0:0:
123,293,188119,1,0,3:2:0:0:
123,293,188293,1,0,3:2:0:0:
38,178,188468,6,0,P|81:127|186:115,1,168.750006437302,10|0,0:2|0:2,0:2:0:0:
246,73,188817,5,0,3:2:0:0:
246,73,188991,1,0,0:2:0:0:
354,191,189165,5,8,0:2:0:0:
354,191,189340,1,0,0:2:0:0:
424,46,189514,5,0,3:2:0:0:
356,96,189689,1,0,3:2:0:0:
349,17,189863,1,8,0:2:0:0:
461,149,190038,6,0,L|498:188,2,48.7499977684022,0|0|0,3:2|3:2|3:2,0:0:0:0:
356,96,190386,5,0,3:2:0:0:
388,195,190561,1,8,0:2:0:0:
420,294,190735,1,0,0:2:0:0:
309,180,190910,5,0,3:2:0:0:
292,256,191084,1,0,3:2:0:0:
197,97,191258,2,0,L|177:36,2,48.7499977684022,8|0|0,0:2|3:2|3:2,0:0:0:0:
220,186,191607,5,2,0:2:0:0:
217,195,191695,1,2,0:2:0:0:
215,205,191782,1,2,0:2:0:0:
213,214,191869,1,2,0:2:0:0:
10,106,202072,6,0,P|74:116|119:208,1,150,2|2,0:2|0:2,0:2:0:0:
115,188,202770,5,2,3:2:0:0:
244,61,202945,1,0,3:2:0:0:
283,134,203119,6,0,P|269:179|233:193,1,75,2|2,0:2|0:2,0:2:0:0:
128,103,203468,2,0,P|142:58|178:44,1,75,0|0,0:2|0:2,0:2:0:0:
257,144,203817,6,0,P|239:172|212:175,1,56.2500021457673,2|2,0:2|0:2,0:2:0:0:
154,93,204166,2,0,P|171:64|198:61,1,56.2500021457673,0|0,0:2|0:2,0:2:0:0:
229,151,204514,6,0,P|210:168|189:165,1,44.999998626709,0|0,0:2|0:2,0:2:0:0:
182,86,204863,2,0,P|200:68|221:71,1,44.999998626709,0|0,0:2|0:2,0:0:0:0:
298,103,205212,5,0,0:2:0:0:
294,114,205386,1,0,0:2:0:0:
358,176,205561,5,0,3:2:0:0:
347,24,205735,1,0,3:2:0:0:
413,82,205910,5,0,0:2:0:0:
417,93,206084,1,0,0:2:0:0:
421,104,206258,1,0,0:2:0:0:
425,115,206433,1,0,0:2:0:0:
472,187,206607,5,0,0:2:0:0:
468,198,206781,1,0,0:2:0:0:
426,273,206956,6,0,P|450:307|469:343,1,75,0|0,0:2|0:2,0:2:0:0:
335,193,207305,2,0,P|311:159|292:123,1,75,0|0,0:2|0:2,0:2:0:0:
414,188,207654,2,0,P|448:164|484:145,1,75,2|0,0:2|0:2,0:0:0:0:
337,272,208003,2,0,P|303:296|267:315,1,75,2|0,0:2|0:2,0:0:0:0:
204,270,208351,5,2,3:2:0:0:
53,324,208526,1,0,3:2:0:0:
90,245,208700,5,2,0:2:0:0:
86,234,208875,1,2,0:2:0:0:
82,223,209049,1,0,0:2:0:0:
78,212,209223,1,0,0:2:0:0:
108,127,209398,6,0,P|156:141|193:147,1,75,2|2,0:2|0:2,0:2:0:0:
254,109,209747,5,0,0:2:0:0:
258,98,209922,1,0,0:2:0:0:
262,87,210096,1,0,0:2:0:0:
266,76,210270,1,0,0:2:0:0:
181,25,210445,5,0,0:2:0:0:
185,36,210620,1,0,0:2:0:0:
358,113,210793,2,0,P|396:101|413:21,1,112.5,2|0,0:2|0:0,0:0:0:0:
349,12,211142,5,2,3:2:0:0:
492,130,211317,1,0,3:2:0:0:
441,199,211491,5,0,0:2:0:0:
445,210,211665,1,0,0:2:0:0:
449,221,211839,1,0,0:2:0:0:
453,232,212014,1,0,0:2:0:0:
383,297,212189,6,0,P|343:286|297:278,1,75,2|2,0:2|0:2,0:0:0:0:
79,242,212538,2,0,P|114:297|196:298,1,150,2|2,0:2|0:2,0:2:0:0:
329,141,213061,2,0,B|258:154|258:154|253:158|253:158|184:173,1,150,2|0,0:2|0:2,0:2:0:0:
103,106,213584,2,0,P|121:64|113:26,1,75,2|0,0:2|3:2,0:0:0:0:
111,30,213846,1,0,3:0:0:0:
103,29,213933,5,2,3:2:0:0:
25,157,214107,1,0,3:2:0:0:
89,218,214282,1,2,0:2:0:0:
16,298,214456,2,0,P|57:301|89:328,1,75,2|0,0:2|0:2,0:2:0:0:
249,342,214805,2,0,P|236:289|231:243,1,75,0|2,0:2|0:2,0:0:0:0:
241,100,215154,6,0,P|192:127|176:227,2,150,2|2|0,0:2|0:2|0:2,0:2:0:0:
436,56,216026,2,0,P|414:98|412:135,1,75,2|0,0:2|0:0,0:2:0:0:
449,247,216375,2,0,P|394:248|375:217,1,75,2|0,0:2|0:0,0:2:0:0:
334,68,216724,5,2,3:2:0:0:
293,202,216898,1,0,3:2:0:0:
241,131,217072,5,2,0:2:0:0:
301,208,217247,2,0,P|342:193|380:183,1,75,2|0,0:2|0:2,0:2:0:0:
146,280,217596,1,0,0:2:0:0:
141,293,217770,1,2,0:2:0:0:
95,201,217945,5,2,0:2:0:0:
212,348,218119,1,0,0:2:0:0:
283,299,218293,2,0,P|301:258|283:227,1,75,2|0,0:2|0:2,0:2:0:0:
145,109,218642,1,0,0:2:0:0:
95,201,218817,2,0,P|145:189|189:182,1,75,2|0,0:2|0:2,0:2:0:0:
325,156,219165,2,0,P|269:132|260:93,1,89.9999972534181,2|2,0:2|0:2,0:0:0:0:
296,37,219427,1,0,3:2:0:0:
314,25,219514,5,2,3:2:0:0:
187,39,219689,1,2,3:2:0:0:
120,98,219863,1,2,0:2:0:0:
29,41,220038,2,0,P|75:25|117:2,1,89.9999972534181,2|0,0:2|0:2,0:2:0:0:
198,171,220386,1,0,0:2:0:0:
178,166,220561,1,2,0:2:0:0:
42,207,220735,6,0,B|88:198|121:249|117:248|113:248|133:302|201:291,1,179.999994506836,2|0,0:2|0:0,0:0:0:0:
271,251,221258,1,2,0:2:0:0:
293,363,221433,2,0,P|329:330|401:333,1,89.9999972534181,2|0,0:2|0:2,0:2:0:0:
351,164,221782,1,0,0:2:0:0:
255,117,221956,2,0,B|226:110|226:110|179:152|211:216,1,134.999995880127,2|0,0:2|0:2,0:2:0:0:
271,251,222305,5,2,3:2:0:0:
443,192,222479,1,0,3:2:0:0:
374,341,222654,2,0,P|379:292|390:238,1,89.9999972534181,2|2,0:2|0:2,0:0:0:0:
361,54,223003,1,0,0:2:0:0:
425,101,223177,1,0,0:2:0:0:
505,91,223351,1,2,0:2:0:0:
338,136,223526,6,0,P|290:119|136:84,1,179.999994506836,2|0,0:2|0:2,0:2:0:0:
79,70,224049,1,2,0:2:0:0:
75,81,224224,1,2,0:2:0:0:
71,92,224398,1,2,0:2:0:0:
67,103,224572,1,2,0:2:0:0:
66,189,224747,6,0,P|80:214|90:246,3,37.5,2|2|2|2,0:2|0:2|0:2|0:2,0:0:0:0:
92,241,225096,6,0,P|56:285|49:331,2,89.9999972534181,2|2|10,3:2|3:2|0:2,0:2:0:0:
192,192,225619,1,2,3:2:0:0:
198,196,225706,1,8,0:2:0:0:
204,200,225793,2,0,P|223:149|194:110,1,89.9999972534181,0|2,3:2|3:2,0:2:0:0:
44,29,226142,2,0,P|51:82|95:103,1,89.9999972534181,8|2,0:2|0:2,0:2:0:0:
148,65,226404,1,0,3:0:0:0:
154,47,226491,5,0,3:2:0:0:
104,182,226665,1,0,3:2:0:0:
104,182,226753,1,0,3:2:0:0:
104,182,226840,2,0,P|94:208|100:235,1,44.999998626709,8|0,0:2|3:2,0:0:0:0:
171,235,227014,2,0,P|181:209|175:182,1,44.999998626709,0|8,3:2|0:2,0:0:0:0:
138,331,227189,2,0,P|188:315|249:303,1,89.9999972534181,0|0,3:2|3:2,0:2:0:0:
431,266,227538,2,0,P|438:214|402:183,1,89.9999972534181,8|0,0:2|0:2,0:2:0:0:
341,180,227799,1,0,3:2:0:0:
314,182,227886,6,0,P|334:232|351:280,1,89.9999972534181,2|2,3:2|3:2,0:0:0:0:
289,374,228235,1,10,0:2:0:0:
146,230,228410,1,2,3:2:0:0:
137,220,228497,1,8,0:2:0:0:
128,210,228584,2,0,P|182:202|226:244,1,89.9999972534181,0|2,3:0|3:2,0:0:0:0:
350,75,228933,2,0,P|300:91|245:103,1,89.9999972534181,8|2,0:2|0:2,0:2:0:0:
187,75,229195,1,0,3:2:0:0:
192,51,229282,5,0,3:2:0:0:
111,132,229456,1,0,3:2:0:0:
56,61,229631,1,8,0:2:0:0:
189,193,229805,2,0,L|245:199,2,44.999998626709,0|8|0,3:2|0:2|3:2,0:0:0:0:
49,272,230154,1,0,3:2:0:0:
16,193,230328,2,0,B|15:174|15:174|66:161|98:172|126:233,1,134.999995880127,10|0,0:2|0:2,0:0:0:0:
153,283,230677,5,2,3:2:0:0:
186,78,230851,1,2,3:2:0:0:
241,157,231026,1,10,0:2:0:0:
387,203,231200,2,0,L|449:196,2,44.999998626709,2|8|0,3:2|0:2|3:0,0:0:0:0:
321,254,231549,1,2,3:2:0:0:
321,120,231724,2,0,P|342:65|423:31,1,134.999995880127,8|0,0:2|0:2,0:2:0:0:
425,38,232072,6,0,P|365:32|319:9,1,89.9999972534181,0|0,3:2|3:2,0:0:0:0:
310,11,232334,1,0,3:2:0:0:
278,13,232421,1,8,0:2:0:0:
250,28,232508,1,0,3:2:0:0:
232,54,232596,1,0,3:2:0:0:
206,72,232683,1,8,0:2:0:0:
174,72,232770,2,0,P|160:25|200:-3,1,89.9999972534181,0|0,3:2|3:2,0:2:0:0:
343,107,233119,2,0,P|279:137|196:153,1,134.999995880127,10|0,0:2|0:2,0:0:0:0:
143,142,233468,5,6,3:2:0:0:
193,227,233642,1,0,3:0:0:0:
158,316,233817,1,10,0:2:0:0:
40,222,233991,2,0,L|21:164,2,44.999998626709,2|8|0,3:2|0:2|3:0,0:0:0:0:
36,326,234340,1,0,3:2:0:0:
193,227,234514,2,0,P|243:234|277:273,1,89.9999972534181,8|0,0:2|0:2,0:0:0:0:
311,324,234776,1,2,3:2:0:0:
301,345,234863,5,0,3:2:0:0:
412,356,235038,1,2,3:2:0:0:
459,265,235212,1,10,0:2:0:0:
369,210,235386,1,2,3:2:0:0:
348,201,235473,1,10,0:2:0:0:
326,206,235560,1,0,3:2:0:0:
240,251,235735,1,2,3:2:0:0:
153,186,235910,1,10,0:2:0:0:
243,78,236084,5,2,3:2:0:0:
249,71,236171,1,0,3:2:0:0:
255,64,236258,2,0,L|277:128,1,44.999998626709,4|0,3:2|0:2,0:2:0:0:
344,74,236433,2,0,L|366:138,1,44.999998626709,0|0,3:2|0:2,0:2:0:0:
294,182,236607,2,0,P|242:200|197:176,1,89.9999972534181,10|2,0:2|3:2,0:0:0:0:
144,113,236869,1,8,0:2:0:0:
131,94,236956,2,0,P|83:112|41:124,1,89.9999972534181,0|0,3:2|3:2,0:2:0:0:
19,285,237305,2,0,P|67:267|109:255,1,89.9999972534181,10|2,0:2|0:2,0:0:0:0:
177,280,237567,1,0,3:2:0:0:
200,294,237654,5,0,3:2:0:0:
287,252,237828,1,0,3:2:0:0:
306,224,237915,1,0,3:2:0:0:
308,191,238002,1,8,0:2:0:0:
293,161,238089,1,0,3:2:0:0:
265,144,238177,2,0,L|220:153,1,44.999998626709,0|8,3:2|0:2,0:0:0:0:
137,128,238351,5,2,3:2:0:0:
204,40,238526,1,2,3:2:0:0:
302,57,238700,1,10,0:2:0:0:
126,125,238875,2,0,L|81:134,1,44.999998626709,2|0,0:2|0:2,0:0:0:0:
31,20,239049,6,0,P|84:37|126:34,1,89.9999972534181,0|0,3:2|3:2,0:2:0:0:
282,175,239398,2,0,P|237:175|195:190,1,89.9999972534181,10|2,0:2|3:2,0:0:0:0:
140,239,239660,1,8,0:2:0:0:
134,259,239747,1,0,3:2:0:0:
74,161,239921,1,0,3:2:0:0:
251,265,240096,2,0,P|269:311|236:341,1,89.9999972534181,10|2,0:2|0:2,0:2:0:0:
168,355,240357,1,0,3:2:0:0:
149,349,240444,5,0,3:2:0:0:
140,239,240619,1,0,3:2:0:0:
35,212,240793,2,0,P|50:161|56:113,1,89.9999972534181,8|0,0:2|3:2,0:0:0:0:
27,47,241055,1,8,0:2:0:0:
41,24,241142,2,0,P|98:39|151:50,1,89.9999972534181,0|2,3:2|3:2,0:0:0:0:
266,151,241491,2,0,P|324:149|344:105,1,89.9999972534181,10|2,0:2|0:2,0:2:0:0:
480,37,241840,6,0,P|466:70|434:78,1,44.999998626709,0|0,3:2|0:2,0:2:0:0:
383,52,242014,2,0,P|397:19|429:11,1,44.999998626709,0|0,3:2|0:2,0:2:0:0:
421,138,242189,2,0,P|424:192|421:240,1,89.9999972534181,14|2,0:2|3:2,0:2:0:0:
341,301,242450,1,8,0:2:0:0:
314,311,242538,2,0,P|285:264|311:210,1,89.9999972534181,0|2,3:2|3:2,0:2:0:0:
317,103,242886,2,0,B|277:89|277:89|272:91|272:91|214:73,1,89.9999972534181,8|2,0:2|0:2,0:2:0:0:
42,37,243235,6,0,P|40:89|96:110,1,89.9999972534181,2|0,3:2|3:2,0:2:0:0:
85,119,243497,1,0,3:2:0:0:
78,148,243584,1,10,0:2:0:0:
71,177,243671,1,0,3:2:0:0:
65,206,243758,2,0,L|81:263,1,44.999998626709,2|8,3:2|0:2,0:2:0:0:
53,323,243933,1,0,3:2:0:0:
162,279,244107,1,0,3:2:0:0:
280,333,244282,2,0,P|337:319|347:270,1,89.9999972534181,10|2,0:2|0:2,0:2:0:0:
300,233,244543,1,0,3:0:0:0:
281,223,244631,5,4,3:2:0:0:
378,177,244805,1,0,3:2:0:0:
316,79,244979,2,0,P|252:68|209:56,1,89.9999972534181,8|0,0:2|3:2,0:0:0:0:
169,14,245241,1,8,0:2:0:0:
143,20,245328,1,0,3:0:0:0:
21,63,245503,1,0,3:2:0:0:
143,20,245677,2,0,P|129:79|115:119,1,89.9999972534181,8|0,0:2|0:2,0:2:0:0:
66,176,245939,1,0,3:2:0:0:
48,185,246026,6,0,P|48:234|105:262,1,89.9999972534181,0|0,3:2|3:2,0:0:0:0:
167,296,246288,1,0,3:2:0:0:
192,303,246375,2,0,P|240:289|298:277,1,89.9999972534181,8|0,0:2|0:2,0:2:0:0:
306,289,246636,2,0,P|298:232|310:190,1,89.9999972534181,8|0,0:2|0:0,0:0:0:0:
325,191,246898,1,2,3:2:0:0:
439,139,247072,2,0,P|466:88|439:52,1,89.9999972534181,10|2,0:2|0:2,0:2:0:0:
373,38,247334,1,0,3:2:0:0:
366,52,247421,6,0,B|335:58|335:58|331:62|331:62|299:69,1,67.4999979400635,0|0,3:2|0:2,0:2:0:0:
236,124,247770,6,0,P|185:147|140:119,1,89.9999972534181,14|2,0:2|3:2,0:2:0:0:
165,44,248032,1,8,0:2:0:0:
176,16,248119,5,0,3:2:0:0:
19,27,248293,1,0,3:2:0:0:
78,153,248468,2,0,P|66:198|47:256,1,89.9999972534181,10|2,0:2|0:2,0:2:0:0:
92,71,248817,5,0,3:2:0:0:
175,187,248991,1,0,3:2:0:0:
198,211,249078,1,0,3:0:0:0:
230,220,249165,1,8,0:2:0:0:
262,214,249252,1,0,3:2:0:0:
288,192,249339,1,0,3:0:0:0:
321,187,249427,1,8,0:2:0:0:
352,199,249514,2,0,P|399:202|450:216,1,89.9999972534181,2|2,3:2|3:2,0:2:0:0:
266,374,249863,2,0,P|247:331|276:289,1,89.9999972534181,10|2,0:2|0:2,0:2:0:0:
353,292,250125,1,0,3:2:0:0:
375,299,250212,5,0,3:2:0:0:
348,192,250386,1,0,3:2:0:0:
321,85,250561,2,0,P|274:75|225:58,1,89.9999972534181,10|2,0:2|0:2,0:0:0:0:
215,45,250822,2,0,P|169:68|161:107,1,89.9999972534181,8|0,0:2|0:2,0:2:0:0:
171,121,251084,1,0,3:2:0:0:
49,271,251258,2,0,P|31:221|52:182,1,89.9999972534181,10|2,0:2|0:2,0:2:0:0:
117,179,251520,1,0,3:2:0:0:
135,188,251607,5,0,3:2:0:0:
303,243,251782,1,0,3:2:0:0:
218,358,251956,2,0,P|267:336|322:328,1,89.9999972534181,8|0,0:2|3:2,0:2:0:0:
387,339,252218,1,8,0:2:0:0:
407,345,252305,2,0,P|437:301|404:266,1,89.9999972534181,0|2,3:2|3:2,0:2:0:0:
234,166,252654,2,0,B|231:211|231:211|295:238,1,89.9999972534181,10|2,0:2|0:2,0:2:0:0:
408,190,253003,6,0,L|398:136,1,44.999998626709,6|0,3:2|0:0,0:0:0:0:
397,127,253177,2,0,L|387:73,1,44.999998626709,0|0,3:2|0:2,0:2:0:0:
328,22,253351,2,0,P|281:56|224:60,1,89.9999972534181,10|2,0:2|0:2,0:2:0:0:
184,28,253613,1,8,0:2:0:0:
24,179,253875,1,0,3:2:0:0:
91,103,254049,2,0,P|146:118|184:157,1,89.9999972534181,10|2,0:2|0:2,0:0:0:0:
240,289,254398,6,0,L|248:243,1,44.999998626709,0|0,3:2|0:0,0:0:0:0:
307,185,254572,1,0,3:2:0:0:
340,188,254659,1,0,3:2:0:0:
372,179,254746,1,10,0:2:0:0:
399,159,254833,1,0,3:2:0:0:
418,131,254921,2,0,L|410:85,1,44.999998626709,2|8,3:2|0:2,0:0:0:0:
309,22,255096,6,0,B|264:31|264:31|260:36|260:36|206:49,1,89.9999972534181,0|0,3:2|3:2,0:2:0:0:
76,115,255445,6,0,B|124:123|124:123|131:127|131:127|186:138,1,104.999996795654,10|2,0:2|0:2,0:2:0:0:
352,169,255793,6,0,P|326:186|308:213,1,44.999998626709,4|0,3:2|0:2,0:2:0:0:
275,267,255968,2,0,P|263:295|264:328,1,44.999998626709,0|0,3:2|0:2,0:2:0:0:
249,384,256142,2,0,P|205:329|162:298,1,89.9999972534181,8|0,0:2|0:2,0:2:0:0:
116,300,256404,2,0,P|82:260|100:212,1,89.9999972534181,8|0,0:2|0:0,0:0:0:0:
155,192,256665,1,0,3:2:0:0:
268,130,256840,2,0,P|333:148|386:155,1,89.9999972534181,8|0,0:2|0:2,0:2:0:0:
426,122,257101,1,0,3:2:0:0:
443,107,257189,5,0,3:2:0:0:
361,26,257363,1,0,3:2:0:0:
252,28,257538,1,8,0:2:0:0:
169,122,257712,2,0,L|186:175,2,44.999998626709,0|8|0,3:2|0:2|3:2,0:0:0:0:
86,30,258061,5,0,3:2:0:0:
68,110,258235,1,8,0:2:0:0:
50,190,258410,1,0,0:2:0:0:
78,268,258584,5,2,0:2:0:0:
84,278,258758,1,2,0:2:0:0:
170,306,258933,2,0,P|194:270|186:241,1,63.7500012159348,2|0,0:2|0:2,0:2:0:0:
90,288,259282,1,0,0:2:0:0:
42,213,259456,2,0,P|47:177|53:139,1,63.7500012159348,0|0,0:2|0:2,0:2:0:0:
164,73,259805,5,2,0:2:0:0:
188,158,259979,2,0,P|150:166|121:151,1,63.7500012159348,0|0,0:2|0:2,0:2:0:0:
229,10,260328,2,0,P|254:38|256:71,1,63.7500012159348,0|0,0:2|0:2,0:2:0:0:
164,73,260677,1,0,0:2:0:0:
179,77,260851,1,0,0:2:0:0:
299,140,261026,1,0,0:2:0:0:
314,136,261200,1,0,0:2:0:0:
376,75,261375,5,2,0:2:0:0:
460,224,261549,2,0,P|452:186|443:149,1,63.7500012159348,0|0,0:0|0:2,0:0:0:0:
285,230,261898,2,0,P|300:263|351:273,1,63.7500012159348,0|0,0:2|0:2,0:0:0:0:
362,202,262247,1,0,0:2:0:0:
358,187,262421,1,0,0:2:0:0:
427,309,262596,5,2,0:2:0:0:
302,355,262770,2,0,P|265:344|236:338,1,63.7500012159348,0|0,0:0|0:2,0:0:0:0:
181,180,263119,2,0,P|170:217|164:246,1,63.7500012159348,0|0,0:2|0:2,0:2:0:0:
106,326,263468,1,0,0:2:0:0:
91,330,263642,1,0,0:2:0:0:
22,260,263817,1,0,0:2:0:0:
56,181,263991,1,0,0:2:0:0:
146,170,264165,5,0,0:2:0:0:
161,174,264339,1,0,0:2:0:0:
244,145,264514,2,0,P|257:102|237:76,1,63.7500012159348,2|0,0:2|0:2,0:2:0:0:
91,36,264863,1,0,0:2:0:0:
36,106,265038,2,0,P|75:114|113:113,1,63.7500012159348,0|0,0:2|0:2,0:2:0:0:
179,26,265386,5,2,0:2:0:0:
244,145,265561,2,0,P|283:137|321:138,1,63.7500012159348,0|0,0:2|0:2,0:2:0:0:
443,86,265910,2,0,P|447:46|416:27,1,63.7500012159348,0|0,0:2|0:2,0:2:0:0:
306,33,266258,1,0,0:2:0:0:
302,48,266432,1,0,0:2:0:0:
391,152,266607,1,0,0:2:0:0:
427,223,266782,1,0,0:2:0:0:
371,282,266956,6,0,P|331:267|299:262,1,63.7500012159348,2|0,0:2|0:0,0:2:0:0:
230,282,267305,1,0,0:2:0:0:
226,297,267479,1,0,0:2:0:0:
146,253,267654,2,0,P|125:217|138:187,1,63.7500012159348,0|0,0:2|0:2,0:2:0:0:
189,146,268003,1,0,0:2:0:0:
270,171,268177,5,2,0:2:0:0:
