osu file format v14

[General]
AudioFilename: audio.mp3
AudioLeadIn: 0
PreviewTime: 67560
Countdown: 0
SampleSet: Soft
StackLeniency: 0
Mode: 0
LetterboxInBreaks: 0
WidescreenStoryboard: 1
SamplesMatchPlaybackRate: 1

[Editor]
Bookmarks: 13545,29545,42345,55145,60745,67945,80445,80745,96745,109545,115145,122360,128745,134545,137545,140745,143945,148745,161945,174745,182545
DistanceSpacing: 0.7
BeatDivisor: 4
GridSize: 4
TimelineZoom: 1.300002

[Metadata]
Title:Shin'en feat. Kaf
TitleUnicode:深淵 feat.花譜
Artist:Isekai Joucho
ArtistUnicode:ヰ世界情緒
Creator:Kyle Y
Version:Insane
Source:ブラック・サージナイト
Tags:異世界情緒 いせかいじょうちょ isekaijoucho かふ kafu shinen 神椿スタジオ kamitsubaki studio black surge night blacksurgenight イメージソング image song 香椎モイミ Kashi Moimi japanese pop rock jpop j-pop jrock j-rock video game female virtual artist darksinger dark singer vtb vtuber バーチャル youtuber ky's Kyle_Y climbx3145 climb's collab collaboration
BeatmapID:3226557
BeatmapSetID:1574942

[Difficulty]
HPDrainRate:5
CircleSize:5
OverallDifficulty:8
ApproachRate:8
SliderMultiplier:2
SliderTickRate:1

[Events]
//Background and Video events
0,0,"Shinen.jpg",0,0
Video,-790,"video.mp4"
//Break Periods
//Storyboard Layer 0 (Background)
//Storyboard Layer 1 (Fail)
//Storyboard Layer 2 (Pass)
//Storyboard Layer 3 (Foreground)
//Storyboard Layer 4 (Overlay)
//Storyboard Sound Samples

[TimingPoints]
760,400,4,2,1,30,1,0
760,-333.333333333333,4,2,1,30,0,0
1160,-333.333333333333,4,2,1,30,0,0
1560,-333.333333333333,4,2,27,30,0,0
2360,-333.333333333333,4,2,1,30,0,0
2760,-333.333333333333,4,2,1,30,0,0
3160,-333.333333333333,4,2,27,30,0,0
3960,-333.333333333333,4,2,1,30,0,0
4360,-333.333333333333,4,2,1,30,0,0
4760,-333.333333333333,4,2,27,30,0,0
5160,-333.333333333333,4,2,1,30,0,0
5560,-333.333333333333,4,2,31,30,0,0
5960,-333.333333333333,4,2,1,30,0,0
6360,-333.333333333333,4,2,27,30,0,0
6760,-333.333333333333,4,2,1,30,0,0
7160,-333.333333333333,4,2,1,30,0,0
7560,-333.333333333333,4,2,16,30,0,0
7960,-333.333333333333,4,2,15,30,0,0
8360,-333.333333333333,4,2,14,30,0,0
8760,-333.333333333333,4,2,15,30,0,0
8960,-333.333333333333,4,2,1,30,0,0
9160,-333.333333333333,4,2,14,30,0,0
9360,-333.333333333333,4,2,1,30,0,0
9560,-333.333333333333,4,2,13,30,0,0
9960,-333.333333333333,4,2,1,30,0,0
10360,-333.333333333333,4,2,18,30,0,0
10560,-333.333333333333,4,2,1,30,0,0
10760,-333.333333333333,4,2,13,30,0,0
10960,-333.333333333333,4,2,1,30,0,0
11160,-333.333333333333,4,2,14,30,0,0
11560,-333.333333333333,4,2,16,30,0,0
11960,-333.333333333333,4,2,17,30,0,0
12360,-333.333333333333,4,2,21,30,0,0
12560,-333.333333333333,4,2,21,30,0,0
12760,-333.333333333333,4,2,17,30,0,0
13160,-333.333333333333,4,2,17,30,0,0
13360,-333.333333333333,4,2,17,30,0,0
13560,-250,4,2,83,40,0,0
14360,-250,4,2,1,40,0,0
15160,-250,4,2,84,40,0,0
15360,-250,4,2,1,40,0,0
15960,-250,4,2,85,40,0,0
16760,-250,4,2,82,40,0,0
16960,-250,4,2,1,40,0,0
17960,-250,4,2,81,40,0,0
18360,-250,4,2,77,40,0,0
19160,-250,4,2,75,40,0,0
19960,-250,4,2,76,40,0,0
20360,-250,4,2,1,40,0,0
21160,-250,4,2,79,40,0,0
21360,-250,4,2,1,40,0,0
21560,-250,4,2,74,40,0,0
21760,-250,4,2,1,40,0,0
22360,-250,4,2,72,40,0,0
23160,-250,4,2,73,40,0,0
23360,-250,4,2,1,40,0,0
24360,-250,4,2,78,40,0,0
24460,-250,4,2,1,40,0,0
24760,-250,4,2,86,40,0,0
25960,-250,4,2,1,40,0,0
26360,-250,4,2,80,40,0,0
29560,-250,4,2,1,30,0,0
30160,-212.765957446809,4,2,1,30,0,0
40760,-114.942528735632,4,2,2,40,0,0
41160,-114.942528735632,4,2,80,40,0,0
41360,-114.942528735632,4,2,2,40,0,0
42160,-114.942528735632,4,2,0,40,0,0
42360,-100,4,2,2,50,0,0
47460,-100,4,2,2,5,0,0
47560,-100,4,2,2,50,0,0
49060,-100,4,2,2,5,0,0
49160,-100,4,2,2,50,0,0
52260,-100,4,2,2,5,0,0
52360,-100,4,2,2,50,0,0
53560,-76.9230769230769,4,2,2,50,0,0
54560,-100,4,2,2,50,0,0
54860,-100,4,2,2,50,0,0
55160,-84.0336134453781,4,2,2,50,0,0
55460,-84.0336134453781,4,2,2,5,0,0
55560,-100,4,2,2,50,0,0
56960,-125,4,2,2,50,0,0
57960,-200,4,2,2,50,0,0
58360,-100,4,2,2,50,0,0
58760,-100,4,2,2,50,0,0
60060,-100,4,2,2,5,0,0
60160,-100,4,2,2,50,0,0
60260,-100,4,2,2,5,0,0
60360,-142.857142857143,4,2,2,50,0,0
60660,-142.857142857143,4,2,2,5,0,0
60760,-142.857142857143,4,2,2,50,0,0
60960,-100,4,2,2,50,0,0
61860,-100,4,2,2,5,0,0
61960,-100,4,2,2,50,0,0
62760,-150.01500150015,4,2,2,50,0,0
63060,-150.01500150015,4,2,2,5,0,0
63160,-90.9090909090909,4,2,2,50,0,0
64560,-100,4,2,2,50,0,0
64760,-90.9090909090909,4,2,2,50,0,0
65760,-125,4,2,2,50,0,0
66360,-76.9230769230769,4,2,2,50,0,0
67160,-200,4,2,2,50,0,0
67560,-500,4,2,99,70,0,0
67860,-500,4,2,99,5,0,0
67960,-71.4285714285714,4,2,98,70,0,1
68360,-142.857142857143,4,2,46,70,0,1
68560,-71.4285714285714,4,2,47,70,0,1
68960,-71.4285714285714,4,2,47,70,0,1
69560,-71.4285714285714,4,2,47,70,0,1
69960,-142.857142857143,4,2,46,70,0,1
70160,-71.4285714285714,4,2,43,70,0,1
70560,-71.4285714285714,4,2,43,70,0,1
71160,-71.4285714285714,4,2,47,70,0,1
71560,-142.857142857143,4,2,46,70,0,1
71760,-71.4285714285714,4,2,47,70,0,1
72160,-71.4285714285714,4,2,51,70,0,1
72560,-142.857142857143,4,2,51,70,0,1
72760,-83.3333333333333,4,2,51,70,0,1
73160,-71.4285714285714,4,2,51,70,0,1
73760,-71.4285714285714,4,2,45,70,0,1
74360,-100,4,2,43,70,0,1
74960,-52.6315789473684,4,2,47,70,0,1
75360,-71.4285714285714,4,2,43,70,0,1
75960,-100,4,2,42,70,0,1
76360,-71.4285714285714,4,2,51,70,0,1
76560,-52.6315789473684,4,2,47,70,0,1
76960,-71.4285714285714,4,2,45,70,0,1
77560,-142.857142857143,4,2,40,70,0,1
77760,-71.4285714285714,4,2,45,70,0,1
78160,-71.4285714285714,4,2,44,70,0,1
78560,-71.4285714285714,4,2,43,70,0,1
79160,-50,4,2,47,70,0,1
79460,-50,4,2,51,70,0,1
79760,-100,4,2,47,70,0,1
80360,-200,4,2,99,70,0,0
80460,-200,4,2,2,70,0,0
80660,-200,4,2,2,5,0,0
80760,-71.4285714285714,4,2,98,70,0,1
81160,-142.857142857143,4,2,46,70,0,1
81360,-71.4285714285714,4,2,47,70,0,1
81960,-71.4285714285714,4,2,47,70,0,1
82160,-71.4285714285714,4,2,47,70,0,1
82360,-71.4285714285714,4,2,47,70,0,1
82760,-142.857142857143,4,2,46,70,0,1
82960,-71.4285714285714,4,2,43,70,0,1
83960,-71.4285714285714,4,2,47,70,0,1
84360,-142.857142857143,4,2,46,70,0,1
84560,-71.4285714285714,4,2,47,70,0,1
84960,-83.3333333333333,4,2,51,70,0,1
85260,-83.3333333333333,4,2,1,70,0,1
85360,-83.3333333333333,4,2,52,70,0,1
85760,-71.4285714285714,4,2,51,70,0,1
85960,-71.4285714285714,4,2,47,70,0,1
86160,-71.4285714285714,4,2,46,70,0,1
86360,-90.9090909090909,4,2,47,70,0,1
86960,-142.857142857143,4,2,45,70,0,1
87160,-71.4285714285714,4,2,45,70,0,1
87560,-142.857142857143,4,2,45,70,0,1
87760,-71.4285714285714,4,2,43,70,0,1
88160,-71.4285714285714,4,2,45,70,0,1
88355,-71.4285714285714,4,2,45,70,0,1
88560,-71.4285714285714,4,2,45,70,0,1
88760,-71.4285714285714,4,2,44,70,0,1
89160,-142.857142857143,4,2,43,70,0,1
89360,-71.4285714285714,4,2,47,70,0,1
89760,-142.857142857143,4,2,46,70,0,1
89960,-71.4285714285714,4,2,45,70,0,1
90160,-71.4285714285714,4,2,43,70,0,1
90760,-71.4285714285714,4,2,41,70,0,1
90960,-100,4,2,43,70,0,1
91360,-71.4285714285714,4,2,44,70,0,1
91560,-71.4285714285714,4,2,45,70,0,1
91760,-71.4285714285714,4,2,44,70,0,1
91960,-71.4285714285714,4,2,2,70,0,1
92760,-71.4285714285714,4,2,48,70,0,1
93160,-100,4,2,48,70,0,1
93560,-90.9090909090909,4,2,43,60,0,0
93960,-90.9090909090909,4,2,2,70,0,0
95160,-200,4,2,2,70,0,0
95560,-133.333333333333,4,2,2,70,0,0
95960,-100,4,2,2,70,0,0
96360,-100,4,2,1,70,0,0
96760,-166.666666666667,4,2,2,50,0,0
98160,-100,4,2,2,50,0,0
107960,-71.4285714285714,4,2,2,50,0,0
108760,-100,4,2,2,50,0,0
109560,-76.9230769230769,4,2,2,60,0,0
109860,-100,4,2,2,5,0,0
109960,-100,4,2,2,60,0,0
115560,-100,4,2,2,60,0,0
115860,-100,4,2,2,5,0,0
115960,-66.6666666666667,4,2,2,60,0,0
116560,-90.9090909090909,4,2,2,60,0,0
117160,-100,4,2,2,60,0,0
117460,-100,4,2,2,5,0,0
117560,-66.6666666666667,4,2,2,60,0,0
117960,-100,4,2,2,60,0,0
118160,-66.6666666666667,4,2,2,60,0,0
118560,-100,4,2,2,60,0,0
119160,-76.9230769230769,4,2,2,60,0,0
119960,-100,4,2,2,60,0,0
120160,-100,4,2,2,60,0,0
120760,-100,4,2,2,65,0,0
121360,-200,4,2,2,65,0,0
121960,-200,4,2,2,60,0,0
122360,-100,4,2,97,50,0,0
123160,-100,4,2,96,50,0,0
123360,-100,4,2,97,50,0,0
123660,-100,4,2,97,5,0,0
123760,-150.001500015,4,2,96,50,0,0
124060,-150.001500015,4,2,96,5,0,0
124160,-100,4,2,97,50,0,0
124560,-100,4,2,96,50,0,0
124760,-100,4,2,97,50,0,0
124960,-100,4,2,96,50,0,0
125160,-100,4,2,97,50,0,0
125460,-100,4,2,97,5,0,0
125560,-100,4,2,97,50,0,0
126360,-100,4,2,96,50,0,0
126560,-100,4,2,97,50,0,0
126860,-100,4,2,97,5,0,0
126960,-150.001500015,4,2,96,50,0,0
127260,-150.001500015,4,2,96,5,0,0
127360,-100,4,2,97,50,0,0
127760,-100,4,2,96,50,0,0
127960,-100,4,2,97,50,0,0
128160,-100,4,2,96,50,0,0
128360,-100,4,2,97,50,0,0
128760,-100,4,2,95,60,0,0
128860,-100,4,2,95,5,0,0
129160,-100,4,2,95,60,0,0
129260,-100,4,2,95,5,0,0
129560,-100,4,2,94,60,0,0
129760,-100,4,2,95,60,0,0
129960,-100,4,2,95,60,0,0
130160,-100,4,2,94,60,0,0
130460,-100,4,2,94,5,0,0
130560,-100,4,2,95,60,0,0
130960,-100,4,2,94,60,0,0
131160,-100,4,2,95,60,0,0
131360,-100,4,2,94,60,0,0
131560,-100,4,2,95,60,0,0
131860,-100,4,2,95,5,0,0
131960,-100,4,2,95,60,0,0
132060,-100,4,2,95,5,0,0
132360,-100,4,2,95,60,0,0
132460,-100,4,2,95,5,0,0
132760,-100,4,2,94,60,0,0
132960,-100,4,2,95,60,0,0
133360,-100,4,2,94,60,0,0
133760,-100,4,2,95,60,0,0
134160,-100,4,2,94,60,0,0
134360,-100,4,2,95,60,0,0
134560,-100,4,2,94,60,0,0
134760,-100,4,2,95,60,0,0
134860,-100,4,2,2,60,0,0
135160,-71.4285714285714,4,2,2,70,0,1
135210,-100,4,2,2,70,0,0
135460,-100,4,2,2,5,0,0
135560,-100,4,2,2,70,0,0
135960,-100,4,2,2,70,0,0
136560,-71.4285714285714,4,2,2,70,0,0
136860,-71.4285714285714,4,2,2,5,0,0
136960,-71.4285714285714,4,2,2,70,0,0
137360,-90.9090909090909,4,2,2,70,0,0
138360,-100,4,2,2,70,0,0
139160,-100,4,2,2,70,0,0
139760,-90.9090909090909,4,2,2,70,0,0
140560,-90.9090909090909,4,2,2,70,0,0
141560,-71.4285714285714,4,2,2,70,0,1
141610,-100,4,2,2,70,0,0
141860,-100,4,2,2,5,0,0
141960,-100,4,2,2,70,0,0
142160,-100,4,2,2,70,0,0
142960,-76.9230769230769,4,2,2,70,0,0
143260,-76.9230769230769,4,2,2,5,0,0
143360,-76.9230769230769,4,2,2,70,0,0
143760,-100,4,2,2,70,0,0
147360,-100,4,2,2,70,0,0
147560,-100,4,2,2,70,0,0
147760,-100,4,2,2,70,0,0
147960,-200,4,2,2,35,0,0
150160,-200,4,2,2,35,0,0
159060,-200,4,2,2,5,0,0
159160,-200,4,2,2,50,0,0
160160,-200,4,2,2,35,0,0
160760,-200,4,2,2,50,0,0
161960,-333.333333333333,4,2,93,70,0,0
162260,-333.333333333333,4,2,93,5,0,0
162360,-66.6666666666667,4,2,92,70,0,1
162760,-100,4,2,40,70,0,1
162960,-66.6666666666667,4,2,51,70,0,1
163360,-100,4,2,51,70,0,1
163560,-66.6666666666667,4,2,51,70,0,1
163960,-66.6666666666667,4,2,51,70,0,1
164360,-100,4,2,40,70,0,1
164560,-66.6666666666667,4,2,49,70,0,1
164960,-100,4,2,49,70,0,1
165160,-66.6666666666667,4,2,49,70,0,1
165560,-100,4,2,51,70,0,1
165760,-83.3333333333333,4,2,40,70,0,1
165960,-100,4,2,40,70,0,1
166160,-62.5,4,2,51,70,0,1
166560,-62.5,4,2,50,70,0,1
166960,-100,4,2,50,70,0,1
167160,-83.3333333333333,4,2,50,70,0,1
168160,-100,4,2,53,70,0,1
168360,-100,4,2,53,70,0,1
168560,-100,4,2,53,70,0,1
168760,-83.3333333333333,4,2,49,70,0,1
169360,-50,4,2,51,70,0,1
169760,-100,4,2,49,70,0,1
169960,-100,4,2,49,70,0,1
170160,-100,4,2,49,70,0,1
170360,-83.3333333333333,4,2,48,70,0,1
170760,-66.6666666666667,4,2,50,70,0,1
170960,-50,4,2,51,70,0,1
171360,-100,4,2,53,70,0,1
171560,-100,4,2,53,70,0,1
171960,-100,4,2,47,70,0,1
172160,-71.4285714285714,4,2,53,70,0,1
172560,-71.4285714285714,4,2,45,70,0,1
172960,-66.6666666666667,4,2,49,70,0,1
173160,-66.6666666666667,4,2,49,70,0,1
173360,-66.6666666666667,4,2,49,70,0,1
173560,-50,4,2,51,70,0,1
173860,-50,4,2,50,70,0,1
174160,-100,4,2,51,70,0,1
174360,-125,4,2,51,70,0,1
174760,-200,4,2,93,70,0,0
174860,-200,4,2,2,70,0,0
175160,-66.6666666666667,4,2,92,70,0,1
175560,-100,4,2,40,70,0,1
175760,-66.6666666666667,4,2,51,70,0,1
176160,-100,4,2,51,70,0,1
176360,-66.6666666666667,4,2,51,70,0,1
176760,-66.6666666666667,4,2,51,70,0,1
177160,-100,4,2,40,70,0,1
177360,-100,4,2,49,70,0,1
177960,-100,4,2,49,70,0,1
178360,-66.6666666666667,4,2,51,70,0,1
178560,-66.6666666666667,4,2,51,70,0,1
178760,-100,4,2,40,70,0,1
178960,-66.6666666666667,4,2,51,70,0,1
179360,-66.6666666666667,4,2,50,70,0,1
179660,-66.6666666666667,4,2,1,70,0,1
179760,-66.6666666666667,4,2,54,70,0,1
180160,-133.333333333333,4,2,50,70,0,1
180360,-100,4,2,51,70,0,1
180560,-100,4,2,40,70,0,1
180760,-58.8235294117647,4,2,51,70,0,1
180960,-66.6666666666667,4,2,51,70,0,1
181160,-66.6666666666667,4,2,51,70,0,1
181360,-100,4,2,53,70,0,1
181560,-66.6666666666667,4,2,53,70,0,1
181960,-100,4,2,53,70,0,1
182160,-66.6666666666667,4,2,49,70,0,1
182560,-100,4,2,53,70,0,1
182760,-100,4,2,53,70,0,1
182960,-100,4,2,53,70,0,1
183160,-66.6666666666667,4,2,45,70,0,1
183560,-111.111111111111,4,2,49,70,0,1
183760,-66.6666666666667,4,2,51,70,0,1
184160,-100,4,2,40,70,0,1
184360,-100,4,2,53,70,0,1
184560,-66.6666666666667,4,2,49,70,0,1
184660,-66.6666666666667,4,2,1,70,0,1
184760,-66.6666666666667,4,2,49,70,0,1
184960,-100,4,2,2,70,0,1
185160,-100,4,2,49,70,0,1
185360,-66.6666666666667,4,2,43,70,0,1
185760,-100,4,2,49,70,0,1
185960,-100,4,2,53,70,0,1
186160,-100,4,2,45,70,0,1
186360,-66.6666666666667,4,2,2,70,0,1
186960,-66.6666666666667,4,2,2,70,0,1
187160,-66.6666666666667,4,2,43,70,0,1
187560,-100,4,2,43,70,0,1
187660,-100,4,2,43,70,0,1
187960,-133.333333333333,4,2,49,70,0,0
188360,-100,4,2,2,70,0,0
190160,-100,4,2,41,45,0,0
190260,-100,4,2,1,45,0,0
190360,-100,4,2,49,50,0,0
190460,-100,4,2,2,50,0,0
190760,-100,4,2,49,50,0,0

[Colours]
Combo1 : 255,249,117
Combo2 : 81,88,108
Combo3 : 180,181,179
Combo4 : 216,170,217
Combo5 : 215,187,145
Combo6 : 253,85,85
Combo7 : 255,170,85
Combo8 : 255,140,198

[HitObjects]
412,246,760,6,0,L|400:182,1,59.9999981689454,2|0,3:2|3:0,0:0:0:0:
319,128,1560,1,2,3:0:0:0:
400,187,2360,6,0,L|411:245,2,59.9999981689454,2|2|2,3:2|3:2|3:0,0:0:0:0:
319,128,3960,2,0,L|307:69,2,59.9999981689454,2|2|2,3:2|3:2|3:0,0:0:0:0:
280,195,5160,1,2,0:0:0:0:
339,244,5560,2,0,P|305:269|226:250,1,119.999996337891,2|2,3:0|3:0,0:0:0:0:
203,186,6760,1,0,3:0:0:0:
319,128,7160,102,0,L|331:64,1,59.9999981689454,2|2,3:2|3:2,0:0:0:0:
259,9,7960,2,0,L|247:67,1,59.9999981689454,2|2,3:0|3:2,0:0:0:0:
203,186,8760,6,0,P|167:143|166:71,1,119.999996337891,2|2,3:0|3:0,0:0:0:0:
255,64,9960,1,0,3:0:0:0:
347,81,10360,2,0,P|344:140|307:186,1,119.999996337891,2|2,3:0|3:2,0:0:0:0:
255,256,11560,1,2,3:0:0:0:
255,128,11960,2,0,L|255:64,2,59.9999981689454,2|2|2,3:0|3:0|3:0,0:0:0:0:
255,256,13160,1,0,0:0:0:0:
111,192,13560,6,0,P|90:152|97:108,1,80,2|0,3:0|0:0,0:0:0:0:
173,62,14360,1,2,3:2:0:0:
173,62,15160,6,0,P|218:63|252:91,2,80,2|2|2,3:0|0:0|3:0,0:0:0:0:
92,118,16760,2,0,P|46:116|12:88,2,80,2|2|2,3:0|0:0|3:2,0:0:0:0:
173,62,17960,1,2,0:3:0:0:
174,168,18360,2,0,L|152:290,1,120,2|0,3:0|0:0,0:0:0:0:
104,338,19160,2,0,P|128:354|179:354,1,80,2|0,3:0|0:0,0:0:0:0:
255,240,19960,101,2,3:0:0:0:
175,192,20360,1,2,0:0:0:0:
262,162,20760,2,0,P|267:202|255:240,1,80,2|2,3:2|0:0,0:0:0:0:
148,283,21560,6,0,L|69:296,2,80,2|2|2,3:0|3:2|3:0,0:0:0:0:
228,323,23160,2,0,L|311:310,2,80,2|2|2,3:0|3:2|3:2,0:0:0:0:
148,283,24360,1,2,3:0:0:0:
220,221,24760,2,0,B|259:179|252:129|220:123|213:73|253:31,1,200,2|0,3:0|0:0,0:0:0:0:
329,19,25960,2,0,L|350:25,4,20,2|0|0|0|2,3:2|3:2|3:2|3:2|3:0,0:0:0:0:
256,192,26460,12,8,27960,3:0:0:0:
291,163,29560,70,0,L|282:115,2,40,0|0|2,3:2|3:2|3:2,0:0:0:0:
367,211,30160,6,0,L|474:194,1,93.9999985656739,2|2,3:2|3:2,0:0:0:0:
459,196,30960,2,0,L|366:210,1,93.9999985656739,2|2,3:2|0:0,0:0:0:0:
294,253,31760,101,2,3:2:0:0:
220,262,32160,1,2,3:2:0:0:
148,273,32560,1,2,3:2:0:0:
294,253,33360,5,2,3:2:0:0:
220,262,33760,1,2,3:2:0:0:
148,273,34160,1,2,3:2:0:0:
294,253,34760,101,2,3:2:0:0:
220,262,34960,1,2,3:2:0:0:
220,262,35360,2,0,L|236:356,2,93.9999985656739,2|2|0,0:0|0:0|3:2,0:0:0:0:
247,180,36560,2,0,L|238:132,1,46.9999992828369,2|2,3:2|0:0,0:0:0:0:
166,109,36960,5,2,3:2:0:0:
166,34,37360,1,2,3:2:0:0:
238,11,37760,1,2,0:0:0:0:
282,72,38160,1,2,3:2:0:0:
238,133,38560,1,2,3:2:0:0:
166,109,38960,1,2,3:2:0:0:
181,182,39160,102,0,P|139:202|94:192,1,93.9999985656739,2|2,3:2|3:2,0:0:0:0:
38,139,39760,2,0,P|54:97|103:73,1,93.9999985656739,2|2,3:2|3:2,0:0:0:0:
166,109,40360,2,0,L|213:100,1,46.9999992828369,2|2,3:2|3:2,0:0:0:0:
349,76,40760,5,4,3:0:0:0:
328,163,40960,1,2,3:2:0:0:
332,166,41060,2,0,L|423:149,1,87.0000007301331,4|0,3:0|0:0,0:0:0:0:
451,159,41360,1,2,3:2:0:0:
454,162,41460,1,4,3:0:0:0:
511,244,41660,101,4,3:0:0:0:
495,242,41760,1,2,3:2:0:0:
479,239,41860,1,0,3:2:0:0:
463,236,41960,2,0,L|470:278,1,43.5000003650665,10|0,1:2|0:0,0:0:0:0:
415,372,42160,2,0,L|408:330,1,43.5000003650665,8|8,3:0|3:0,0:0:0:0:
273,277,42360,22,0,L|174:259,1,100,6|2,1:2|3:0,0:0:0:0:
273,277,42760,1,10,0:3:0:0:
174,259,42960,1,2,3:2:0:0:
273,277,43160,1,2,1:3:0:0:
63,241,43360,5,2,3:2:0:0:
62,257,43460,1,2,0:3:0:0:
67,273,43560,1,10,0:3:0:0:
76,287,43660,1,2,0:3:0:0:
88,298,43760,2,0,L|105:199,1,100,2|0,3:2|1:2,0:0:0:0:
226,194,44160,101,2,3:2:0:0:
227,178,44260,1,2,0:3:0:0:
222,162,44360,1,10,0:3:0:0:
213,148,44460,1,2,0:3:0:0:
201,137,44560,2,0,L|183:235,1,100,2|2,3:2|1:3,0:0:0:0:
201,137,44960,1,2,3:2:0:0:
183,235,45160,1,10,0:3:0:0:
201,137,45360,1,2,3:2:0:0:
171,323,45560,6,0,L|269:305,1,100,2|2,1:3|3:0,0:0:0:0:
269,305,45960,1,10,0:3:0:0:
171,323,46160,2,0,L|72:340,1,100,2|0,3:2|1:2,0:0:0:0:
269,305,46560,2,0,L|170:322,1,100,2|10,3:2|0:3,0:0:0:0:
410,272,46960,1,2,3:2:0:0:
413,275,47060,1,2,0:0:0:0:
416,278,47160,102,0,L|268:304,1,150,2|2,1:3|0:3,0:0:0:0:
268,304,47560,1,10,0:2:0:0:
72,340,47760,2,0,L|171:323,1,100,2|2,3:2|1:3,0:0:0:0:
268,303,48160,2,0,L|367:286,1,100,2|10,3:2|0:3,0:0:0:0:
467,202,48560,1,2,3:2:0:0:
470,205,48660,1,2,0:3:0:0:
473,208,48760,6,0,P|401:223|366:286,1,150,2|0,1:3|0:0,0:0:0:0:
366,286,49160,1,10,0:3:0:0:
473,208,49360,1,2,3:0:0:0:
366,285,49560,1,2,1:3:0:0:
473,208,49760,2,0,L|456:109,1,100,2|10,3:0|0:3,0:0:0:0:
366,285,50160,102,0,L|383:384,1,100,2|2,3:0|1:3,0:0:0:0:
383,384,50560,2,0,L|366:285,1,100,2|10,3:0|0:3,0:0:0:0:
473,208,50960,2,0,L|456:109,1,100,2|2,3:0|1:3,0:0:0:0:
366,285,51360,1,2,3:0:0:0:
473,208,51560,1,10,0:3:0:0:
366,285,51760,2,0,L|357:235,1,50,2|0,3:0|0:0,0:0:0:0:
354,108,51960,6,0,P|296:118|275:200,1,150,2|0,1:3|0:0,0:0:0:0:
274,197,52360,1,10,0:3:0:0:
366,285,52560,2,0,L|349:186,1,100,2|0,3:2|1:2,0:0:0:0:
274,197,52960,1,2,3:0:0:0:
366,285,53160,1,10,0:3:0:0:
354,108,53360,1,2,3:0:0:0:
366,285,53560,102,0,B|317:302|317:302|239:292,1,129.999994049073,12|2,1:2|0:0,0:0:0:0:
366,285,53860,2,0,B|320:310|320:310|242:313,1,129.999994049073,12|0,1:2|0:0,0:0:0:0:
239,292,54160,2,0,B|317:302,1,64.9999970245363,12|0,1:2|0:0,0:0:0:0:
417,218,54360,5,0,3:0:0:0:
420,221,54460,1,0,1:0:0:0:
423,224,54560,2,0,B|432:174,1,50,0|0,3:0|3:0,0:0:0:0:
397,98,54760,1,10,3:0:0:0:
400,101,54860,1,2,3:0:0:0:
402,103,54960,2,0,B|412:54,1,50,2|2,3:0|3:0,0:0:0:0:
422,224,55160,102,0,B|431:177|431:177|402:104|402:104|412:54,1,178.499996459198,6|0,1:2|0:0,0:0:0:0:
477,5,55560,86,0,B|488:13|492:27|492:27|477:110,1,100,10|0,0:0|3:0,0:0:0:0:
479,98,55960,1,2,1:2:0:0:
338,165,56160,1,2,3:2:0:0:
341,168,56260,1,2,0:3:0:0:
344,171,56360,1,10,0:3:0:0:
479,98,56560,1,2,3:2:0:0:
344,171,56760,1,2,1:2:0:0:
479,98,56960,6,0,P|448:123|409:129,1,80,2|8,3:2|0:0,0:0:0:0:
274,139,57360,2,0,P|313:145|343:170,1,80,2|0,3:2|1:0,0:0:0:0:
479,98,57760,1,2,3:2:0:0:
344,171,57960,1,10,0:0:0:0:
409,129,58160,1,2,3:2:0:0:
412,307,58360,102,0,B|423:252|423:252|426:227|414:209,1,100,2|0,1:2|3:0,0:0:0:0:
415,210,58760,1,10,0:0:0:0:
504,341,58960,2,0,B|458:326|458:326|453:319|453:319|411:306,1,100,2|0,3:2|1:0,0:0:0:0:
319,341,59360,2,0,B|360:328|360:328|366:321|366:321|411:306,1,100,2|8,3:2|0:0,0:0:0:0:
461,167,59760,6,0,B|440:235|440:235|430:242|430:242|411:306,1,150,2|0,3:2|0:0,0:0:0:0:
398,355,60160,2,0,L|411:306,1,50,2|0,3:2|0:0,0:0:0:0:
319,341,60360,2,0,B|274:354|274:354|269:361|269:361|222:376,1,104.999996795654,10|0,0:0|0:0,0:0:0:0:
221,376,60760,1,0,1:0:0:0:
398,355,60960,6,0,P|401:313|339:265,1,100,2|8,3:2|0:0,0:0:0:0:
216,265,61360,1,2,3:2:0:0:
219,268,61460,1,0,0:0:0:0:
222,271,61560,2,0,B|157:289|157:289|150:299|150:299|83:320,1,150,2|0,1:2|0:0,0:0:0:0:
83,321,61960,1,10,0:0:0:0:
222,271,62160,1,2,3:2:0:0:
189,186,62360,2,0,P|222:221|221:270,1,100,0|0,1:0|3:0,0:0:0:0:
103,148,62760,6,0,P|69:112|70:63,1,99.9900014067197,10|0,0:0|0:0,0:0:0:0:
70,63,63160,102,0,P|126:67|162:121,1,110.000003356934,2|0,1:2|3:0,0:0:0:0:
103,148,63460,1,2,0:0:0:0:
106,151,63560,1,10,0:0:0:0:
70,63,63760,2,0,B|116:49|116:49|119:41|119:41|170:26,1,110.000003356934,2|0,3:2|1:0,0:0:0:0:
103,148,64160,2,0,B|56:161|56:161|50:168|50:168|2:184,1,110.000003356934,2|8,3:2|0:0,0:0:0:0:
70,62,64560,2,0,B|126:46,1,50,2|0,3:2|0:0,0:0:0:0:
211,18,64760,6,0,B|222:65|222:65|216:71|216:71|229:123,1,110.000003356934,2|0,1:3|3:0,0:0:0:0:
296,158,65060,1,0,0:0:0:0:
299,161,65160,2,0,B|312:110|312:110|305:104|305:104|317:56,1,110.000003356934,10|0,0:3|3:0,0:0:0:0:
118,49,65560,1,2,1:3:0:0:
213,236,65760,102,0,B|226:182,1,40,2|0,3:2|0:0,0:0:0:0:
194,169,65960,2,0,B|233:207,1,40,10|0,0:0|0:0,0:0:0:0:
261,186,66160,2,0,B|208:200,1,40,2|0,3:2|0:0,0:0:0:0:
166,293,66360,6,0,B|215:310|215:310|293:300,1,129.999994049073,6|0,1:2|3:0,0:0:0:0:
166,293,66660,2,0,B|211:318|211:318|289:321,1,129.999994049073,6|0,1:2|0:0,0:0:0:0:
293,300,66960,2,0,B|215:310,1,64.9999970245363,6|0,1:2|0:0,0:0:0:0:
104,352,67160,101,0,0:0:0:0:
107,355,67260,1,0,0:0:0:0:
110,358,67360,1,0,0:0:0:0:
112,361,67460,1,0,0:0:0:0:
137,381,67560,102,0,B|167:377,1,30,10|0,0:3|0:0,0:0:0:0:
293,300,67960,38,0,B|292:248|267:222|267:222|267:196|241:196|241:196|215:171|164:171,1,209.999993591309,6|0,1:3|0:0,0:0:0:0:
163,171,68360,2,0,L|154:218,1,34.9999989318848,10|0,0:0|0:0,0:0:0:0:
293,300,68560,2,0,B|344:299|370:274|370:274|396:274|396:248|396:248|421:222|421:171,1,209.999993591309,2|0,3:2|0:0,0:0:0:0:
340,188,68960,1,2,3:2:0:0:
293,300,69160,1,10,0:0:0:0:
340,188,69360,1,2,3:2:0:0:
293,300,69560,6,0,B|248:325|213:317|213:317|190:330|177:308|177:308|141:299|115:255,1,209.999993591309,2|0,1:2|0:0,0:0:0:0:
217,242,69960,2,0,L|209:281,1,34.9999989318848,10|0,0:0|0:0,0:0:0:0:
39,335,70160,2,0,B|80:363|116:357|116:357|138:372|153:351|153:351|188:345|218:302,1,209.999993591309,2|0,3:2|0:0,0:0:0:0:
158,197,70560,1,2,3:2:0:0:
158,197,70760,1,8,0:0:0:0:
139,363,70960,1,2,3:2:0:0:
158,197,71160,6,0,B|107:200|83:228|83:228|57:230|59:256|59:256|35:283|39:335,1,209.999993591309,2|0,1:2|0:0,0:0:0:0:
39,335,71560,2,0,L|7:295,1,34.9999989318848,10|0,0:0|0:0,0:0:0:0:
149,274,71760,2,0,B|169:295|198:291|219:271|219:271|230:317|267:331|321:336,1,209.999993591309,2|0,3:2|0:0,0:0:0:0:
148,273,72160,2,0,B|202:278|239:292|250:338|250:338|271:318|300:314|321:336,1,209.999993591309,2|0,3:2|0:0,0:0:0:0:
320,335,72560,2,0,L|325:300,1,34.9999989318848,2|0,3:2|0:0,0:0:0:0:
266,180,72760,6,0,B|335:158|335:158|327:209|327:209|276:187,1,179.999994506836,0|0,1:2|0:0,0:0:0:0:
427,124,73160,2,0,L|403:262,1,139.999995727539,8|0,0:0|3:0,0:0:0:0:
403,261,73560,1,0,1:0:0:0:
179,207,73760,69,2,3:2:0:0:
346,157,73960,1,10,0:0:0:0:
179,207,74160,1,2,3:2:0:0:
323,295,74360,6,0,B|296:274|294:241|294:241|287:238|287:238|298:234|298:234|291:230|291:230|293:199|265:180,1,150,2|0,1:2|0:0,0:0:0:0:
265,179,74760,1,8,0:0:0:0:
436,229,74960,2,0,B|372:240|351:295|351:295|336:295|336:295|351:310|351:310|336:310|336:310|307:366|245:380,1,284.999992389679,2|0,3:2|0:0,0:0:0:0:
170,362,75360,5,2,3:2:0:0:
44,334,75560,1,10,0:0:0:0:
170,362,75760,1,2,3:2:0:0:
103,220,75960,6,0,B|75:239|77:270|77:270|70:273|70:273|81:277|81:277|73:281|73:281|72:313|45:334,1,150,2|0,1:2|0:0,0:0:0:0:
45,335,76360,1,10,0:0:0:0:
30,112,76560,2,0,B|92:126|121:181|121:181|136:181|136:181|121:197|121:197|136:197|136:197|157:252|220:263,1,284.999992389679,2|0,3:2|0:0,0:0:0:0:
334,240,76960,69,2,3:2:0:0:
221,263,77160,1,10,0:0:0:0:
300,361,77360,1,2,3:2:0:0:
221,263,77560,6,0,L|270:252,1,34.9999989318848,2|0,1:2|0:0,0:0:0:0:
399,349,77760,2,0,B|442:323|432:257|432:257|379:215|336:240,1,209.999993591309,2|0,3:2|0:0,0:0:0:0:
221,263,78160,2,0,B|192:246|198:201|198:201|233:174|262:190,1,139.999995727539,2|0,3:2|1:0,0:0:0:0:
103,220,78560,5,2,3:2:0:0:
300,345,78760,1,10,0:0:0:0:
334,240,78960,1,2,3:2:0:0:
212,345,79160,6,0,B|168:337|102:325|113:259|179:271|168:337|160:381,1,200,6|0,1:2|0:0,0:0:0:0:
300,345,79460,2,0,B|343:337|409:325|398:259|332:271|343:337|351:381,1,200,6|0,1:2|0:0,0:0:0:0:
256,280,79760,2,0,L|256:200,1,50,6|0,1:2|0:0,0:0:0:0:
256,96,79960,5,2,1:3:0:0:
256,84,80060,1,2,0:3:0:0:
256,73,80160,1,2,0:3:0:0:
256,62,80260,1,2,0:3:0:0:
256,50,80360,6,0,L|256:133,1,75,10|2,0:3|0:3,0:0:0:0:
170,242,80760,38,0,B|177:208|154:189|154:189|109:171|84:130|84:130|61:111|30:124,1,209.999993591309,6|0,1:3|0:0,0:0:0:0:
29,125,81160,2,0,L|35:159,1,34.9999989318848,10|0,0:0|0:0,0:0:0:0:
29,358,81360,2,0,B|21:324|44:305|44:305|89:287|114:246|114:246|137:227|168:240,1,209.999993591309,2|0,3:2|0:0,0:0:0:0:
147,325,81760,1,2,3:2:0:0:
36,229,81960,1,10,0:0:0:0:
147,325,82160,1,2,3:2:0:0:
171,104,82360,6,0,B|163:137|186:156|186:156|231:174|256:215|256:215|279:234|310:221,1,209.999993591309,2|0,1:2|0:0,0:0:0:0:
272,131,82760,2,0,L|249:157,1,34.9999989318848,10|0,0:0|0:0,0:0:0:0:
146,314,82960,2,0,B|159:282|140:260|140:260|99:234|81:189|81:189|62:167|29:174,1,209.999993591309,2|0,3:2|0:0,0:0:0:0:
124,212,83360,1,2,3:2:0:0:
146,314,83560,1,10,0:0:0:0:
124,212,83760,1,2,3:2:0:0:
256,352,83960,6,0,B|280:375|308:365|308:365|346:335|394:333|394:333|422:323|426:290,1,209.999993591309,2|0,1:2|0:0,0:0:0:0:
427,288,84360,2,0,L|416:236,1,34.9999989318848,10|0,0:0|0:0,0:0:0:0:
504,132,84560,2,0,B|479:155|451:145|451:145|413:115|365:113|365:113|337:103|333:70,1,209.999993591309,2|0,3:2|0:0,0:0:0:0:
434,58,84960,2,0,B|416:115|416:115|409:117|409:117|392:173,1,119.999996337891,2|8,3:2|0:0,0:0:0:0:
324,249,85260,1,2,0:0:0:0:
328,253,85360,2,0,B|312:202|312:202|305:200|305:200|287:143,1,119.999996337891,2|0,3:2|1:0,0:0:0:0:
287,143,85760,5,2,3:2:0:0:
426,276,85960,1,10,0:0:0:0:
328,253,86160,1,2,3:2:0:0:
451,32,86360,2,0,B|427:106|427:106|418:109|418:109|396:182,1,165.000005035401,2|0,1:2|0:0,0:0:0:0:
395,183,86760,1,8,0:0:0:0:
395,183,86960,2,0,L|405:149,1,34.9999989318848,2|0,3:2|0:0,0:0:0:0:
279,66,87160,70,0,B|313:54|313:54|383:77|406:147|406:147|394:181,1,209.999993591309,2|0,1:2|0:0,0:0:0:0:
394,182,87560,2,0,L|383:215,1,34.9999989318848,8|0,0:0|0:0,0:0:0:0:
499,330,87760,2,0,B|510:295|510:295|487:225|417:202|417:202|383:214,1,209.999993591309,2|0,3:2|0:0,0:0:0:0:
382,214,88160,5,2,3:2:0:0:
252,259,88360,1,10,0:0:0:0:
382,215,88560,1,2,3:2:0:0:
136,142,88760,6,0,B|170:130|170:130|240:153|263:223|263:223|252:258,1,209.999993591309,2|0,1:2|0:0,0:0:0:0:
240,291,89160,2,0,L|251:258,1,34.9999989318848,10|0,0:0|0:0,0:0:0:0:
136,373,89360,2,0,B|124:338|124:338|147:268|217:245|217:245|251:257,1,209.999993591309,2|0,3:2|0:0,0:0:0:0:
251,257,89760,2,0,L|240:290,1,34.9999989318848,2|0,3:2|0:0,0:0:0:0:
111,218,89960,1,10,0:0:0:0:
251,257,90160,2,0,B|241:290|241:290|303:316|364:268,1,139.999995727539,2|0,3:2|1:0,0:0:0:0:
309,209,90560,5,2,3:2:0:0:
306,65,90760,1,10,0:0:0:0:
188,122,90960,2,0,P|234:66|307:66,1,150,2|0,3:2|0:0,0:0:0:0:
271,145,91360,69,2,3:2:0:0:
422,155,91560,1,10,0:0:0:0:
271,145,91760,1,2,3:2:0:0:
458,245,91960,6,0,P|412:247|347:168,1,139.999995727539,6|0,1:2|0:0,0:0:0:0:
466,225,92260,2,0,P|398:231|348:185,1,139.999995727539,6|0,1:2|0:0,0:0:0:0:
422,155,92560,1,6,1:2:0:0:
266,182,92760,5,2,1:2:0:0:
269,185,92860,1,2,3:0:0:0:
272,188,92960,1,2,3:0:0:0:
275,191,93060,1,2,3:0:0:0:
278,194,93160,2,0,L|287:129,1,50,8|2,0:0|3:0,0:0:0:0:
328,76,93360,2,0,L|337:11,1,50,2|2,3:0|3:0,0:0:0:0:
204,58,93560,5,6,1:2:0:0:
335,26,93960,5,2,1:2:0:0:
204,58,94160,1,2,3:2:0:0:
276,77,94360,5,2,1:2:0:0:
145,109,94560,1,2,3:2:0:0:
335,26,94760,101,2,1:2:0:0:
145,109,94960,1,2,3:2:0:0:
148,112,95060,1,2,0:0:0:0:
151,115,95160,6,0,L|146:147,1,25,2|0,1:2|0:0,0:0:0:0:
204,58,95360,2,0,L|207:33,1,25,2|0,1:2|3:0,0:0:0:0:
105,8,95560,102,0,L|99:49,1,37.5000014305115,2|0,1:2|0:0,0:0:0:0:
250,165,95760,2,0,L|255:123,1,37.5000014305115,2|0,1:2|3:0,0:0:0:0:
165,78,95960,5,2,1:2:0:0:
168,81,96060,1,2,3:0:0:0:
171,84,96160,1,2,3:0:0:0:
174,87,96260,1,2,3:0:0:0:
177,90,96360,101,10,3:2:0:0:
171,120,96460,1,2,3:0:0:0:
167,153,96560,1,2,3:0:0:0:
161,186,96660,1,2,3:0:0:0:
157,215,96760,6,0,L|163:157,1,29.9999990844727,4|0,1:2|0:0,0:0:0:0:
177,90,96960,1,2,3:0:0:0:
147,307,97160,1,10,0:3:0:0:
150,304,97360,1,2,3:2:0:0:
153,301,97560,1,2,1:3:0:0:
282,285,97760,101,2,3:2:0:0:
283,269,97860,1,0,0:0:0:0:
278,253,97960,1,10,0:3:0:0:
269,239,98060,1,2,0:3:0:0:
256,233,98160,2,0,L|239:332,1,100,2|0,3:2|1:2,0:0:0:0:
374,173,98560,5,2,3:2:0:0:
373,189,98660,1,2,0:3:0:0:
378,205,98760,1,10,0:3:0:0:
387,219,98860,1,2,0:3:0:0:
399,228,98960,102,0,L|416:129,1,100,2|2,3:2|1:3,0:0:0:0:
285,75,99360,1,2,3:2:0:0:
288,72,99560,1,10,0:3:0:0:
317,245,99760,2,0,L|334:146,1,100,2|2,3:2|1:3,0:0:0:0:
291,69,100160,1,2,3:0:0:0:
317,245,100360,1,10,0:3:0:0:
334,146,100560,6,0,L|317:245,1,100,2|0,3:2|1:2,0:0:0:0:
167,192,100960,1,2,3:2:0:0:
164,189,101060,1,0,0:0:0:0:
161,186,101160,1,10,0:3:0:0:
178,87,101360,2,0,L|161:186,1,100,2|2,3:2|1:3,0:0:0:0:
44,286,101760,1,2,3:0:0:0:
47,283,101860,1,2,0:3:0:0:
50,280,101960,1,10,0:2:0:0:
196,282,102160,102,0,P|152:312|136:357,1,100,2|2,3:2|1:3,0:0:0:0:
0,200,102560,2,0,P|44:230|59:275,1,100,2|10,3:2|0:3,0:0:0:0:
0,200,102960,1,2,3:2:0:0:
136,354,103160,6,0,P|154:308|196:282,1,100,2|2,1:3|3:0,0:0:0:0:
348,320,103560,1,10,0:3:0:0:
351,323,103760,1,2,3:0:0:0:
195,282,103960,1,2,1:3:0:0:
235,127,104160,2,0,P|276:153|294:199,1,100,2|10,3:0|0:3,0:0:0:0:
276,277,104460,1,0,3:0:0:0:
276,277,104560,102,0,L|267:326,2,50,2|0|2,3:0|0:0|1:3,0:0:0:0:
313,79,104960,2,0,L|321:29,2,50,2|2|10,3:0|0:3|0:3,0:0:0:0:
377,189,105360,5,2,3:0:0:0:
380,192,105560,1,2,1:3:0:0:
216,164,105760,1,2,3:0:0:0:
219,167,105860,1,0,0:0:0:0:
222,170,105960,1,10,0:3:0:0:
380,192,106160,1,2,3:0:0:0:
162,97,106360,102,0,P|203:123|221:169,1,100,2|2,1:3|3:0,0:0:0:0:
221,169,106760,1,10,0:3:0:0:
68,252,106960,2,0,P|85:206|127:179,1,100,0|0,3:0|1:2,0:0:0:0:
221,169,107360,1,2,3:0:0:0:
68,252,107560,1,10,0:3:0:0:
221,169,107760,1,2,3:0:0:0:
134,1,107960,6,0,P|92:27|89:128,1,139.999995727539,12|2,1:2|0:0,0:0:0:0:
80,112,108260,2,0,P|81:44|134:1,1,139.999995727539,12|0,1:2|0:0,0:0:0:0:
150,78,108560,1,12,1:2:0:0:
153,81,108660,1,0,0:0:0:0:
156,84,108760,102,0,B|206:75,1,50,0|0,3:0|1:0,0:0:0:0:
361,5,108960,2,0,B|309:13,1,50,0|0,3:0|3:0,0:0:0:0:
221,32,109160,5,10,3:0:0:0:
218,29,109260,1,2,3:0:0:0:
215,26,109360,2,0,B|205:75,1,50,2|2,3:0|3:0,0:0:0:0:
361,5,109560,102,0,B|215:27|215:27|205:74,1,194.999991073609,6|0,1:2|0:0,0:0:0:0:
268,117,109960,22,0,B|332:127|332:127|342:174,1,100,10|0,0:0|3:0,0:0:0:0:
268,117,110360,1,2,1:2:0:0:
455,149,110560,2,0,B|421:142|421:142|411:78,1,100,2|10,3:2|0:3,0:0:0:0:
455,149,110960,1,2,3:2:0:0:
268,117,111160,1,2,1:2:0:0:
410,77,111360,2,0,B|420:141|420:141|454:148,1,100,2|8,3:2|0:0,0:0:0:0:
339,161,111760,2,0,B|332:127|332:127|268:117,1,100,2|0,3:2|1:0,0:0:0:0:
339,161,112160,5,2,3:2:0:0:
409,77,112360,1,10,0:0:0:0:
339,161,112560,1,2,3:2:0:0:
355,313,112760,102,0,B|362:278|362:278|426:268,1,100,2|0,1:2|3:0,0:0:0:0:
355,313,113160,1,10,0:0:0:0:
497,223,113360,2,0,B|489:257|489:257|425:267,1,100,2|0,3:2|1:0,0:0:0:0:
283,268,113760,2,0,B|290:302|290:302|354:312,1,100,2|8,3:2|0:0,0:0:0:0:
497,223,114160,1,2,3:2:0:0:
497,223,114360,1,0,1:0:0:0:
283,268,114560,1,2,3:2:0:0:
425,267,114760,2,0,B|489:257|489:257|497:223,1,100,10|0,0:0|3:0,0:0:0:0:
425,267,115160,1,0,1:0:0:0:
283,268,115360,1,2,3:2:0:0:
85,268,115560,86,0,B|97:217|97:217|193:202,1,150,8|0,0:0|0:0,0:0:0:0:
194,202,115960,6,0,B|98:217|98:217|86:268,1,150,2|0,1:2|3:0,0:0:0:0:
116,334,116260,1,0,0:0:0:0:
119,337,116360,1,10,0:0:0:0:
122,340,116560,102,0,B|237:322,1,110.000003356934,2|0,3:2|1:0,0:0:0:0:
283,268,116860,1,0,0:0:0:0:
286,271,116960,1,0,3:0:0:0:
464,381,117160,2,0,B|368:366|368:366|356:315,1,150,10|0,0:0|0:0,0:0:0:0:
356,315,117560,6,0,B|368:366|368:366|464:381,1,150,2|0,1:2|3:0,0:0:0:0:
502,318,117860,1,2,0:0:0:0:
499,315,117960,2,0,B|489:265,1,50,10|0,0:0|0:0,0:0:0:0:
426,174,118160,102,0,B|414:225|414:225|318:240,1,150,2|0,3:2|1:0,0:0:0:0:
248,191,118460,1,0,0:0:0:0:
245,188,118560,2,0,P|245:138|275:100,1,100,2|8,3:2|0:0,0:0:0:0:
275,100,118960,1,2,3:2:0:0:
177,238,119160,6,0,B|122:250|122:250|115:243|115:243|54:259,1,129.999994049073,2|0,1:3|3:0,0:0:0:0:
39,264,119460,1,0,0:0:0:0:
54,259,119560,2,0,B|115:243|115:243|122:250|122:250|177:238,1,129.999994049073,10|0,0:3|3:0,0:0:0:0:
249,188,119860,1,0,0:0:0:0:
252,191,119960,2,0,B|301:181,1,50,2|0,1:3|0:0,0:0:0:0:
238,292,120160,101,2,3:2:0:0:
252,191,120360,1,10,0:0:0:0:
266,90,120560,1,2,3:2:0:0:
238,292,120760,5,6,1:2:0:0:
266,90,121060,1,6,1:2:0:0:
238,292,121360,2,0,B|230:342,2,50,6|0|0,1:2|3:0|3:0,0:0:0:0:
294,187,121960,2,0,B|298:162,3,25,10|0|0|0,1:2|3:0|3:0|3:0,0:0:0:0:
402,238,122360,102,0,P|361:271|304:257,1,100,6|0,1:2|3:0,0:0:0:0:
374,152,122760,2,0,P|405:188|401:237,1,100,2|0,1:2|3:0,0:0:0:0:
316,265,123160,1,2,1:2:0:0:
470,255,123360,2,0,B|500:260|500:260|509:257|509:257|395:236,1,150,2|0,3:2|0:0,0:0:0:0:
316,266,123760,2,0,P|364:269|401:237,1,100,2|0,3:2|0:0,0:0:0:0:
343,198,124160,1,2,3:2:0:0:
343,198,124360,1,2,1:2:0:0:
433,330,124560,1,2,3:2:0:0:
343,198,124760,1,2,1:2:0:0:
433,330,124960,1,2,3:2:0:0:
196,296,125160,2,0,B|234:309|265:283|265:283|304:297|335:271,1,150,2|0,1:2|0:0,0:0:0:0:
429,225,125560,6,0,P|388:192|331:205,1,100,2|0,1:2|3:0,0:0:0:0:
401,310,125960,2,0,P|434:269|420:212,1,100,2|0,1:2|3:0,0:0:0:0:
342,195,126360,1,2,1:2:0:0:
497,206,126560,2,0,B|527:200|527:200|536:203|536:203|422:225,1,150,2|0,3:2|0:0,0:0:0:0:
342,195,126960,2,0,P|391:192|428:224,1,100,2|0,3:2|0:0,0:0:0:0:
400,311,127360,1,2,3:2:0:0:
400,311,127560,1,2,1:2:0:0:
261,353,127760,1,2,3:2:0:0:
400,311,127960,1,2,1:2:0:0:
261,353,128160,1,2,3:2:0:0:
400,311,128360,1,2,1:2:0:0:
400,311,128460,1,0,3:0:0:0:
400,311,128560,1,0,3:0:0:0:
219,268,128760,6,0,B|170:278,1,50,6|0,1:2|0:0,0:0:0:0:
51,330,129160,2,0,B|100:320,1,50,10|0,0:0|0:0,0:0:0:0:
219,268,129560,2,0,B|170:278,1,50,2|0,1:2|0:0,0:0:0:0:
51,330,129760,2,0,B|100:320,1,50,2|0,3:2|0:0,0:0:0:0:
171,352,129960,1,8,0:0:0:0:
101,229,130160,2,0,B|149:260|135:290|121:320|170:352,1,150,2|0,3:2|0:0,0:0:0:0:
251,366,130560,2,0,B|300:356,1,50,2|0,3:2|0:0,0:0:0:0:
353,296,130760,1,10,0:0:0:0:
455,366,130960,2,0,B|406:356,1,50,2|0,3:2|0:0,0:0:0:0:
353,296,131160,1,2,1:2:0:0:
251,366,131360,2,0,B|300:356,1,50,2|0,3:2|0:0,0:0:0:0:
352,153,131560,2,0,B|325:204|352:223|379:242|353:294,1,150,10|0,0:0|0:0,0:0:0:0:
258,282,131960,6,0,B|209:272,1,50,2|0,1:2|0:0,0:0:0:0:
90,220,132360,2,0,B|139:230,1,50,10|0,0:0|0:0,0:0:0:0:
258,282,132760,2,0,B|209:272,1,50,2|0,1:2|0:0,0:0:0:0:
90,220,132960,2,0,B|139:230,1,50,2|0,3:2|0:0,0:0:0:0:
210,198,133160,1,8,0:0:0:0:
41,210,133360,2,0,B|90:220,1,50,2|0,3:2|0:0,0:0:0:0:
210,198,133560,101,2,1:0:0:0:
210,198,133760,1,2,3:2:0:0:
177,343,133960,5,10,0:1:0:0:
177,343,134160,1,2,3:2:0:0:
293,275,134360,101,2,1:1:0:0:
72,203,134560,6,0,B|121:213,1,50,2|0,3:2|0:0,0:0:0:0:
166,277,134760,2,0,B|215:287,1,50,10|0,0:1|3:0,0:0:0:0:
271,230,134960,2,0,B|320:240,1,50,0|0,3:0|0:0,0:0:0:0:
228,121,135160,86,0,B|234:165|199:202|199:202|194:231|194:231|214:278|193:317,1,209.999993591309,6|0,1:2|0:0,0:0:0:0:
104,322,135560,2,0,B|55:312,1,50,10|0,0:0|0:0,0:0:0:0:
151,384,135760,1,2,3:2:0:0:
55,312,135960,1,2,1:2:0:0:
220,342,136160,1,2,3:2:0:0:
55,312,136360,1,10,0:0:0:0:
335,222,136560,2,0,B|294:244|247:224|247:224|218:229|218:229|181:264|137:258,1,209.999993591309,2|0,3:2|0:0,0:0:0:0:
67,219,136960,1,2,3:2:0:0:
55,312,137160,1,10,0:0:0:0:
67,219,137360,2,0,P|36:262|55:312,1,110.000003356934,2|0,3:2|1:2,0:0:0:0:
146,175,137760,5,2,3:2:0:0:
133,82,137960,1,10,0:0:0:0:
146,175,138160,2,0,P|164:125|133:82,1,110.000003356934,2|0,3:2|1:2,0:0:0:0:
51,137,138560,1,2,3:2:0:0:
146,175,138760,1,10,0:0:0:0:
133,82,138960,1,2,3:2:0:0:
67,219,139160,1,2,1:2:0:0:
133,82,139360,1,2,3:2:0:0:
146,175,139560,1,10,0:0:0:0:
133,82,139760,2,0,P|164:125|146:175,1,110.000003356934,2|0,3:2|1:2,0:0:0:0:
49,137,140160,1,2,3:2:0:0:
49,137,140360,1,10,0:0:0:0:
146,174,140560,2,0,P|164:125|133:82,1,110.000003356934,2|0,3:2|1:2,0:0:0:0:
249,192,140960,85,2,3:2:0:0:
237,287,141160,2,0,P|220:234|249:193,1,110.000003356934,10|0,0:0|3:0,0:0:0:0:
499,211,141560,2,0,B|455:205|418:240|418:240|389:245|389:245|342:225|303:246,1,209.999993591309,6|0,1:2|0:0,0:0:0:0:
305,322,141960,2,0,B|295:371,1,50,10|0,0:0|0:0,0:0:0:0:
235,287,142160,1,2,3:2:0:0:
250,193,142360,1,2,1:2:0:0:
235,287,142560,2,0,B|215:384,1,100,2|8,3:2|0:0,0:0:0:0:
215,384,142960,2,0,B|235:283|235:283|232:276|232:276|250:194,1,194.999991073609,2|0,3:2|0:0,0:0:0:0:
250,193,143360,1,2,3:2:0:0:
215,384,143560,1,10,0:0:0:0:
235,287,143760,2,0,B|215:384,1,100,2|0,3:2|1:2,0:0:0:0:
162,227,144160,38,0,B|181:129,1,100,2|8,3:2|0:0,0:0:0:0:
235,287,144560,1,2,3:2:0:0:
181,129,144760,1,2,1:2:0:0:
162,227,144960,2,0,B|181:129,1,100,2|8,3:2|0:0,0:0:0:0:
235,287,145360,1,2,3:2:0:0:
162,227,145560,1,0,1:2:0:0:
181,129,145760,1,2,3:2:0:0:
162,227,145960,1,10,0:0:0:0:
181,129,146160,2,0,B|162:227,1,100,2|0,3:2|1:2,0:0:0:0:
235,287,146560,1,2,3:2:0:0:
78,254,146760,1,10,0:0:0:0:
181,129,146960,2,0,B|162:227,1,100,2|0,3:2|1:2,0:0:0:0:
78,254,147360,1,2,3:2:0:0:
162,227,147560,2,0,B|181:129,1,100,10|0,0:0|3:0,0:0:0:0:
7,95,147960,102,0,B|53:89|69:41|69:41|87:49|87:49|131:21|181:52,1,200,4|0,0:0|0:0,0:0:0:0:
243,82,148960,85,2,0:0:0:0:
310,46,149360,1,2,0:0:0:0:
364,99,149760,1,2,0:0:0:0:
332,167,150160,1,2,0:0:0:0:
256,155,150560,1,2,0:0:0:0:
243,82,150760,1,2,0:0:0:0:
310,46,150960,1,2,0:0:0:0:
310,46,151160,2,0,B|316:92|364:108|364:108|356:126|356:126|384:170|353:220,1,200,0|0,0:0|0:0,0:0:0:0:
267,299,152160,5,2,0:0:0:0:
334,335,152360,1,2,0:0:0:0:
388,282,152560,1,2,0:0:0:0:
356,214,152760,1,2,0:0:0:0:
280,226,153060,1,2,0:0:0:0:
267,299,153360,1,2,0:0:0:0:
334,335,153760,1,2,0:0:0:0:
388,282,153960,1,2,0:0:0:0:
356,214,154360,2,0,P|361:165|397:132,1,100,2|0,0:0|0:0,0:0:0:0:
512,70,154960,102,0,P|449:116|361:104,1,150,2|2,0:0|0:0,0:0:0:0:
328,51,155760,1,2,0:0:0:0:
328,51,155960,2,0,P|300:89|310:155,1,100,2|0,0:0|0:0,0:0:0:0:
360,259,156560,5,2,0:0:0:0:
373,185,156960,1,2,0:0:0:0:
430,233,157360,1,2,0:0:0:0:
430,233,157560,102,0,B|376:223|329:218|329:218|311:233|295:251,1,150,0|0,0:0|0:0,0:0:0:0:
294,251,158560,1,0,0:0:0:0:
201,278,158760,2,0,P|230:300|240:336,1,75,2|0,0:0|0:0,0:0:0:0:
167,349,159160,5,6,1:2:0:0:
238,199,159460,1,6,1:2:0:0:
167,349,159760,1,6,1:2:0:0:
201,278,160160,101,2,3:0:0:0:
138,248,160360,1,2,3:0:0:0:
201,278,160560,1,2,3:0:0:0:
329,264,160760,5,6,1:2:0:0:
414,83,161060,1,6,1:2:0:0:
329,264,161360,1,6,1:2:0:0:
276,124,161560,101,0,3:2:0:0:
292,121,161660,1,0,3:2:0:0:
305,131,161760,1,0,3:2:0:0:
312,151,161860,1,0,3:2:0:0:
321,184,161960,6,0,L|334:132,1,44.999998626709,10|0,0:3|0:0,0:0:0:0:
244,21,162360,38,0,B|214:84|166:84|166:84|163:89|163:89|158:87|158:87|121:118|58:88,1,225.000008583069,6|0,1:3|0:0,0:0:0:0:
173,109,162760,2,0,L|185:157,1,50,10|0,0:0|0:0,0:0:0:0:
58,88,162960,2,0,B|121:117|158:86|158:86|163:89|163:89|165:83|165:83|214:83|243:20,1,225.000008583069,2|0,3:2|0:0,0:0:0:0:
141,32,163360,2,0,L|153:80,1,50,2|0,3:2|0:0,0:0:0:0:
177,173,163560,1,10,0:0:0:0:
312,44,163760,1,2,3:2:0:0:
453,202,163960,6,0,B|423:138|375:138|375:138|372:133|372:133|367:135|367:135|330:104|267:134,1,225.000008583069,2|0,1:2|0:0,0:0:0:0:
247,224,164360,2,0,L|259:272,1,50,10|0,0:0|0:0,0:0:0:0:
378,244,164560,2,0,B|307:243|286:287|286:287|281:286|281:286|281:292|281:292|237:313|238:383,1,225.000008583069,2|0,3:2|0:0,0:0:0:0:
334,326,164960,2,0,L|295:294,1,50,2|0,3:2|0:0,0:0:0:0:
186,282,165160,1,8,0:0:0:0:
378,244,165360,1,2,3:2:0:0:
186,282,165560,6,0,L|126:291,1,50,2|0,1:2|0:0,0:0:0:0:
232,213,165760,1,2,3:2:0:0:
91,141,165960,2,0,L|150:150,1,50,10|0,0:0|0:0,0:0:0:0:
315,175,166160,2,0,B|284:161|277:129|290:98|290:98|237:104|207:70|181:14,1,240,2|0,3:2|0:0,0:0:0:0:
180,12,166560,2,0,B|210:25|217:57|204:88|204:88|257:82|287:116|313:172,1,240,2|0,3:2|0:0,0:0:0:0:
290,250,166960,2,0,P|314:255|339:251,1,50,2|0,3:2|0:0,0:0:0:0:
462,178,167160,6,0,B|391:194|391:194|423:234|423:234|456:190,1,179.999994506836,0|0,1:2|0:0,0:0:0:0:
472,101,167560,2,0,B|499:106|499:106|489:79|489:79|359:109,1,179.999994506836,8|0,0:0|0:0,0:0:0:0:
313,173,167960,1,0,1:0:0:0:
180,14,168160,70,0,L|173:69,1,50,2|0,3:2|0:0,0:0:0:0:
204,197,168360,2,0,L|210:147,1,50,10|0,0:0|0:0,0:0:0:0:
180,14,168560,2,0,L|173:69,1,50,2|0,3:2|0:0,0:0:0:0:
0,68,168760,6,0,B|25:100|64:102|64:102|68:110|68:110|72:97|72:97|77:106|77:106|114:103|137:137,1,179.999994506836,2|0,1:2|0:0,0:0:0:0:
0,68,169160,1,8,0:0:0:0:
204,197,169360,2,0,B|270:181|301:123|301:123|317:123|317:123|301:107|301:107|317:107|317:107|339:49|406:38,1,300,2|0,3:2|0:0,0:0:0:0:
302,83,169760,6,0,L|247:76,1,50,2|0,3:2|0:0,0:0:0:0:
408,129,169960,2,0,L|457:135,1,50,10|0,0:0|0:0,0:0:0:0:
302,83,170160,2,0,L|247:76,1,50,2|0,3:2|0:0,0:0:0:0:
352,204,170360,6,0,B|385:226|383:263|383:263|391:268|391:268|378:273|378:273|386:276|386:276|389:316|421:341,1,179.999994506836,2|0,1:2|0:0,0:0:0:0:
352,204,170760,1,10,0:0:0:0:
512,354,170960,2,0,B|450:324|399:359|399:359|386:350|386:350|390:372|390:372|377:363|377:363|318:394|255:368,1,300,2|0,3:2|0:0,0:0:0:0:
299,296,171360,2,0,L|283:249,1,50,2|0,3:2|0:0,0:0:0:0:
215,138,171560,2,0,L|231:185,1,50,10|0,0:0|0:0,0:0:0:0:
299,296,171760,2,0,L|283:249,1,50,2|0,3:2|0:0,0:0:0:0:
124,180,171960,70,0,L|140:227,1,50,2|0,1:2|0:0,0:0:0:0:
133,369,172160,2,0,B|90:343|100:277|100:277|153:235|196:260,1,209.999993591309,2|0,3:2|0:0,0:0:0:0:
299,296,172560,2,0,B|328:312|363:285|363:285|369:240|340:223,1,139.999995727539,2|0,3:2|1:0,0:0:0:0:
262,200,172960,5,2,3:2:0:0:
208,344,173160,1,10,0:0:0:0:
318,384,173360,1,2,3:2:0:0:
197,260,173560,6,0,B|153:268|87:280|98:346|164:334|153:268|145:224,1,200,6|0,1:2|0:0,0:0:0:0:
315,260,173860,2,0,B|359:268|425:280|414:346|348:334|359:268|367:224,1,200,6|0,1:2|0:0,0:0:0:0:
256,160,174160,2,0,L|256:210,1,50,6|0,1:2|0:0,0:0:0:0:
256,336,174360,21,2,1:3:0:0:
256,348,174460,1,2,0:3:0:0:
256,359,174560,1,2,0:3:0:0:
256,370,174660,1,2,0:3:0:0:
244,380,174760,6,0,L|238:356,1,25,10|2,0:3|0:3,0:0:0:0:
295,298,174960,2,0,L|301:274,1,25,2|2,0:3|0:3,0:0:0:0:
162,249,175160,38,0,B|142:302|84:309|84:309|78:324|78:324|20:331|0:384,1,225.000008583069,6|0,1:3|0:0,0:0:0:0:
54,248,175560,2,0,L|62:297,1,50,10|0,0:0|0:0,0:0:0:0:
0,384,175760,2,0,B|20:331|78:324|78:324|84:309|84:309|142:302|162:249,1,225.000008583069,2|0,3:2|0:0,0:0:0:0:
54,248,176160,2,0,L|62:297,1,50,2|0,3:2|0:0,0:0:0:0:
133,376,176360,1,10,0:0:0:0:
54,248,176560,1,2,3:2:0:0:
0,111,176760,6,0,B|19:164|77:171|77:171|83:186|83:186|141:193|161:246,1,225.000008583069,2|0,1:2|0:0,0:0:0:0:
102,118,177160,2,0,L|94:167,1,50,10|0,0:0|0:0,0:0:0:0:
54,248,177360,1,2,3:2:0:0:
54,248,177560,2,0,L|62:199,1,50,0|0,1:0|0:0,0:0:0:0:
48,11,177760,6,0,L|56:60,1,50,2|0,3:2|0:0,0:0:0:0:
169,76,177960,1,10,0:0:0:0:
169,76,178160,2,0,L|161:27,1,50,2|0,3:2|0:0,0:0:0:0:
305,135,178360,6,0,B|340:91|397:104|397:104|408:92|408:92|465:106|502:63,1,225.000008583069,2|0,1:2|0:0,0:0:0:0:
393,23,178760,2,0,L|407:72,1,50,10|0,0:0|0:0,0:0:0:0:
504,62,178960,2,0,B|466:106|409:92|409:92|398:104|398:104|341:91|306:135,1,225.000008583069,2|0,3:2|0:0,0:0:0:0:
426,180,179360,2,0,B|404:112|404:112|396:109|396:109|376:43,1,150.000005722046,2|8,3:2|0:0,0:0:0:0:
284,0,179660,1,2,0:0:0:0:
281,3,179760,70,0,B|260:69|260:69|252:71|252:71|231:139,1,150.000005722046,2|0,3:2|1:0,0:0:0:0:
278,208,180060,1,0,0:0:0:0:
281,211,180160,2,0,L|270:247,1,37.5000014305115,2|0,3:2|0:0,0:0:0:0:
49,273,180360,6,0,P|27:254|13:236,1,50,10|0,0:0|0:0,0:0:0:0:
163,252,180560,2,0,P|184:233|198:215,1,50,2|0,3:2|0:0,0:0:0:0:
71,50,180760,2,0,B|80:128|80:128|89:132|89:132|99:212,1,170.000003242493,2|0,1:2|3:0,0:0:0:0:
121,370,181160,1,8,0:0:0:0:
121,370,181360,2,0,L|114:302,1,50,2|0,3:2|0:0,0:0:0:0:
242,246,181560,6,0,B|198:284|198:284|143:234|97:235|97:235|46:278,1,225.000008583069,2|0,1:2|0:0,0:0:0:0:
115,320,181960,2,0,L|121:370,1,50,8|0,0:0|0:0,0:0:0:0:
242,246,182160,2,0,B|187:227|187:227|202:154|179:114|179:114|130:97,1,225.000008583069,2|0,3:2|0:0,0:0:0:0:
28,175,182560,6,0,L|78:164,1,50,2|0,3:2|0:0,0:0:0:0:
166,188,182760,2,0,L|216:177,1,50,10|0,0:0|0:0,0:0:0:0:
287,122,182960,2,0,L|337:111,1,50,2|0,3:2|0:0,0:0:0:0:
390,274,183160,70,0,B|346:312|346:312|291:262|245:263|245:263|205:296,1,225.000008583069,2|0,1:2|0:0,0:0:0:0:
276,384,183560,2,0,L|265:334,1,44.999998626709,10|0,0:0|0:0,0:0:0:0:
293,195,183760,2,0,B|345:221|345:221|400:171|446:172|446:172|486:205,1,225.000008583069,2|0,3:2|0:0,0:0:0:0:
475,323,184160,2,0,L|464:274,1,50,2|0,3:2|0:0,0:0:0:0:
408,203,184360,2,0,L|397:154,1,50,10|0,0:0|0:0,0:0:0:0:
448,33,184560,1,2,3:2:0:0:
445,30,184660,1,2,0:0:0:0:
442,27,184760,6,0,P|391:79|313:89,1,150.000005722046,0|2,1:0|3:2,0:0:0:0:
247,56,185060,1,0,0:0:0:0:
244,53,185160,6,0,L|233:4,1,50,10|0,0:0|0:0,0:0:0:0:
317,90,185360,2,0,P|277:181|199:121,1,225.000008583069,2|0,3:2|0:0,0:0:0:0:
274,203,185760,6,0,L|284:251,1,50,2|0,3:2|0:0,0:0:0:0:
251,74,185960,2,0,L|240:25,1,50,10|0,0:0|0:0,0:0:0:0:
346,164,186160,1,2,3:2:0:0:
182,130,186360,70,2,P|136:128|71:207,1,150.000005722046,6|0,1:2|0:0,0:0:0:0:
182,130,186660,2,0,P|136:128|71:207,1,150.000005722046,6|0,1:2|0:0,0:0:0:0:
182,130,186960,2,0,P|144:126|110:139,1,75.0000028610231,6|0,1:2|0:0,0:0:0:0:
12,223,187160,5,2,1:2:0:0:
15,239,187260,1,2,3:0:0:0:
18,256,187360,1,2,3:0:0:0:
21,272,187460,1,2,3:0:0:0:
36,294,187560,5,8,0:0:0:0:
33,304,187660,1,2,3:0:0:0:
32,316,187760,1,2,3:0:0:0:
29,326,187860,1,2,3:0:0:0:
20,366,187960,6,0,L|4:292,1,75.0000028610231,6|0,1:2|0:0,0:0:0:0:
152,206,188360,5,2,1:2:0:0:
165,136,188560,1,2,3:2:0:0:
37,54,188760,21,2,1:2:0:0:
11,183,188960,1,2,3:2:0:0:
221,248,189160,101,2,1:2:0:0:
234,178,189360,1,2,3:2:0:0:
350,44,189560,22,0,L|361:93,1,50,2|0,1:2|0:0,0:0:0:0:
384,214,189760,2,0,L|395:165,1,50,2|0,3:2|1:0,0:0:0:0:
266,15,189960,86,0,L|277:64,1,50,2|0,3:2|0:0,0:0:0:0:
303,230,190160,2,0,L|314:181,1,50,2|0,1:2|3:0,0:0:0:0:
435,93,190360,5,2,3:2:0:0:
438,96,190460,1,2,3:0:0:0:
441,99,190560,2,0,L|492:89,1,50,10|2,3:2|3:0,0:0:0:0:
243,137,190760,85,2,3:2:0:0:
