osu file format v14

[General]
AudioFilename: audio.mp3
AudioLeadIn: 0
PreviewTime: 67560
Countdown: 0
SampleSet: Soft
StackLeniency: 0.3
Mode: 0
LetterboxInBreaks: 0
WidescreenStoryboard: 0
SamplesMatchPlaybackRate: 1

[Editor]
Bookmarks: 13560,29560,42360,55160,60960,67960,80760,96760,109560,115360,128760,134560,137760,140960,144160,148960,162360,175160
DistanceSpacing: 0.7
BeatDivisor: 4
GridSize: 16
TimelineZoom: 1.100002

[Metadata]
Title:Shin'en feat. Kaf
TitleUnicode:深淵 feat.花譜
Artist:Isekai Joucho
ArtistUnicode:ヰ世界情緒
Creator:Kyle Y
Version:Abyss feat. climb
Source:ブラック・サージナイト
Tags:異世界情緒 いせかいじょうちょ isekaijoucho かふ kafu shinen 神椿スタジオ kamitsubaki studio black surge night blacksurgenight イメージソング image song 香椎モイミ Kashi Moimi japanese pop rock jpop j-pop jrock j-rock video game female virtual artist darksinger dark singer vtb vtuber バーチャル youtuber ky's Kyle_Y climbx3145 climb's collab collaboration
BeatmapID:3215655
BeatmapSetID:1574942

[Difficulty]
HPDrainRate:5.4
CircleSize:5
OverallDifficulty:8.5
ApproachRate:9.2
SliderMultiplier:2
SliderTickRate:1

[Events]
//Background and Video events
0,0,"Shinen.jpg",0,0
Video,-790,"video.mp4"
//Break Periods
//Storyboard Layer 0 (Background)
//Storyboard Layer 1 (Fail)
//Storyboard Layer 2 (Pass)
//Storyboard Layer 3 (Foreground)
//Storyboard Layer 4 (Overlay)
//Storyboard Sound Samples

[TimingPoints]
760,400,4,2,1,30,1,0
760,-333.333333333333,4,2,1,30,0,0
1160,-333.333333333333,4,2,1,30,0,0
1560,-333.333333333333,4,2,27,30,0,0
2360,-333.333333333333,4,2,1,30,0,0
2760,-333.333333333333,4,2,1,30,0,0
3160,-333.333333333333,4,2,27,30,0,0
3960,-333.333333333333,4,2,1,30,0,0
4360,-333.333333333333,4,2,1,30,0,0
4760,-333.333333333333,4,2,27,30,0,0
5160,-333.333333333333,4,2,1,30,0,0
5560,-333.333333333333,4,2,31,30,0,0
5960,-333.333333333333,4,2,1,30,0,0
6360,-333.333333333333,4,2,27,30,0,0
6760,-333.333333333333,4,2,1,30,0,0
7160,-333.333333333333,4,2,1,30,0,0
7560,-333.333333333333,4,2,16,30,0,0
7960,-333.333333333333,4,2,15,30,0,0
8360,-333.333333333333,4,2,14,30,0,0
8760,-333.333333333333,4,2,15,30,0,0
8960,-333.333333333333,4,2,1,30,0,0
9160,-333.333333333333,4,2,14,30,0,0
9360,-333.333333333333,4,2,1,30,0,0
9560,-333.333333333333,4,2,13,30,0,0
9960,-333.333333333333,4,2,1,30,0,0
10360,-333.333333333333,4,2,18,30,0,0
10560,-333.333333333333,4,2,1,30,0,0
10760,-333.333333333333,4,2,13,30,0,0
10960,-333.333333333333,4,2,1,30,0,0
11160,-333.333333333333,4,2,14,30,0,0
11560,-333.333333333333,4,2,16,30,0,0
11960,-333.333333333333,4,2,17,30,0,0
12360,-333.333333333333,4,2,21,30,0,0
12560,-333.333333333333,4,2,21,30,0,0
12760,-333.333333333333,4,2,17,30,0,0
13160,-333.333333333333,4,2,17,30,0,0
13360,-333.333333333333,4,2,17,30,0,0
13560,-250,4,2,83,40,0,0
14360,-250,4,2,1,40,0,0
15160,-250,4,2,84,40,0,0
15360,-250,4,2,1,40,0,0
15960,-250,4,2,85,40,0,0
16760,-250,4,2,82,40,0,0
16960,-250,4,2,1,40,0,0
17960,-250,4,2,81,40,0,0
18360,-250,4,2,77,40,0,0
19160,-250,4,2,75,40,0,0
19960,-250,4,2,76,40,0,0
20360,-250,4,2,1,40,0,0
21160,-250,4,2,79,40,0,0
21360,-250,4,2,1,40,0,0
21560,-250,4,2,74,40,0,0
21760,-250,4,2,1,40,0,0
22360,-250,4,2,72,40,0,0
23160,-250,4,2,73,40,0,0
23360,-250,4,2,1,40,0,0
24360,-250,4,2,78,40,0,0
24460,-250,4,2,1,40,0,0
24760,-250,4,2,86,40,0,0
25960,-250,4,2,1,40,0,0
26360,-250,4,2,80,40,0,0
29560,-250,4,2,1,30,0,0
30160,-212.765957446809,4,2,1,30,0,0
40760,-114.942528735632,4,2,2,40,0,0
41160,-114.942528735632,4,2,80,40,0,0
41360,-114.942528735632,4,2,2,40,0,0
42160,-114.942528735632,4,2,0,40,0,0
42360,-100,4,2,2,50,0,0
42660,-100,4,2,2,5,0,0
42760,-100,4,2,2,50,0,0
45860,-100,4,2,2,5,0,0
45960,-100,4,2,2,50,0,0
47460,-100,4,2,2,5,0,0
47560,-100,4,2,2,50,0,0
49060,-100,4,2,2,5,0,0
49160,-100,4,2,2,50,0,0
52260,-100,4,2,2,5,0,0
52360,-100,4,2,2,50,0,0
53560,-76.9230769230769,4,2,2,50,0,0
54160,-100,4,2,2,50,0,0
54860,-100,4,2,2,50,0,0
55160,-66.6666666666667,4,2,2,50,0,0
55460,-66.6666666666667,4,2,2,5,0,0
55560,-100,4,2,2,50,0,0
56960,-125,4,2,2,50,0,0
57960,-200,4,2,2,50,0,0
58360,-83.3333333333333,4,2,2,50,0,0
58660,-83.3333333333333,4,2,2,5,0,0
58760,-100,4,2,2,50,0,0
60060,-100,4,2,2,5,0,0
60160,-100,4,2,2,50,0,0
60360,-142.857142857143,4,2,2,50,0,0
60660,-142.857142857143,4,2,2,5,0,0
60760,-142.857142857143,4,2,2,50,0,0
60960,-100,4,2,2,50,0,0
61860,-100,4,2,2,5,0,0
61960,-100,4,2,2,50,0,0
62760,-125,4,2,2,50,0,0
63060,-125,4,2,2,5,0,0
63160,-90.9090909090909,4,2,2,50,0,0
66360,-66.6666666666667,4,2,2,50,0,0
67160,-133.333333333333,4,2,2,50,0,0
67560,-333.333333333333,4,2,99,70,0,0
67860,-333.333333333333,4,2,99,5,0,0
67960,-83.3333333333333,4,2,98,70,0,1
68360,-142.857142857143,4,2,46,70,0,1
68560,-83.3333333333333,4,2,47,70,0,1
68960,-142.857142857143,4,2,47,70,0,1
69560,-83.3333333333333,4,2,47,70,0,1
69960,-125,4,2,46,70,0,1
70160,-83.3333333333333,4,2,43,70,0,1
70560,-100,4,2,43,70,0,1
70860,-100,4,2,1,70,0,1
70960,-100,4,2,43,70,0,1
71160,-83.3333333333333,4,2,47,70,0,1
71560,-142.857142857143,4,2,46,70,0,1
71760,-76.9230769230769,4,2,47,70,0,1
72060,-76.9230769230769,4,2,1,70,0,1
72160,-76.9230769230769,4,2,51,70,0,1
72460,-76.9230769230769,4,2,1,70,0,1
72560,-76.9230769230769,4,2,51,70,0,1
73160,-90.9090909090909,4,2,51,70,0,1
73760,-90.9090909090909,4,2,45,70,0,1
73860,-90.9090909090909,4,2,1,70,0,1
73960,-90.9090909090909,4,2,45,70,0,1
74060,-90.9090909090909,4,2,1,70,0,1
74160,-90.9090909090909,4,2,45,70,0,1
74360,-76.9230769230769,4,2,43,70,0,1
74860,-76.9230769230769,4,2,1,70,0,1
74960,-62.5,4,2,47,70,0,1
75260,-62.5,4,2,1,70,0,1
75360,-100,4,2,43,70,0,1
75960,-76.9230769230769,4,2,42,70,0,1
76360,-76.9230769230769,4,2,51,70,0,1
76460,-76.9230769230769,4,2,1,70,0,1
76560,-62.5,4,2,47,70,0,1
76860,-62.5,4,2,1,70,0,1
76960,-100,4,2,45,70,0,1
77560,-100,4,2,40,70,0,1
77760,-76.9230769230769,4,2,45,70,0,1
78060,-76.9230769230769,4,2,1,70,0,1
78160,-76.9230769230769,4,2,44,70,0,1
78460,-76.9230769230769,4,2,1,70,0,1
78560,-100,4,2,43,70,0,1
78760,-100,4,2,43,70,0,1
78860,-100,4,2,1,70,0,1
78960,-100,4,2,43,70,0,1
79060,-100,4,2,1,70,0,1
79160,-58.8235294117647,4,2,47,70,0,1
79460,-58.8235294117647,4,2,51,70,0,1
79760,-303.030303030303,4,2,47,70,0,1
80360,-303.030303030303,4,2,99,70,0,0
80460,-303.030303030303,4,2,2,70,0,0
80660,-303.030303030303,4,2,2,5,0,0
80760,-76.9230769230769,4,2,98,70,0,1
81160,-76.9230769230769,4,2,46,70,0,1
81360,-76.9230769230769,4,2,47,70,0,1
81660,-76.9230769230769,4,2,1,70,0,1
81760,-76.9230769230769,4,2,47,70,0,1
81960,-71.4285714285714,4,2,47,70,0,1
82160,-66.6666666666667,4,2,47,70,0,1
82760,-66.6666666666667,4,2,46,70,0,1
82960,-76.9230769230769,4,2,43,70,0,1
83260,-76.9230769230769,4,2,1,70,0,1
83360,-76.9230769230769,4,2,43,70,0,1
83960,-71.4285714285714,4,2,47,70,0,1
84360,-71.4285714285714,4,2,46,70,0,1
84560,-76.9230769230769,4,2,47,70,0,1
84860,-76.9230769230769,4,2,1,70,0,1
84960,-71.4285714285714,4,2,51,70,0,1
85260,-71.4285714285714,4,2,1,70,0,1
85360,-66.6666666666667,4,2,52,70,0,1
85760,-76.9230769230769,4,2,51,70,0,1
85960,-71.4285714285714,4,2,47,70,0,1
86160,-76.9230769230769,4,2,46,70,0,1
86360,-76.9230769230769,4,2,47,70,0,1
86960,-76.9230769230769,4,2,45,70,0,1
87060,-76.9230769230769,4,2,45,70,0,1
87160,-83.3333333333333,4,2,45,70,0,1
87660,-83.3333333333333,4,2,1,70,0,1
87760,-76.9230769230769,4,2,43,70,0,1
88060,-76.9230769230769,4,2,1,70,0,1
88160,-90.9090909090909,4,2,45,70,0,1
88355,-76.9230769230769,4,2,45,70,0,1
88560,-76.9230769230769,4,2,45,70,0,1
88760,-76.9230769230769,4,2,44,70,0,1
89160,-76.9230769230769,4,2,43,70,0,1
89360,-76.9230769230769,4,2,47,70,0,1
89460,-76.9230769230769,4,2,1,70,0,1
89560,-76.9230769230769,4,2,47,70,0,1
89760,-76.9230769230769,4,2,46,70,0,1
89960,-76.9230769230769,4,2,45,70,0,1
90160,-76.9230769230769,4,2,43,70,0,1
90760,-76.9230769230769,4,2,41,70,0,1
90960,-76.9230769230769,4,2,43,70,0,1
91260,-76.9230769230769,4,2,1,70,0,1
91360,-76.9230769230769,4,2,44,70,0,1
91560,-71.4285714285714,4,2,45,70,0,1
91760,-76.9230769230769,4,2,44,70,0,1
91860,-76.9230769230769,4,2,44,70,0,1
91960,-58.8235294117647,4,2,2,70,0,1
92760,-76.9230769230769,4,2,48,70,0,1
93560,-90.9090909090909,4,2,43,60,0,0
93960,-90.9090909090909,4,2,2,70,0,0
95160,-76.9230769230769,4,2,2,70,0,0
95360,-71.4285714285714,4,2,2,70,0,0
95560,-66.6666666666667,4,2,2,70,0,0
95760,-62.5,4,2,2,70,0,0
95960,-76.9230769230769,4,2,2,70,0,0
96360,-76.9230769230769,4,2,1,70,0,0
96760,-125,4,2,2,50,0,0
106660,-125,4,2,2,5,0,0
106760,-125,4,2,2,50,0,0
107960,-76.9230769230769,4,2,2,50,0,0
109560,-66.6666666666667,4,2,2,60,0,0
109860,-100,4,2,2,5,0,0
109960,-100,4,2,2,60,0,0
113060,-100,4,2,2,5,0,0
113160,-100,4,2,2,60,0,0
113260,-100,4,2,2,5,0,0
113360,-100,4,2,2,60,0,0
115060,-100,4,2,2,5,0,0
115160,-100,4,2,2,60,0,0
115560,-111.111111111111,4,2,2,60,0,0
115860,-111.111111111111,4,2,2,5,0,0
115960,-111.111111111111,4,2,2,60,0,0
117560,-100,4,2,2,60,0,0
117860,-100,4,2,2,5,0,0
117960,-100,4,2,2,60,0,0
120160,-142.857142857143,4,2,2,60,0,0
120760,-71.4285714285714,4,2,2,65,0,0
121360,-333.333333333333,4,2,2,60,0,0
122360,-133.333333333333,4,2,97,50,0,0
123160,-133.333333333333,4,2,96,50,0,0
123360,-133.333333333333,4,2,97,50,0,0
123760,-133.333333333333,4,2,96,50,0,0
124060,-133.333333333333,4,2,96,5,0,0
124160,-133.333333333333,4,2,97,50,0,0
124560,-133.333333333333,4,2,96,50,0,0
124760,-133.333333333333,4,2,97,50,0,0
124960,-133.333333333333,4,2,96,50,0,0
125160,-133.333333333333,4,2,97,50,0,0
125460,-133.333333333333,4,2,97,5,0,0
125560,-133.333333333333,4,2,97,50,0,0
126360,-133.333333333333,4,2,96,50,0,0
126560,-133.333333333333,4,2,97,50,0,0
126960,-133.333333333333,4,2,96,50,0,0
127260,-133.333333333333,4,2,96,5,0,0
127360,-133.333333333333,4,2,97,50,0,0
127760,-133.333333333333,4,2,96,50,0,0
127960,-133.333333333333,4,2,97,50,0,0
128160,-133.333333333333,4,2,96,50,0,0
128360,-133.333333333333,4,2,97,50,0,0
128760,-117.647058823529,4,2,95,60,0,0
129560,-117.647058823529,4,2,94,60,0,0
129760,-117.647058823529,4,2,95,60,0,0
130160,-117.647058823529,4,2,94,60,0,0
130460,-117.647058823529,4,2,94,5,0,0
130560,-117.647058823529,4,2,95,60,0,0
130960,-117.647058823529,4,2,94,60,0,0
131160,-117.647058823529,4,2,95,60,0,0
131360,-117.647058823529,4,2,94,60,0,0
131560,-117.647058823529,4,2,95,60,0,0
131860,-117.647058823529,4,2,95,5,0,0
131960,-117.647058823529,4,2,95,60,0,0
132760,-117.647058823529,4,2,94,60,0,0
132960,-117.647058823529,4,2,95,60,0,0
133360,-117.647058823529,4,2,94,60,0,0
133760,-117.647058823529,4,2,95,60,0,0
134160,-117.647058823529,4,2,94,60,0,0
134360,-117.647058823529,4,2,95,60,0,0
134560,-117.647058823529,4,2,94,60,0,0
134760,-117.647058823529,4,2,95,60,0,0
134860,-117.647058823529,4,2,2,60,0,0
135160,-76.9230769230769,4,2,2,70,0,1
135210,-76.9230769230769,4,2,2,70,0,0
135460,-76.9230769230769,4,2,2,5,0,0
135560,-76.9230769230769,4,2,2,70,0,0
135960,-142.857142857143,4,2,2,70,0,0
136560,-76.9230769230769,4,2,2,70,0,0
136860,-76.9230769230769,4,2,2,5,0,0
136960,-76.9230769230769,4,2,2,70,0,0
137360,-100,4,2,2,70,0,0
138360,-76.9230769230769,4,2,2,70,0,0
139160,-142.857142857143,4,2,2,70,0,0
139760,-76.9230769230769,4,2,2,70,0,0
140060,-76.9230769230769,4,2,2,5,0,0
140160,-76.9230769230769,4,2,2,70,0,0
140560,-100,4,2,2,50,0,0
141560,-76.9230769230769,4,2,2,70,0,1
141610,-76.9230769230769,4,2,2,70,0,0
141860,-76.9230769230769,4,2,2,5,0,0
141960,-76.9230769230769,4,2,2,70,0,0
142160,-142.857142857143,4,2,2,70,0,0
142960,-76.9230769230769,4,2,2,70,0,0
143260,-76.9230769230769,4,2,2,5,0,0
143360,-76.9230769230769,4,2,2,70,0,0
143760,-100,4,2,2,70,0,0
146460,-100,4,2,2,5,0,0
146560,-100,4,2,2,70,0,0
147360,-100,4,2,2,70,0,0
147560,-83.3333333333333,4,2,2,70,0,0
147760,-71.4285714285714,4,2,2,70,0,0
147960,-500,4,2,2,35,0,0
148860,-500,4,2,2,5,0,0
148960,-500,4,2,2,35,0,0
150160,-250,4,2,2,35,0,0
159160,-250,4,2,2,50,0,0
160160,-250,4,2,2,35,0,0
160760,-250,4,2,2,50,0,0
161960,-434.782608695652,4,2,93,70,0,0
162260,-434.782608695652,4,2,93,5,0,0
162360,-58.8235294117647,4,2,92,70,0,1
162760,-71.4285714285714,4,2,40,70,0,1
162960,-71.4285714285714,4,2,51,70,0,1
163260,-71.4285714285714,4,2,1,70,0,1
163360,-71.4285714285714,4,2,51,70,0,1
163560,-66.6666666666667,4,2,51,70,0,1
163960,-66.6666666666667,4,2,51,70,0,1
164360,-71.4285714285714,4,2,40,70,0,1
164560,-76.9230769230769,4,2,49,70,0,1
164860,-76.9230769230769,4,2,1,70,0,1
164960,-76.9230769230769,4,2,49,70,0,1
165160,-71.4285714285714,4,2,49,70,0,1
165560,-62.5,4,2,51,70,0,1
165760,-66.6666666666667,4,2,40,70,0,1
165960,-71.4285714285714,4,2,40,70,0,1
166160,-76.9230769230769,4,2,51,70,0,1
166460,-76.9230769230769,4,2,1,70,0,1
166560,-71.4285714285714,4,2,50,70,0,1
166860,-71.4285714285714,4,2,1,70,0,1
166960,-76.9230769230769,4,2,50,70,0,1
167460,-76.9230769230769,4,2,1,70,0,1
167560,-76.9230769230769,4,2,50,70,0,1
168160,-90.9090909090909,4,2,53,70,0,1
168360,-83.3333333333333,4,2,53,70,0,1
168560,-76.9230769230769,4,2,53,70,0,1
168660,-76.9230769230769,4,2,1,70,0,1
168760,-76.9230769230769,4,2,49,70,0,1
169260,-76.9230769230769,4,2,1,70,0,1
169360,-71.4285714285714,4,2,51,70,0,1
169660,-71.4285714285714,4,2,1,70,0,1
169760,-83.3333333333333,4,2,49,70,0,1
169960,-76.9230769230769,4,2,49,70,0,1
170160,-71.4285714285714,4,2,49,70,0,1
170360,-76.9230769230769,4,2,48,70,0,1
170760,-71.4285714285714,4,2,50,70,0,1
170960,-76.9230769230769,4,2,51,70,0,1
171260,-76.9230769230769,4,2,1,70,0,1
171360,-76.9230769230769,4,2,53,70,0,1
171560,-71.4285714285714,4,2,53,70,0,1
171960,-66.6666666666667,4,2,47,70,0,1
172160,-71.4285714285714,4,2,53,70,0,1
172460,-71.4285714285714,4,2,1,70,0,1
172560,-71.4285714285714,4,2,45,70,0,1
172860,-71.4285714285714,4,2,1,70,0,1
172960,-71.4285714285714,4,2,49,70,0,1
173160,-71.4285714285714,4,2,49,70,0,1
173260,-71.4285714285714,4,2,1,70,0,1
173360,-66.6666666666667,4,2,49,70,0,1
173460,-66.6666666666667,4,2,1,70,0,1
173560,-55.5555555555556,4,2,51,70,0,1
173860,-55.5555555555556,4,2,50,70,0,1
174160,-55.5555555555556,4,2,51,70,0,1
174660,-55.5555555555556,4,2,1,70,0,1
174760,-333.333333333333,4,2,93,70,0,0
174860,-100,4,2,2,70,0,0
175060,-100,4,2,2,5,0,0
175160,-58.8235294117647,4,2,92,70,0,1
175560,-71.4285714285714,4,2,40,70,0,1
175760,-71.4285714285714,4,2,51,70,0,1
176060,-71.4285714285714,4,2,1,70,0,1
176160,-71.4285714285714,4,2,51,70,0,1
176360,-66.6666666666667,4,2,51,70,0,1
176760,-55.5555555555556,4,2,51,70,0,1
177160,-71.4285714285714,4,2,40,70,0,1
177360,-76.9230769230769,4,2,49,70,0,1
177660,-76.9230769230769,4,2,1,70,0,1
177760,-76.9230769230769,4,2,49,70,0,1
177960,-71.4285714285714,4,2,49,70,0,1
178060,-71.4285714285714,4,2,1,70,0,1
178160,-71.4285714285714,4,2,49,70,0,1
178260,-71.4285714285714,4,2,1,70,0,1
178360,-62.5,4,2,51,70,0,1
178660,-66.6666666666667,4,2,1,70,0,1
178760,-71.4285714285714,4,2,40,70,0,1
178960,-76.9230769230769,4,2,51,70,0,1
179360,-71.4285714285714,4,2,50,70,0,1
179760,-76.9230769230769,4,2,54,70,0,1
180060,-76.9230769230769,4,2,1,70,0,1
180160,-76.9230769230769,4,2,50,70,0,1
180360,-76.9230769230769,4,2,51,70,0,1
180460,-76.9230769230769,4,2,1,70,0,1
180560,-76.9230769230769,4,2,40,70,0,1
180660,-76.9230769230769,4,2,1,70,0,1
180760,-76.9230769230769,4,2,51,70,0,1
180860,-76.9230769230769,4,2,1,70,0,1
180960,-90.9090909090909,4,2,51,70,0,1
181160,-83.3333333333333,4,2,51,70,0,1
181360,-83.3333333333333,4,2,53,70,0,1
181460,-83.3333333333333,4,2,1,70,0,1
181560,-76.9230769230769,4,2,53,70,0,1
182060,-76.9230769230769,4,2,1,70,0,1
182160,-71.4285714285714,4,2,49,70,0,1
182460,-71.4285714285714,4,2,1,70,0,1
182560,-83.3333333333333,4,2,53,70,0,1
182760,-76.9230769230769,4,2,53,70,0,1
182960,-71.4285714285714,4,2,53,70,0,1
183060,-71.4285714285714,4,2,1,70,0,1
183160,-58.8235294117647,4,2,45,70,0,1
183560,-71.4285714285714,4,2,49,70,0,1
183760,-76.9230769230769,4,2,51,70,0,1
184060,-76.9230769230769,4,2,1,70,0,1
184160,-76.9230769230769,4,2,40,70,0,1
184360,-71.4285714285714,4,2,53,70,0,1
184560,-71.4285714285714,4,2,49,70,0,1
184760,-66.6666666666667,4,2,49,70,0,1
184860,-66.6666666666667,4,2,1,70,0,1
184960,-71.4285714285714,4,2,2,70,0,1
185060,-71.4285714285714,4,2,1,70,0,1
185160,-71.4285714285714,4,2,49,70,0,1
185360,-71.4285714285714,4,2,43,70,0,1
185660,-71.4285714285714,4,2,1,70,0,1
185760,-71.4285714285714,4,2,49,70,0,1
185960,-71.4285714285714,4,2,53,70,0,1
186160,-66.6666666666667,4,2,45,70,0,1
186260,-66.6666666666667,4,2,1,70,0,1
186360,-45.4545454545455,4,2,2,70,0,1
186960,-55.5555555555556,4,2,2,70,0,1
187160,-55.5555555555556,4,2,43,70,0,1
187560,-333.333333333333,4,2,43,70,0,1
187660,-100,4,2,43,70,0,1
187960,-100,4,2,49,70,0,0
188360,-100,4,2,2,70,0,0
190160,-100,4,2,41,45,0,0
190260,-100,4,2,1,45,0,0
190360,-100,4,2,49,50,0,0
190460,-100,4,2,2,50,0,0
190760,-100,4,2,49,50,0,0

[Colours]
Combo1 : 255,249,117
Combo2 : 81,88,108
Combo3 : 180,181,179
Combo4 : 216,170,217
Combo5 : 215,187,145
Combo6 : 253,85,85
Combo7 : 255,170,85
Combo8 : 255,140,198

[HitObjects]
413,246,760,6,0,L|401:182,1,59.9999981689454,2|0,3:2|3:0,0:0:0:0:
343,132,1560,2,0,P|379:110|456:126,1,119.999996337891,2|2,3:0|3:2,0:0:0:0:
402,186,2760,1,2,3:2:0:0:
285,85,3160,1,2,3:0:0:0:
402,186,3960,6,0,L|390:122,2,59.9999981689454,2|2|2,3:2|3:2|3:0,0:0:0:0:
354,332,5160,1,2,0:0:0:0:
295,278,5560,2,0,P|331:256|408:272,1,119.999996337891,2|2,3:0|3:0,0:0:0:0:
404,269,6760,1,0,3:0:0:0:
429,158,7160,102,0,L|441:94,1,59.9999981689454,2|2,3:2|3:2,0:0:0:0:
364,18,7960,2,0,L|352:76,1,59.9999981689454,2|2,3:0|3:2,0:0:0:0:
310,188,8760,2,0,P|347:208|371:282,1,119.999996337891,2|2,3:0|3:0,0:0:0:0:
292,266,9960,1,0,3:0:0:0:
449,209,10360,6,0,P|411:229|387:303,1,119.999996337891,2|2,3:0|3:2,0:0:0:0:
467,287,11560,1,2,3:0:0:0:
362,364,11960,2,0,P|316:361|286:326,1,89.9999972534181,2|0,3:0|0:0,0:0:0:0:
250,247,12760,2,0,P|219:278|175:280,1,89.9999972534181,2|0,3:0|0:0,0:0:0:0:
67,161,13560,6,0,P|120:155|116:209,1,120,2|0,3:0|0:0,0:0:0:0:
72,357,14360,2,0,P|66:297|41:243,1,120,2|0,3:2|0:0,0:0:0:0:
0,144,15160,6,0,L|39:136,1,40,2|2,3:0|0:0,0:0:0:0:
103,87,15560,2,0,L|142:94,1,40,2|2,0:0|0:0,0:0:0:0:
221,107,15960,1,2,3:0:0:0:
0,144,16760,102,0,L|39:136,1,40,2|2,3:0|0:0,0:0:0:0:
103,87,17160,2,0,L|142:94,1,40,2|2,0:0|0:0,0:0:0:0:
221,107,17560,1,2,3:2:0:0:
219,125,17960,1,2,0:3:0:0:
103,199,18360,2,0,B|78:260|129:258|84:328,1,120,2|0,3:0|0:0,0:0:0:0:
217,358,19160,2,0,P|178:355|152:384,1,80,2|0,3:0|0:0,0:0:0:0:
251,225,19960,5,2,3:0:0:0:
150,176,20360,1,2,0:0:0:0:
243,114,20760,2,0,P|235:75|204:52,1,80,2|2,3:2|0:0,0:0:0:0:
99,11,21560,102,0,L|92:50,1,40,2|2,3:0|0:0,0:0:0:0:
36,107,21960,2,0,L|42:146,1,40,2|2,3:2|0:0,0:0:0:0:
61,224,22360,1,2,3:0:0:0:
99,11,23160,6,0,L|92:50,1,40,2|2,3:0|0:0,0:0:0:0:
36,107,23560,2,0,L|42:146,1,40,2|2,3:2|0:0,0:0:0:0:
61,224,23960,1,2,3:2:0:0:
65,241,24360,1,2,3:0:0:0:
181,350,24760,102,0,B|206:293|161:256|161:256|138:210|176:160,1,200,2|0,3:0|0:0,0:0:0:0:
213,98,25960,2,0,L|210:78,3,20,2|0|0|0,3:2|3:2|3:2|3:2,0:0:0:0:
202,38,26360,5,2,3:0:0:0:
256,192,26460,12,8,27960,3:0:0:0:
312,134,29560,69,0,3:2:0:0:
315,148,29760,1,0,3:2:0:0:
318,163,29960,1,2,3:2:0:0:
386,179,30160,6,0,L|493:162,1,93.9999985656739,2|2,3:2|3:2,0:0:0:0:
342,238,30960,2,0,L|249:252,1,93.9999985656739,2|2,3:2|0:0,0:0:0:0:
365,162,31760,101,2,3:2:0:0:
435,145,32160,1,2,3:2:0:0:
505,128,32560,1,2,3:2:0:0:
365,162,33360,5,2,3:2:0:0:
435,145,33760,1,2,3:2:0:0:
505,128,34160,1,2,3:2:0:0:
365,162,34760,101,2,3:2:0:0:
435,145,34960,2,0,P|422:116|396:97,1,46.9999992828369,2|0,3:2|0:0,0:0:0:0:
365,162,35360,1,2,0:0:0:0:
365,162,35760,2,0,L|381:256,1,93.9999985656739,2|0,0:0|3:2,0:0:0:0:
261,103,36560,5,2,3:2:0:0:
295,163,36760,1,2,0:0:0:0:
331,102,36960,1,2,3:2:0:0:
225,164,37360,1,2,3:2:0:0:
332,225,37760,1,2,0:0:0:0:
297,42,38160,1,2,3:2:0:0:
259,224,38560,1,2,3:2:0:0:
401,101,38960,101,2,3:2:0:0:
365,162,39160,2,0,P|408:172|456:146,1,93.9999985656739,2|2,3:2|3:2,0:0:0:0:
500,96,39760,2,0,P|487:53|440:25,1,93.9999985656739,2|2,3:2|3:2,0:0:0:0:
391,83,40360,1,2,3:2:0:0:
391,83,40560,1,2,3:2:0:0:
222,43,40760,5,4,3:0:0:0:
313,196,40960,1,2,3:2:0:0:
313,196,41060,2,0,P|363:190|394:160,1,87.0000007301331,4|0,3:0|0:0,0:0:0:0:
407,103,41360,1,2,3:2:0:0:
403,93,41460,1,4,3:0:0:0:
480,232,41660,101,4,3:0:0:0:
480,232,41760,1,2,3:2:0:0:
480,232,41860,1,0,3:2:0:0:
480,232,41960,2,0,L|472:189,1,43.5000003650665,10|0,1:2|0:0,0:0:0:0:
386,41,42160,2,0,L|393:83,1,43.5000003650665,8|8,3:0|3:0,0:0:0:0:
248,192,42360,22,0,P|190:182|171:100,1,150,6|0,1:2|0:0,0:0:0:0:
162,197,42760,2,0,P|177:244|192:292,1,100,10|2,0:3|3:2,0:0:0:0:
211,339,43060,1,2,0:3:0:0:
211,339,43160,1,2,1:3:0:0:
56,361,43360,2,0,P|102:350|137:383,1,100,2|10,3:2|0:3,0:0:0:0:
0,300,43760,1,2,3:2:0:0:
0,300,43860,1,2,0:3:0:0:
0,300,43960,5,0,1:2:0:0:
142,191,44160,2,0,P|95:201|78:246,1,100,2|10,3:2|0:3,0:0:0:0:
222,211,44560,2,0,P|223:161|193:123,1,100,2|2,3:2|1:3,0:0:0:0:
16,21,44960,1,2,3:2:0:0:
16,21,45060,1,2,0:3:0:0:
16,21,45160,2,0,P|20:45|27:69,1,50,10|0,0:3|0:0,0:0:0:0:
85,131,45360,2,0,P|80:155|73:179,1,50,2|0,3:2|0:0,0:0:0:0:
0,209,45560,102,0,P|24:273|53:353,1,150,2|0,1:3|0:0,0:0:0:0:
60,377,45960,2,0,P|77:330|94:283,1,100,10|2,0:3|3:2,0:0:0:0:
127,253,46260,1,2,0:3:0:0:
127,253,46360,1,0,1:2:0:0:
55,143,46560,2,0,P|104:161|161:178,1,100,2|10,3:2|0:3,0:0:0:0:
233,52,46960,1,2,3:2:0:0:
233,52,47060,1,2,0:3:0:0:
233,52,47160,6,0,P|158:56|92:23,1,150,2|2,1:3|0:3,0:0:0:0:
54,0,47560,1,10,0:2:0:0:
12,131,47760,2,0,P|20:180|28:229,1,100,2|2,3:2|1:3,0:0:0:0:
106,368,48160,2,0,P|113:318|122:269,1,100,2|10,3:2|0:3,0:0:0:0:
271,215,48560,1,2,3:2:0:0:
271,215,48660,1,2,0:3:0:0:
271,215,48760,102,0,P|207:222|173:139,1,150,2|0,1:3|0:0,0:0:0:0:
178,140,49160,1,10,0:3:0:0:
71,44,49360,1,2,3:0:0:0:
1,214,49560,2,0,P|6:238|13:263,1,50,2|0,1:3|0:0,0:0:0:0:
94,274,49760,2,0,P|83:225|73:176,1,100,2|10,3:0|0:3,0:0:0:0:
55,26,50160,1,2,3:0:0:0:
55,26,50260,1,2,0:3:0:0:
55,26,50360,5,2,1:3:0:0:
68,148,50560,2,0,P|121:142|138:100,1,100,2|10,3:0|0:3,0:0:0:0:
236,2,50960,2,0,P|225:50|215:99,1,100,2|2,3:0|1:3,0:0:0:0:
159,229,51360,1,2,3:0:0:0:
155,210,51560,1,10,0:3:0:0:
257,162,51760,2,0,P|250:186|245:210,1,50,2|0,3:0|0:0,0:0:0:0:
164,247,51960,102,0,P|106:257|85:339,1,150,2|0,1:3|0:0,0:0:0:0:
84,336,52360,1,10,0:3:0:0:
229,310,52560,2,0,P|239:261|247:211,1,100,2|0,3:2|1:2,0:0:0:0:
184,62,52960,1,2,3:0:0:0:
103,102,53160,1,10,0:3:0:0:
0,64,53360,1,2,3:0:0:0:
190,149,53560,6,0,B|239:166|239:166|317:156,1,129.999994049073,12|2,1:2|0:0,0:0:0:0:
167,164,53860,2,0,B|119:146|119:146|39:155,1,129.999994049073,12|0,1:2|0:0,0:0:0:0:
41,156,54160,1,12,1:2:0:0:
120,277,54360,1,0,3:0:0:0:
120,277,54460,1,0,1:0:0:0:
120,277,54560,2,0,P|117:247|102:225,1,50,0|0,3:0|3:0,0:0:0:0:
206,381,54760,1,10,3:0:0:0:
206,381,54860,1,2,3:0:0:0:
206,381,54960,2,0,P|207:356|218:334,1,50,2|2,3:0|3:0,0:0:0:0:
402,284,55160,70,0,B|473:261|473:261|398:265|398:265|327:287,1,225.000008583069,6|0,1:2|0:0,0:0:0:0:
248,260,55560,6,0,P|214:224|212:175,1,100,10|0,0:0|3:0,0:0:0:0:
315,210,55960,1,2,1:2:0:0:
300,360,56160,1,2,3:2:0:0:
300,360,56260,1,2,0:3:0:0:
300,360,56360,1,10,0:3:0:0:
158,284,56560,101,2,3:2:0:0:
363,313,56760,1,2,1:2:0:0:
158,284,56960,2,0,P|197:278|227:253,1,80,2|8,3:2|0:0,0:0:0:0:
384,240,57360,2,0,P|345:235|315:210,1,80,2|0,3:2|1:0,0:0:0:0:
226,23,57760,5,2,3:2:0:0:
241,177,57960,2,0,L|245:151,1,25,10|0,0:0|0:0,0:0:0:0:
278,94,58160,2,0,L|273:119,1,25,2|0,3:2|0:0,0:0:0:0:
449,194,58360,102,0,B|503:189|528:142|528:142|491:182|446:180,1,179.999994506836,2|0,1:2|0:0,0:0:0:0:
350,116,58760,2,0,P|360:139|380:154,1,50,10|0,0:0|0:0,0:0:0:0:
444,105,58960,6,0,B|457:63|457:63|464:58|464:58|479:11,1,100,2|0,3:2|1:0,0:0:0:0:
386,227,59360,2,0,B|373:269|373:269|366:274|366:274|351:321,1,100,2|8,3:2|0:0,0:0:0:0:
233,126,59760,102,0,B|254:194|254:194|264:201|264:201|283:263,1,150,2|0,3:2|0:0,0:0:0:0:
267,384,60160,2,0,L|280:335,1,50,2|0,3:2|0:0,0:0:0:0:
450,265,60360,2,0,B|405:278|405:278|400:285|400:285|353:300,1,104.999996795654,10|0,0:0|0:0,0:0:0:0:
343,303,60760,1,0,1:0:0:0:
146,362,60960,22,0,P|186:335|194:287,1,100,2|8,3:2|0:0,0:0:0:0:
67,179,61360,1,2,3:2:0:0:
67,179,61460,1,2,0:3:0:0:
67,179,61560,2,0,P|140:194|214:207,1,150,2|0,1:2|0:0,0:0:0:0:
293,100,61960,6,0,P|274:115|268:139,1,50,10|0,0:0|0:0,0:0:0:0:
281,278,62160,2,0,P|317:245|320:196,1,100,2|0,3:2|1:0,0:0:0:0:
198,130,62560,1,0,3:0:0:0:
165,347,62760,102,0,P|162:294|214:314,1,120,10|0,0:0|0:0,0:0:0:0:
183,316,63160,6,0,P|127:320|91:374,1,110.000003356934,2|0,1:2|3:0,0:0:0:0:
22,378,63460,1,2,0:0:0:0:
10,368,63560,2,0,P|4:341|-1:314,1,55.0000016784668,10|0,0:0|0:0,0:0:0:0:
79,154,63760,2,0,P|67:207|56:261,1,110.000003356934,2|0,3:2|1:0,0:0:0:0:
0,129,64160,1,2,3:2:0:0:
0,129,64260,1,2,0:3:0:0:
0,129,64360,1,8,0:0:0:0:
149,67,64560,2,0,P|155:93|162:120,1,55.0000016784668,2|0,3:2|0:0,0:0:0:0:
223,184,64760,102,0,P|210:237|196:290,1,110.000003356934,2|0,1:3|3:0,0:0:0:0:
280,102,65060,1,0,0:0:0:0:
269,95,65160,2,0,P|215:108|162:121,1,110.000003356934,10|0,0:3|3:0,0:0:0:0:
0,156,65560,1,2,1:3:0:0:
99,37,65760,1,2,3:2:0:0:
94,63,65860,1,0,3:0:0:0:
89,90,65960,2,0,L|79:144,1,55.0000016784668,10|0,0:0|0:0,0:0:0:0:
32,295,66160,2,0,L|23:241,1,55.0000016784668,2|0,3:2|0:0,0:0:0:0:
195,219,66360,6,0,P|128:224|136:294,1,150.000005722046,6|0,1:2|3:0,0:0:0:0:
290,257,66660,2,0,B|323:268|323:268|209:288,1,150.000005722046,6|0,1:2|0:0,0:0:0:0:
367,327,66960,2,0,P|391:299|395:260,1,75.0000028610231,6|0,1:2|0:0,0:0:0:0:
355,201,67160,102,0,L|358:182,7,18.7500007152558,2|2|2|2|2|2|2|0,0:0|0:0|0:0|0:0|0:0|0:0|0:0|0:0,0:0:0:0:
376,156,67560,6,0,L|368:111,1,44.999998626709,10|0,0:3|0:0,0:0:0:0:
135,117,67960,6,0,P|214:124|282:53,1,179.999994506836,6|0,1:3|0:0,0:0:0:0:
357,39,68360,2,0,L|365:-6,1,34.9999989318848,10|0,0:0|0:0,0:0:0:0:
493,177,68560,2,0,P|414:184|345:99,1,179.999994506836,2|0,3:2|0:0,0:0:0:0:
357,39,68960,2,0,L|365:-3,1,34.9999989318848,2|0,3:2|0:0,0:0:0:0:
422,157,69160,2,0,L|428:122,1,34.9999989318848,10|0,0:0|0:0,0:0:0:0:
271,226,69360,2,0,L|277:191,1,34.9999989318848,2|0,3:2|0:0,0:0:0:0:
92,31,69560,6,0,P|150:96|237:92,1,179.999994506836,2|0,1:2|0:0,0:0:0:0:
345,54,69960,2,0,L|334:104,1,40,10|0,0:0|0:0,0:0:0:0:
502,157,70160,2,0,P|415:151|357:216,1,179.999994506836,2|0,3:2|0:0,0:0:0:0:
312,377,70560,2,0,B|318:364|318:364|298:273,1,100,2|8,3:2|0:0,0:0:0:0:
316,281,70860,1,2,0:0:0:0:
432,321,70960,2,0,L|445:254,1,50,2|0,3:2|0:0,0:0:0:0:
420,119,71160,6,0,P|361:183|274:179,1,179.999994506836,2|0,1:2|0:0,0:0:0:0:
247,88,71560,2,0,L|253:53,1,34.9999989318848,10|0,0:0|0:0,0:0:0:0:
75,182,71760,2,0,P|114:139|187:145,1,129.999994049073,2|0,3:2|1:0,0:0:0:0:
195,156,72060,1,2,0:0:0:0:
275,260,72160,2,0,P|212:255|167:299,1,129.999994049073,2|8,3:2|0:0,0:0:0:0:
164,330,72460,1,2,0:0:0:0:
26,350,72560,2,0,P|19:318|13:278,1,64.9999970245363,2|0,3:2|0:0,0:0:0:0:
62,86,72760,6,0,B|120:92|116:160|116:160|99:253,1,194.999991073609,0|0,1:2|0:0,0:0:0:0:
173,374,73160,2,0,P|142:317|202:345,1,165.000005035401,8|0,0:0|0:0,0:0:0:0:
197,238,73560,2,0,P|191:270|184:301,1,55.0000016784668,0|0,1:0|0:0,0:0:0:0:
347,311,73760,1,2,3:2:0:0:
352,302,73860,1,2,0:0:0:0:
349,229,73960,1,10,0:0:0:0:
344,218,74060,1,2,0:0:0:0:
278,257,74160,2,0,P|310:262|341:269,1,55.0000016784668,2|0,3:2|0:0,0:0:0:0:
511,367,74360,70,0,B|429:322|447:251|447:249|465:185|390:136,1,259.999988098145,2|8,1:2|0:0,0:0:0:0:
474,213,74860,1,2,0:0:0:0:
311,127,74960,2,0,B|260:109|196:140|196:140|219:124|224:96,1,160,2|0,3:2|1:0,0:0:0:0:
218,98,75260,1,2,0:0:0:0:
376,72,75360,2,0,L|434:60,1,50,2|0,3:2|0:0,0:0:0:0:
450,22,75560,2,0,L|412:55,1,50,10|0,0:0|0:0,0:0:0:0:
243,4,75760,2,0,L|280:37,1,50,2|0,3:2|0:0,0:0:0:0:
395,158,75960,6,0,B|351:237|279:220|278:219|214:202|173:265,1,259.999988098145,2|10,1:2|0:0,0:0:0:0:
267,204,76460,1,2,0:0:0:0:
232,365,76560,2,0,B|240:376|240:376|256:308|256:308|221:355|179:355,1,160,2|0,3:2|1:0,0:0:0:0:
294,337,76860,1,2,0:0:0:0:
126,326,76960,2,0,P|110:306|104:282,1,50,2|0,3:2|0:0,0:0:0:0:
34,185,77160,2,0,P|28:209|12:228,1,50,10|0,0:0|0:0,0:0:0:0:
0,355,77360,2,0,P|24:349|43:333,1,50,2|0,3:2|0:0,0:0:0:0:
117,136,77560,2,0,P|128:157|130:182,1,50,2|0,1:2|0:0,0:0:0:0:
271,304,77760,6,0,P|332:289|364:235,1,129.999994049073,2|8,3:2|0:0,0:0:0:0:
322,266,78060,1,2,0:0:0:0:
220,78,78160,2,0,P|280:96|306:161,1,129.999994049073,2|0,3:2|1:0,0:0:0:0:
294,186,78460,1,2,0:0:0:0:
403,110,78560,2,0,P|389:130|385:155,1,50,2|0,3:2|0:0,0:0:0:0:
451,207,78760,1,10,0:0:0:0:
466,205,78860,1,2,0:0:0:0:
490,217,78960,1,2,3:2:0:0:
501,208,79060,1,2,0:0:0:0:
383,238,79160,6,0,B|405:278|452:285|452:285|414:322|424:373,1,170.000003242493,6|0,1:2|0:0,0:0:0:0:
244,384,79460,2,0,B|252:346|214:309|214:309|261:302|283:262,1,170.000003242493,6|0,1:2|0:0,0:0:0:0:
312,166,79760,69,6,1:2:0:0:
319,142,79860,1,0,3:0:0:0:
301,109,79960,1,2,1:3:0:0:
259,109,80060,1,2,0:3:0:0:
246,149,80160,1,2,0:3:0:0:
280,173,80260,1,2,0:3:0:0:
329,117,80360,70,0,L|334:60,1,49.499999848938,10|2,0:3|0:3,0:0:0:0:
157,38,80760,38,0,P|251:24|199:100,1,194.999991073609,6|0,1:3|0:0,0:0:0:0:
97,141,81160,2,0,P|128:146|152:168,1,64.9999970245363,10|0,0:0|0:0,0:0:0:0:
319,225,81360,2,0,P|255:220|231:298,1,129.999994049073,2|0,3:2|1:0,0:0:0:0:
231,296,81660,1,2,0:0:0:0:
400,335,81760,2,0,P|368:344|336:349,1,64.9999970245363,2|0,3:2|0:0,0:0:0:0:
437,171,81960,2,0,P|439:205|422:235,1,69.9999978637696,10|0,0:0|0:0,0:0:0:0:
273,96,82160,2,0,P|309:87|345:78,1,75.0000028610231,2|0,3:2|0:0,0:0:0:0:
225,272,82360,6,0,B|238:208|191:172|191:172|146:120|169:59,1,225.000008583069,2|0,1:2|0:0,0:0:0:0:
338,165,82760,2,0,P|334:202|315:234,1,75.0000028610231,10|0,0:0|0:0,0:0:0:0:
101,364,82960,2,0,P|91:302|129:251,1,129.999994049073,2|0,3:2|1:0,0:0:0:0:
166,320,83260,1,2,0:0:0:0:
59,193,83360,2,0,P|79:168|87:137,1,64.9999970245363,2|0,3:2|0:0,0:0:0:0:
82,8,83560,2,0,P|57:28|26:36,1,64.9999970245363,10|0,0:0|0:0,0:0:0:0:
164,65,83760,2,0,P|196:71|228:77,1,64.9999970245363,2|0,3:2|0:0,0:0:0:0:
180,257,83960,6,0,P|173:187|277:236,1,209.999993591309,2|0,1:2|0:0,0:0:0:0:
132,331,84360,2,0,P|97:323|73:297,1,69.9999978637696,10|0,0:0|0:0,0:0:0:0:
276,295,84560,2,0,P|338:301|374:353,1,129.999994049073,2|0,3:2|1:0,0:0:0:0:
375,373,84860,1,2,0:0:0:0:
474,213,84960,2,0,P|516:268|493:334,1,139.999995727539,2|8,3:2|0:0,0:0:0:0:
481,338,85260,1,2,0:0:0:0:
289,169,85360,2,0,P|351:194|374:131,1,150.000005722046,2|0,3:2|1:0,0:0:0:0:
266,11,85660,1,0,0:0:0:0:
268,91,85760,6,0,P|304:78|334:59,1,64.9999970245363,2|0,3:2|0:0,0:0:0:0:
101,65,85960,2,0,P|66:67|43:93,1,69.9999978637696,10|0,0:0|0:0,0:0:0:0:
179,116,86160,2,0,P|185:84|191:52,1,64.9999970245363,2|0,3:2|0:0,0:0:0:0:
37,214,86360,2,0,P|127:199|65:262,1,194.999991073609,2|0,1:2|0:0,0:0:0:0:
60,362,86760,2,0,P|47:331|32:303,1,64.9999970245363,8|0,0:0|0:0,0:0:0:0:
0,130,86960,1,2,3:2:0:0:
13,118,87060,1,2,0:0:0:0:
74,86,87160,70,0,P|183:123|213:234,1,239.999992675781,2|8,1:2|0:0,0:0:0:0:
201,254,87660,1,2,0:0:0:0:
265,377,87760,2,0,P|303:326|293:232,1,129.999994049073,2|0,3:2|1:0,0:0:0:0:
292,238,88060,1,2,0:0:0:0:
281,99,88160,2,0,P|295:122|318:140,1,55.0000016784668,2|0,3:2|0:0,0:0:0:0:
448,205,88360,2,0,P|417:196|388:211,1,64.9999970245363,10|0,0:0|0:0,0:0:0:0:
213,315,88560,2,0,P|232:290|212:273,1,64.9999970245363,2|0,3:2|0:0,0:0:0:0:
94,151,88760,6,0,B|94:101|147:85|204:115|157:214,1,194.999991073609,2|0,1:2|0:0,0:0:0:0:
36,234,89160,2,0,P|22:205|7:176,1,64.9999970245363,10|0,0:0|0:0,0:0:0:0:
148,32,89360,1,2,3:2:0:0:
171,22,89460,1,2,0:0:0:0:
66,10,89560,2,0,P|95:24|124:38,1,64.9999970245363,0|0,1:0|0:0,0:0:0:0:
284,30,89760,2,0,P|256:47|230:66,1,64.9999970245363,2|0,3:2|0:0,0:0:0:0:
173,169,89960,2,0,P|201:181|209:211,1,64.9999970245363,10|0,0:0|0:0,0:0:0:0:
370,185,90160,2,0,P|320:225|310:297,1,129.999994049073,2|0,3:2|1:0,0:0:0:0:
308,288,90560,6,0,L|240:302,1,64.9999970245363,2|0,3:2|0:0,0:0:0:0:
385,346,90760,2,0,L|448:359,1,64.9999970245363,10|0,0:0|0:0,0:0:0:0:
169,367,90960,2,0,P|141:310|160:249,1,129.999994049073,2|0,3:2|1:0,0:0:0:0:
176,237,91260,1,2,0:0:0:0:
281,140,91360,2,0,P|275:171|262:201,1,64.9999970245363,2|0,3:2|0:0,0:0:0:0:
183,95,91560,2,0,P|170:65|164:24,1,69.9999978637696,10|0,0:0|0:0,0:0:0:0:
386,20,91760,1,2,3:2:0:0:
376,49,91860,1,2,2:0:0:0:
453,108,91960,6,0,P|392:75|405:142,1,170.000003242493,6|0,1:2|0:0,0:0:0:0:
354,226,92260,2,0,P|437:240|512:280,1,170.000003242493,6|0,1:2|0:0,0:0:0:0:
358,384,92560,2,0,P|343:344|321:308,1,85.0000016212464,6|0,1:2|0:0,0:0:0:0:
234,233,92760,2,0,P|249:228|256:214,4,32.4999985122681,2|0|2|0|2,3:2|3:0|3:0|3:0|3:0,3:0:0:0:
153,277,93060,1,2,3:0:0:0:
137,271,93160,1,8,0:0:0:0:
90,90,93360,1,2,3:0:0:0:
264,13,93560,70,0,P|228:62|242:120,1,110.000003356934,6|0,1:2|0:0,0:0:0:0:
420,252,93960,85,2,1:2:0:0:
443,177,94160,1,2,3:2:0:0:
211,319,94360,1,2,1:2:0:0:
323,353,94560,1,2,3:2:0:0:
188,170,94760,1,2,1:2:0:0:
228,304,94960,1,2,3:2:0:0:
308,140,95160,6,0,P|301:171|296:204,1,64.9999970245363,2|0,1:2|0:0,0:0:0:0:
243,80,95360,2,0,P|240:45|230:11,1,69.9999978637696,2|0,1:2|3:0,0:0:0:0:
445,132,95560,2,0,P|421:157|376:170,1,75.0000028610231,2|0,1:2|0:0,0:0:0:0:
151,202,95760,2,0,P|174:170|212:160,1,80,2|0,1:2|3:0,0:0:0:0:
388,352,95960,101,2,1:2:0:0:
367,336,96060,1,2,3:0:0:0:
357,311,96160,1,2,3:0:0:0:
359,285,96260,1,2,3:0:0:0:
380,261,96360,1,10,3:2:0:0:
423,249,96460,1,2,3:0:0:0:
467,275,96560,1,2,3:0:0:0:
472,339,96660,1,2,3:0:0:0:
408,372,96760,86,0,L|411:325,1,40,4|0,1:2|0:0,0:0:0:0:
423,218,96960,1,2,3:0:0:0:
326,297,97160,1,10,0:3:0:0:
313,221,97360,1,2,3:2:0:0:
423,218,97560,1,2,1:3:0:0:
307,95,97760,5,2,3:2:0:0:
292,108,97860,1,0,0:0:0:0:
283,126,97960,1,10,0:3:0:0:
283,146,98060,1,2,0:3:0:0:
291,166,98160,2,0,L|371:172,1,80,2|0,3:2|1:2,0:0:0:0:
402,320,98560,101,2,3:2:0:0:
423,300,98660,1,2,0:3:0:0:
435,274,98760,1,10,0:3:0:0:
435,245,98860,1,2,0:3:0:0:
423,218,98960,1,2,3:2:0:0:
290,267,99160,1,2,1:3:0:0:
370,171,99360,1,2,3:2:0:0:
291,166,99560,1,10,0:3:0:0:
433,244,99760,1,2,3:2:0:0:
433,244,99960,6,0,P|468:245|512:219,1,80,2|2,1:3|3:0,0:0:0:0:
452,170,100360,1,10,0:3:0:0:
310,239,100560,2,0,P|290:204|290:165,1,80,2|0,3:2|1:2,0:0:0:0:
433,244,100960,2,0,P|452:209|452:170,1,80,2|10,3:2|0:3,0:0:0:0:
381,31,101360,1,2,3:2:0:0:
381,31,101560,102,0,L|378:70,1,40,2|0,1:3|0:0,0:0:0:0:
283,162,101760,1,2,3:0:0:0:
268,149,101860,1,2,0:3:0:0:
259,131,101960,1,10,0:2:0:0:
259,111,102060,1,2,0:3:0:0:
267,91,102160,2,0,L|347:85,1,80,2|2,3:2|1:3,0:0:0:0:
497,162,102560,2,0,L|417:168,1,80,2|10,3:2|0:3,0:0:0:0:
450,41,102960,1,2,3:2:0:0:
303,27,103160,6,0,L|306:73,1,40,2|0,1:3|0:0,0:0:0:0:
315,185,103360,1,2,3:0:0:0:
389,103,103560,1,10,0:3:0:0:
419,168,103760,1,2,3:0:0:0:
315,185,103960,1,2,1:3:0:0:
321,292,104160,2,0,L|324:332,1,40,2|2,3:0|0:3,0:0:0:0:
422,372,104360,1,10,0:3:0:0:
431,368,104460,1,2,3:0:0:0:
436,357,104560,102,0,L|433:317,2,40,2|0|2,3:0|0:0|1:3,0:0:0:0:
475,196,104960,2,0,L|478:236,2,40,2|2|10,3:0|0:3|0:3,0:0:0:0:
418,144,105260,1,2,0:3:0:0:
418,144,105360,6,0,P|428:105|456:77,1,80,2|2,3:0|1:3,0:0:0:0:
305,0,105760,2,0,P|332:28|343:66,1,80,2|10,3:0|0:3,0:0:0:0:
413,12,106160,1,2,3:0:0:0:
498,159,106360,102,0,L|375:148,1,120,2|0,1:3|0:0,0:0:0:0:
264,168,106760,1,10,0:3:0:0:
264,168,106960,2,0,P|247:203|250:243,1,80,0|0,3:0|1:2,0:0:0:0:
335,215,107360,1,2,3:0:0:0:
301,100,107560,1,10,0:3:0:0:
335,215,107760,1,2,3:0:0:0:
501,357,107960,6,0,B|408:370|408:370|449:354,1,129.999994049073,12|2,1:2|0:0,0:0:0:0:
295,330,108260,2,0,B|328:316|328:316|235:329,1,129.999994049073,12|0,1:2|0:0,0:0:0:0:
403,283,108560,2,0,B|433:273|433:273|401:275,1,64.9999970245363,12|0,1:2|0:0,0:0:0:0:
307,190,108760,101,0,3:0:0:0:
288,196,108860,1,0,1:0:0:0:
288,216,108960,1,0,3:0:0:0:
307,221,109060,1,0,3:0:0:0:
318,206,109160,1,10,3:0:0:0:
323,173,109260,1,2,3:0:0:0:
329,128,109360,1,2,3:0:0:0:
338,76,109460,1,2,3:0:0:0:
344,12,109560,6,0,B|284:-7|228:44|228:44|196:95|129:75,1,225.000008583069,6|0,1:2|0:0,0:0:0:0:
63,0,109960,6,0,P|108:16|125:62,1,100,10|0,0:0|3:0,0:0:0:0:
49,225,110360,1,2,1:2:0:0:
20,129,110560,2,0,P|92:140|145:163,1,100,2|10,3:2|0:3,0:0:0:0:
244,308,110960,1,2,3:2:0:0:
244,308,111060,1,2,0:3:0:0:
244,308,111160,6,0,P|251:284|260:260,1,50,2|0,1:2|0:0,0:0:0:0:
263,136,111360,2,0,P|219:157|200:201,1,100,2|8,3:2|0:0,0:0:0:0:
181,384,111760,1,2,3:2:0:0:
181,384,111860,1,2,0:3:0:0:
181,384,111960,1,0,1:0:0:0:
65,343,112160,1,2,3:2:0:0:
70,323,112360,1,10,0:0:0:0:
194,246,112560,1,2,3:2:0:0:
34,93,112760,102,0,P|82:148|73:223,1,150,2|0,1:2|0:0,0:0:0:0:
11,75,113160,2,0,P|16:56|31:17,1,50,10|0,0:0|0:0,0:0:0:0:
186,0,113360,2,0,P|140:10|130:56,1,100,2|0,3:2|1:0,0:0:0:0:
177,265,113760,2,0,P|190:206|194:159,1,100,2|8,3:2|0:0,0:0:0:0:
95,302,114160,1,2,3:2:0:0:
95,302,114260,1,2,0:3:0:0:
95,302,114360,5,0,1:0:0:0:
234,384,114560,2,0,P|231:359|223:335,1,50,2|0,3:2|0:0,0:0:0:0:
332,238,114760,2,0,P|259:250|252:322,1,150,10|0,0:0|0:0,0:0:0:0:
317,368,115160,1,0,1:0:0:0:
317,368,115360,69,2,3:2:0:0:
254,311,115560,2,0,P|266:249|328:241,1,134.999995880127,8|0,0:0|0:0,0:0:0:0:
412,273,115960,6,0,P|425:214|429:167,1,89.9999972534181,2|0,1:2|3:0,0:0:0:0:
434,165,116260,1,2,0:3:0:0:
434,165,116360,1,10,0:0:0:0:
361,78,116560,1,2,3:2:0:0:
361,78,116760,2,0,P|355:122|344:166,1,89.9999972534181,0|0,1:0|3:0,0:0:0:0:
285,356,117160,2,0,P|274:312|268:267,1,89.9999972534181,10|0,0:0|3:0,0:0:0:0:
480,186,117560,102,0,P|424:228|338:229,1,150,2|2,1:2|0:0,0:0:0:0:
285,193,117960,1,10,0:0:0:0:
345,59,118160,2,0,P|350:103|365:161,1,100,2|0,3:2|1:0,0:0:0:0:
447,305,118560,2,0,P|459:256|465:206,1,100,2|8,3:2|0:0,0:0:0:0:
433,63,118960,2,0,P|436:87|441:111,1,50,2|0,3:2|0:0,0:0:0:0:
512,144,119160,5,2,1:3:0:0:
394,177,119360,1,0,3:0:0:0:
225,119,119560,101,10,0:3:0:0:
386,160,119760,1,0,3:0:0:0:
512,37,119960,1,2,1:3:0:0:
376,190,120160,6,0,L|370:139,1,34.9999989318848,2|0,3:2|0:0,0:0:0:0:
362,52,120360,1,10,0:0:0:0:
386,291,120560,1,2,3:2:0:0:
362,52,120760,102,0,B|356:2|356:2|331:101,1,139.999995727539,6|0,1:2|3:0,0:0:0:0:
240,142,121060,2,0,B|246:92|246:92|271:191,1,139.999995727539,6|0,1:2|0:0,0:0:0:0:
304,291,121360,2,0,L|310:258,2,29.9999990844727,6|0|0,1:2|3:0|3:0,0:0:0:0:
304,291,121960,5,10,1:2:0:0:
284,294,122060,1,0,3:0:0:0:
257,297,122160,1,0,3:0:0:0:
226,303,122260,1,0,3:0:0:0:
187,306,122360,102,0,L|204:207,1,75.0000028610231,6|0,1:2|3:0,0:0:0:0:
290,364,122760,2,0,L|307:265,1,75.0000028610231,2|0,1:2|3:0,0:0:0:0:
187,306,123160,1,2,1:2:0:0:
281,204,123360,2,0,L|298:105,1,75.0000028610231,2|0,3:2|1:0,0:0:0:0:
318,0,123760,6,0,L|298:110,1,112.500004291535,2|0,3:2|0:0,0:0:0:0:
293,129,124160,1,2,3:2:0:0:
187,306,124360,1,2,1:2:0:0:
280,205,124560,1,2,3:2:0:0:
290,364,124760,1,2,1:2:0:0:
303,290,124960,1,2,3:2:0:0:
167,195,125160,2,0,L|186:305,1,112.500004291535,2|0,1:2|0:0,0:0:0:0:
186,305,125560,102,0,L|203:206,1,75.0000028610231,2|0,1:2|3:0,0:0:0:0:
315,362,125960,2,0,L|301:288,1,75.0000028610231,2|0,1:2|3:0,0:0:0:0:
199,231,126360,1,2,1:2:0:0:
345,211,126560,2,0,L|358:137,1,75.0000028610231,2|0,3:2|1:0,0:0:0:0:
382,12,126960,6,0,L|360:131,1,112.500004291535,2|0,3:2|0:0,0:0:0:0:
358,137,127360,1,2,3:2:0:0:
199,231,127560,1,2,1:2:0:0:
345,211,127760,1,2,3:2:0:0:
301,288,127960,1,2,1:2:0:0:
256,128,128160,1,2,3:2:0:0:
104,253,128360,1,2,1:2:0:0:
104,253,128460,1,0,3:0:0:0:
104,253,128560,1,0,3:0:0:0:
280,361,128760,6,0,L|366:351,1,85.0000016212464,6|0,1:2|3:0,0:0:0:0:
186,221,129160,2,0,L|272:211,1,85.0000016212464,10|0,0:0|3:0,0:0:0:0:
176,379,129560,1,2,1:2:0:0:
23,310,129760,2,0,L|109:300,1,85.0000016212464,2|8,3:2|0:0,0:0:0:0:
281,360,130160,6,0,P|329:367|377:308,1,127.50000243187,2|0,3:2|0:0,0:0:0:0:
375,289,130560,1,2,3:2:0:0:
344,165,130760,1,10,0:0:0:0:
313,41,130960,1,2,3:2:0:0:
431,50,131160,2,0,L|474:54,1,42.5000008106232,2|0,1:2|0:0,0:0:0:0:
344,165,131360,2,0,L|387:169,1,42.5000008106232,2|0,3:2|0:0,0:0:0:0:
160,57,131560,2,0,P|220:46|230:104,1,127.50000243187,10|0,0:0|0:0,0:0:0:0:
209,133,131960,102,0,L|123:143,1,85.0000016212464,2|0,1:2|3:0,0:0:0:0:
305,241,132360,2,0,L|221:250,1,85.0000016212464,10|0,0:0|3:0,0:0:0:0:
89,258,132760,1,2,1:2:0:0:
249,366,132960,2,0,L|165:375,1,85.0000016212464,2|8,3:2|0:0,0:0:0:0:
305,241,133360,2,0,L|263:245,1,42.5000008106232,2|0,3:2|0:0,0:0:0:0:
89,258,133560,5,2,1:0:0:0:
71,159,133760,1,2,3:2:0:0:
258,33,133960,101,10,0:1:0:0:
240,132,134160,1,2,3:2:0:0:
383,253,134360,2,0,L|375:211,1,42.5000008106232,2|0,1:1|0:0,0:0:0:0:
416,144,134560,2,0,L|408:102,1,42.5000008106232,2|0,3:2|0:0,0:0:0:0:
340,18,134760,85,10,0:1:0:0:
333,52,134860,1,0,3:0:0:0:
263,82,134960,1,0,3:0:0:0:
256,48,135060,1,0,0:0:0:0:
340,18,135160,6,0,B|327:89|327:89|338:144|338:144|316:229,1,194.999991073609,6|0,1:2|0:0,0:0:0:0:
285,356,135560,1,10,0:0:0:0:
256,284,135760,1,2,3:2:0:0:
477,218,135960,102,0,L|511:211,1,34.9999989318848,2|0,1:2|0:0,0:0:0:0:
387,316,136160,2,0,L|428:308,1,34.9999989318848,2|0,3:2|0:0,0:0:0:0:
256,284,136360,2,0,L|290:277,1,34.9999989318848,10|0,0:0|0:0,0:0:0:0:
435,102,136560,6,0,B|485:88|527:119|527:119|542:169|511:211,1,194.999991073609,2|0,3:2|0:0,0:0:0:0:
301,90,136960,1,2,3:2:0:0:
370,152,137160,1,10,0:0:0:0:
369,29,137360,2,0,P|347:72|301:89,1,100,2|0,3:2|1:2,0:0:0:0:
78,102,137760,5,2,3:2:0:0:
212,89,137960,2,0,P|166:72|143:28,1,100,10|2,0:0|3:2,0:0:0:0:
143,149,138360,5,0,1:2:0:0:
78,102,138560,1,2,3:2:0:0:
159,234,138760,1,10,0:0:0:0:
227,174,138960,1,2,3:2:0:0:
35,203,139160,102,0,L|1:210,1,34.9999989318848,2|0,1:2|0:0,0:0:0:0:
100,177,139360,2,0,L|59:185,1,34.9999989318848,2|0,3:2|0:0,0:0:0:0:
165,151,139560,2,0,L|131:158,1,34.9999989318848,10|0,0:0|0:0,0:0:0:0:
0,210,139760,6,0,P|2:297|109:251,1,194.999991073609,2|0,3:2|0:0,0:0:0:0:
217,299,140160,1,2,3:2:0:0:
151,241,140360,1,10,0:0:0:0:
150,359,140560,2,0,P|172:315|218:299,1,100,2|0,3:2|1:2,0:0:0:0:
420,295,140960,69,2,3:2:0:0:
362,359,141160,2,0,P|340:315|294:299,1,100,10|0,0:0|3:0,0:0:0:0:
506,194,141560,6,0,B|533:239|514:287|514:287|469:315|421:296,1,194.999991073609,6|0,1:2|0:0,0:0:0:0:
361,241,141960,1,10,0:0:0:0:
385,139,142160,102,0,L|351:146,1,34.9999989318848,2|0,3:2|0:0,0:0:0:0:
512,111,142360,2,0,L|471:119,1,34.9999989318848,2|0,1:2|0:0,0:0:0:0:
335,163,142560,2,0,L|253:179,1,69.9999978637696,2|8,3:2|0:0,0:0:0:0:
477,117,142960,6,0,B|510:77|500:25|500:25|460:-7|410:1,1,194.999991073609,2|0,3:2|0:0,0:0:0:0:
369,202,143360,1,2,3:2:0:0:
369,80,143560,1,10,0:0:0:0:
369,202,143760,2,0,P|347:159|301:143,1,100,2|0,3:2|1:2,0:0:0:0:
142,201,144160,5,2,3:2:0:0:
210,142,144360,2,0,P|164:158|142:202,1,100,8|2,0:0|3:2,0:0:0:0:
143,80,144760,5,2,1:2:0:0:
50,214,144960,2,0,P|40:165|12:124,1,100,2|8,3:2|0:0,0:0:0:0:
119,320,145360,2,0,P|128:271|156:230,1,100,2|0,3:2|1:2,0:0:0:0:
247,166,145760,1,2,3:2:0:0:
175,44,145960,2,0,P|161:64|159:89,1,50,10|0,0:0|0:0,0:0:0:0:
172,205,146160,102,0,P|155:133|93:93,1,150,2|0,3:2|0:0,0:0:0:0:
62,89,146560,1,2,3:2:0:0:
6,253,146760,1,10,0:0:0:0:
115,341,146960,1,2,3:2:0:0:
112,320,147160,1,0,1:2:0:0:
158,190,147360,6,0,P|152:214|147:238,1,50,2|0,3:2|0:0,0:0:0:0:
55,102,147560,2,0,P|75:123|85:151,1,59.9999981689454,10|0,0:0|0:0,0:0:0:0:
196,2,147760,2,0,P|166:25|161:60,1,69.9999978637696,0|0,3:0|0:0,0:0:0:0:
245,194,147960,102,0,P|289:184|332:174,1,90,4|0,0:0|0:0,0:0:0:0:
353,168,148960,85,2,0:0:0:0:
378,249,149360,1,2,0:0:0:0:
403,330,149760,1,2,0:0:0:0:
323,314,150160,2,0,P|279:304|236:294,1,80,2|2,0:0|0:0,0:0:0:0:
204,234,150760,1,2,0:0:0:0:
211,224,150960,2,0,P|288:205|366:188,1,160,2|0,0:0|0:0,0:0:0:0:
441,140,152160,5,2,0:0:0:0:
439,129,152360,1,2,0:0:0:0:
437,118,152560,1,2,0:0:0:0:
392,59,152760,2,0,P|398:29|405:0,2,60,2|2|2,0:0|0:0|0:0,0:0:0:0:
292,111,153760,1,2,0:0:0:0:
294,100,153960,1,2,0:0:0:0:
307,85,154360,2,0,P|316:123|324:162,1,80,2|0,0:0|0:0,0:0:0:0:
371,230,154960,102,0,P|361:268|353:307,1,80,2|0,0:0|0:0,0:0:0:0:
332,378,155560,1,2,0:0:0:0:
265,327,155760,1,2,0:0:0:0:
257,340,155960,2,0,P|248:300|239:262,1,80,2|0,0:0|0:0,0:0:0:0:
220,139,156560,5,2,0:0:0:0:
301,164,156960,1,2,0:0:0:0:
382,189,157360,1,2,0:0:0:0:
301,164,157560,102,0,B|334:143|347:101|347:101|394:89|421:47,1,160,0|0,0:0|0:0,0:0:0:0:
413,58,158760,1,2,0:0:0:0:
403,210,159160,5,6,1:2:0:0:
305,240,159460,1,6,1:2:0:0:
379,310,159760,1,6,1:2:0:0:
256,160,160160,102,0,L|256:112,2,40,2|2|2,3:0|3:0|3:0,0:0:0:0:
53,195,160760,5,6,1:2:0:0:
207,240,161060,1,6,1:2:0:0:
92,349,161360,1,6,1:2:0:0:
256,384,161560,1,0,3:2:0:0:
255,370,161660,1,0,3:2:0:0:
255,357,161760,1,0,3:2:0:0:
256,344,161860,1,0,3:2:0:0:
256,258,161960,102,0,L|256:224,1,34.4999988418579,10|0,0:3|0:0,0:0:0:0:
217,95,162360,54,0,B|222:62|222:62|184:22|115:43|94:99|100:155|156:203,1,255.000004863739,6|0,1:3|0:0,0:0:0:0:
100,304,162760,2,0,P|134:308|164:326,1,69.9999978637696,10|0,0:0|0:0,0:0:0:0:
369,363,162960,2,0,P|329:291|348:210,1,139.999995727539,2|0,3:2|1:0,0:0:0:0:
373,59,163260,1,2,0:0:0:0:
320,127,163360,2,0,P|353:144|386:145,1,69.9999978637696,2|0,3:2|0:0,0:0:0:0:
494,225,163560,2,0,P|462:245|442:276,1,75.0000028610231,10|0,0:0|0:0,0:0:0:0:
359,382,163760,2,0,P|348:347|317:328,1,75.0000028610231,2|0,3:2|0:0,0:0:0:0:
252,160,163960,6,0,B|286:264|166:249|219:393,1,225.000008583069,2|0,1:2|0:0,0:0:0:0:
169,186,164360,2,0,P|160:152|149:118,1,69.9999978637696,10|0,0:0|0:0,0:0:0:0:
15,238,164560,2,0,P|76:233|104:287,1,129.999994049073,2|0,3:2|1:0,0:0:0:0:
98,307,164860,1,0,0:0:0:0:
211,370,164960,2,0,P|231:342|231:308,1,64.9999970245363,2|0,3:2|0:0,0:0:0:0:
297,156,165160,2,0,P|311:187|348:207,1,69.9999978637696,8|0,0:0|0:0,0:0:0:0:
424,349,165360,2,0,P|389:345|357:367,1,69.9999978637696,2|0,3:2|0:0,0:0:0:0:
164,241,165560,6,0,P|202:251|231:280,1,80,2|0,1:2|0:0,0:0:0:0:
78,172,165760,2,0,P|45:185|4:198,1,75.0000028610231,2|0,3:2|0:0,0:0:0:0:
166,88,165960,2,0,P|149:59|154:25,1,69.9999978637696,10|0,0:0|0:0,0:0:0:0:
376,95,166160,2,0,P|321:130|321:197,1,129.999994049073,2|0,3:2|1:0,0:0:0:0:
357,267,166460,1,2,0:0:0:0:
202,163,166560,2,0,P|205:227|279:265,1,139.999995727539,2|8,3:2|0:0,0:0:0:0:
349,269,166860,1,2,0:0:0:0:
257,380,166960,2,0,P|288:373|308:348,1,64.9999970245363,2|0,3:2|0:0,0:0:0:0:
493,251,167160,6,0,P|447:296|431:358,1,129.999994049073,0|0,1:2|3:0,0:0:0:0:
435,374,167460,1,2,0:0:0:0:
415,188,167560,2,0,P|400:125|288:48,1,194.999991073609,8|0,0:0|0:0,0:0:0:0:
199,160,167960,2,0,P|221:137|230:106,1,64.9999970245363,0|0,1:0|0:0,0:0:0:0:
146,0,168160,2,0,P|153:26|161:52,1,55.0000016784668,2|0,3:2|0:0,0:0:0:0:
320,224,168360,2,0,P|311:197|304:165,1,59.9999981689454,10|0,0:0|0:0,0:0:0:0:
83,198,168560,1,2,3:2:0:0:
79,219,168660,1,2,0:0:0:0:
111,284,168760,70,0,B|166:225|237:273|237:273|277:329|347:314,1,259.999988098145,2|8,1:2|0:0,0:0:0:0:
362,311,169260,1,2,0:0:0:0:
387,147,169360,2,0,P|327:155|320:225,1,139.999995727539,2|0,3:2|1:0,0:0:0:0:
512,340,169660,1,2,0:0:0:0:
448,291,169760,2,0,P|438:319|429:347,1,59.9999981689454,2|0,3:2|0:0,0:0:0:0:
512,215,169960,2,0,P|502:186|492:154,1,64.9999970245363,10|0,0:0|0:0,0:0:0:0:
457,25,170160,2,0,P|448:53|432:99,1,69.9999978637696,2|0,3:2|0:0,0:0:0:0:
250,147,170360,6,0,P|342:95|284:55,1,194.999991073609,2|0,1:2|0:0,0:0:0:0:
155,146,170760,2,0,P|161:180|180:209,1,69.9999978637696,10|0,0:0|0:0,0:0:0:0:
211,356,170960,2,0,P|150:300|90:313,1,129.999994049073,2|0,3:2|1:0,0:0:0:0:
90,315,171260,1,2,0:0:0:0:
290,200,171360,2,0,P|279:230|274:262,1,64.9999970245363,2|0,3:2|0:0,0:0:0:0:
337,384,171560,2,0,P|340:352|371:330,1,69.9999978637696,10|0,0:0|0:0,0:0:0:0:
471,253,171760,2,0,P|442:255|431:213,1,69.9999978637696,2|0,3:2|0:0,0:0:0:0:
352,0,171960,6,0,P|329:28|334:64,1,75.0000028610231,2|0,1:2|0:0,0:0:0:0:
280,174,172160,2,0,P|348:160|410:128,1,139.999995727539,2|8,3:2|0:0,0:0:0:0:
435,102,172460,1,2,0:0:0:0:
209,203,172560,2,0,P|149:193|153:126,1,139.999995727539,2|0,3:2|1:0,0:0:0:0:
181,102,172860,1,2,0:0:0:0:
105,271,172960,2,0,P|71:266|37:257,1,69.9999978637696,2|0,3:2|0:0,0:0:0:0:
0,183,173160,1,10,0:0:0:0:
6,165,173260,1,2,0:0:0:0:
58,99,173360,1,2,3:2:0:0:
54,83,173460,1,2,0:0:0:0:
5,12,173560,6,0,B|-28:30|-28:30|110:82,1,179.999994506836,6|0,1:2|0:0,0:0:0:0:
218,27,173860,2,0,B|251:13|260:-17|260:-17|215:124,1,179.999994506836,6|0,1:2|0:0,0:0:0:0:
96,207,174160,2,0,B|79:204|79:204|179:184,1,89.9999972534181,6|0,1:2|0:0,0:0:0:0:
284,198,174360,2,0,P|290:172|311:197,4,44.999998626709,2|2|2|2|2,1:3|0:3|0:3|0:3|0:3,0:0:0:0:
322,276,174660,1,0,0:3:0:0:
477,257,174760,22,0,L|433:247,1,44.999998626709,10|2,0:3|0:3,0:0:0:0:
329,89,175160,38,0,B|324:56|324:56|362:16|431:37|452:93|446:149|390:197,1,255.000004863739,6|0,1:3|0:0,0:0:0:0:
278,291,175560,2,0,P|312:286|342:268,1,69.9999978637696,10|0,0:0|0:0,0:0:0:0:
239,96,175760,2,0,P|241:164|204:222,1,139.999995727539,2|0,3:2|1:0,0:0:0:0:
213,165,176060,1,2,0:0:0:0:
71,288,176160,2,0,P|36:286|5:269,1,69.9999978637696,2|0,3:2|0:0,0:0:0:0:
162,298,176360,2,0,P|176:336|207:363,1,75.0000028610231,10|0,0:0|0:0,0:0:0:0:
135,151,176560,2,0,P|103:178|88:217,1,75.0000028610231,2|0,3:2|0:0,0:0:0:0:
278,291,176760,6,0,B|344:288|371:225|371:225|398:229|398:229|427:169|492:164,1,269.999991760254,2|0,1:2|0:0,0:0:0:0:
361,140,177160,2,0,P|368:174|374:208,1,69.9999978637696,10|0,0:0|0:0,0:0:0:0:
458,381,177360,2,0,P|469:317|484:253,1,129.999994049073,2|0,3:2|1:0,0:0:0:0:
463,166,177660,1,2,0:0:0:0:
295,207,177760,2,0,P|260:205|229:188,1,64.9999970245363,2|0,3:2|0:0,0:0:0:0:
189,100,177960,1,10,0:0:0:0:
181,79,178060,1,2,0:0:0:0:
264,21,178160,1,2,3:2:0:0:
256,42,178260,1,2,0:0:0:0:
178,120,178360,6,0,B|144:146|145:189|145:189|119:155|76:156,1,160,2|0,1:2|3:0,0:0:0:0:
11,98,178660,1,2,0:0:0:0:
58,19,178760,2,0,P|90:48|103:97,1,69.9999978637696,10|0,0:0|0:0,0:0:0:0:
132,269,178960,2,0,P|194:264|226:210,1,129.999994049073,2|0,3:2|1:0,0:0:0:0:
223,52,179260,1,0,0:0:0:0:
296,148,179360,2,0,P|300:80|358:45,1,139.999995727539,2|8,3:2|0:0,0:0:0:0:
223,52,179660,1,0,0:0:0:0:
75,170,179760,6,0,P|106:178|138:179,1,64.9999970245363,2|0,3:2|0:0,0:0:0:0:
204,136,179960,1,0,1:0:0:0:
191,118,180060,1,2,0:0:0:0:
213,240,180160,2,0,P|245:238|276:230,1,64.9999970245363,2|0,3:2|0:0,0:0:0:0:
390,151,180360,69,10,0:0:0:0:
377,133,180460,1,2,0:0:0:0:
366,239,180560,1,2,3:2:0:0:
379,257,180660,1,2,0:0:0:0:
474,204,180760,1,2,1:2:0:0:
474,204,180860,1,2,0:0:0:0:
465,331,180960,6,0,P|456:304|449:278,1,55.0000016784668,0|0,3:0|0:0,0:0:0:0:
480,62,181160,2,0,P|473:91|464:119,1,59.9999981689454,8|0,0:0|0:0,0:0:0:0:
384,218,181360,5,2,3:2:0:0:
399,171,181460,1,2,0:0:0:0:
512,193,181560,6,0,B|452:220|397:183|397:183|377:200|377:200|322:159|262:190,1,259.999988098145,2|8,1:2|0:0,0:0:0:0:
308,265,182060,1,2,0:0:0:0:
214,126,182160,2,0,P|186:182|217:251,1,139.999995727539,2|0,3:2|1:0,0:0:0:0:
308,265,182460,1,2,0:0:0:0:
137,288,182560,2,0,P|108:297|80:307,1,59.9999981689454,2|0,3:2|0:0,0:0:0:0:
200,384,182760,70,0,P|206:354|207:315,1,64.9999970245363,10|0,0:0|0:0,0:0:0:0:
117,150,182960,1,2,3:2:0:0:
98,217,183060,1,2,0:0:0:0:
9,210,183160,2,0,B|51:161|117:168|117:168|122:194|122:194|190:198|210:246,1,255.000004863739,2|0,1:2|0:0,0:0:0:0:
319,361,183560,2,0,P|312:326|293:297,1,69.9999978637696,10|0,0:0|0:0,0:0:0:0:
96,336,183760,6,0,P|156:354|213:326,1,129.999994049073,2|0,3:2|1:0,0:0:0:0:
283,222,184060,1,2,0:0:0:0:
256,72,184160,2,0,P|244:102|238:138,1,64.9999970245363,2|0,3:2|0:0,0:0:0:0:
381,222,184360,2,0,P|376:189|363:152,1,69.9999978637696,10|0,0:0|0:0,0:0:0:0:
354,14,184560,2,0,P|349:46|335:86,1,69.9999978637696,2|0,3:2|0:0,0:0:0:0:
262,226,184760,5,0,1:0:0:0:
246,225,184860,1,2,0:0:0:0:
230,222,184960,1,2,3:2:0:0:
215,217,185060,1,2,0:0:0:0:
122,222,185160,6,0,P|100:246|76:277,1,69.9999978637696,10|0,0:0|0:0,0:0:0:0:
126,124,185360,2,0,P|81:69|28:25,1,139.999995727539,2|0,3:2|1:0,0:0:0:0:
55,91,185660,1,2,0:0:0:0:
217,133,185760,70,0,P|249:128|287:113,1,69.9999978637696,2|0,3:2|0:0,0:0:0:0:
382,5,185960,2,0,P|370:35|360:75,1,69.9999978637696,10|0,0:0|0:0,0:0:0:0:
423,229,186160,1,2,3:2:0:0:
512,239,186260,1,2,0:0:0:0:
493,152,186360,6,0,B|429:170|423:230|423:230|351:207|347:148,1,220.000006713867,6|0,1:2|0:0,0:0:0:0:
238,99,186660,2,0,B|301:80|307:20|307:20|379:43|383:102,1,220.000006713867,6|0,1:2|0:0,0:0:0:0:
290,214,186960,2,0,P|244:207|222:149,1,89.9999972534181,6|0,1:2|0:0,0:0:0:0:
134,76,187160,6,0,B|144:97|144:97|124:82,4,44.999998626709,2|2|2|2|2,1:2|3:0|3:0|3:0|3:0,0:0:0:0:
82,21,187460,1,2,3:0:0:0:
4,47,187560,1,8,0:0:0:0:
4,127,187660,1,2,3:0:0:0:
82,152,187760,1,2,3:0:0:0:
86,230,187860,1,2,3:0:0:0:
14,262,187960,5,6,1:2:0:0:
14,262,188160,1,0,0:0:0:0:
82,306,188360,5,2,1:2:0:0:
75,334,188560,1,2,3:2:0:0:
174,249,188760,21,2,1:2:0:0:
158,185,188960,1,2,3:2:0:0:
336,38,189160,101,2,1:2:0:0:
302,174,189360,1,2,3:2:0:0:
411,322,189560,5,2,1:2:0:0:
434,314,189660,1,0,3:0:0:0:
468,326,189760,85,2,3:2:0:0:
491,318,189860,1,0,3:0:0:0:
493,251,189960,37,2,3:2:0:0:
447,235,190060,1,0,3:0:0:0:
377,250,190160,85,2,1:2:0:0:
331,234,190260,1,0,3:0:0:0:
299,167,190360,102,0,L|284:131,4,25,2|0|2|0|10,3:2|3:0|3:0|3:0|3:2,0:0:0:0:
311,244,190660,1,2,3:0:0:0:
256,368,190760,1,2,3:2:0:0:
