osu file format v14

[General]
AudioFilename: audio.mp3
AudioLeadIn: 0
PreviewTime: 41382
Countdown: 0
SampleSet: Soft
StackLeniency: 1
Mode: 0
LetterboxInBreaks: 0
WidescreenStoryboard: 1

[Editor]
Bookmarks: 11096,21531,42401,63270,73705,94575,115444,125879,136314,146748,167618,178053,188488,198922
DistanceSpacing: 1.2
BeatDivisor: 4
GridSize: 32
TimelineZoom: 3.199999

[Metadata]
Title:Kyoukankaku Obake
TitleUnicode:共感覚おばけ
Artist:Isekai Joucho
ArtistUnicode:ヰ世界情緒
Creator:Smug Nanachi
Version:Hard
Source:
Tags:smugna ササノマリイ Sasanomaly cover female vtb vtuber Virtual YouTuber nekobolo ねこぼーろ ボカロイド VOCALOID japanese drum and bass dnb Electronic KAMITSUBAKI STUDIO
BeatmapID:3171238
BeatmapSetID:1551060

[Difficulty]
HPDrainRate:4
CircleSize:3.5
OverallDifficulty:6
ApproachRate:8
SliderMultiplier:1.3
SliderTickRate:1

[Events]
//Background and Video events
0,0,"isekai.jpeg",0,0
//Break Periods
2,63470,72955
2,115644,124803
2,136514,145020
//Storyboard Layer 0 (Background)
//Storyboard Layer 1 (Fail)
//Storyboard Layer 2 (Pass)
//Storyboard Layer 3 (Foreground)
//Storyboard Layer 4 (Overlay)
//Storyboard Sound Samples

[TimingPoints]
662,326.086956521739,4,2,1,60,1,0
10607,-133.333333333333,4,2,1,60,0,0
11096,-83.3333333333333,4,2,1,90,0,1
20879,-83.3333333333333,4,2,1,80,0,0
21531,-100,4,2,1,70,0,0
42238,-100,4,2,1,60,0,0
42401,-83.3333333333333,4,2,1,90,0,1
62944,-83.3333333333333,4,2,1,90,0,0
63270,-83.3333333333333,4,2,1,90,0,0
73053,-100,4,2,1,80,0,0
73705,-100,4,2,1,70,0,0
93596,-100,4,2,1,80,0,0
93922,-100,4,2,1,80,0,0
94575,-83.3333333333333,4,2,1,90,0,1
115444,-100,4,2,1,70,0,0
125553,-133.333333333333,4,2,1,70,0,0
146748,-83.3333333333333,4,2,1,90,0,1
167292,-83.3333333333333,4,2,1,90,0,0
167618,-83.3333333333333,4,2,1,90,0,1
177727,-83.3333333333333,4,2,1,90,0,1
178053,-100,4,2,1,80,0,0
178094,-100,4,2,1,70,0,0
188161,-100,4,2,1,70,0,0
188488,-100,4,2,1,60,0,0

[Colours]
Combo1 : 255,128,0
Combo2 : 255,202,176
Combo3 : 255,239,147
Combo4 : 108,182,255
Combo5 : 0,204,204
Combo6 : 255,0,0
Combo7 : 192,192,192

[HitObjects]
256,192,5879,12,0,10281,0:0:0:0:
98,221,10607,70,0,L|50:231,2,48.750001859665,0|0|0,1:0|1:0|1:0,0:0:0:0:
190,209,11096,38,0,L|217:55,1,155.999995239258,6|8,3:2|0:0,0:0:0:0:
303,17,11585,1,2,0:0:0:0:
369,81,11748,2,0,P|406:96|444:102,1,77.999997619629,2|0,0:0|3:0,0:0:0:0:
490,185,12075,2,0,P|451:191|415:205,1,77.999997619629,8|0,0:0|0:0,0:0:0:0:
365,282,12401,6,0,P|289:293|230:247,1,155.999995239258,2|10,3:2|0:0,0:0:0:0:
279,171,12890,2,0,P|288:93|302:16,1,155.999995239258,2|2,0:0|3:2,0:0:0:0:
209,16,13379,2,0,P|201:55|193:94,1,77.999997619629,10|10,0:0|0:0,0:0:0:0:
106,129,13705,1,2,3:2:0:0:
7,287,14031,86,0,P|44:300|72:327,1,77.999997619629,10|2,0:0|0:0,0:0:0:0:
165,328,14357,2,0,P|164:289|147:254,1,77.999997619629,2|0,0:0|3:0,0:0:0:0:
206,181,14683,2,0,P|242:193|270:220,1,77.999997619629,10|0,0:0|0:0,0:0:0:0:
314,303,15009,5,0,3:0:0:0:
395,257,15172,2,0,P|460:271|509:268,1,77.999997619629,2|8,0:0|0:0,0:0:0:0:
500,182,15498,2,0,B|454:121|416:167|362:103,1,155.999995239258,2|0,0:0|3:0,0:0:0:0:
323,25,15988,1,10,0:0:0:0:
323,25,16151,1,10,0:0:0:0:
229,19,16314,86,0,P|151:52|143:120,1,155.999995239258,4|10,3:2|0:0,0:0:0:0:
224,159,16803,1,0,0:0:0:0:
224,159,16966,1,2,0:0:0:0:
275,237,17129,2,0,P|254:301|252:327,1,77.999997619629,0|8,3:2|0:0,0:0:0:0:
175,364,17455,6,0,L|99:384,1,77.999997619629,2|0,0:0|3:0,0:0:0:0:
8,369,17781,2,0,L|27:293,1,77.999997619629,2|8,0:0|0:0,0:0:0:0:
86,221,18107,2,0,L|141:275,1,77.999997619629,2|0,0:0|0:0,0:0:0:0:
232,296,18433,85,2,3:2:0:0:
322,270,18596,1,10,0:2:0:0:
410,238,18759,1,10,0:0:0:0:
499,265,18922,5,0,3:2:0:0:
489,78,19248,85,10,0:2:0:0:
403,40,19411,2,0,L|384:124,1,77.999997619629,2|0,0:0|0:0,0:0:0:0:
291,112,19738,2,0,L|310:196,1,77.999997619629,2|0,3:2|0:0,0:0:0:0:
215,202,20064,2,0,L|196:286,1,77.999997619629,10|0,0:2|0:0,0:0:0:0:
245,358,20390,1,0,3:0:0:0:
324,309,20553,2,0,P|363:304|398:320,1,77.999997619629,8|8,0:0|0:0,0:0:0:0:
481,275,20879,69,0,3:0:0:0:
481,275,21042,1,0,3:0:0:0:
504,184,21205,85,8,0:0:0:0:
439,116,21368,1,8,0:0:0:0:
367,145,21531,70,0,P|303:154|241:135,1,130,0|8,0:0|0:1,0:0:0:0:
127,28,22183,2,0,B|66:45|66:45|55:110,1,130,0|8,0:0|0:1,0:0:0:0:
166,219,22835,1,0,0:0:0:0:
78,348,23161,1,8,0:1:0:0:
3,210,23488,1,0,0:0:0:0:
156,181,23814,2,0,P|216:204|280:205,1,130,8|0,0:1|0:0,0:0:0:0:
389,317,24466,6,0,B|452:302|452:302|489:226,1,130,8|0,0:1|0:0,0:0:0:0:
404,107,25118,1,8,0:1:0:0:
280,205,25444,2,0,L|263:342,1,130,0|8,0:0|0:1,0:0:0:0:
110,364,26096,1,0,0:0:0:0:
31,229,26422,1,0,0:0:0:0:
23,151,26585,1,8,0:1:0:0:
73,91,26748,86,0,B|162:88|147:159|270:161,1,195
306,105,27401,2,0,P|399:109|442:192,1,195
450,270,28053,2,0,B|352:254|352:254|291:328,1,195
215,311,28705,2,0,B|117:327|117:327|56:252,1,195
88,181,29357,2,0,L|60:45,2,130,0|8|0,0:0|0:1|0:0,0:0:0:0:
241,208,30335,1,0,0:0:0:0:
307,166,30498,1,8,0:1:0:0:
382,183,30661,6,0,P|442:203|527:187,1,130,0|8,0:0|0:1,0:0:0:0:
443,52,31314,1,0,0:0:0:0:
365,43,31477,2,2,L|362:5,2,32.5,2|2|8,0:3|0:3|0:1,0:0:0:0:
245,143,31966,86,0,L|222:300,1,130,0|8,0:0|0:1,0:0:0:0:
349,366,32618,2,0,L|488:341,1,130,0|8,0:0|0:1,0:0:0:0:
484,187,33270,1,0,0:0:0:0:
359,92,33596,1,8,0:1:0:0:
298,235,33922,1,0,0:0:0:0:
447,189,34248,2,0,P|461:127|444:47,1,130,8|0,0:1|0:0,0:0:0:0:
301,13,34901,6,0,B|250:17|248:52|178:51,1,130,8|0,0:1|0:0,0:0:0:0:
29,7,35553,1,8,0:1:0:0:
69,157,35879,2,0,L|40:304,1,130,0|8,0:0|0:1,0:0:0:0:
180,359,36531,1,0,0:0:0:0:
321,293,36857,1,0,0:0:0:0:
385,337,37020,1,8,0:1:0:0:
459,312,37183,86,0,P|484:220|447:132,1,195
432,56,37835,2,0,B|354:50|342:113|238:103,1,195
196,42,38488,2,0,B|127:11|127:11|84:147,1,195
83,202,39140,2,0,B|143:223|143:223|173:266|173:266|258:292,1,195
313,245,39792,2,0,P|328:181|299:109,2,130,0|8|0,0:0|0:1|0:0,0:0:0:0:
431,346,40770,1,0,0:0:0:0:
504,319,40933,1,8,0:1:0:0:
504,319,41422,5,0,0:0:0:0:
348,303,41748,1,0,0:0:0:0:
191,291,42075,1,0,0:0:0:0:
38,182,42401,54,0,P|125:149|213:172,1,155.999995239258,4|8,3:2|0:0,0:0:0:0:
262,105,42890,1,0,0:0:0:0:
327,171,43053,2,0,P|318:208|313:247,1,77.999997619629,0|0,0:0|3:0,0:0:0:0:
406,243,43379,2,0,P|422:173|397:94,1,155.999995239258,8|0,0:0|3:0,0:0:0:0:
354,10,43868,5,0,0:0:0:0:
281,68,44031,2,0,P|243:79|204:81,1,77.999997619629,8|0,0:0|0:0,0:0:0:0:
111,77,44357,2,0,L|85:230,1,155.999995239258,0|8,0:0|0:0,0:0:0:0:
222,358,45009,86,0,B|295:346|298:390|396:365,1,155.999995239258,0|8,3:2|0:0,0:0:0:0:
468,380,45498,2,0,B|499:329|499:329|467:217,1,155.999995239258,0|0,0:0|3:0,0:0:0:0:
437,148,45988,2,0,P|379:164|334:162,1,77.999997619629,8|0,0:0|0:0,0:0:0:0:
283,216,46314,1,0,3:0:0:0:
217,148,46477,6,0,L|206:53,2,77.999997619629,0|8|0,0:0|0:0|0:0,0:0:0:0:
135,193,46966,2,0,L|115:298,1,77.999997619629,0|0,0:0|3:0,0:0:0:0:
100,361,47292,1,8,0:0:0:0:
287,361,47618,86,0,B|359:341|374:397|466:364,2,155.999995239258,0|8|0,3:0|0:0|0:0,0:0:0:0:
224,291,48433,1,0,3:2:0:0:
152,351,48596,2,0,P|123:324|113:287,1,77.999997619629,8|0,0:0|0:0,0:0:0:0:
53,216,48922,6,0,L|79:50,2,155.999995239258,0|8|0,3:2|0:0|0:0,0:0:0:0:
134,262,49738,1,0,3:0:0:0:
201,197,49901,2,0,P|240:192|278:182,1,77.999997619629,8|0,0:0|0:0,0:0:0:0:
346,119,50227,86,0,P|421:111|474:165,1,155.999995239258,0|8,3:0|0:0,0:0:0:0:
416,239,50716,2,0,P|405:295|395:336,1,77.999997619629
322,366,51042,1,0,3:0:0:0:
240,318,51205,2,0,P|188:308|148:314,1,77.999997619629,8|8,0:0|0:2,0:0:0:0:
81,265,51531,2,0,P|99:168|162:152,1,155.999995239258,0|8,0:0|0:0,0:0:0:0:
272,14,52183,53,0,3:0:0:0:
355,55,52346,1,0,3:0:0:0:
351,148,52509,2,0,L|361:190,3,38.9999988098145,2|2|2|2,0:3|0:3|0:3|0:3,0:0:0:0:
338,227,52835,38,0,P|264:202|186:197,1,155.999995239258,4|8,3:2|0:0,0:0:0:0:
115,257,53325,1,0,0:0:0:0:
39,205,53488,2,0,P|18:172|17:133,1,77.999997619629,0|0,0:0|3:0,0:0:0:0:
62,51,53814,2,0,B|130:16|130:16|205:64,1,155.999995239258,8|0,0:0|3:0,0:0:0:0:
283,23,54303,5,0,0:0:0:0:
364,68,54466,2,0,P|381:141|396:169,1,77.999997619629,8|0,0:0|0:0,0:0:0:0:
437,216,54792,2,0,P|445:290|381:324,1,155.999995239258,0|8,0:0|0:0,0:0:0:0:
212,253,55444,86,0,B|152:259|137:301|61:303,1,155.999995239258,0|8,3:0|0:0,0:0:0:0:
4,231,55933,2,0,P|26:157|35:80,1,155.999995239258,0|0,0:0|3:0,0:0:0:0:
110,24,56422,2,0,P|152:54|194:59,1,77.999997619629,8|0,0:0|0:0,0:0:0:0:
232,135,56748,1,0,3:0:0:0:
305,76,56911,6,0,L|291:-19,2,77.999997619629,0|8|0,0:0|0:0|0:0,0:0:0:0:
386,122,57401,2,0,L|374:228,1,77.999997619629,0|0,0:0|3:2,0:0:0:0:
315,270,57727,1,8,0:0:0:0:
162,378,58053,86,0,P|92:329|18:325,2,155.999995239258,0|8|0,3:0|0:0|0:0,0:0:0:0:
244,333,58868,1,0,3:0:0:0:
200,249,59031,2,0,P|193:210|188:171,1,77.999997619629,8|0,0:0|0:0,0:0:0:0:
235,90,59357,6,0,P|308:111|413:97,2,155.999995239258,0|8|0,3:0|0:0|0:0,0:0:0:0:
166,26,60172,1,0,3:0:0:0:
80,62,60335,2,0,L|57:173,1,77.999997619629,8|0,0:0|0:0,0:0:0:0:
126,207,60661,86,0,B|201:212|201:212|245:279,1,155.999995239258,0|8,3:0|0:0,0:0:0:0:
317,339,61151,2,0,P|338:305|346:268,1,77.999997619629
429,225,61477,1,0,3:0:0:0:
461,137,61640,2,0,L|434:36,1,77.999997619629,8|8,0:0|0:0,0:0:0:0:
367,4,61966,2,0,B|311:65|342:89|286:152,1,155.999995239258,0|8,0:0|0:0,0:0:0:0:
114,97,62618,53,0,3:0:0:0:
99,189,62781,1,0,3:0:0:0:
130,277,62944,1,8,0:0:0:0:
313,311,63270,37,6,3:2:0:0:
118,345,73705,22,0,P|175:315|238:302,1,130,0|8,0:0|0:1,0:0:0:0:
384,357,74357,2,0,P|444:333|466:257,1,130,0|8,0:0|0:1,0:0:0:0:
381,178,75009,1,0,0:0:0:0:
409,51,75335,1,8,0:1:0:0:
492,150,75661,1,0,0:0:0:0:
384,223,75988,2,0,B|316:222|325:187|261:183,1,130,8|0,0:1|0:0,0:0:0:0:
202,39,76640,6,0,B|140:16|140:16|99:73,1,130,8|0,0:1|0:0,0:0:0:0:
12,195,77292,1,8,0:1:0:0:
98,324,77618,2,0,L|127:177,1,130,0|8,0:0|0:1,0:0:0:0:
266,134,78270,1,0,0:0:0:0:
392,225,78596,1,0,0:0:0:0:
414,299,78759,1,8,0:1:0:0:
358,353,78922,86,0,B|286:313|267:385|151:338,1,195
91,363,79575,2,0,P|51:300|115:182,1,195
165,219,80227,2,0,B|240:191|240:191|267:69,1,195
210,23,80879,2,0,L|75:51,2,130,0|8|0,0:0|0:1|0:0,0:0:0:0:
365,19,81857,1,8,0:1:0:0:
459,143,82183,2,0,P|448:207|446:273,1,130
400,335,82672,1,8,0:1:0:0:
324,315,82835,6,0,P|289:268|307:199,1,130,0|8,0:0|0:1,0:0:0:0:
364,58,83488,2,0,L|278:84,1,65
228,104,83814,1,8,0:1:0:0:
162,61,83977,1,8,0:1:0:0:
89,89,84140,86,0,P|61:151|81:214,1,130,2|8,0:0|0:1,0:0:0:0:
24,355,84792,2,0,L|169:322,1,130,0|8,0:0|0:1,0:0:0:0:
301,366,85444,1,0,0:0:0:0:
441,297,85770,1,8,0:1:0:0:
393,148,86096,1,0,0:0:0:0:
251,213,86422,2,0,B|246:286|282:280|270:346,1,130,8|0,0:1|0:0,0:0:0:0:
425,362,87075,6,0,P|485:333|509:261,2,130
271,339,88053,2,0,L|114:324,1,130
76,184,88705,2,0,L|233:169,1,130
270,213,89194,1,8,0:1:0:0:
345,192,89357,86,0,B|362:145|405:124|405:124|368:88|358:6,1,195
288,7,90009,2,0,P|214:38|95:32,1,195
24,18,90661,2,0,B|-12:108|61:114|21:210,1,195
16,285,91314,2,0,P|154:293|206:237,1,195
248,209,91966,2,0,B|291:227|291:227|309:254|309:254|381:281,2,130,0|8|0,0:0|0:1|0:0,0:0:0:0:
111,133,92944,1,0,0:0:0:0:
127,56,93107,1,8,0:1:0:0:
278,21,93433,21,8,0:1:0:0:
336,73,93596,2,0,L|348:146,1,65,8|8,0:1|0:1,0:0:0:0:
418,167,93922,2,0,L|400:257,1,65,8|8,0:1|0:1,0:0:0:0:
455,290,94248,2,0,L|493:283,2,32.5
323,302,94575,38,0,B|256:302|255:362|180:352,1,155.999995239258,4|8,3:2|0:0,0:0:0:0:
114,285,95064,1,0,0:0:0:0:
192,233,95227,2,0,P|210:182|214:154,1,77.999997619629,0|0,0:0|3:0,0:0:0:0:
275,88,95553,2,0,P|308:158|352:222,1,155.999995239258,8|0,0:0|3:0,0:0:0:0:
253,376,96205,6,0,P|218:358|180:351,1,77.999997619629,8|0,0:0|0:0,0:0:0:0:
86,359,96531,2,0,P|51:330|69:219,1,155.999995239258,0|8,0:0|0:0,0:0:0:0:
42,41,97183,86,0,B|111:60|100:112|164:133,1,155.999995239258,0|8,3:0|0:0,0:0:0:0:
232,197,97672,2,0,B|301:178|290:126|354:104,1,155.999995239258,0|0,0:0|3:0,0:0:0:0:
432,54,98161,2,0,P|479:84|482:127,1,77.999997619629,8|0,0:0|0:0,0:0:0:0:
509,193,98488,1,0,3:0:0:0:
428,240,98651,6,0,L|333:226,2,77.999997619629,0|8|0,0:0|0:0|0:0,0:0:0:0:
474,321,99140,2,0,L|428:385,1,77.999997619629,0|0,0:0|3:0,0:0:0:0:
342,348,99466,1,8,0:0:0:0:
175,262,99792,86,0,P|183:184|195:107,2,155.999995239258,0|8|0,3:0|0:0|0:0,0:0:0:0:
108,327,100607,1,0,3:0:0:0:
49,253,100770,2,0,P|53:214|59:175,1,77.999997619629,8|0,0:0|0:0,0:0:0:0:
102,93,101096,6,0,P|31:73|6:-1,2,155.999995239258,0|8|0,3:0|0:0|0:0,0:0:0:0:
191,62,101911,1,0,3:0:0:0:
264,120,102075,2,0,P|327:93|351:96,1,77.999997619629,8|0,0:0|0:0,0:0:0:0:
418,134,102401,86,0,B|431:210|431:210|387:306,1,155.999995239258,0|8,3:0|0:0,0:0:0:0:
354,364,102890,2,0,P|309:304|310:284,1,77.999997619629
266,221,103216,1,0,3:0:0:0:
186,269,103379,2,0,L|91:292,1,77.999997619629,8|8,0:0|0:0,0:0:0:0:
22,254,103705,2,0,B|57:184|15:164|50:83,1,155.999995239258,0|8,0:0|0:0,0:0:0:0:
207,12,104357,53,0,3:0:0:0:
295,41,104520,1,0,3:0:0:0:
384,13,104683,1,8,0:0:0:0:
488,166,105009,38,0,P|415:142|337:135,1,155.999995239258,4|8,3:2|0:0,0:0:0:0:
257,183,105498,1,0,0:0:0:0:
194,113,105661,2,0,P|198:74|211:37,1,77.999997619629,0|0,0:0|3:0,0:0:0:0:
124,0,105988,2,0,P|96:95|96:164,1,155.999995239258,8|0,0:0|3:0,0:0:0:0:
31,220,106477,5,0,0:0:0:0:
80,299,106640,2,0,B|120:285|120:285|155:291,1,77.999997619629,8|0,0:0|0:0,0:0:0:0:
241,255,106966,2,0,B|285:283|285:283|314:398,1,155.999995239258,0|8,0:0|0:0,0:0:0:0:
485,315,107618,86,0,B|522:248|468:236|505:165,1,155.999995239258,0|8,3:0|0:0,0:0:0:0:
477,75,108107,2,0,B|409:111|397:57|326:94,1,155.999995239258,0|0,0:0|3:0,0:0:0:0:
245,141,108596,2,0,P|210:107|207:68,1,77.999997619629,8|0,0:0|0:0,0:0:0:0:
126,29,108922,1,0,3:0:0:0:
76,108,109085,6,0,L|-1:97,2,77.999997619629,0|8|0,0:0|0:0|0:0,0:0:0:0:
135,180,109575,2,0,L|151:284,1,77.999997619629,0|0,0:0|3:0,0:0:0:0:
158,349,109901,1,8,0:0:0:0:
315,247,110227,86,0,B|319:172|371:179|379:91,2,155.999995239258,0|8|0,3:0|0:0|0:0,0:0:0:0:
369,323,111042,1,0,3:0:0:0:
452,278,111205,2,0,P|455:240|440:205,1,77.999997619629,8|0,0:0|0:0,0:0:0:0:
390,125,111531,6,0,P|400:78|501:30,2,155.999995239258,0|8|0,3:0|0:0|0:0,0:0:0:0:
301,155,112346,1,0,3:0:0:0:
236,86,112509,2,0,P|197:87|159:78,1,77.999997619629,8|0,0:0|0:0,0:0:0:0:
68,56,112835,86,0,B|45:99|45:99|66:204,1,155.999995239258,0|8,3:0|0:0,0:0:0:0:
128,274,113325,2,0,P|171:251|214:253,1,77.999997619629
285,286,113651,1,0,3:0:0:0:
355,224,113814,2,0,L|377:113,1,77.999997619629,8|8,0:0|0:0,0:0:0:0:
347,56,114140,2,0,P|413:31|502:75,1,155.999995239258,0|8,0:0|0:0,0:0:0:0:
497,247,114792,54,0,L|487:290,3,38.9999988098145,2|2|2|2,3:3|0:3|0:3|0:3,0:0:0:0:
443,299,115118,2,0,L|453:342,3,38.9999988098145,0|0|0|0,1:0|1:0|1:0|1:0,0:0:0:0:
435,372,115444,5,0,0:0:0:0:
304,61,125553,53,0,0:0:0:0:
229,150,125879,2,0,B|319:165|311:225|394:245,1,195.00000743866,0|8,0:0|0:1,0:0:0:0:
510,224,126857,2,0,P|513:167|488:120,2,97.50000371933
497,340,127835,1,8,0:1:0:0:
395,282,128161,1,0,0:0:0:0:
278,300,128488,6,0,P|234:318|186:326,1,97.50000371933
84,269,129140,1,8,0:1:0:0:
89,151,129466,2,0,B|132:121|142:82|142:82|171:207|285:210,1,292.50001115799,0|8,0:0|0:1,0:0:0:0:
365,132,130770,85,0,0:0:0:0:
480,148,131096,2,0,P|505:241|498:338,1,195.00000743866,0|8,0:0|0:1,0:0:0:0:
380,324,132075,2,0,P|380:276|391:228,2,97.50000371933
268,356,133053,1,8,0:1:0:0:
171,289,133379,1,0,0:0:0:0:
54,300,133705,6,0,B|15:266|15:266|9:215,1,97.50000371933
17,103,134357,1,8,0:1:0:0:
132,123,134683,2,0,B|349:78|349:78|353:41|378:14,1,292.50001115799,0|8,0:0|0:1,0:0:0:0:
495,8,135988,6,0,L|486:43,3,24.3750009298325,2|2|2|2,0:3|0:3|0:3|0:3,0:0:0:0:
503,57,136314,69,2,0:0:0:0:
375,97,145770,5,8,0:1:0:0:
437,195,146096,1,2,0:3:0:0:
472,83,146422,1,0,0:0:0:0:
289,42,146748,54,0,B|226:43|221:105|145:103,1,155.999995239258,4|8,3:2|0:0,0:0:0:0:
72,48,147238,1,0,0:0:0:0:
15,122,147401,2,0,P|7:160|-6:226,1,77.999997619629,0|0,0:0|3:0,0:0:0:0:
40,282,147727,2,0,P|114:257|189:236,1,155.999995239258,8|0,0:0|3:0,0:0:0:0:
249,165,148216,5,0,0:0:0:0:
326,216,148379,2,0,P|341:264|336:295,1,77.999997619629,8|0,0:0|0:0,0:0:0:0:
402,355,148705,2,0,P|474:333|492:261,1,155.999995239258,0|8,0:0|0:0,0:0:0:0:
505,74,149357,86,0,B|455:97|455:97|430:196,1,155.999995239258,0|8,3:0|0:0,0:0:0:0:
338,210,149846,2,0,B|286:199|286:199|257:163|257:163|201:147,1,155.999995239258,0|0,0:0|3:0,0:0:0:0:
145,72,150335,2,0,B|105:83|105:83|78:142,1,77.999997619629,8|0,0:0|0:0,0:0:0:0:
49,200,150661,1,0,3:0:0:0:
115,266,150825,6,0,B|106:304|129:306|116:342,2,77.999997619629,0|8|0,0:0|0:0|0:0,0:0:0:0:
181,200,151314,2,0,P|243:214|251:254,1,77.999997619629,0|0,0:0|3:0,0:0:0:0:
326,271,151640,1,8,0:0:0:0:
495,192,151966,86,0,P|491:124|416:68,2,155.999995239258,0|8|0,3:0|0:0|0:0,0:0:0:0:
414,239,152781,1,0,3:0:0:0:
419,332,152944,2,0,P|381:321|342:316,1,77.999997619629,8|0,0:0|0:0,0:0:0:0:
249,312,153270,6,0,B|185:313|184:375|95:387,2,155.999995239258,0|8|0,3:0|0:0|0:0,0:0:0:0:
334,274,154085,1,0,3:0:0:0:
291,190,154248,2,0,P|284:151|281:112,1,77.999997619629,8|0,0:0|0:0,0:0:0:0:
218,42,154575,86,0,P|160:94|89:124,1,155.999995239258,0|8,3:0|0:0,0:0:0:0:
135,205,155064,2,0,P|180:222|214:254,1,77.999997619629
205,334,155390,1,0,3:0:0:0:
292,366,155553,2,0,P|312:321|312:277,1,77.999997619629,8|8,0:0|0:0,0:0:0:0:
377,223,155879,2,0,P|352:149|340:72,1,155.999995239258,0|8,0:0|0:0,0:0:0:0:
512,0,156531,53,0,3:0:0:0:
490,91,156694,1,0,3:0:0:0:
510,182,156857,1,8,0:0:0:0:
386,313,157183,38,0,B|304:308|304:308|234:243,1,155.999995239258,4|8,3:2|0:0,0:0:0:0:
295,176,157672,1,0,0:0:0:0:
244,96,157835,2,0,P|187:119|158:122,1,77.999997619629,0|0,0:0|3:0,0:0:0:0:
95,65,158161,2,0,P|26:87|0:181,1,155.999995239258,8|0,0:0|3:0,0:0:0:0:
73,213,158651,5,0,0:0:0:0:
10,283,158814,2,0,L|-1:373,1,77.999997619629,8|0,0:0|0:0,0:0:0:0:
91,381,159140,2,0,P|170:331|164:270,1,155.999995239258,0|8,0:0|0:0,0:0:0:0:
218,97,159792,86,0,P|169:85|122:98,2,77.999997619629,0|0|8,3:0|0:0|0:0,0:0:0:0:
280,166,160281,2,0,B|334:133|306:79|370:44,1,155.999995239258,0|0,0:0|3:0,0:0:0:0:
454,3,160770,2,0,P|498:50|491:83,1,77.999997619629,8|0,0:0|0:0,0:0:0:0:
509,151,161096,1,0,3:0:0:0:
452,225,161259,6,0,L|475:325,2,77.999997619629,0|8|0,0:0|0:0|0:0,0:0:0:0:
362,199,161748,2,0,L|378:107,1,77.999997619629,0|0,0:0|3:0,0:0:0:0:
322,44,162075,1,8,0:0:0:0:
138,81,162401,86,0,P|104:100|66:105,1,77.999997619629,0|0,3:0|0:0,0:0:0:0:
26,190,162727,2,0,P|45:224|50:262,1,77.999997619629,8|0,0:0|0:0,0:0:0:0:
135,299,163053,2,0,P|169:280|207:275,1,77.999997619629,0|0,0:0|3:0,0:0:0:0:
249,191,163379,2,0,P|230:157|225:119,1,77.999997619629,8|0,0:0|0:0,0:0:0:0:
307,75,163705,6,0,P|382:63|422:-1,2,155.999995239258,0|8|0,3:0|0:0|0:0,0:0:0:0:
231,19,164520,1,0,3:0:0:0:
143,51,164683,2,0,P|90:62|57:76,1,77.999997619629,8|0,0:0|0:0,0:0:0:0:
24,153,165009,86,0,B|92:184|48:242|108:277,1,155.999995239258,0|8,3:0|0:0,0:0:0:0:
179,216,165498,2,0,P|250:194|280:170,1,77.999997619629
340,226,165825,1,0,3:0:0:0:
384,308,165988,2,0,P|420:296|441:264,1,77.999997619629,8|8,0:0|0:0,0:0:0:0:
490,184,166314,2,0,P|450:118|435:41,1,155.999995239258,0|8,0:0|0:0,0:0:0:0:
250,13,166966,53,0,3:0:0:0:
218,100,167129,1,0,3:0:0:0:
253,186,167292,1,8,0:0:0:0:
269,372,167618,38,0,L|115:345,1,155.999995239258,6|8,3:2|0:0,0:0:0:0:
54,273,168107,1,2,0:0:0:0:
106,195,168270,2,0,P|121:158|127:120,1,77.999997619629,2|0,0:0|3:0,0:0:0:0:
205,69,168596,2,0,P|211:108|225:144,1,77.999997619629,8|0,0:0|0:0,0:0:0:0:
258,231,168922,6,0,P|333:242|393:195,1,155.999995239258,2|10,3:2|0:0,0:0:0:0:
448,120,169411,2,0,P|370:111|293:97,1,155.999995239258,2|2,0:0|3:2,0:0:0:0:
205,69,169901,2,0,P|166:61|127:53,1,77.999997619629,10|10,0:0|0:0,0:0:0:0:
40,86,170227,1,2,3:2:0:0:
31,272,170553,86,0,P|35:308|36:369,1,77.999997619629,10|2,0:0|0:0,0:0:0:0:
129,354,170879,2,0,P|124:315|123:276,1,77.999997619629,2|0,0:0|3:0,0:0:0:0:
214,257,171205,2,0,P|218:293|219:354,1,77.999997619629,10|0,0:0|0:0,0:0:0:0:
307,365,171531,5,0,3:0:0:0:
372,298,171694,2,0,P|449:281|476:267,1,77.999997619629,2|8,0:0|0:0,0:0:0:0:
489,197,172020,2,0,P|450:132|365:113,1,155.999995239258,2|0,0:0|3:0,0:0:0:0:
310,45,172509,1,10,0:0:0:0:
310,45,172672,1,10,0:0:0:0:
241,108,172835,86,0,B|271:169|228:192|260:261,1,155.999995239258,4|10,3:2|0:0,0:0:0:0:
210,340,173325,1,0,0:0:0:0:
210,340,173488,1,2,0:0:0:0:
139,278,173651,2,0,P|72:258|36:256,1,77.999997619629,2|8,3:2|0:0,0:0:0:0:
46,165,173977,6,0,P|68:112|100:100,1,77.999997619629,2|0,0:0|3:0,0:0:0:0:
132,24,174303,2,0,P|169:12|205:25,1,77.999997619629,2|8,0:0|0:0,0:0:0:0:
297,28,174629,2,0,P|325:53|331:91,1,77.999997619629,2|0,0:0|0:0,0:0:0:0:
309,182,174955,85,2,3:2:0:0:
218,205,175118,1,10,0:0:0:0:
126,222,175281,1,10,0:0:0:0:
70,297,175444,5,0,3:0:0:0:
242,370,175770,85,8,0:0:0:0:
333,351,175933,2,0,L|347:237,1,77.999997619629,2|0,0:0|0:0,0:0:0:0:
436,272,176259,2,0,L|420:168,1,77.999997619629,2|0,3:2|0:0,0:0:0:0:
486,125,176585,2,0,L|441:51,1,77.999997619629,10|0,0:0|0:0,0:0:0:0:
356,30,176911,1,0,3:0:0:0:
308,110,177075,2,0,P|273:125|232:125,1,77.999997619629,8|8,0:0|0:0,0:0:0:0:
154,174,177401,69,0,3:0:0:0:
130,264,177564,1,0,3:0:0:0:
157,353,177727,1,12,0:2:0:0:
311,372,178053,54,0,P|326:310|326:245,1,130,6|2,3:2|0:0,0:0:0:0:
361,175,178542,1,2,0:0:0:0:
285,179,178705,1,2,0:0:0:0:
285,179,178868,2,0,P|205:192|144:188,1,130,2|0,0:0|0:0,0:0:0:0:
91,145,179357,6,0,P|75:206|76:229,2,65,2|2|2,0:0|0:0|0:0,0:0:0:0:
122,73,179846,2,0,P|154:68|184:56,1,65,2|0,0:0|0:0,0:0:0:0:
260,39,180172,2,0,P|264:71|276:101,1,65,2|0,0:0|0:0,0:0:0:0:
291,182,180498,1,2,0:0:0:0:
291,182,180661,1,0,0:0:0:0:
191,303,180988,86,0,L|177:222,1,65,2|2,0:0|0:0,0:0:0:0:
137,174,181314,2,0,L|65:214,1,65,2|2,0:0|0:0,0:0:0:0:
48,277,181640,2,0,L|113:309,1,65,2|2,0:0|0:0,0:0:0:0:
150,376,181966,1,2,0:0:0:0:
150,376,182129,2,0,L|231:358,1,65,2|0,0:0|0:0,0:0:0:0:
266,304,182455,2,0,L|348:322,1,65,2|0,0:0|0:0,0:0:0:0:
403,292,182781,2,0,L|419:365,2,65,2|2|2,0:0|0:0|0:0,0:0:0:0:
421,216,183270,6,0,B|364:220|363:167|302:173,1,130,6|0,0:0|0:0,0:0:0:0:
233,150,183759,1,0,0:0:0:0:
233,150,183922,1,0,0:0:0:0:
221,72,184085,86,0,L|134:84,1,65,2|0,0:0|0:0,0:0:0:0:
93,126,184411,2,0,P|89:60|60:0,2,130,2|2|2,0:0|0:0|0:0,0:0:0:0:
152,270,185390,6,0,P|105:274|77:275,2,65,2|2|2,0:0|0:0|0:0,0:0:0:0:
221,332,185879,1,2,0:0:0:0:
375,351,186205,85,2,0:0:0:0:
423,288,186368,2,0,P|428:224|437:159,2,130,2|2|2,0:0|0:0|0:0,0:0:0:0:
270,255,187346,2,0,P|275:319|284:384,2,130,2|2|2,0:0|0:0|0:0,0:0:0:0:
246,180,188161,1,0,0:0:0:0:
246,180,188488,5,2,0:0:0:0:
