osu file format v14

[General]
AudioFilename: audio.mp3
AudioLeadIn: 0
PreviewTime: 278563
Countdown: 0
SampleSet: Soft
StackLeniency: 0.7
Mode: 0
LetterboxInBreaks: 0
WidescreenStoryboard: 0

[Editor]
Bookmarks: 227579,257268,348200,355662
DistanceSpacing: 0.8
BeatDivisor: 4
GridSize: 8
TimelineZoom: 2.100001

[Metadata]
Title:Anagura-gurashi
TitleUnicode:あなぐらぐらし
Artist:Isekai Joucho
ArtistUnicode:ヰ世界情緒
Creator:sLtink
Version:samishiii~
Source:
Tags:kikuo sekai joucho ヰ世界情緒 あなぐらぐらし anagura gurashi きくお female vocal cover electronic vocaloid japanese
BeatmapID:4290365
BeatmapSetID:2053896

[Difficulty]
HPDrainRate:6
CircleSize:4.5
OverallDifficulty:9
ApproachRate:9.4
SliderMultiplier:2
SliderTickRate:2

[Events]
//Background and Video events
0,0,"12121212.jpg",0,0
//Break Periods
2,144462,148697
//Storyboard Layer 0 (Background)
//Storyboard Layer 1 (Fail)
//Storyboard Layer 2 (Pass)
//Storyboard Layer 3 (Foreground)
//Storyboard Layer 4 (Overlay)
//Storyboard Sound Samples

[TimingPoints]
2660,937.5,4,2,1,40,1,0
7357,937.5,4,2,1,40,1,0
28450,-111.111111111111,4,2,1,40,0,0
28919,-125,4,2,1,40,0,0
29388,-142.857142857143,4,2,1,40,0,0
29857,-125,4,2,1,40,0,0
34833,621.761658031088,4,2,1,50,1,0
44781,-50,4,2,1,40,0,0
89548,-40,4,2,1,50,0,0
97086,-83.3333333333333,4,2,1,50,0,0
97630,-100,4,2,1,50,0,0
98252,-125,4,2,1,50,0,0
98874,-166.666666666667,4,2,1,50,0,0
99496,-40,4,2,1,70,0,1
100739,-100,4,2,1,70,0,1
101050,-40,4,2,1,70,0,1
102138,-40,4,2,1,70,0,1
105713,-100,4,2,1,70,0,1
106024,-40,4,2,1,50,0,1
116905,-40,4,2,1,50,0,0
118459,-66.6666666666667,4,2,1,50,0,0
119081,-200,4,2,1,50,0,0
121879,-40,4,2,1,70,0,1
139288,-40,4,2,1,50,0,1
139599,-66.6666666666667,4,2,1,50,0,0
141465,-100,4,2,1,50,0,0
149237,-100,4,2,1,30,0,0
159185,-66.6666666666667,4,2,1,50,0,0
166646,-100,4,2,1,50,0,0
169133,-200,4,2,1,50,0,0
174107,-40,4,2,1,50,0,0
189729,-33.3333333333333,4,2,1,50,0,0
191672,-66.6666666666667,4,2,1,50,0,0
194003,-40,4,2,1,50,0,0
216698,-33.3333333333333,4,2,1,50,0,0
217630,-40,4,2,1,50,0,0
218874,-66.6666666666667,4,2,1,40,0,0
228200,-133.333333333333,4,2,1,50,0,0
228978,-66.6666666666667,4,2,1,50,0,0
238770,-100,4,2,1,50,0,0
244988,-50,4,2,1,50,0,0
248926,-66.6666666666667,4,2,1,50,0,0
250377,-100,4,2,1,50,0,0
257889,-40,4,2,1,50,0,0
278563,-40,4,2,1,70,0,1
296283,-66.6666666666667,4,2,1,50,0,0
298459,-40,4,2,1,50,0,0
315869,-66.6666666666667,4,2,1,50,0,0
318356,-58.8235294117647,4,2,1,50,0,0
338252,-133.333333333333,4,2,1,50,0,0

[HitObjects]
380,92,2660,6,0,B|365:133|396:162|396:162|362:170|347:226,1,150
303,298,3597,5,0,0:0:0:0:
231,337,3832,1,2,0:0:0:0:
149,300,4066,1,2,0:0:0:0:
125,193,4300,1,2,0:0:0:0:
148,159,4535,1,2,0:0:0:0:
194,136,4769,6,0,L|167:50,1,50
178,76,5238,2,0,L|200:135,1,50
345,87,5706,6,2,L|278:59,1,50
397,161,6175,1,2,0:0:0:0:
316,172,6410,1,2,0:0:0:0:
243,252,6644,1,0,0:0:0:0:
236,291,6878,1,0,0:0:0:0:
218,299,7113,2,0,B|171:302|174:256|146:254,1,50
135,204,7591,5,2,0:0:0:0:
135,204,7825,2,2,L|107:136,1,50
212,126,8294,1,2,0:0:0:0:
227,79,8528,2,0,L|207:145,1,50
251,246,8997,2,0,L|219:208,1,50
142,179,9466,1,2,0:0:0:0:
51,231,9700,1,2,0:0:0:0:
38,347,9935,1,2,0:0:0:0:
277,262,10169,5,2,0:0:0:0:
290,285,10403,1,0,0:0:0:0:
291,313,10638,1,0,0:0:0:0:
282,336,10872,1,0,0:0:0:0:
402,134,11107,5,2,0:0:0:0:
316,209,11341,1,2,0:0:0:0:
313,63,11575,2,2,L|302:140,1,50
190,236,12044,5,0,0:0:0:0:
303,143,12278,1,0,0:0:0:0:
277,282,12513,2,0,L|290:214,1,50
223,132,12982,5,2,0:0:0:0:
118,56,13216,2,2,L|143:74,1,25
140,71,13450,2,2,P|114:54|101:51,2,25
43,86,13919,2,0,P|79:93|101:163,1,100
200,83,14622,1,0,0:0:0:0:
160,221,14857,5,2,0:0:0:0:
31,305,15091,1,2,0:0:0:0:
173,297,15325,2,2,L|108:294,1,50
28,360,15794,5,2,0:0:0:0:
157,276,16028,1,2,0:0:0:0:
15,284,16262,2,2,L|80:287,1,50
187,322,16732,5,0,0:0:0:0:
271,259,16966,1,0,0:0:0:0:
353,197,17200,2,0,L|389:168,2,25
383,260,17669,2,0,P|326:229|296:174,1,100
146,225,18372,2,0,L|168:214,1,25
178,215,18607,2,0,P|131:208|125:121,1,150
217,56,19544,5,2,0:0:0:0:
285,121,19778,1,2,0:0:0:0:
355,184,20013,1,2,0:0:0:0:
427,244,20247,1,2,0:0:0:0:
229,321,20482,5,0,0:0:0:0:
175,308,20716,1,0,0:0:0:0:
146,261,20950,1,0,0:0:0:0:
172,212,21185,1,0,0:0:0:0:
314,55,21419,5,2,0:0:0:0:
238,128,21653,1,2,0:0:0:0:
163,202,21888,1,2,0:0:0:0:
84,271,22122,1,2,0:0:0:0:
430,135,22357,5,0,0:0:0:0:
389,204,22591,1,0,0:0:0:0:
462,304,22825,2,0,P|460:279|447:259,1,50
317,206,23294,5,2,0:0:0:0:
249,162,23528,1,2,0:0:0:0:
253,34,23763,2,0,P|241:54|241:79,1,50
261,264,24232,5,0,0:0:0:0:
299,334,24466,1,0,0:0:0:0:
424,317,24700,2,0,P|403:331|379:333,1,50
195,317,25169,5,2,0:0:0:0:
141,263,25403,1,2,0:0:0:0:
138,142,25638,2,2,P|125:163|124:188,1,50
202,87,26107,6,0,P|233:71|255:122,1,100
185,172,26810,1,0,0:0:0:0:
185,172,27044,2,0,L|215:218,1,50
341,35,27513,5,0,0:0:0:0:
391,82,27747,1,0,0:0:0:0:
418,146,27982,2,0,P|403:169|406:201,1,50
446,228,28450,2,0,P|442:265|433:279,1,44.999998626709
387,282,28919,2,0,P|392:317|404:332,1,40
444,328,29388,2,0,P|443:358|433:373,1,34.9999989318848
197,214,29857,6,2,L|150:198,1,40
148,277,30325,2,2,L|100:263,1,40
89,337,30794,2,2,L|20:315,1,60
197,214,31380,6,2,L|150:198,1,40
148,277,31848,2,2,L|100:263,1,40
89,337,32317,2,2,L|32:322,1,40
197,214,32786,6,2,L|150:198,1,40
148,277,33255,2,2,L|85:261,1,60
197,214,33841,6,2,L|159:201,1,40
148,277,34310,2,2,L|109:266,1,40
134,161,34833,6,0,P|182:132|243:117,1,100
179,222,35299,2,0,P|143:250|108:303,1,100
344,62,35921,6,0,L|434:124,1,100
292,119,36542,2,0,L|205:59,1,100
189,337,37320,6,0,P|145:334|112:288,1,100
237,275,37786,2,0,P|275:278|314:230,1,100
121,95,38408,6,0,B|76:113|76:113|68:183,1,100
216,80,39029,2,0,B|253:50|253:50|303:69,1,100
427,41,39807,6,0,L|437:100,1,50
322,310,40117,1,2,0:0:0:0:
301,230,40273,1,2,0:0:0:0:
212,24,40584,6,0,L|200:79,1,50
142,278,40895,1,2,0:0:0:0:
92,23,41206,6,0,L|103:84,1,50
166,317,41516,1,2,0:0:0:0:
123,317,41827,6,0,L|157:256,2,50
236,37,42294,6,0,L|230:89,1,50
238,351,42605,1,2,0:0:0:0:
272,251,42761,1,2,0:0:0:0:
345,28,43071,6,0,L|336:95,1,50
316,314,43382,1,2,0:0:0:0:
160,29,43693,6,0,L|168:83,1,50
207,336,44003,1,0,0:0:0:0:
209,35,44159,5,8,0:0:0:0:
299,105,44314,1,2,0:0:0:0:
305,220,44470,1,2,0:0:0:0:
236,311,44625,1,2,0:0:0:0:
138,246,44781,6,0,P|100:193|106:142,1,100
139,43,45092,1,0,0:0:0:0:
251,96,45247,2,0,P|289:149|283:200,1,100
484,230,45558,6,0,P|452:171|423:194,1,100
340,244,45869,2,0,L|284:334,1,100
247,71,46180,2,0,P|263:27|308:35,1,100,0|0,0:3|0:3,0:3:0:0:
326,159,46491,2,0,L|422:203,1,100
475,201,46801,6,0,L|418:239,1,50
433,264,46957,2,0,L|479:234,1,50
475,271,47112,2,0,L|419:310,1,50
433,335,47268,6,0,P|368:329|312:275,1,100
257,219,47579,1,0,0:0:0:0:
172,311,47734,2,0,P|128:334|79:335,1,100
40,66,48045,6,0,P|83:46|125:71,1,100
200,188,48356,2,0,L|228:283,1,100
294,112,48667,6,0,P|252:88|208:108,1,100
122,216,48978,2,0,L|82:308,1,100
61,39,49288,6,0,L|112:79,1,50
111,106,49444,2,0,L|60:71,1,50
85,109,49599,2,0,L|132:146,1,50
132,174,49755,6,0,P|180:234|183:284,1,100
236,334,50066,1,0,0:0:0:0:
287,253,50221,2,0,P|304:207|340:173,1,100
249,148,50532,6,0,P|188:80|190:44,1,100
331,265,50843,2,0,P|388:284|415:329,1,100
306,136,51154,6,0,P|315:46|343:23,1,100
273,276,51465,2,0,P|297:331|282:381,1,100
91,352,51776,6,0,L|34:319,1,50
47,291,51931,2,0,L|103:327,1,50
89,282,52086,2,0,L|46:254,1,50
55,220,52242,6,0,P|87:177|89:115,1,100
153,30,52553,1,0,0:0:0:0:
219,128,52708,2,0,P|226:176|256:215,1,100
381,38,53019,6,0,L|278:78,1,100
311,243,53330,2,0,L|404:206,1,100
456,116,53641,2,0,P|384:124|347:175,1,100
365,310,53952,2,0,P|437:302|474:251,1,100
185,313,54263,6,0,P|216:299|223:280,1,50
223,250,54418,2,0,P|209:270|185:277,1,50
183,242,54573,2,0,P|214:228|221:209,1,50
219,179,54729,6,0,P|179:140|167:88,1,100
115,17,55040,1,0,0:0:0:0:
62,97,55195,2,0,P|47:144|11:178,1,100
49,308,55506,6,0,P|98:305|141:329,1,100
276,304,55817,2,0,P|242:264|266:188,1,100
93,74,56128,6,0,P|125:111|127:161,1,100
320,70,56439,2,0,P|270:74|228:50,1,100
463,197,56750,6,0,L|407:223,1,50
417,218,56905,2,0,L|347:250,1,50
372,238,57060,2,0,L|304:269,1,50
326,259,57216,6,0,L|216:306,1,100
141,260,57527,1,0,0:0:0:0:
178,167,57682,2,0,L|269:127,1,100
262,268,57993,6,0,P|307:333|342:340,1,100
467,198,58304,2,0,L|402:284,1,100
477,91,58615,6,0,P|432:26|397:19,1,100
272,161,58926,2,0,L|337:75,1,100
117,33,59237,6,0,L|164:66,1,50
157,61,59392,2,0,L|215:102,1,50
198,90,59548,2,0,L|247:124,1,50
239,119,59703,6,0,L|329:183,1,100
336,274,60014,1,0,0:0:0:0:
238,291,60169,2,0,L|156:233,1,100
115,122,60480,6,0,P|126:65|169:26,1,100
368,128,60791,2,0,P|311:156|235:157,1,100
61,234,61102,6,0,P|102:282|172:312,1,100
362,298,61413,2,0,P|318:259|261:253,1,100
64,252,61724,6,0,P|81:291|101:303,1,50
85,295,61879,2,0,P|117:314|154:306,1,50
129,314,62035,2,0,P|166:316|190:295,1,50
177,309,62190,6,0,P|225:279|249:218,1,100
313,173,62501,1,0,0:0:0:0:
380,242,62656,2,0,P|405:284|448:309,1,100
437,150,62967,6,0,P|402:86|353:77,1,100
220,61,63278,2,0,L|281:159,1,100
365,277,63589,6,0,P|330:341|281:350,1,100
148,366,63900,2,0,L|209:268,1,100
89,142,64211,6,0,P|67:99|78:74,1,50
67,99,64366,2,0,P|78:62|119:47,1,50
84,55,64522,2,0,P|139:43|158:60,1,50
129,39,64677,6,0,P|181:69|197:121,1,100
424,328,64988,5,0,0:0:0:0:
424,328,65143,5,0,0:0:0:0:
359,48,65454,5,0,0:0:0:0:
288,116,65765,5,0,0:0:0:0:
255,337,66076,5,0,0:0:0:0:
190,260,66387,5,0,0:0:0:0:
190,260,66542,5,0,0:0:0:0:
131,34,66853,5,0,0:0:0:0:
56,334,67164,5,0,0:0:0:0:
136,249,67475,5,0,0:0:0:0:
136,249,67630,5,0,0:0:0:0:
263,39,67941,5,0,0:0:0:0:
334,118,68252,5,0,0:0:0:0:
389,346,68563,5,0,0:0:0:0:
469,64,68874,5,0,0:0:0:0:
469,64,69029,5,0,0:0:0:0:
270,52,69340,5,0,0:0:0:0:
270,52,69651,2,0,P|324:132|435:137,1,200
336,307,70117,1,2,0:0:0:0:
336,307,70273,1,8,0:0:0:0:
242,160,70584,5,2,0:0:0:0:
242,160,70895,2,0,P|186:95|66:72,1,200
152,287,71361,1,2,0:0:0:0:
152,287,71516,1,8,0:0:0:0:
298,282,71827,2,0,P|352:329|400:341,1,100
459,264,72138,5,2,0:0:0:0:
390,194,72294,1,2,0:0:0:0:
450,130,72449,2,0,P|434:192|401:229,1,100
304,184,72760,1,8,0:0:0:0:
364,88,72915,1,2,0:0:0:0:
263,144,73071,1,2,0:0:0:0:
195,28,73226,1,2,0:0:0:0:
153,81,73382,1,2,0:0:0:0:
202,175,73537,1,2,0:0:0:0:
111,236,73693,1,2,0:0:0:0:
48,146,73848,1,2,0:0:0:0:
66,123,74003,1,8,0:0:0:0:
52,88,74159,1,0,0:0:0:0:
48,70,74314,2,0,P|61:29|126:50,1,100
286,56,74625,5,2,0:0:0:0:
286,56,74781,2,0,L|253:168,1,100
229,255,75092,1,2,0:0:0:0:
202,351,75247,1,0,0:0:0:0:
316,275,75402,1,2,0:0:0:0:
413,354,75558,1,2,0:0:0:0:
439,338,75713,2,2,L|463:286,1,50
489,65,75869,5,2,0:0:0:0:
489,65,76025,2,0,L|398:140,1,100
319,198,76335,1,2,0:0:0:0:
226,263,76491,1,10,0:0:0:0:
254,112,76646,1,2,0:0:0:0:
120,55,76801,1,2,0:0:0:0:
101,76,76957,2,2,L|87:132,1,50
59,277,77112,5,2,0:0:0:0:
101,276,77268,1,2,0:0:0:0:
121,308,77423,1,2,0:0:0:0:
171,344,77579,1,2,0:0:0:0:
229,315,77734,1,8,0:0:0:0:
303,356,77889,1,2,0:0:0:0:
380,315,78045,1,2,0:0:0:0:
472,333,78200,1,2,0:0:0:0:
364,46,78356,5,2,0:0:0:0:
402,82,78511,2,0,P|431:142|419:190,1,100
235,258,78822,1,2,0:0:0:0:
149,286,78978,1,8,0:0:0:0:
238,275,79133,1,2,0:0:0:0:
159,318,79288,2,2,P|197:346|250:327,1,100
442,264,79599,6,0,P|406:215|350:204,1,100
222,172,79910,2,0,P|173:135|157:81,1,100
291,32,80221,1,2,0:0:0:0:
413,91,80377,1,2,0:0:0:0:
291,43,80532,1,2,0:0:0:0:
415,103,80687,1,2,0:0:0:0:
110,47,80998,5,0,0:0:0:0:
110,47,81154,2,0,P|144:107|204:128,1,100
301,298,81465,1,10,0:0:0:0:
161,231,81620,1,2,0:0:0:0:
294,306,81776,1,2,0:0:0:0:
154,239,81931,1,2,0:0:0:0:
414,293,82242,5,0,0:0:0:0:
414,293,82397,2,0,P|444:237|442:180,1,100
298,33,82708,1,10,0:0:0:0:
176,121,82864,1,2,0:0:0:0:
299,41,83019,1,2,0:0:0:0:
179,131,83174,1,2,0:0:0:0:
371,192,83330,5,0,0:0:0:0:
378,227,83485,1,0,0:0:0:0:
367,257,83641,1,0,0:0:0:0:
171,337,83796,5,2,0:0:0:0:
93,207,83952,1,10,0:0:0:0:
176,325,84107,1,2,0:0:0:0:
96,198,84263,1,2,0:0:0:0:
179,309,84418,1,2,0:0:0:0:
269,40,84573,6,2,P|237:95|241:143,1,100
330,204,84884,1,2,0:0:0:0:
350,188,85040,2,2,P|377:134|437:120,1,100,2|10,0:0|0:0,0:0:0:0:
458,237,85351,2,2,L|397:345,1,100
293,264,85662,1,2,0:0:0:0:
239,348,85817,1,2,0:0:0:0:
198,270,85972,1,2,0:0:0:0:
163,270,86128,2,2,P|113:295|58:237,1,100
58,94,86439,1,8,0:0:0:0:
65,179,86594,2,2,L|77:301,1,100
61,139,86905,1,2,0:0:0:0:
260,73,87060,5,0,0:0:0:0:
57,28,87216,1,0,0:0:0:0:
19,87,87371,1,0,0:0:0:0:
222,132,87527,2,0,L|150:221,1,100
188,208,88149,6,0,L|234:321,1,100
287,351,88459,1,0,0:0:0:0:
261,272,88615,1,0,0:0:0:0:
477,279,88770,1,0,0:0:0:0:
427,349,88926,1,0,0:0:0:0:
419,155,89081,1,0,0:0:0:0:
323,156,89237,1,0,0:0:0:0:
475,338,89392,1,0,0:0:0:0:
379,36,89548,5,2,0:0:0:0:
337,107,89703,1,2,0:0:0:0:
384,187,89858,1,2,0:0:0:0:
335,264,90014,1,2,0:0:0:0:
376,353,90169,2,2,P|310:364|347:314,1,125
251,151,90480,2,0,L|273:279,1,125
100,28,90791,5,2,0:0:0:0:
155,97,90946,1,2,0:0:0:0:
111,174,91102,1,2,0:0:0:0:
162,263,91257,1,2,0:0:0:0:
109,342,91413,2,2,P|141:387|171:331,1,125
271,150,91724,2,0,L|241:282,1,125
464,349,92035,5,2,0:0:0:0:
392,258,92190,1,2,0:0:0:0:
300,307,92345,1,2,0:0:0:0:
228,227,92501,1,2,0:0:0:0:
110,236,92656,2,2,P|96:168|153:198,1,125
323,160,92967,2,0,L|269:127,2,62.5
68,34,93278,5,2,0:0:0:0:
182,56,93434,1,2,0:0:0:0:
206,161,93589,1,2,0:0:0:0:
338,158,93744,1,2,0:0:0:0:
394,267,93900,2,2,P|444:246|404:196,1,125
172,244,94211,2,0,L|300:204,1,125
254,30,94522,5,2,0:0:0:0:
210,118,94677,1,2,0:0:0:0:
271,198,94833,1,2,0:0:0:0:
209,285,94988,1,2,0:0:0:0:
253,368,95143,2,2,P|305:379|284:323,1,125
171,185,95454,2,0,L|217:250,2,62.5
461,210,95765,5,0,0:0:0:0:
342,146,95998,1,0,0:0:0:0:
239,221,96231,1,0,0:0:0:0:
131,155,96465,1,0,0:0:0:0:
36,227,96698,1,0,0:0:0:0:
121,322,96931,1,0,0:0:0:0:
268,308,97086,6,0,P|323:288|350:190,1,149.999995422363
309,64,97630,2,0,P|212:76|171:130,1,150
122,287,98252,2,0,P|165:332|223:325,1,120
245,37,98874,6,0,L|246:131,1,89.9999972534181,8|0,0:0|0:0,0:0:0:0:
46,355,99496,6,2,P|117:337|149:283,1,125
174,38,99807,1,2,0:0:0:0:
55,102,99962,2,0,P|39:185|96:200,1,125,0|8,0:0|0:0,0:0:0:0:
210,255,100273,1,2,0:0:0:0:
280,291,100428,2,2,B|331:323|331:323|376:271,1,125
448,82,100739,2,2,L|429:143,1,50
366,166,101050,2,2,P|356:99|387:43,1,125
492,16,101361,5,10,0:0:0:0:
441,90,101516,1,2,0:0:0:0:
471,170,101672,1,2,0:0:0:0:
435,243,101827,1,2,0:0:0:0:
243,350,101983,5,2,0:0:0:0:
401,284,102138,1,2,0:0:0:0:
208,361,102294,1,2,0:0:0:0:
30,288,102449,1,2,0:0:0:0:
224,325,102605,1,10,0:0:0:0:
44,255,102760,2,2,P|51:222|11:257,1,125
302,348,103071,5,8,0:0:0:0:
213,227,103226,2,2,B|162:153|162:153|213:161,1,125
258,286,103537,1,2,0:0:0:0:
334,104,103693,1,2,0:0:0:0:
148,43,103848,2,0,P|97:169|175:170,1,250,8|0,0:0|0:0,0:0:0:0:
469,26,104470,6,2,P|394:48|377:95,1,125
455,177,104781,1,2,0:0:0:0:
455,177,104936,2,0,P|431:232|368:204,1,125,0|8,0:0|0:0,0:0:0:0:
286,182,105247,1,2,0:0:0:0:
193,43,105402,2,2,P|188:124|219:160,1,125
305,348,105713,2,2,L|259:302,1,50
171,207,106024,2,2,P|158:279|220:308,1,125
475,312,106335,5,8,0:0:0:0:
416,357,106490,1,2,0:0:0:0:
348,325,106645,1,2,0:0:0:0:
280,358,106801,1,2,0:0:0:0:
484,72,106957,6,2,P|424:47|349:64,1,125
488,144,107268,1,2,0:0:0:0:
435,181,107423,1,2,0:0:0:0:
299,336,107579,1,8,0:0:0:0:
227,356,107734,1,2,0:0:0:0:
179,303,107889,1,2,0:0:0:0:
158,67,108045,5,8,0:0:0:0:
212,115,108200,1,2,0:0:0:0:
176,195,108356,1,2,0:0:0:0:
312,221,108511,1,2,0:0:0:0:
369,339,108667,1,2,0:0:0:0:
475,174,108822,2,0,B|385:167|390:93|390:93|372:15|257:33,1,250,8|0,0:0|0:0,0:0:0:0:
175,102,109444,6,2,L|290:182,1,125
115,64,109755,1,2,0:0:0:0:
54,23,109910,1,2,0:0:0:0:
270,198,110066,6,0,L|147:272,1,125,8|0,0:0|0:0,0:0:0:0:
332,161,110377,1,2,0:0:0:0:
397,128,110532,1,2,0:0:0:0:
166,292,110687,6,2,L|301:363,1,125
96,255,110998,1,2,0:0:0:0:
25,221,111154,1,2,0:0:0:0:
334,82,111309,5,8,0:0:0:0:
222,183,111465,1,2,0:0:0:0:
105,276,111620,1,2,0:0:0:0:
79,298,111776,1,2,0:0:0:0:
260,342,111931,6,2,L|315:298,1,62.5
342,275,112086,1,2,0:0:0:0:
497,186,112242,1,2,0:0:0:0:
386,25,112397,1,2,0:0:0:0:
235,115,112553,1,8,0:0:0:0:
290,163,112708,1,2,0:0:0:0:
281,232,112864,1,2,0:0:0:0:
124,159,113019,1,8,0:0:0:0:
14,39,113174,1,2,0:0:0:0:
100,196,113330,1,2,0:0:0:0:
30,345,113485,1,2,0:0:0:0:
201,276,113641,1,2,0:0:0:0:
350,352,113796,2,0,P|414:343|360:202,1,250,8|0,0:0|0:0,0:0:0:0:
335,286,114418,6,2,P|402:256|427:196,1,125
257,309,114729,1,2,0:0:0:0:
175,334,114884,1,2,0:0:0:0:
326,225,115040,6,0,P|259:195|234:135,1,125,8|0,0:0|0:0,0:0:0:0:
404,248,115351,1,2,0:0:0:0:
486,273,115506,1,2,0:0:0:0:
350,160,115662,6,2,P|417:130|442:70,1,125
272,183,115973,1,2,0:0:0:0:
190,208,116128,1,2,0:0:0:0:
401,241,116283,5,0,0:0:0:0:
474,280,116438,1,0,0:0:0:0:
475,352,116593,1,0,0:0:0:0:
402,312,116749,1,0,0:0:0:0:
151,329,116905,5,0,0:0:0:0:
129,341,117060,1,0,0:0:0:0:
108,326,117216,2,0,L|73:182,1,125
361,55,117527,5,0,0:0:0:0:
383,43,117682,1,0,0:0:0:0:
404,58,117838,2,0,L|439:202,1,125
391,329,118165,5,0,0:0:0:0:
391,329,118320,1,0,0:0:0:0:
391,329,118459,2,0,P|354:337|318:331,1,75.0000028610231
121,55,118770,5,0,0:0:0:0:
121,55,118926,1,0,0:0:0:0:
121,55,119081,2,0,P|324:41|451:60,1,325,0|2,0:0|0:0,0:0:0:0:
443,58,121257,1,8,0:0:0:0:
149,59,121879,6,2,L|96:198,1,125
257,34,122190,1,2,0:0:0:0:
257,34,122345,2,0,P|228:95|268:132,1,125,0|8,0:0|0:0,0:0:0:0:
357,100,122656,1,2,0:0:0:0:
439,53,122812,2,2,P|428:126|379:188,1,125
259,276,123123,2,2,P|336:270|414:313,1,125
464,357,123434,1,2,0:0:0:0:
319,335,123589,1,2,0:0:0:0:
238,96,123744,5,8,0:0:0:0:
172,35,123900,1,2,0:0:0:0:
97,67,124055,2,2,L|135:125,2,62.5
286,33,124366,1,2,0:0:0:0:
424,58,124522,6,2,L|352:184,1,125
411,260,124832,1,2,0:0:0:0:
317,369,124988,1,8,0:0:0:0:
230,214,125143,1,2,0:0:0:0:
202,181,125299,1,2,0:0:0:0:
36,213,125454,1,2,0:0:0:0:
170,15,125610,1,2,0:0:0:0:
4,47,125765,1,2,0:0:0:0:
137,156,125921,1,2,0:0:0:0:
303,124,126076,1,2,0:0:0:0:
368,287,126231,2,0,P|444:249|441:80,1,250,8|0,0:0|0:0,0:0:0:0:
389,31,126853,6,2,L|335:144,1,125
233,288,127164,1,2,0:0:0:0:
233,288,127320,2,0,P|243:226|237:164,1,125,0|8,0:0|0:0,0:0:0:0:
113,62,127630,1,2,0:0:0:0:
7,193,127786,2,2,P|70:161|136:171,1,125
235,26,128097,2,2,P|183:96|191:140,1,125
84,83,128408,1,2,0:0:0:0:
210,206,128563,1,2,0:0:0:0:
335,117,128719,5,8,0:0:0:0:
385,145,128874,1,2,0:0:0:0:
406,192,129029,2,2,P|401:266|354:317,1,125
255,107,129496,6,0,L|149:8,1,125
196,166,129807,2,0,L|247:296,1,125,0|8,0:0|0:0,0:0:0:0:
121,186,130040,2,0,P|78:98|3:44,1,187.5
52,229,130428,1,2,0:0:0:0:
195,362,130584,1,2,0:0:0:0:
305,210,130739,1,2,0:0:0:0:
371,331,130895,1,2,0:0:0:0:
491,176,131050,1,2,0:0:0:0:
414,61,131206,2,0,B|335:109|304:44|267:-21|166:30,1,250,8|0,0:0|0:0,0:0:0:0:
335,234,131827,6,2,L|426:350,1,125
270,155,132138,1,2,0:0:0:0:
216,84,132294,1,2,0:0:0:0:
255,231,132449,6,0,L|368:139,1,125,8|0,0:0|0:0,0:0:0:0:
178,296,132760,1,2,0:0:0:0:
104,358,132915,1,2,0:0:0:0:
173,211,133071,6,2,L|275:319,1,125
107,133,133382,1,2,0:0:0:0:
43,63,133537,1,2,0:0:0:0:
468,25,133693,5,8,0:0:0:0:
402,69,133848,1,2,0:0:0:0:
332,29,134003,1,2,0:0:0:0:
257,66,134159,2,2,P|181:55|146:18,1,125
45,314,134470,6,2,P|107:282|135:208,1,125
172,74,134781,1,2,0:0:0:0:
109,33,134936,1,8,0:0:0:0:
214,181,135092,1,2,0:0:0:0:
254,307,135247,1,2,0:0:0:0:
396,348,135402,1,2,0:0:0:0:
490,238,135558,1,2,0:0:0:0:
357,274,135713,1,2,0:0:0:0:
465,34,135869,1,2,0:0:0:0:
333,72,136024,1,2,0:0:0:0:
151,103,136180,2,0,B|229:68|234:151|279:259|372:190,1,250,8|0,0:0|0:0,0:0:0:0:
157,179,136801,6,2,P|93:221|18:228,1,125
231,106,137112,1,2,0:0:0:0:
297,30,137268,1,2,0:0:0:0:
285,207,137423,6,2,P|214:177|139:185,1,125
351,262,137734,1,2,0:0:0:0:
430,324,137890,1,2,0:0:0:0:
364,126,138045,6,2,P|299:172|214:143,1,125
434,76,138356,1,2,0:0:0:0:
497,20,138511,1,2,0:0:0:0:
483,354,138667,5,8,0:0:0:0:
419,299,138822,1,2,0:0:0:0:
349,350,138978,1,2,0:0:0:0:
279,297,139133,1,2,0:0:0:0:
114,56,139288,5,0,0:0:0:0:
137,71,139444,1,0,0:0:0:0:
154,103,139599,2,0,P|152:159|128:182,1,75.0000028610231
398,56,139910,5,0,0:0:0:0:
375,71,140066,1,0,0:0:0:0:
358,103,140221,2,0,P|360:159|384:182,1,75.0000028610231
90,28,140532,5,0,0:0:0:0:
90,71,140687,1,0,0:0:0:0:
89,115,140843,2,0,L|88:199,1,75.0000028610231
422,28,141154,5,0,0:0:0:0:
422,71,141309,1,0,0:0:0:0:
422,109,141465,2,0,B|420:136|420:142|421:149|422:153|424:160|427:166|430:171|434:176|438:181|443:187|449:195|455:201|461:207|466:213|471:219|474:224|480:236|482:244|484:254|484:261|484:270|484:276|482:286|480:293|477:301|474:308|471:314|467:321|461:326|457:328|452:330|446:331|437:333|429:334|419:331|409:327|400:324|393:317|388:309|387:300|387:288|388:279|389:272|392:264|395:256|400:246|403:237|406:227|408:215|407:204|404:192|401:185|398:177|391:167|384:158|376:150|368:143|362:138|354:134|343:130|329:127|322:126|309:126|298:128|288:132|280:140|276:149|274:157|272:168|271:180|269:197|269:209|274:220|282:230|291:239|301:246|311:253|320:259|330:266|339:272|347:279|354:289|358:300|360:309|360:316|357:329|355:333|353:338|351:344|345:354|337:362|331:366|326:370|321:372|312:373|305:374|296:375|285:373|276:370|270:367|267:364|263:360|260:355|257:347|255:339|255:331|255:324|256:316|257:308|257:300|257:297|256:288|253:275|250:268|247:261|243:255|240:250|235:245|230:240|226:238|221:235,1,900
212,56,149237,5,0,0:0:0:0:
140,84,149392,1,0,0:0:0:0:
65,112,149548,2,0,L|5:137,1,50
320,135,149858,5,8,0:0:0:0:
388,179,150014,1,0,0:0:0:0:
457,225,150169,2,0,L|507:257,1,50
168,220,150480,5,0,0:0:0:0:
150,327,150636,1,0,0:0:0:0:
102,263,150791,1,0,0:0:0:0:
118,184,150946,1,0,0:0:0:0:
252,214,151102,1,8,0:0:0:0:
255,293,151257,1,0,0:0:0:0:
210,359,151413,2,0,P|181:371|155:365,1,50
314,169,151724,5,0,0:0:0:0:
370,111,151879,1,0,0:0:0:0:
428,47,152035,2,0,L|473:0,1,50
133,219,152345,5,8,0:0:0:0:
196,280,152501,1,0,0:0:0:0:
262,338,152656,2,0,L|307:376,1,50
150,117,152967,5,0,0:0:0:0:
70,76,153123,1,0,0:0:0:0:
41,156,153278,1,0,0:0:0:0:
93,224,153434,1,0,0:0:0:0:
212,172,153589,1,8,0:0:0:0:
258,241,153744,1,0,0:0:0:0:
224,321,153900,2,0,P|201:358|190:365,1,50
385,280,154211,5,0,0:0:0:0:
435,248,154366,1,0,0:0:0:0:
383,208,154522,1,0,0:0:0:0:
333,176,154677,1,0,0:0:0:0:
380,135,154833,1,0,0:0:0:0:
430,103,154988,1,0,0:0:0:0:
380,61,155143,2,0,P|394:99|414:117,1,50
297,358,155454,6,0,P|285:318|266:296,1,50
215,245,155765,1,0,0:0:0:0:
175,158,155921,1,0,0:0:0:0:
227,83,156076,2,0,P|255:57|258:34,1,50,8|0,0:0|0:0,0:0:0:0:
194,144,156698,5,0,0:0:0:0:
101,76,156853,1,0,0:0:0:0:
206,168,157009,1,0,0:0:0:0:
129,253,157164,1,0,0:0:0:0:
221,198,157320,1,8,0:0:0:0:
223,312,157475,1,0,0:0:0:0:
304,274,157630,1,0,0:0:0:0:
341,339,157786,1,0,0:0:0:0:
399,310,157941,1,0,0:0:0:0:
452,347,158097,1,0,0:0:0:0:
489,300,158252,1,0,0:0:0:0:
470,272,158408,1,0,0:0:0:0:
448,250,158563,2,0,P|434:202|441:186,1,50,8|0,0:0|0:0,0:0:0:0:
466,105,159185,5,2,0:0:0:0:
371,47,159340,1,2,0:0:0:0:
298,115,159496,1,2,0:0:0:0:
206,79,159651,1,2,0:0:0:0:
144,160,159807,2,0,P|95:179|166:217,1,150.000005722046,8|0,0:0|0:0,0:0:0:0:
62,339,160428,5,2,0:0:0:0:
158,295,160584,1,2,0:0:0:0:
253,336,160739,1,2,0:0:0:0:
329,258,160895,1,2,0:0:0:0:
448,247,161050,2,0,P|472:205|389:200,1,150.000005722046,8|0,0:0|0:0,0:0:0:0:
415,32,161672,5,2,0:0:0:0:
342,97,161827,1,2,0:0:0:0:
387,194,161983,1,2,0:0:0:0:
296,262,162138,1,2,0:0:0:0:
331,360,162294,2,0,P|292:365|268:316,1,75.0000028610231,8|0,0:0|0:0,0:0:0:0:
217,176,162605,2,0,L|184:137,2,37.5000014305115
340,34,162915,5,2,0:0:0:0:
300,111,163071,1,2,0:0:0:0:
346,185,163226,1,2,0:0:0:0:
439,200,163382,1,2,0:0:0:0:
498,280,163537,2,0,P|484:349|405:357,1,150.000005722046,8|0,0:0|0:0,0:0:0:0:
229,232,164159,5,2,0:0:0:0:
114,166,164314,1,2,0:0:0:0:
185,274,164470,2,2,P|207:326|208:355,2,75.0000028610231,2|2|8,0:0|0:0|0:0,0:0:0:0:
152,244,164936,1,2,0:0:0:0:
106,235,165092,1,2,0:0:0:0:
280,40,165402,5,2,0:0:0:0:
249,27,165558,1,2,0:0:0:0:
229,45,165713,2,2,P|200:72|154:71,1,75.0000028610231
269,96,166024,5,8,0:0:0:0:
299,79,166180,1,2,0:0:0:0:
324,98,166335,2,2,P|347:128|385:133,1,75.0000028610231
71,93,166646,6,0,L|82:150,1,33.3333333333333
147,183,166853,6,0,L|159:233,1,33.3333333333333
236,270,167060,6,0,L|260:322,1,33.3333333333333
347,326,167268,6,0,L|396:349,1,33.3333333333333
461,295,167475,6,0,P|482:283|484:249,1,33.3333333333333
467,176,167682,6,0,P|469:148|456:126,1,33.3333333333333
381,72,167889,6,0,P|341:67|327:77,1,33.3333333333333
245,119,168097,6,0,P|233:148|243:171,1,33.3333333333333
292,235,168304,6,0,P|315:247|341:243,1,33.3333333333333
388,193,168511,6,0,P|388:164|376:140,1,33.3333333333333
317,151,168719,6,0,P|320:176|336:179,1,33.3333333333333
358,183,168926,6,0,P|360:167|346:159,1,33.3333333333333
337,178,169133,6,0,P|335:215|231:347,2,200
233,45,171931,6,0,L|233:13,1,25
181,127,172242,2,0,L|161:154,1,25
297,126,172553,2,0,L|315:149,1,25
299,54,172864,6,0,L|282:46,1,12.5
253,91,173019,2,0,L|233:84,1,12.5
203,132,173174,2,0,L|183:128,1,12.5
174,189,173330,5,2,0:0:0:0:
140,183,173408,1,2,0:0:0:0:
106,180,173485,1,8,0:0:0:0:
25,245,173641,1,2,0:0:0:0:
128,354,173796,1,2,0:0:0:0:
251,275,173952,1,2,0:0:0:0:
361,48,174107,6,2,P|340:116|358:173,1,125
463,340,174418,1,2,0:0:0:0:
384,264,174573,2,0,B|336:222|336:222|261:233,1,125,0|8,0:0|0:0,0:0:0:0:
99,212,174884,2,2,P|158:172|183:113,1,125
300,24,175195,2,2,B|319:88|319:88|385:123,1,125
459,276,175506,2,2,L|345:214,1,125
188,39,175817,1,2,0:0:0:0:
208,129,175972,2,0,B|244:153|201:210|252:251,1,125,8|0,0:0|0:0,0:0:0:0:
333,313,176283,2,2,B|301:366|301:366|221:350,1,125
56,365,176594,6,2,L|135:260,1,125
299,80,176905,1,2,0:0:0:0:
255,166,177060,2,0,B|278:197|268:259|310:282,1,125,2|8,0:0|0:0,0:0:0:0:
454,357,177371,2,2,L|382:229,1,125
328,65,177682,2,0,B|311:130|311:130|227:187,1,125,2|2,0:0|0:0,0:0:0:0:
330,341,177993,1,2,0:0:0:0:
215,314,178149,2,2,L|132:297,2,83.3333333333333
117,222,178459,2,2,L|34:203,2,83.3333333333333,10|2|2,0:0|0:0|0:0,0:0:0:0:
129,31,179081,6,0,P|188:78|203:133,1,125
139,310,179548,5,2,0:0:0:0:
148,281,179625,1,2,0:0:0:0:
169,263,179703,2,2,P|227:225|235:187,1,83.3333333333333,10|2,0:0|0:0,0:0:0:0:
351,180,179910,2,2,P|344:220|361:258,1,83.3333333333333,10|2,0:0|0:0,0:0:0:0:
307,371,180117,2,2,P|267:344|197:361,1,83.3333333333333
120,200,180325,2,2,P|178:162|186:124,1,83.3333333333333,10|2,0:0|0:0,0:0:0:0:
377,224,180532,2,2,P|370:264|387:302,1,83.3333333333333,10|2,0:0|0:0,0:0:0:0:
455,122,180739,2,2,P|435:69|376:49,1,83.3333333333333
286,168,180946,6,0,P|277:118|298:84,1,83.3333333333333,8|0,0:0|0:0,0:0:0:0:
215,23,181154,2,2,P|174:57|117:46,1,83.3333333333333
138,158,181361,2,2,P|191:176|206:214,1,83.3333333333333
331,290,181568,6,2,L|285:366,5,83.3333333333333
163,282,182190,2,0,P|111:226|107:199,1,83.3333333333333,8|0,0:0|0:0,0:0:0:0:
183,120,182397,2,0,P|163:83|115:73,1,62.5,8|0,0:0|0:0,0:0:0:0:
34,101,182605,2,0,P|21:140|29:181,1,83.3333333333333,8|0,0:0|0:0,0:0:0:0:
74,312,182812,1,2,0:0:0:0:
108,347,182915,1,2,0:0:0:0:
159,344,183019,1,2,0:0:0:0:
264,324,183226,2,0,P|313:333|434:375,1,166.666666666667,2|8,0:0|0:0,0:0:0:0:
486,254,183641,1,2,0:0:0:0:
393,176,183848,1,2,0:0:0:0:
467,24,184055,5,2,0:0:0:0:
471,76,184159,1,2,0:0:0:0:
450,127,184263,1,2,0:0:0:0:
405,154,184366,2,2,P|344:156|311:139,2,83.3333333333333
466,285,184677,2,0,L|424:208,1,83.3333333333333,8|0,0:0|0:0,0:0:0:0:
317,275,184884,2,2,L|293:367,1,83.3333333333333
439,350,185092,2,2,P|400:330|406:262,1,83.3333333333333
435,195,185299,2,2,P|394:178|359:151,1,83.3333333333333
328,33,185506,2,2,P|300:62|307:102,1,83.3333333333333
412,68,185713,2,2,P|452:65|502:83,1,83.3333333333333
405,219,185921,2,0,P|446:214|475:185,1,83.3333333333333,8|0,0:0|0:0,0:0:0:0:
310,166,186128,2,2,P|279:148|273:96,1,83.3333333333333
292,23,186335,2,2,P|331:34|348:71,1,83.3333333333333
219,122,186542,6,2,L|152:184,2,83.3333333333333
89,61,186957,5,2,0:0:0:0:
54,103,187164,2,2,L|50:232,1,83.3333333333333,10|2,0:0|0:0,0:0:0:0:
160,313,187579,1,2,0:0:0:0:
118,279,187786,2,2,L|101:186,1,83.3333333333333
159,154,187993,6,2,P|199:152|242:104,1,83.3333333333333
339,205,188200,2,2,P|318:249|324:297,1,83.3333333333333
189,319,188408,2,2,P|165:281|122:266,1,83.3333333333333,10|2,0:0|0:0,0:0:0:0:
132,88,188719,2,2,P|182:81|203:52,1,83.3333333333333
283,111,188926,1,2,0:0:0:0:
399,57,189263,6,2,L|447:87,10,31.25,2|2|2|2|2|2|2|2|2|2|10,0:0|0:0|0:0|0:0|0:0|0:0|0:0|0:0|0:0|0:0|0:0,0:0:0:0:
390,113,189729,2,2,L|331:77,9,37.5000014305115
426,257,190428,6,2,P|390:316|355:338,3,75.0000028610231
285,344,190817,1,2,0:0:0:0:
260,350,190895,1,10,0:0:0:0:
131,246,191283,5,2,0:0:0:0:
111,219,191361,1,2,0:0:0:0:
111,181,191439,1,2,0:0:0:0:
186,112,191672,2,2,P|223:143|276:157,1,75.0000028610231
378,157,191983,1,2,0:0:0:0:
298,237,192138,2,2,P|266:258|175:282,1,112.500004291535
264,359,192605,2,2,P|329:380|361:371,2,75.0000028610231
418,371,193071,1,2,0:0:0:0:
423,36,193382,6,0,B|402:61|414:105|414:105|391:103|391:103|415:160|386:206,1,200.000007629395,8|0,0:0|0:0,0:0:0:0:
190,361,194003,6,2,B|157:288|157:288|114:322|61:312,1,125
26,358,194314,1,2,0:0:0:0:
95,131,194470,1,2,0:0:0:0:
222,269,194625,2,0,B|243:234|301:242|331:187,1,125,8|0,0:0|0:0,0:0:0:0:
470,34,194936,5,2,0:0:0:0:
437,218,195092,2,2,B|386:291|386:291|347:249,1,125
233,35,195402,2,2,L|272:154,1,125
343,307,195713,1,2,0:0:0:0:
439,131,195869,2,0,P|449:80|389:110,1,125,8|0,0:0|0:0,0:0:0:0:
268,245,196180,2,2,P|231:271|237:203,1,125
312,31,196491,6,2,P|242:63|197:134,1,125
399,136,196801,1,2,0:0:0:0:
460,325,196957,1,2,0:0:0:0:
397,347,197112,2,0,B|330:361|330:361|346:302,1,125,8|0,0:0|0:0,0:0:0:0:
406,194,197423,5,2,0:0:0:0:
232,330,197579,2,2,B|218:367|184:365|146:303|215:241,1,125
345,75,197889,2,2,B|356:37|328:17|260:43|276:134,1,125
323,234,198200,1,2,0:0:0:0:
221,324,198356,2,0,B|186:330|186:330|169:369|101:338,1,125,8|0,0:0|0:0,0:0:0:0:
23,304,198667,2,2,P|53:249|112:187,1,125
201,33,198978,6,2,L|152:148,1,125
298,105,199288,1,2,0:0:0:0:
185,216,199444,1,2,0:0:0:0:
18,30,199599,2,0,B|26:57|12:84|12:84|38:82|69:118,1,125,8|0,0:0|0:0,0:0:0:0:
130,162,199910,5,2,0:0:0:0:
208,18,200066,2,2,P|281:33|323:107,1,125
227,219,200377,2,2,P|161:206|126:137,1,125
288,232,200687,5,2,0:0:0:0:
365,33,200843,2,0,B|363:54|338:70|338:70|357:79|357:79|311:117|313:154,1,125,8|0,0:0|0:0,0:0:0:0:
484,72,201154,1,2,0:0:0:0:
464,210,201309,1,2,0:0:0:0:
395,345,201465,6,0,L|340:215,1,125,8|0,0:0|0:0,0:0:0:0:
189,193,201776,2,0,L|128:41,1,125,8|0,0:0|0:0,0:0:0:0:
325,45,202086,1,2,0:0:0:0:
325,45,202242,2,0,L|300:186,1,125,8|0,0:0|0:0,0:0:0:0:
155,241,202553,2,0,L|130:382,1,125,8|0,0:0|0:0,0:0:0:0:
157,94,202864,2,0,L|30:24,1,125,8|0,0:0|0:0,0:0:0:0:
190,284,203174,1,2,0:0:0:0:
190,284,203330,2,0,L|301:351,1,125,8|0,0:0|0:0,0:0:0:0:
489,274,203641,1,2,0:0:0:0:
400,353,203796,1,2,0:0:0:0:
377,180,203952,5,2,0:0:0:0:
314,36,204159,1,2,0:0:0:0:
475,50,204366,1,2,0:0:0:0:
340,204,204573,5,8,0:0:0:0:
345,13,204781,1,2,0:0:0:0:
488,114,204988,1,2,0:0:0:0:
294,174,205195,5,2,0:0:0:0:
404,12,205402,1,2,0:0:0:0:
489,183,205610,1,2,0:0:0:0:
266,116,205817,5,8,0:0:0:0:
478,19,206024,1,2,0:0:0:0:
424,235,206231,1,2,0:0:0:0:
278,41,206439,5,2,0:0:0:0:
496,94,206646,1,2,0:0:0:0:
350,253,206853,1,2,0:0:0:0:
350,16,207060,5,8,0:0:0:0:
499,192,207268,1,2,0:0:0:0:
265,190,207475,1,2,0:0:0:0:
463,16,207682,5,2,0:0:0:0:
441,264,207889,1,2,0:0:0:0:
244,96,208097,1,2,0:0:0:0:
499,94,208304,5,8,0:0:0:0:
359,294,208511,1,2,0:0:0:0:
295,24,208719,5,2,0:0:0:0:
411,141,209081,6,2,L|389:193,4,31.25
289,341,209392,1,2,0:0:0:0:
430,253,209548,2,0,P|404:314|347:353,1,125,8|0,0:0|0:0,0:0:0:0:
123,383,209858,1,2,0:0:0:0:
284,292,210014,1,2,0:0:0:0:
113,336,210169,1,2,0:0:0:0:
277,234,210325,1,2,0:0:0:0:
106,289,210480,1,2,0:0:0:0:
272,194,210636,5,2,0:0:0:0:
272,194,210713,1,2,0:0:0:0:
272,194,210791,1,8,0:0:0:0:
439,267,210946,1,2,0:0:0:0:
297,313,211102,2,2,P|238:355|160:353,1,125
163,226,211413,2,2,P|79:260|42:321,1,125
64,347,211646,6,2,L|1:378,2,62.5
155,304,211879,2,2,P|220:274|277:278,1,125
377,318,212242,1,2,0:0:0:0:
430,357,212449,1,2,0:0:0:0:
461,350,212656,1,2,0:0:0:0:
481,293,212864,1,2,0:0:0:0:
425,213,213071,1,2,0:0:0:0:
487,142,213278,1,2,0:0:0:0:
454,29,213485,1,2,0:0:0:0:
477,58,213693,1,2,0:0:0:0:
479,78,213900,1,2,0:0:0:0:
411,186,214366,6,0,L|366:220,4,31.25
277,336,214988,2,0,L|226:324,4,31.25
195,240,215610,2,0,L|149:267,4,31.25
70,337,215998,1,0,0:0:0:0:
112,351,216154,2,0,P|182:374|243:373,1,125
126,46,216698,6,0,B|131:49|131:49|127:53|127:53|132:54|132:54|128:59|128:59|132:59|133:59|133:58|133:58|130:63|130:63|134:64|134:64|131:68|131:68|136:69|136:69|132:74|132:74|136:75|137:75|134:79|134:79|139:80|139:80|136:85|136:85|141:86|141:86|138:90|138:90|142:91|142:91|140:95|140:95|144:95|144:95|141:100|141:100|146:100|146:100|142:107|142:107|149:106|149:105|145:111|145:111|150:110|150:110|148:116|148:116|151:115|151:115|149:120|149:120|153:120|153:120|151:127|151:127|156:129|156:129|172:131|199:136|217:146|233:164|240:184|245:199|241:217|236:233|227:248|214:261|197:275|169:279|128:271|113:255|118:231|135:206|155:197|181:197|201:204|226:250|195:286|167:298|146:306|127:303|108:299|91:290|78:280|69:263|71:243|67:226|88:203,1,600.000022888185
138,181,217630,5,0,0:0:0:0:
421,219,218149,6,0,L|365:172,2,62.5
306,187,218459,1,0,0:0:0:0:
195,234,218667,1,0,0:0:0:0:
131,325,218874,6,0,P|102:353|49:361,1,75.0000028610231
215,310,219185,1,0,0:0:0:0:
246,234,219340,1,0,0:0:0:0:
318,273,219496,1,0,0:0:0:0:
350,352,219651,1,0,0:0:0:0:
350,352,219807,1,0,0:0:0:0:
455,305,219962,1,0,0:0:0:0:
455,305,220117,2,0,L|444:206,1,75.0000028610231
386,75,220428,2,0,L|448:137,1,75.0000028610231
386,75,220739,1,8,0:0:0:0:
342,185,221361,6,0,P|308:146|269:138,1,75.0000028610231
194,154,221672,1,0,0:0:0:0:
232,278,221827,1,0,0:0:0:0:
162,223,221983,1,8,0:0:0:0:
93,279,222138,1,0,0:0:0:0:
161,347,222294,1,0,0:0:0:0:
266,356,222449,1,0,0:0:0:0:
370,257,222605,1,0,0:0:0:0:
277,359,222760,1,0,0:0:0:0:
380,263,222915,1,0,0:0:0:0:
430,296,223071,2,0,P|432:348|470:361,1,75.0000028610231,0|8,0:0|0:0,0:0:0:0:
343,252,223382,1,0,0:0:0:0:
343,252,223537,2,0,P|300:227|282:173,1,75.0000028610231
30,28,223848,5,2,0:0:0:0:
100,83,224003,1,2,0:0:0:0:
180,41,224159,1,2,0:0:0:0:
264,87,224314,1,2,0:0:0:0:
433,121,224470,5,8,0:0:0:0:
367,189,224625,1,2,0:0:0:0:
272,166,224781,1,2,0:0:0:0:
206,227,224936,1,2,0:0:0:0:
101,204,225092,5,2,0:0:0:0:
104,130,225247,1,0,0:0:0:0:
162,169,225402,1,0,0:0:0:0:
101,204,225558,1,0,0:0:0:0:
104,130,225713,2,0,P|153:173|83:191,1,150.000005722046,8|0,0:0|0:0,0:0:0:0:
482,28,226335,5,2,0:0:0:0:
412,83,226490,1,2,0:0:0:0:
332,41,226646,1,2,0:0:0:0:
248,87,226801,1,2,0:0:0:0:
79,121,226957,5,8,0:0:0:0:
145,189,227112,1,2,0:0:0:0:
240,166,227268,1,2,0:0:0:0:
306,227,227423,1,2,0:0:0:0:
373,130,227579,5,2,0:0:0:0:
406,69,227734,1,2,0:0:0:0:
447,126,227889,1,2,0:0:0:0:
373,130,228045,1,2,0:0:0:0:
406,69,228200,2,2,P|435:127|364:118,1,150.000005722046
372,276,229133,6,0,P|311:296|285:318,1,75.0000028610231
61,352,229444,1,10,0:0:0:0:
187,234,229599,1,2,0:0:0:0:
71,352,229755,1,2,0:0:0:0:
197,234,229910,1,2,0:0:0:0:
77,42,230221,5,0,0:0:0:0:
77,42,230377,2,0,P|122:80|141:111,1,75.0000028610231
265,200,230687,1,10,0:0:0:0:
193,92,230843,1,2,0:0:0:0:
280,200,230998,1,2,0:0:0:0:
208,93,231154,1,2,0:0:0:0:
433,62,231465,5,0,0:0:0:0:
433,62,231620,2,0,P|389:107|364:139,1,75.0000028610231
297,267,231931,1,10,0:0:0:0:
370,188,232086,1,2,0:0:0:0:
282,267,232242,1,2,0:0:0:0:
354,188,232397,1,2,0:0:0:0:
262,27,232553,5,0,0:0:0:0:
216,27,232708,1,0,0:0:0:0:
171,26,232864,2,0,P|146:52|161:86,1,50.0000019073487
267,113,233174,5,10,0:0:0:0:
106,177,233330,1,2,0:0:0:0:
267,135,233485,1,2,0:0:0:0:
105,197,233641,1,2,0:0:0:0:
262,343,233796,6,0,P|313:303|355:304,1,75.0000028610231
433,351,234107,2,0,L|483:286,1,75.0000028610231
418,241,234418,1,8,0:0:0:0:
368,182,234573,1,0,0:0:0:0:
431,140,234729,1,0,0:0:0:0:
479,196,234884,1,0,0:0:0:0:
164,172,235040,5,0,0:0:0:0:
219,111,235195,1,0,0:0:0:0:
333,118,235351,1,0,0:0:0:0:
279,180,235506,1,0,0:0:0:0:
266,39,235662,1,8,0:0:0:0:
363,38,235817,1,0,0:0:0:0:
412,121,235972,1,0,0:0:0:0:
362,205,236128,1,0,0:0:0:0:
124,337,236283,5,0,0:0:0:0:
274,279,236439,1,0,0:0:0:0:
130,334,236594,1,0,0:0:0:0:
284,271,236750,1,0,0:0:0:0:
427,213,236905,2,0,P|475:179|483:152,1,75.0000028610231
149,42,237682,6,0,L|176:137,1,75.0000028610231
248,150,237993,1,0,0:0:0:0:
248,150,238149,2,0,L|275:232,1,75.0000028610231
346,251,238459,2,0,L|380:330,1,75.0000028610231
414,68,238770,5,0,0:0:0:0:
381,44,238926,1,0,0:0:0:0:
346,39,239081,1,0,0:0:0:0:
309,49,239237,1,0,0:0:0:0:
283,74,239392,2,0,L|249:123,1,50
98,316,240014,5,0,0:0:0:0:
131,340,240170,1,0,0:0:0:0:
166,345,240325,1,0,0:0:0:0:
203,335,240481,1,0,0:0:0:0:
229,310,240636,2,0,L|263:261,1,50
91,49,241257,5,0,0:0:0:0:
73,83,241413,1,0,0:0:0:0:
77,120,241568,1,0,0:0:0:0:
101,151,241724,1,0,0:0:0:0:
136,173,241879,2,0,L|191:187,1,50
267,209,242190,2,0,L|231:188,2,25
421,335,242501,5,0,0:0:0:0:
439,301,242657,1,0,0:0:0:0:
435,264,242812,1,0,0:0:0:0:
411,233,242968,1,0,0:0:0:0:
376,211,243123,2,0,L|321:197,1,50
142,34,243744,5,0,0:0:0:0:
170,67,243900,1,0,0:0:0:0:
167,99,244055,1,0,0:0:0:0:
186,128,244211,1,0,0:0:0:0:
190,162,244366,2,0,P|182:197|190:219,1,50
260,325,244677,2,0,L|251:281,2,25
337,194,244988,6,0,L|362:112,1,66.6666666666667
319,62,245195,6,0,L|232:59,1,66.6666666666667
196,128,245402,6,0,L|239:186,1,66.6666666666667
226,263,245610,6,0,L|150:308,1,66.6666666666667
82,267,245817,6,0,L|35:211,1,66.6666666666667
128,79,246024,6,0,L|71:137,1,66.6666666666667
159,181,246231,6,0,L|273:165,1,66.6666666666667
312,214,246439,6,0,L|356:283,1,66.6666666666667
451,181,246646,6,0,L|416:248,1,66.6666666666667
420,330,246853,6,0,L|343:351,1,66.6666666666667
258,345,247060,6,0,L|163:331,1,66.6666666666667
115,291,247268,6,0,L|62:229,1,66.6666666666667
75,155,247475,6,0,L|109:83,1,66.6666666666667
185,41,247682,6,0,L|273:28,1,66.6666666666667
353,54,247889,6,0,L|416:94,1,66.6666666666667
447,174,248097,6,0,L|435:253,1,66.6666666666667
370,291,248304,6,0,L|288:332,1,66.6666666666667
222,318,248511,6,0,L|131:289,1,66.6666666666667
110,230,248719,6,0,L|116:153,1,66.6666666666667
186,98,248926,6,0,L|248:87,1,50.0000019073487
329,129,249133,6,0,L|350:195,1,50.0000019073487
297,250,249340,6,0,L|235:263,1,50.0000019073487
178,224,249548,6,0,L|168:165,1,50.0000019073487
224,137,249755,6,0,L|276:126,1,50.0000019073487
304,172,249962,6,0,L|321:227,1,50.0000019073487
283,243,250169,6,0,L|222:262,1,50.0000019073487
209,220,250377,6,0,L|197:177,1,33.3333333333333
226,158,250584,6,0,L|263:155,1,33.3333333333333
271,189,250791,6,0,L|255:230,1,33.3333333333333
231,216,250998,6,0,L|234:172,1,33.3333333333333
258,182,251206,5,0,0:0:0:0:
291,227,251413,5,0,0:0:0:0:
237,236,251620,5,0,0:0:0:0:
195,179,251827,5,0,0:0:0:0:
248,114,252035,5,0,0:0:0:0:
341,141,252242,5,0,0:0:0:0:
387,233,252449,5,0,0:0:0:0:
345,336,252656,5,0,0:0:0:0:
225,367,252864,5,0,0:0:0:0:
114,294,253071,5,0,0:0:0:0:
123,134,253278,5,0,0:0:0:0:
254,28,253485,5,0,0:0:0:0:
427,28,253693,6,0,B|430:45|432:66|428:85|426:90|417:102|412:105|400:112|394:116|384:120|373:124|364:127|355:134|347:141|339:147|332:155|328:163|325:173|324:183|323:193|322:204|322:219|326:230|329:238|331:246|335:253|340:257|343:260|345:261|348:264|352:265|353:267|359:269|367:270|378:272|386:269|396:262|400:257|403:254|408:249|412:240|413:233|413:221|413:211|411:199|407:188|403:181|397:171|392:166|386:159|379:153|369:145|364:140|357:137|349:134|343:130|334:125|321:121|314:117|306:116|293:116|290:115|279:114|267:115|254:115|245:110|234:101|226:95|219:94|216:94|212:89|208:83|205:75|205:64|204:56|205:46|205:42|207:41|208:40|211:35|217:24|224:19|232:16|242:13|250:11|258:11|264:12|269:13|274:15|281:22|289:36|292:48|294:64|294:86|289:105|281:125|276:136|269:147|258:158|245:158|238:164|230:167|223:169|218:172|207:173|200:179|191:183|183:188|176:194|171:202|167:215|168:226|168:240|171:256|178:268|183:281|198:291|212:298|236:298|258:296|266:291|278:283|291:273|295:259|294:242|289:226|277:213|264:210|250:212|242:225|237:236|236:244|235:256|236:267|239:274|247:291|252:303|261:316,1,1125
130,345,257423,6,0,L|131:324,8,12.5
135,214,257889,5,2,0:0:0:0:
114,243,257967,1,2,0:0:0:0:
111,280,258045,1,8,0:0:0:0:
270,349,258252,1,2,0:0:0:0:
439,239,258459,1,2,0:0:0:0:
460,44,258667,2,2,P|403:110|348:96,1,125
139,43,258978,5,2,0:0:0:0:
70,163,259133,2,0,B|78:224|78:224|160:197,1,125,2|8,0:0|0:0,0:0:0:0:
438,112,259444,2,2,P|491:140|439:165,1,125
329,229,259755,5,2,0:0:0:0:
159,360,259910,2,2,P|218:324|277:327,1,125
457,187,260221,5,2,0:0:0:0:
226,85,260377,2,0,P|300:110|364:99,1,125,2|8,0:0|0:0,0:0:0:0:
220,62,260687,5,2,0:0:0:0:
153,30,260843,1,2,0:0:0:0:
89,66,260998,2,2,P|50:122|101:167,1,125
225,270,261309,6,2,B|235:283|277:291|280:226|215:189,1,125
92,188,261620,2,2,L|61:230,4,31.25,2|2|2|2|10,0:0|0:0|0:0|0:0|0:0,0:0:0:0:
93,321,261931,1,2,0:0:0:0:
151,354,262086,1,2,0:0:0:0:
212,329,262242,2,2,P|254:284|320:285,1,125
436,254,262553,1,2,0:0:0:0:
480,85,262708,1,2,0:0:0:0:
387,184,262864,2,0,B|360:95|360:95|334:135,1,125,0|8,0:0|0:0,0:0:0:0:
293,219,263174,6,2,P|299:292|342:281,1,125
166,328,263485,1,2,0:0:0:0:
115,348,263563,1,2,0:0:0:0:
67,328,263641,1,2,0:0:0:0:
2,97,263952,5,2,0:0:0:0:
59,162,264107,2,0,B|98:149|125:243|174:216,1,125,2|8,0:0|0:0,0:0:0:0:
349,165,264418,2,2,B|391:241|391:241|333:223,1,125
103,148,264729,1,2,0:0:0:0:
295,48,264884,2,2,P|232:50|166:96,1,125
253,193,265195,1,2,0:0:0:0:
445,293,265350,2,2,P|382:291|316:245,1,125
422,59,265662,5,2,0:0:0:0:
401,93,265817,1,2,0:0:0:0:
419,127,265972,2,2,P|446:187|392:212,1,125
199,346,266283,5,2,0:0:0:0:
236,309,266361,1,2,0:0:0:0:
289,319,266439,1,2,0:0:0:0:
464,349,266594,1,2,0:0:0:0:
364,230,266750,1,10,0:0:0:0:
411,109,266905,2,2,P|431:63|381:86,1,125
228,287,267216,6,2,B|192:285|176:327|154:366|113:326,1,125
46,190,267527,1,2,0:0:0:0:
118,162,267682,1,2,0:0:0:0:
129,88,267838,1,2,0:0:0:0:
235,42,267993,2,0,B|264:101|264:101|246:159,1,125,8|2,0:0|0:0,0:0:0:0:
216,315,268304,1,2,0:0:0:0:
338,361,268459,1,2,0:0:0:0:
459,312,268615,6,2,B|458:268|417:265|382:261|395:208,1,125
481,43,268926,1,2,0:0:0:0:
331,112,269081,2,2,L|298:136,4,31.25,2|2|2|2|10,0:0|0:0|0:0|0:0|0:0,0:0:0:0:
358,334,269392,2,2,B|367:352|381:363|400:337|350:245,1,125
228,103,269703,6,2,B|192:113|168:146|151:113|98:97,1,125
101,313,270014,6,2,B|136:304|161:271|177:306|229:323,1,125
83,250,270325,2,2,L|58:227,4,31.25,2|2|2|2|10,0:0|0:0|0:0|0:0|0:0,0:0:0:0:
22,19,270636,2,2,B|73:16|44:102|93:113,1,125
291,328,270946,1,2,0:0:0:0:
249,214,271102,2,2,P|241:152|291:91,1,125
417,122,271335,6,2,P|384:169|396:210,1,83.3333333333333
433,262,271542,2,2,P|404:341|377:355,1,83.3333333333333
313,340,271750,2,2,P|255:311|198:341,1,83.3333333333333,10|2,0:0|0:0,0:0:0:0:
168,230,271957,2,2,P|168:146|227:80,1,166.666666666667
358,137,272345,1,2,0:0:0:0:
352,337,272501,1,2,0:0:0:0:
247,290,272656,1,2,0:0:0:0:
436,124,272812,1,2,0:0:0:0:
276,157,272967,2,0,P|217:160|166:113,1,125,8|2,0:0|0:0,0:0:0:0:
50,34,273278,5,2,0:0:0:0:
17,180,273434,1,2,0:0:0:0:
94,307,273589,1,2,0:0:0:0:
236,352,273744,2,2,B|257:326|297:321|297:321|313:284|279:262,1,125
153,86,274055,2,2,L|171:130,4,31.25,2|2|2|2|10,0:0|0:0|0:0|0:0|0:0,0:0:0:0:
347,339,274366,2,2,P|318:264|346:207,1,125
371,64,274677,6,2,B|387:74|428:47|428:47|433:87|448:108,1,125
431,310,274988,2,2,B|414:299|373:326|373:326|368:286|353:265,1,125
172,103,275299,1,2,0:0:0:0:
287,282,275454,2,0,P|282:333|218:314,1,125,8|2,0:0|0:0,0:0:0:0:
113,226,275765,1,2,0:0:0:0:
57,110,275921,2,2,B|13:57|13:57|84:43,1,125
323,62,276231,6,2,B|292:129|465:202|431:289,1,250
196,241,276697,5,2,0:0:0:0:
196,241,276853,2,0,L|324:348,1,125,8|0,0:0|0:0,0:0:0:0:
171,121,277164,2,0,L|58:32,1,125,8|0,0:0|0:0,0:0:0:0:
155,288,277475,2,2,L|40:355,1,125
230,148,277786,1,8,0:0:0:0:
230,148,277941,2,0,L|348:75,1,125,8|0,0:0|0:0,0:0:0:0:
459,164,278252,1,2,0:0:0:0:
340,293,278408,1,2,0:0:0:0:
178,226,278563,6,2,P|136:183|199:164,1,125
363,98,278874,1,2,0:0:0:0:
409,161,279029,2,0,P|351:194|261:226,1,125,2|8,0:0|0:0,0:0:0:0:
131,288,279340,1,2,0:0:0:0:
58,358,279496,1,2,0:0:0:0:
164,211,279651,1,2,0:0:0:0:
227,133,279807,2,2,P|254:88|336:106,1,125
406,257,280117,2,2,B|377:339|377:339|334:303,1,125
89,58,280428,5,8,0:0:0:0:
155,162,280584,1,2,0:0:0:0:
119,270,280739,1,2,0:0:0:0:
212,350,280895,1,2,0:0:0:0:
347,208,281050,5,2,0:0:0:0:
441,44,281206,1,2,0:0:0:0:
376,221,281361,1,2,0:0:0:0:
486,364,281516,1,2,0:0:0:0:
347,208,281672,1,8,0:0:0:0:
460,357,281827,2,2,P|399:321|350:261,1,125
226,52,282138,5,2,0:0:0:0:
299,146,282294,2,2,P|283:236|223:279,1,125
45,349,282605,1,2,0:0:0:0:
172,294,282760,1,2,0:0:0:0:
9,154,282915,2,0,P|65:125|143:141,1,125,8|0,0:0|0:0,0:0:0:0:
232,214,283226,2,2,P|252:300|219:358,1,125
366,55,283537,6,2,P|401:98|347:117,1,125
68,122,283848,1,2,0:0:0:0:
159,84,284003,2,0,L|273:169,1,125,2|8,0:0|0:0,0:0:0:0:
375,293,284314,1,2,0:0:0:0:
467,357,284470,1,2,0:0:0:0:
275,345,284625,1,2,0:0:0:0:
134,238,284781,2,2,B|171:252|184:289|184:289|229:242,1,125
313,28,285092,2,2,P|286:80|306:143,1,125
438,350,285402,5,8,0:0:0:0:
362,194,285558,1,2,0:0:0:0:
186,227,285713,1,2,0:0:0:0:
142,67,285869,1,2,0:0:0:0:
286,171,286024,6,2,L|344:337,1,125
90,137,286335,1,2,0:0:0:0:
41,86,286491,1,2,0:0:0:0:
152,312,286646,5,8,0:0:0:0:
216,353,286801,1,2,0:0:0:0:
281,311,286957,1,2,0:0:0:0:
272,235,287112,1,2,0:0:0:0:
425,38,287268,5,2,0:0:0:0:
373,101,287423,1,2,0:0:0:0:
401,179,287579,1,2,0:0:0:0:
471,223,287734,1,2,0:0:0:0:
407,348,287889,2,2,P|360:301|306:223,1,125,8|2,0:0|0:0,0:0:0:0:
179,130,288200,2,2,B|166:145|172:164|202:195|276:112,1,125
349,92,288511,6,2,L|504:140,1,125
248,64,288822,1,2,0:0:0:0:
151,35,288978,1,2,0:0:0:0:
335,142,289133,6,0,L|490:190,1,125,8|2,0:0|0:0,0:0:0:0:
234,114,289444,1,2,0:0:0:0:
137,85,289600,1,2,0:0:0:0:
320,196,289755,6,2,L|475:244,1,125
219,168,290066,1,2,0:0:0:0:
122,139,290222,1,2,0:0:0:0:
42,323,290377,5,8,0:0:0:0:
150,349,290532,1,2,0:0:0:0:
228,268,290687,1,2,0:0:0:0:
138,199,290843,2,2,P|73:196|101:165,1,125
302,40,291154,5,2,0:0:0:0:
370,124,291309,1,2,0:0:0:0:
440,205,291465,1,2,0:0:0:0:
158,108,291620,5,10,0:0:0:0:
93,52,291776,1,2,0:0:0:0:
69,131,291931,1,2,0:0:0:0:
281,266,292086,5,2,0:0:0:0:
366,323,292242,1,2,0:0:0:0:
285,368,292397,1,2,0:0:0:0:
86,323,292553,5,2,0:0:0:0:
213,211,292708,1,2,0:0:0:0:
327,93,292864,2,0,P|388:105|354:152,1,125,8|0,0:0|0:0,0:0:0:0:
222,258,293174,2,2,B|296:220|296:220|255:197,1,125
141,204,293485,6,2,P|82:265|22:268,1,125
180,118,293796,1,2,0:0:0:0:
211,32,293952,1,2,0:0:0:0:
214,246,294107,6,0,P|155:307|95:310,1,125,8|0,0:0|0:0,0:0:0:0:
253,160,294418,1,2,0:0:0:0:
284,74,294574,1,2,0:0:0:0:
284,298,294729,6,2,P|225:359|165:362,1,125
323,212,295040,1,2,0:0:0:0:
354,126,295196,1,2,0:0:0:0:
156,42,295351,5,8,0:0:0:0:
197,146,295506,1,2,0:0:0:0:
240,250,295662,1,2,0:0:0:0:
286,352,295817,1,2,0:0:0:0:
370,99,295972,5,0,0:0:0:0:
399,139,296128,1,0,0:0:0:0:
399,188,296283,2,0,P|385:232|362:253,1,75.0000028610231
228,21,296594,5,8,0:0:0:0:
192,60,296750,1,0,0:0:0:0:
194,110,296905,2,0,P|208:154|231:175,1,75.0000028610231
35,357,297216,5,0,0:0:0:0:
110,310,297371,1,0,0:0:0:0:
185,265,297527,2,0,L|249:219,1,75.0000028610231
471,25,297838,5,8,0:0:0:0:
396,72,297993,1,0,0:0:0:0:
321,117,298149,2,0,L|257:163,1,75.0000028610231
104,345,298459,6,2,P|143:287|216:255,1,125
406,140,298770,1,2,0:0:0:0:
406,140,298926,2,0,B|378:161|377:202|377:202|325:177,1,125,0|8,0:0|0:0,0:0:0:0:
141,102,299237,1,2,0:0:0:0:
93,37,299392,1,2,0:0:0:0:
224,294,299548,1,2,0:0:0:0:
300,348,299703,2,2,P|389:367|405:305,1,125
410,133,300014,2,2,P|440:176|393:171,1,125
142,40,300325,5,8,0:0:0:0:
30,126,300480,1,2,0:0:0:0:
123,240,300636,1,2,0:0:0:0:
243,154,300791,2,2,L|190:74,1,93.75
113,106,301063,6,0,P|149:183|195:217,1,125
158,356,301374,2,0,P|144:274|79:205,1,125,0|8,0:0|0:0,0:0:0:0:
244,269,301685,2,0,P|318:330|399:237,1,187.5
309,159,302035,1,2,0:0:0:0:
258,87,302190,1,2,0:0:0:0:
12,175,302346,1,2,0:0:0:0:
48,95,302501,1,2,0:0:0:0:
161,334,302657,1,2,0:0:0:0:
241,348,302812,2,0,P|320:351|320:196,1,250,8|2,0:0|0:0,0:0:0:0:
176,72,303434,6,2,P|134:145|181:199,1,125
292,282,303744,1,2,0:0:0:0:
292,282,303900,2,0,B|352:308|366:311|366:311|338:258,1,125,2|8,0:0|0:0,0:0:0:0:
94,81,304211,1,2,0:0:0:0:
28,19,304366,1,2,0:0:0:0:
212,197,304522,1,2,0:0:0:0:
281,123,304677,2,2,P|323:74|266:42,1,125
35,195,304988,2,2,B|64:282|64:282|134:288,1,125
442,274,305299,5,8,0:0:0:0:
280,368,305454,1,2,0:0:0:0:
198,198,305610,1,2,0:0:0:0:
374,135,305765,2,2,L|307:68,1,93.75
144,35,306037,6,0,P|94:113|36:145,1,125
177,217,306348,2,0,P|218:293|286:320,1,125,0|8,0:0|0:0,0:0:0:0:
421,74,306659,2,0,P|387:146|249:187,1,187.5
33,33,307009,1,2,0:0:0:0:
116,93,307164,1,2,0:0:0:0:
184,270,307320,1,2,0:0:0:0:
107,347,307475,1,2,0:0:0:0:
277,144,307630,1,2,0:0:0:0:
351,69,307786,2,0,P|444:103|362:190,1,250,8|2,0:0|0:0,0:0:0:0:
152,187,308408,6,0,L|72:79,1,125
221,279,308719,1,2,0:0:0:0:
289,366,308874,1,2,0:0:0:0:
252,141,309029,6,0,L|332:33,1,125
183,233,309340,1,2,0:0:0:0:
115,320,309495,1,2,0:0:0:0:
148,100,309651,6,0,L|68:-8,1,125
217,192,309962,1,2,0:0:0:0:
285,279,310117,1,2,0:0:0:0:
482,351,310273,5,8,0:0:0:0:
457,190,310428,1,2,0:0:0:0:
335,298,310584,1,2,0:0:0:0:
474,346,310739,2,2,P|406:319|412:265,1,125
201,57,311050,6,2,P|257:19|318:30,1,125
461,94,311361,1,2,0:0:0:0:
373,145,311516,1,8,0:0:0:0:
279,195,311672,2,2,B|220:230|220:230|283:257,1,125
416,268,311983,5,8,0:0:0:0:
486,336,312138,1,2,0:0:0:0:
400,374,312294,1,2,0:0:0:0:
265,315,312449,1,2,0:0:0:0:
167,43,312605,1,2,0:0:0:0:
244,91,312760,2,0,B|412:212|24:251|183:377,1,375
337,207,313382,6,2,B|365:173|448:229|480:169,1,125
233,260,313693,1,2,0:0:0:0:
136,313,313848,1,2,0:0:0:0:
275,199,314003,6,0,B|303:233|386:177|418:237,1,125,8|2,0:0|0:0,0:0:0:0:
171,146,314314,1,2,0:0:0:0:
74,93,314469,1,2,0:0:0:0:
208,209,314625,6,2,B|236:175|319:231|351:171,1,125
104,262,314936,1,2,0:0:0:0:
7,315,315091,1,2,0:0:0:0:
257,32,315247,5,8,0:0:0:0:
181,116,315402,1,2,0:0:0:0:
102,56,315558,1,2,0:0:0:0:
29,130,315713,1,2,0:0:0:0:
298,331,315869,5,2,0:0:0:0:
266,349,316024,1,2,0:0:0:0:
233,346,316180,2,2,P|192:324|178:289,1,75.0000028610231
417,336,316491,5,8,0:0:0:0:
451,321,316646,1,2,0:0:0:0:
465,289,316801,2,2,P|471:240|440:207,1,75.0000028610231
55,57,317112,5,2,0:0:0:0:
149,32,317268,1,2,0:0:0:0:
245,47,317423,2,2,L|328:72,1,75.0000028610231
55,327,317734,5,2,0:0:0:0:
149,352,317890,1,2,0:0:0:0:
245,337,318045,2,2,L|328:312,1,75.0000028610231
430,173,318356,6,0,P|394:133|366:171,1,85.0000016212464,2|2,0:0|0:0,0:0:0:0:
171,287,318667,1,0,0:0:0:0:
329,226,318822,2,0,P|280:269|228:265,1,85.0000016212464,0|8,0:0|0:0,0:0:0:0:
54,331,319133,6,0,L|115:253,1,85.0000016212464
183,77,319444,2,0,P|133:82|107:135,1,85.0000016212464
412,68,319755,6,0,L|351:144,1,85.0000016212464
189,217,320066,2,0,P|207:182|265:176,1,85.0000016212464,0|8,0:0|0:0,0:0:0:0:
370,233,320377,6,2,L|429:278,1,42.5000008106232
397,304,320532,2,2,L|344:266,1,42.5000008106232
353,320,320687,2,2,L|419:371,1,42.5000008106232
352,370,320843,2,0,P|287:363|266:317,1,85.0000016212464
175,125,321154,5,0,0:0:0:0:
125,44,321309,2,0,P|78:88|75:127,1,85.0000016212464,0|8,0:0|0:0,0:0:0:0:
119,226,321620,6,0,L|168:317,1,85.0000016212464
369,363,321931,2,0,B|409:349|409:349|426:301,1,85.0000016212464
254,245,322242,6,0,B|269:207|269:207|312:198,1,85.0000016212464,0|8,0:0|0:0,0:0:0:0:
478,166,322553,2,0,L|438:92,1,85.0000016212464
119,238,322864,6,2,L|88:186,1,42.5000008106232
76,235,323019,2,2,L|106:293,1,42.5000008106232
60,278,323174,2,2,L|29:218,1,42.5000008106232
21,272,323330,2,0,P|15:333|57:348,1,85.0000016212464
290,293,323641,5,0,0:0:0:0:
378,353,323796,2,0,P|435:335|452:291,1,85.0000016212464,0|8,0:0|0:0,0:0:0:0:
357,77,324107,6,0,L|260:25,1,85.0000016212464
187,174,324418,2,0,P|235:217|281:221,1,85.0000016212464
416,117,324729,6,0,L|497:168,1,85.0000016212464
399,276,325040,2,0,P|344:269|302:235,1,85.0000016212464,0|8,0:0|0:0,0:0:0:0:
121,333,325351,6,2,L|175:303,1,42.5000008106232
126,290,325506,2,2,L|75:324,1,42.5000008106232
81,280,325662,2,2,L|153:239,1,42.5000008106232
89,240,325817,2,0,P|38:245|33:184,1,85.0000016212464
147,47,326128,5,0,0:0:0:0:
200,136,326283,2,0,L|242:239,1,85.0000016212464,0|8,0:0|0:0,0:0:0:0:
384,304,326594,6,0,B|424:282|424:282|432:221,1,85.0000016212464
405,45,326905,2,0,L|350:127,1,85.0000016212464
250,308,327216,6,0,B|211:287|211:287|202:225,1,85.0000016212464
229,49,327527,2,0,L|284:131,1,85.0000016212464,0|8,0:0|0:0,0:0:0:0:
409,193,327838,6,2,L|466:165,1,42.5000008106232
447,216,327993,2,2,L|381:252,1,42.5000008106232
437,267,328149,2,2,L|505:238,1,42.5000008106232
477,290,328304,2,0,P|446:341|405:327,1,85.0000016212464
244,145,328615,5,0,0:0:0:0:
297,255,328770,2,0,L|345:351,1,85.0000016212464,0|8,0:0|0:0,0:0:0:0:
163,261,329081,6,0,L|87:193,1,85.0000016212464
6,70,329392,2,0,P|62:67|112:88,1,85.0000016212464
158,336,329703,6,0,L|234:268,1,85.0000016212464
315,145,330014,2,0,P|259:142|209:163,1,85.0000016212464
314,327,330325,6,2,L|285:268,1,42.5000008106232
341,289,330480,2,2,L|372:353,1,42.5000008106232
386,291,330636,2,2,L|350:222,1,42.5000008106232
406,246,330791,2,0,P|441:284|421:339,1,85.0000016212464
251,341,331102,5,0,0:0:0:0:
125,280,331257,2,0,L|39:235,1,85.0000016212464,0|8,0:0|0:0,0:0:0:0:
224,116,331568,6,0,B|272:119|272:119|311:170,1,85.0000016212464
387,274,331879,2,0,L|443:337,1,85.0000016212464
251,63,332190,6,0,B|206:76|206:76|192:146,1,85.0000016212464
162,272,332501,2,0,L|134:353,1,85.0000016212464,0|8,0:0|0:0,0:0:0:0:
25,46,332812,6,2,L|77:20,1,42.5000008106232
54,75,332967,2,2,L|-15:121,1,42.5000008106232
47,126,333123,2,2,L|113:93,1,42.5000008106232
82,150,333278,2,0,P|30:195|27:239,1,85.0000016212464
101,344,333589,5,0,0:0:0:0:
189,319,333744,2,0,L|246:239,1,85.0000016212464,0|8,0:0|0:0,0:0:0:0:
296,57,334055,6,0,L|204:103,1,85.0000016212464
84,197,334366,2,0,P|119:236|175:253,1,85.0000016212464
496,177,334677,6,0,P|461:138|405:121,1,85.0000016212464,0|8,0:0|0:0,0:0:0:0:
284,317,334988,2,0,L|376:271,1,85.0000016212464
250,37,335299,6,2,L|224:98,1,42.5000008106232
268,86,335454,2,2,L|296:154,1,42.5000008106232
249,145,335610,2,2,L|222:217,1,42.5000008106232
278,206,335765,2,0,P|304:284|286:313,1,85.0000016212464
73,32,336076,5,0,0:0:0:0:
127,157,336231,2,0,L|165:256,1,85.0000016212464,0|8,0:0|0:0,0:0:0:0:
260,352,336542,6,0,B|286:316|286:316|363:298,1,85.0000016212464
498,235,336853,2,0,P|456:202|426:159,1,85.0000016212464
179,207,337164,6,0,P|152:175|117:150,1,85.0000016212464
290,78,337475,2,0,B|330:69|330:69|356:33,1,85.0000016212464
258,356,337786,6,2,L|225:283,1,42.5000008106232
284,291,337941,2,2,L|321:217,1,42.5000008106232
264,223,338097,2,2,L|232:153,1,42.5000008106232
256,192,338252,12,0,348045,0:0:0:0:
68,343,348200,6,0,B|156:234|268:306|268:306|216:253|216:253|306:263|410:193|296:91|162:176|314:275|314:275|370:227|432:301|432:301|502:235|431:175|431:175|423:237|342:137|368:50|368:50|317:106|317:106|294:19|294:19|272:87|183:35|183:35|124:54|11:172|163:265|293:101|170:60|76:73|76:73|67:81,1,1800.00006866455
