osu file format v14

[General]
AudioFilename: Irus.mp3
AudioLeadIn: 0
PreviewTime: 93772
Countdown: 0
SampleSet: Normal
StackLeniency: 0.7
Mode: 0
LetterboxInBreaks: 0
WidescreenStoryboard: 0

[Editor]
Bookmarks: 1174,26272,51370,76468
DistanceSpacing: 1.2
BeatDivisor: 4
GridSize: 4
TimelineZoom: 1.699998

[Metadata]
Title:Jue
TitleUnicode:觉
Artist:Irus
ArtistUnicode:Irus
Creator:Garven
Version:Placid (Normal)
Source:東方心綺楼 ~ Hopeless Masquerade
Tags:TOHO SPEED 02 LiLA'c Records Boushitsu no Emotion 亡失のエモーション 秦心 hata no kokoro Ami Hollow Wings Irreversible val0108 Okoratu Ami
BeatmapID:666470
BeatmapSetID:295510

[Difficulty]
HPDrainRate:4
CircleSize:4
OverallDifficulty:5
ApproachRate:5
SliderMultiplier:1.05
SliderTickRate:2

[Events]
//Background and Video events
0,0,"onibg.jpg",0,0
//Break Periods
//Storyboard Layer 0 (Background)
//Storyboard Layer 1 (Fail)
//Storyboard Layer 2 (Pass)
//Storyboard Layer 3 (Foreground)
//Storyboard Sound Samples

[TimingPoints]
1174,392.156862745098,4,1,1,80,1,0
51370,-100,4,2,1,60,0,0
63919,-98.0392156862745,4,2,1,70,0,0
65487,-97.0873786407767,4,2,1,73,0,0
67056,-96.1538461538461,4,2,1,76,0,0
68624,-94.3396226415094,4,2,1,79,0,0
70193,-93.4579439252336,4,2,1,82,0,0
71762,-92.5925925925926,4,2,1,70,0,0
73330,-91.743119266055,4,2,1,70,0,0
74899,-90.9090909090909,4,2,1,70,0,0
76468,-90.9090909090909,4,2,1,100,0,0
93698,-90.9090909090909,4,2,1,5,0,0
93723,-90.9090909090909,4,2,1,60,0,0
96860,-83.3333333333333,4,1,1,80,0,0
121958,-76.9230769230769,4,1,1,80,0,1
134507,-76.9230769230769,4,1,1,80,0,1
143919,-76.9230769230769,4,1,1,75,0,1
147056,-100,4,1,1,80,0,0

[Colours]
Combo1 : 157,0,0
Combo2 : 150,150,150
Combo3 : 255,255,255
Combo4 : 240,70,193
Combo5 : 36,204,204
Combo6 : 150,150,255
Combo7 : 150,237,237
Combo8 : 255,0,0

[HitObjects]
96,144,51370,6,0,P|136:64|216:56,1,157.5,4|2,0:1|0:2,0:0:0:0:
360,288,52938,1,0,3:0:0:0:
424,192,53330,1,2,0:0:0:0:
384,80,53723,1,0,3:0:0:0:
272,40,54115,1,0,3:0:0:0:
216,48,54311,1,0,0:0:0:0:
160,64,54507,6,0,P|104:128|112:200,2,157.5,0|0|0,0:0|3:0|0:0,0:0:0:0:
256,128,56075,1,0,3:0:0:0:
360,80,56468,1,2,0:0:0:0:
488,192,57056,1,2,0:2:0:0:
488,200,57252,1,0,3:0:0:0:
456,312,57644,102,0,P|372:372|312:368,1,157.5,2|2,0:0|0:2,0:0:0:0:
264,352,58428,1,0,0:0:0:0:
104,144,59311,2,0,P|80:88|80:64,2,78.75,0|0|0,3:0|3:0|3:0,0:0:0:0:
152,216,60193,2,0,P|194:240|240:216,1,105
280,168,60781,5,2,0:2:0:0:
392,40,61370,1,0,0:0:0:0:
480,192,61958,1,0,0:0:0:0:
376,248,62350,2,0,P|312:304|96:288,1,315
24,192,63919,38,0,P|24:112|88:56,1,160.65000098053,0|0,0:0|3:2,0:0:0:0:
192,192,65095,1,2,0:2:0:0:
232,304,65487,1,0,0:0:0:0:
352,312,65879,1,2,0:0:0:0:
352,312,66075,1,0,0:0:0:0:
432,224,66468,1,0,0:0:0:0:
432,224,66664,1,0,3:0:0:0:
496,120,67056,6,0,P|440:88|352:136,2,163.799999000244,0|0|0,3:0|3:0|3:0,0:0:0:0:
512,240,68624,1,2,0:0:0:0:
448,344,69017,2,0,P|375:382|304:344,1,166.950000254745,2|2,0:0|3:0,0:0:0:0:
272,296,69801,1,0,3:0:0:0:
360,208,70193,102,0,P|336:136|256:96,1,168.524994857025,2|2,0:0|0:0,0:0:0:0:
192,96,70977,1,0,0:0:0:0:
168,216,71370,1,2,0:0:0:0:
104,320,71762,1,0,3:0:0:0:
32,224,72154,2,0,P|8:264|8:312,2,85.0500020764161,2|0|0,0:2|3:0|3:0,0:0:0:0:
40,160,72938,1,2,3:2:0:0:
72,104,73134,1,0,0:0:0:0:
128,104,73330,6,0,P|200:144|272:104,1,171.675001833687,2|0,3:2|3:0,0:0:0:0:
448,40,74507,1,0,3:0:0:0:
448,40,74703,1,0,3:0:0:0:
448,40,74899,2,0,P|480:120|472:168,1,115.50000352478,2|0,0:0|3:0,0:0:0:0:
464,208,75487,2,0,P|440:248|440:296,1,86.6250026435853,2|0,0:2|0:0,0:0:0:0:
440,352,75977,2,0,P|400:376|352:368,1,86.6250026435853,2|0,0:2|0:0,0:0:0:0:
264,360,76566,102,0,P|240:304|296:216,1,173.250005287171,4|0,0:0|0:0,0:0:0:0:
344,176,77350,2,0,P|352:128|328:88,1,86.6250026435853,2|0,0:2|0:0,0:0:0:0:
296,56,77840,1,0,1:0:0:0:
200,32,78134,6,0,P|176:88|232:176,1,173.250005287171,4|0,0:0|0:0,0:0:0:0:
280,216,78918,2,0,P|288:264|264:304,1,86.6250026435853,2|0,0:2|0:0,0:0:0:0:
232,336,79408,1,0,1:0:0:0:
136,360,79703,102,0,P|112:304|168:216,1,173.250005287171,4|0,0:0|0:0,0:0:0:0:
216,176,80487,2,0,P|224:128|200:88,1,86.6250026435853,2|0,0:2|0:0,0:0:0:0:
168,56,80977,1,0,1:0:0:0:
72,32,81271,6,0,P|48:88|104:176,1,173.250005287171,4|0,0:0|0:0,0:0:0:0:
152,216,82055,2,0,P|160:264|136:304,1,86.6250026435853,2|0,0:2|0:0,0:0:0:0:
104,336,82545,1,0,1:0:0:0:
208,368,82840,102,0,L|288:336,1,86.6250026435853,4|2,0:2|0:2,0:0:0:0:
344,312,83330,1,0,1:0:0:0:
416,248,83624,2,0,L|336:216,1,86.6250026435853,4|2,0:2|0:2,0:0:0:0:
280,192,84114,1,0,1:0:0:0:
232,272,84409,6,0,L|152:240,1,86.6250026435853,4|2,0:2|0:2,0:0:0:0:
96,216,84899,1,0,1:0:0:0:
24,152,85193,2,0,L|104:120,1,86.6250026435853,4|2,0:2|0:2,0:0:0:0:
160,96,85683,1,0,1:0:0:0:
216,72,85879,102,0,L|280:72,1,57.7500017623902,2|0,1:2|0:0,0:0:0:0:
320,112,86272,2,0,L|392:112,1,57.7500017623902,2|0,1:2|0:0,0:0:0:0:
416,160,86664,2,0,L|488:160,1,57.7500017623902,2|0,1:2|0:0,0:0:0:0:
504,216,87056,2,0,P|512:248|504:272,1,57.7500017623902,2|0,1:2|0:0,0:0:0:0:
472,328,87448,6,0,L|408:328,1,57.7500017623902,2|0,1:2|0:0,0:0:0:0:
376,280,87840,2,0,L|304:280,1,57.7500017623902,2|0,1:2|0:0,0:0:0:0:
280,336,88232,1,2,1:2:0:0:
216,336,88429,1,0,0:0:0:0:
184,280,88624,1,2,1:2:0:0:
120,280,88821,1,0,0:0:0:0:
256,192,89017,12,0,93698,0:0:0:0:
256,16,96860,69,4,0:0:0:0:
392,48,97252,1,2,0:2:0:0:
448,96,97448,2,0,P|478:153|448:200,1,125.999996154785,0|0,0:0|0:2,0:0:0:0:
392,248,98036,1,2,0:2:0:0:
304,128,98428,1,0,0:0:0:0:
204,240,98821,1,2,0:2:0:0:
208,312,99017,2,0,P|144:341|93:308,1,125.999996154785,0|0,0:0|0:2,0:0:0:0:
64,256,99605,1,2,0:2:0:0:
56,184,99801,1,0,0:0:0:0:
64,112,99997,5,0,0:0:0:0:
184,184,100389,1,2,0:2:0:0:
184,112,100585,2,0,P|224:64|288:64,1,125.999996154785,0|0,0:0|0:2,0:0:0:0:
352,80,101173,1,2,0:2:0:0:
304,208,101566,1,0,0:0:0:0:
368,328,101958,2,0,L|400:240,1,94.499997116089,2|0,0:2|0:0,0:0:0:0:
416,136,102546,2,0,L|384:52,1,62.9999980773926,2|0,1:2|0:0,0:0:0:0:
256,48,103134,102,0,P|184:96|120:96,1,125.999996154785,2|4,0:2|0:2,0:0:0:0:
88,144,103723,1,0,0:0:0:0:
40,200,103919,2,0,P|49:270|88:320,1,125.999996154785,4|2,0:1|0:2,0:0:0:0:
144,344,104507,1,0,0:0:0:0:
216,352,104703,1,0,0:0:0:0:
328,272,105095,2,0,P|384:264|416:224,2,94.499997116089,2|0|0,0:2|0:0|0:0,0:0:0:0:
320,200,105879,1,2,0:2:0:0:
368,144,106075,1,0,0:0:0:0:
320,88,106272,6,0,P|248:67|136:96,2,188.999994232178,0|2|0,0:0|0:2|0:0,0:0:0:0:
384,120,107644,1,0,0:0:0:0:
336,248,108036,1,2,0:2:0:0:
272,272,108232,2,0,L|181:248,1,94.499997116089,2|2,0:2|0:2,0:0:0:0:
112,272,108723,2,0,L|112:176,1,94.499997116089,2|2,0:2|0:2,0:0:0:0:
112,108,109213,1,2,0:2:0:0:
152,48,109409,101,4,0:1:0:0:
256,136,109801,1,2,0:2:0:0:
312,88,109997,2,0,P|384:96|424:136,1,125.999996154785
456,192,110585,1,2,0:2:0:0:
376,304,110977,1,0,0:0:0:0:
248,240,111370,1,2,0:2:0:0:
200,184,111566,2,0,P|140:160|88:184,1,125.999996154785
40,240,112154,1,2,0:2:0:0:
144,328,112546,5,0,0:0:0:0:
280,368,112938,1,2,0:2:0:0:
312,304,113134,2,0,P|371:280|424:304,1,125.999996154785,0|0,0:0|0:2,0:0:0:0:
480,256,113723,1,2,0:2:0:0:
488,120,114115,1,0,0:0:0:0:
376,40,114507,2,0,P|336:64|272:64,1,94.499997116089,2|0,0:2|0:0,0:0:0:0:
184,56,115095,1,0,0:0:0:0:
112,56,115291,1,2,0:2:0:0:
32,168,115683,102,0,P|48:240|104:264,1,125.999996154785,2|0,0:2|0:2,0:0:0:0:
160,272,116272,1,4,0:2:0:0:
208,216,116468,2,0,P|278:196|328:216,1,125.999996154785,4|0,0:0|0:0,0:0:0:0:
376,264,117056,1,0,0:0:0:0:
448,272,117252,6,0,P|480:224|472:144,1,125.999996154785,0|2,0:0|0:2,0:0:0:0:
424,112,117840,2,0,P|360:120|312:80,1,125.999996154785
264,32,118428,1,2,0:2:0:0:
192,24,118624,1,0,0:0:0:0:
120,24,118821,102,0,P|96:80|112:112,1,94.499997116089,2|2,0:2|0:2,0:0:0:0:
160,200,119409,2,0,L|192:304,1,94.499997116089,2|2,0:2|0:2,0:0:0:0:
264,360,119997,1,0,0:0:0:0:
324,320,120193,1,0,0:0:0:0:
312,184,120585,5,4,0:3:0:0:
376,152,120781,1,4,0:3:0:0:
440,120,120977,1,4,0:3:0:0:
352,64,121272,2,0,L|256:40,1,94.499997116089,4|6,0:3|0:3,0:0:0:0:
192,24,121762,1,4,0:3:0:0:
120,40,121958,54,0,P|56:88|72:224,2,204.749990627289,4|2|8,0:1|0:2|0:3,0:0:0:0:
168,96,123330,1,0,0:0:0:0:
240,112,123526,1,0,0:0:0:0:
352,8,123919,1,2,0:2:0:0:
392,152,124311,1,0,0:0:0:0:
280,248,124703,1,10,0:2:0:0:
208,264,124899,1,0,0:0:0:0:
144,304,125095,54,0,P|80:280|64:208,1,136.499993751526,0|2,0:0|0:2,0:0:0:0:
96,152,125683,2,0,P|192:168|232:120,1,136.499993751526
264,88,126272,1,8,0:2:0:0:
408,40,126664,1,2,0:2:0:0:
472,176,127056,2,0,P|424:272|328:240,1,204.749990627289,4|2,0:2|0:2,0:2:0:0:
288,208,127840,1,4,0:1:0:0:
240,64,128232,102,0,P|136:72|112:160,1,204.749990627289,0|2,0:0|0:2,0:0:0:0:
112,232,129017,2,0,L|208:336,1,136.499993751526,0|8,0:0|0:2,0:0:0:0:
352,360,129801,1,0,0:3:0:0:
448,240,130193,1,2,0:2:0:0:
368,112,130585,1,0,0:3:0:0:
280,232,130977,1,10,0:2:0:0:
240,168,131173,1,0,0:0:0:0:
184,120,131370,6,0,P|123:192|184:264,2,204.749990627289,0|2|2,0:0|0:2|0:2,0:0:0:0:
320,296,133134,1,4,0:3:0:0:
392,288,133330,1,4,0:3:0:0:
448,240,133526,1,4,0:3:0:0:
464,124,133821,1,4,0:3:0:0:
360,64,134115,1,6,0:3:0:0:
288,96,134311,1,4,0:3:0:0:
232,40,134507,54,0,P|128:64|80:168,1,204.749990627289,4|2,0:0|0:2,0:0:0:0:
80,216,135291,1,0,0:0:0:0:
144,352,135683,1,8,0:3:0:0:
216,320,135879,1,0,0:0:0:0:
288,352,136075,2,0,P|352:320|376:248,1,136.499993751526,0|2,0:0|0:2,0:0:0:0:
240,192,136860,2,0,P|264:120|320:96,1,136.499993751526,0|8,0:3|0:3,0:3:0:0:
384,56,137448,1,0,0:3:0:0:
448,96,137644,54,0,P|480:208|432:272,1,204.749990627289,4|2,0:0|0:3,0:0:0:0:
360,296,138428,2,0,P|320:232|240:200,1,136.499993751526,0|8,0:0|0:3,0:0:0:0:
128,256,139213,1,2,0:2:0:0:
168,112,139605,2,0,P|256:68|344:112,1,204.749990627289,4|2,0:2|0:2,0:0:0:0:
392,176,140389,1,4,0:0:0:0:
256,240,140781,102,0,B|200:272|152:240|152:240|72:176,1,204.749990627289,4|2,0:3|0:2,0:0:0:0:
32,128,141566,1,0,0:0:0:0:
480,128,142350,1,4,0:3:0:0:
384,240,142742,1,2,0:2:0:0:
256,304,143134,1,0,0:0:0:0:
128,240,143526,1,2,0:2:0:0:
128,168,143723,1,0,0:0:0:0:
168,104,143919,6,0,P|256:60|344:104,2,204.749990627289,4|2|0,0:3|0:2|0:0,0:0:0:0:
256,192,145487,12,4,147056,0:0:0:0:
