osu file format v14

[General]
AudioFilename: Irus.mp3
AudioLeadIn: 0
PreviewTime: 93772
Countdown: 0
SampleSet: Soft
StackLeniency: 0.7
Mode: 0
LetterboxInBreaks: 0
WidescreenStoryboard: 0

[Editor]
Bookmarks: 1174,26272,51370,76468
DistanceSpacing: 1.2
BeatDivisor: 4
GridSize: 4
TimelineZoom: 1.699998

[Metadata]
Title:Jue
TitleUnicode:觉
Artist:Irus
ArtistUnicode:Irus
Creator:Garven
Version:Jovial (Easy)
Source:東方心綺楼 ~ Hopeless Masquerade
Tags:TOHO SPEED 02 LiLA'c Records Boushitsu no Emotion 亡失のエモーション 秦心 hata no kokoro Ami Hollow Wings Irreversible val0108 Okoratu Ami
BeatmapID:665936
BeatmapSetID:295510

[Difficulty]
HPDrainRate:2
CircleSize:3.5
OverallDifficulty:2.5
ApproachRate:2.5
SliderMultiplier:0.8
SliderTickRate:2

[Events]
//Background and Video events
0,0,"onibg.jpg",0,0
//Break Periods
//Storyboard Layer 0 (Background)
//Storyboard Layer 1 (Fail)
//Storyboard Layer 2 (Pass)
//Storyboard Layer 3 (Foreground)
//Storyboard Sound Samples

[TimingPoints]
1174,392.156862745098,4,1,1,80,1,0
51370,-100,4,2,1,60,0,0
63919,-98.0392156862745,4,2,1,70,0,0
65487,-97.0873786407767,4,2,1,73,0,0
67056,-96.1538461538461,4,2,1,76,0,0
68624,-94.3396226415094,4,2,1,79,0,0
70193,-93.4579439252336,4,2,1,82,0,0
71762,-92.5925925925926,4,2,1,70,0,0
73330,-91.743119266055,4,2,1,70,0,0
74899,-90.9090909090909,4,2,1,70,0,0
76468,-90.9090909090909,4,2,1,100,0,0
93698,-90.9090909090909,4,2,1,5,0,0
93723,-90.9090909090909,4,2,1,60,0,0
96860,-83.3333333333333,4,1,1,80,0,0
121958,-80,4,1,1,80,0,1
134507,-80,4,1,1,80,0,1
143919,-80,4,1,1,75,0,1
147056,-100,4,1,1,80,0,0

[Colours]
Combo1 : 157,0,0
Combo2 : 150,150,150
Combo3 : 255,255,255
Combo4 : 240,70,193
Combo5 : 36,204,204
Combo6 : 150,150,255
Combo7 : 150,237,237
Combo8 : 255,0,0

[HitObjects]
152,96,51370,6,0,P|256:45|360:96,1,240,4|0,0:1|0:0,0:0:0:0:
372,200,52938,1,0,3:0:0:0:
308,280,53330,1,2,0:0:0:0:
204,280,53723,1,0,3:0:0:0:
140,200,54115,1,0,3:0:0:0:
88,109,54507,6,0,P|44:161|40:224,2,120,0|0|0,0:0|3:0|0:0,0:0:0:0:
176,48,56075,1,0,3:0:0:0:
272,16,56468,1,2,0:0:0:0:
440,140,57252,1,0,3:0:0:0:
440,244,57644,102,0,P|400:284|288:316,1,160,2|0,0:0|0:0,0:0:0:0:
128,160,59311,2,0,L|128:96,2,60,0|0|0,3:0|3:0|3:0,0:0:0:0:
240,368,60781,6,0,B|200:368|200:368|160:368|128:336,2,120,2|0|0,0:0|3:0|3:0,0:0:0:0:
344,368,62350,1,0,3:0:0:0:
64,48,63919,38,0,L|72:176,1,122.40000074707,0|2,0:0|0:2,0:0:0:0:
256,360,65487,1,0,0:0:0:0:
360,336,65879,1,2,0:0:0:0:
448,280,66272,1,0,3:0:0:0:
504,192,66664,1,0,3:0:0:0:
488,80,67056,6,0,P|408:40|352:40,2,124.799999238281,0|0|0,3:0|3:0|3:0,0:0:0:0:
504,192,68624,1,2,0:0:0:0:
440,288,69017,2,0,P|367:326|296:288,1,169.600000258789,2|0,0:0|3:0,0:0:0:0:
304,176,70193,102,0,P|256:117|216:176,1,171.199994775391,2|2,0:0|0:0,0:0:0:0:
72,352,71762,1,0,3:0:0:0:
24,248,72154,1,0,3:0:0:0:
24,136,72546,1,2,3:2:0:0:
72,32,72938,1,0,3:0:0:0:
152,112,73330,6,0,P|255:179|360:112,1,261.600002794189,2|0,3:2|3:0,0:0:0:0:
448,40,74899,2,0,L|448:360,1,308.000009399414,2|0,0:0|3:0,0:0:0:0:
368,376,76566,102,0,L|364:88,1,286.000008728028,4|0,0:0|1:0,0:0:0:0:
288,48,78134,2,0,L|284:336,1,286.000008728028,4|0,0:2|1:0,0:0:0:0:
208,360,79703,6,0,L|204:72,1,286.000008728028,4|0,0:2|1:0,0:0:0:0:
128,48,81272,2,0,L|124:336,1,286.000008728028,4|0,0:2|1:0,0:0:0:0:
208,368,82840,102,0,L|320:320,1,110.000003356934,4|0,0:2|1:0,0:0:0:0:
376,272,83624,2,0,L|264:224,1,110.000003356934,4|0,0:2|1:0,0:0:0:0:
208,176,84409,6,0,L|320:128,1,110.000003356934,4|0,0:2|1:0,0:0:0:0:
376,80,85193,2,0,L|264:32,1,110.000003356934,4|0,0:2|1:0,0:0:0:0:
256,192,85879,12,0,93698,0:0:0:0:
256,16,96860,69,4,0:0:0:0:
376,56,97252,1,2,0:2:0:0:
416,88,97448,2,0,P|456:168|440:232,1,143.999995605469,0|2,0:0|0:2,0:0:0:0:
320,200,98428,1,0,0:0:0:0:
264,312,98821,1,2,0:2:0:0:
224,344,99017,2,0,P|136:368|88:352,1,143.999995605469,0|2,0:0|0:2,0:0:0:0:
136,240,99997,5,0,0:0:0:0:
56,144,100389,1,2,0:2:0:0:
72,96,100585,2,0,P|96:64|192:40,1,143.999995605469,0|2,0:0|0:2,0:0:0:0:
272,136,101566,2,0,P|319:153|360:136,2,95.9999970703126,0|2|0,0:0|0:2|0:0,0:0:0:0:
316,19,102742,1,2,0:2:0:0:
440,39,103134,102,0,P|488:111|488:183,1,143.999995605469,2|4,0:2|0:2,0:0:0:0:
491,219,103919,2,0,P|482:289|439:346,1,143.999995605469,4|0,0:1|0:0,0:0:0:0:
392,360,104703,1,0,0:0:0:0:
288,296,105095,1,2,0:2:0:0:
176,360,105487,1,0,0:0:0:0:
104,120,106272,6,0,P|176:99|240:120,2,143.999995605469,0|2|0,0:0|0:2|0:0,0:0:0:0:
56,224,107840,2,0,B|120:304|120:304|168:248|168:248|248:248|248:248|312:296,1,335.999989746094,4|2,0:3|0:2,0:0:0:0:
352,328,109409,101,4,0:1:0:0:
448,248,109801,1,2,0:2:0:0:
472,200,109997,2,0,B|472:136|472:136|472:88|416:72,1,143.999995605469,0|2,0:0|0:2,0:0:0:0:
336,160,110977,1,0,0:0:0:0:
240,80,111370,1,2,0:2:0:0:
187,68,111566,2,0,B|132:57|132:57|77:46|52:90,1,143.999995605469,0|2,0:0|0:2,0:0:0:0:
128,192,112546,5,0,0:0:0:0:
72,304,112938,1,2,0:2:0:0:
104,344,113134,2,0,P|165:378|224:344,1,143.999995605469,0|2,0:0|0:2,0:0:0:0:
264,224,114115,2,0,P|288:176|328:160,2,95.9999970703126,0|2|0,0:0|0:2|0:0,0:0:0:0:
376,272,115291,1,2,0:2:0:0:
424,160,115683,102,0,P|408:88|344:56,1,143.999995605469,2|4,0:2|0:2,0:0:0:0:
304,80,116468,2,0,P|234:100|168:80,1,143.999995605469,4|0,0:0|0:0,0:0:0:0:
120,56,117252,1,0,0:0:0:0:
32,144,117644,1,2,0:2:0:0:
32,272,118036,1,0,0:2:0:0:
120,360,118428,1,2,0:2:0:0:
232,296,118821,6,0,P|296:268|360:296,2,143.999995605469
152,216,120389,2,0,B|184:128|184:128|232:136|232:136|296:96|296:96|328:160|328:160|384:160,1,335.999989746094,4|2,0:3|0:2,0:0:0:0:
400,208,121958,38,0,P|352:272|280:280,2,150,4|2|8,0:1|0:2|0:3,0:0:0:0:
368,80,123526,1,0,0:0:0:0:
256,16,123919,1,2,0:2:0:0:
144,80,124311,1,0,0:0:0:0:
256,144,124703,1,10,0:2:0:0:
312,264,125095,70,0,P|256:306|200:264,2,150,0|2|8,0:0|0:2|0:3,0:0:0:0:
392,160,126664,1,2,0:2:0:0:
288,84,127056,2,0,P|184:84|136:180,1,200,4|4,0:2|0:1,0:2:0:0:
128,288,128232,102,0,B|160:320|200:320|200:320|328:320,1,200,2|0,0:2|0:0,0:0:0:0:
440,256,129409,1,8,0:3:0:0:
408,128,129801,1,0,0:3:0:0:
320,32,130193,1,2,0:2:0:0:
232,128,130585,1,0,0:3:0:0:
144,32,130977,1,10,0:2:0:0:
56,128,131370,6,0,P|30:210|56:263,2,150,0|2|2,0:0|0:2|0:2,0:0:0:0:
188,128,132938,2,0,P|296:192|187:256,1,300,4|2,0:3|0:2,0:0:0:0:
96,168,134507,54,0,P|100:88|152:40,2,150,4|2|8,0:0|0:2|0:3,0:0:0:0:
172,276,136075,1,0,0:0:0:0:
300,300,136468,1,2,0:2:0:0:
312,168,136860,1,0,0:0:0:0:
440,192,137252,1,8,0:3:0:0:
384,72,137644,54,0,P|256:6|128:72,1,300,4|8,0:0|0:3,0:0:0:0:
256,112,139213,1,2,0:2:0:0:
344,208,139605,2,0,P|255:248|168:208,1,200,4|2,0:2|0:2,0:0:0:0:
256,112,140781,101,4,0:3:0:0:
88,304,142350,1,4,0:3:0:0:
192,384,142742,1,2,0:2:0:0:
320,384,143134,1,0,0:0:0:0:
424,304,143526,1,2,0:2:0:0:
320,224,143919,6,0,P|256:190|192:224,2,150,4|2|0,0:3|0:2|0:0,0:0:0:0:
256,192,145487,12,4,147056,0:0:0:0:
