osu file format v14

[General]
AudioFilename: Irus.mp3
AudioLeadIn: 0
PreviewTime: 93772
Countdown: 0
SampleSet: Normal
StackLeniency: 0.7
Mode: 0
LetterboxInBreaks: 0
WidescreenStoryboard: 0

[Editor]
Bookmarks: 1174,12154,18428,26272,51370,76468
DistanceSpacing: 1
BeatDivisor: 4
GridSize: 32
TimelineZoom: 2.599998

[Metadata]
Title:Jue
TitleUnicode:觉
Artist:Irus
ArtistUnicode:Irus
Creator:Garven
Version:Determination (Expert)
Source:東方心綺楼 ~ Hopeless Masquerade
Tags:TOHO SPEED 02 LiLA'c Records Boushitsu no Emotion 亡失のエモーション 秦心 hata no kokoro Ami Hollow Wings Irreversible val0108 Okoratu Ami
BeatmapID:663876
BeatmapSetID:295510

[Difficulty]
HPDrainRate:5.5
CircleSize:5.1
OverallDifficulty:8.4
ApproachRate:8.8
SliderMultiplier:1.6
SliderTickRate:2

[Events]
//Background and Video events
0,0,"onibg.jpg",0,0
//Break Periods
//Storyboard Layer 0 (Background)
//Storyboard Layer 1 (Fail)
//Storyboard Layer 2 (Pass)
//Storyboard Layer 3 (Foreground)
//Storyboard Sound Samples

[TimingPoints]
1174,392.156862745098,4,1,1,80,1,0
51370,-100,4,2,1,60,0,0
63919,-98.0392156862745,4,2,1,70,0,0
65487,-97.0873786407767,4,2,1,73,0,0
67056,-96.1538461538461,4,2,1,76,0,0
68624,-94.3396226415094,4,2,1,79,0,0
70193,-93.4579439252336,4,2,1,82,0,0
71762,-92.5925925925926,4,2,1,70,0,0
73330,-91.743119266055,4,2,1,70,0,0
74899,-90.9090909090909,4,2,1,70,0,0
76468,-90.9090909090909,4,2,1,100,0,0
93698,-90.9090909090909,4,2,1,5,0,0
93723,-90.9090909090909,4,2,1,60,0,0
96860,-83.3333333333333,4,1,1,80,0,0
121958,-66.6666666666667,4,1,1,80,0,1
122252,-66.6666666666667,4,1,2,80,0,1
122448,-66.6666666666667,4,1,1,80,0,1
134507,-57.1428571428571,4,1,1,80,0,1
134801,-57.1428571428571,4,1,2,80,0,1
134997,-57.1428571428571,4,1,1,80,0,1
143919,-57.1428571428571,4,1,1,75,0,1
147056,-100,4,1,1,80,0,0

[Colours]
Combo1 : 157,0,0
Combo2 : 150,150,150
Combo3 : 255,255,255
Combo4 : 240,70,193
Combo5 : 36,204,204
Combo6 : 150,150,255
Combo7 : 150,237,237
Combo8 : 255,0,0

[HitObjects]
256,136,51370,5,4,1:0:0:0:
328,192,51566,1,0,3:0:0:0:
376,272,51762,1,0,3:0:0:0:
328,352,51958,1,2,0:0:0:0:
184,352,52350,1,0,0:0:0:0:
136,272,52546,1,0,3:0:0:0:
184,192,52742,1,0,0:0:0:0:
256,136,52938,2,0,P|328:104|400:144,1,160,0|2,3:0|0:0,0:0:0:0:
256,136,53723,2,0,P|184:104|112:144,1,160,0|0,3:0|0:0,0:0:0:0:
56,216,54311,1,0,0:0:0:0:
32,312,54507,5,2,3:2:0:0:
480,312,55095,1,0,3:0:0:0:
144,64,55684,1,0,3:0:0:0:
368,64,56076,2,0,L|416:64,2,40,2|0|0,0:0|0:0|0:0,0:0:0:0:
256,152,56468,1,2,3:2:0:0:
176,240,56664,1,0,0:0:0:0:
173,245,56762,1,2,3:2:0:0:
336,240,57056,1,2,0:0:0:0:
338,246,57252,1,2,0:0:0:0:
340,251,57448,1,2,0:0:0:0:
256,344,57644,101,0,3:0:0:0:
208,360,57742,2,0,L|128:328,1,80,2|0,0:0|0:0,0:0:0:0:
88,344,58036,1,2,0:0:0:0:
40,232,58232,1,0,3:0:0:0:
160,248,58428,2,0,P|224:272|272:248,1,120,2|0,0:0|3:0,0:0:0:0:
304,224,58821,1,2,0:0:0:0:
320,184,58919,1,0,0:0:0:0:
312,136,59017,1,0,0:0:0:0:
160,160,59213,1,0,0:0:0:0:
112,152,59311,2,0,P|56:112|56:56,1,120,0|2,3:0|0:0,0:0:0:0:
268,255,59801,1,0,0:0:0:0:
220,247,59899,2,0,P|164:207|164:151,1,120,0|2,3:0|0:0,0:0:0:0:
320,248,60389,1,0,3:0:0:0:
384,176,60585,1,0,3:0:0:0:
164,96,60781,6,0,L|124:64,1,40,0|2,0:0|0:0,0:0:0:0:
292,48,61075,2,0,L|304:10,1,40,0|0,0:0|3:0,0:0:0:0:
220,48,61370,2,0,L|207:10,1,40,0|2,0:0|0:0,0:0:0:0:
348,96,61664,2,0,L|379:71,1,40,0|0,0:0|3:0,0:0:0:0:
208,160,61958,1,2,3:2:0:0:
304,160,62154,1,0,3:0:0:0:
208,344,62448,2,0,L|240:344,2,20,0|0|0,0:0|0:0|3:0,0:0:0:0:
88,344,62742,2,0,P|48:320|32:272,1,80,2|0,3:2|0:0,0:0:0:0:
48,240,63036,2,0,P|88:224|120:176,1,80,2|0,3:2|0:0,0:0:0:0:
64,88,63428,1,0,3:0:0:0:
64,88,63526,1,2,0:0:0:0:
184,72,63723,1,0,3:2:0:0:
288,136,63919,37,0,3:0:0:0:
328,168,64017,2,0,P|369:179|405:168,1,81.6000004980469,2|0,0:0|0:0,0:0:0:0:
448,136,64311,1,2,0:0:0:0:
344,72,64507,1,0,3:0:0:0:
304,40,64605,2,0,P|263:29|227:40,1,81.6000004980469,2|0,0:0|0:0,0:0:0:0:
184,72,64899,1,2,0:0:0:0:
72,136,65095,1,2,0:0:0:0:
48,176,65193,1,0,0:0:0:0:
48,224,65291,1,0,0:0:0:0:
136,320,65487,5,0,3:0:0:0:
176,296,65585,2,0,P|208:264|208:224,1,82.3999993084717,2|0,0:0|0:0,0:0:0:0:
220,180,65879,2,0,P|260:163|292:180,1,82.3999993084717,2|0,3:2|0:0,0:0:0:0:
302,228,66173,2,0,P|306:268|336:296,1,82.3999993084717,2|0,0:0|0:0,0:0:0:0:
376,320,66468,1,0,0:0:0:0:
456,216,66664,1,2,3:3:0:0:
376,108,66860,1,0,3:3:0:0:
256,48,67056,101,0,0:0:0:0:
208,32,67154,2,0,B|176:32|176:32|152:32|112:48,1,83.1999994921875,2|0,0:0|0:0,0:0:0:0:
88,72,67448,2,0,B|80:96|80:120|80:120|80:160,1,83.1999994921875,2|0,0:0|0:0,0:0:0:0:
128,176,67742,2,0,B|128:208|128:208|128:232|120:264,1,83.1999994921875,2|0,0:0|0:0,0:0:0:0:
88,296,68036,1,0,0:0:0:0:
216,336,68232,1,2,3:3:0:0:
256,216,68428,1,0,3:3:0:0:
384,176,68624,5,0,0:0:0:0:
424,144,68723,2,0,P|416:88|392:64,1,84.8000001293945,2|0,0:0|0:0,0:0:0:0:
352,88,69017,2,0,P|304:96|272:72,1,84.8000001293945,2|0,0:0|0:0,0:0:0:0:
272,24,69311,2,0,P|224:8|176:32,1,84.8000001293945,2|0,0:0|0:0,0:0:0:0:
152,48,69605,1,2,0:0:0:0:
112,80,69703,2,0,L|80:88,2,21.2000000323486,0|0|2,0:0|0:0|3:2,0:0:0:0:
240,112,69997,1,2,3:2:0:0:
288,240,70193,101,0,3:0:0:0:
320,280,70291,2,0,P|368:296|400:288,1,85.5999973876954,2|0,0:0|0:0,0:0:0:0:
400,240,70585,2,0,P|384:192|408:160,1,85.5999973876954,2|2,0:0|3:2,0:0:0:0:
496,72,70977,1,2,3:2:0:0:
304,144,71272,1,0,0:0:0:0:
256,128,71370,1,2,3:2:0:0:
216,96,71468,1,0,0:0:0:0:
192,48,71566,1,0,0:0:0:0:
64,104,71762,5,0,3:0:0:0:
32,144,71860,2,0,P|16:184|32:224,1,86.4000021093751,2|0,0:0|0:0,0:0:0:0:
80,232,72154,2,0,P|128:264|136:304,1,86.4000021093751,2|0,3:2|0:0,0:0:0:0:
112,336,72448,2,0,P|160:368|200:360,1,86.4000021093751,2|0,0:0|0:0,0:0:0:0:
232,352,72742,1,0,0:0:0:0:
376,304,72938,1,2,3:3:0:0:
432,176,73134,1,0,3:0:0:0:
352,64,73330,101,0,3:0:0:0:
320,104,73428,2,0,P|272:120|232:112,1,87.2000009313965,2|0,0:0|0:0,0:0:0:0:
208,72,73723,2,0,P|160:64|112:88,1,87.2000009313965,2|0,3:2|0:0,0:0:0:0:
136,128,74017,2,0,P|144:176|112:216,1,87.2000009313965,2|0,3:2|0:0,0:0:0:0:
88,240,74311,1,2,0:0:0:0:
176,352,74507,1,2,3:3:0:0:
312,368,74703,1,0,3:3:0:0:
432,192,74997,6,0,L|456:192,2,22.0000006713867,0|0|0,0:0|0:0|3:0,0:0:0:0:
344,88,75291,2,0,P|296:56|256:64,1,88.000002685547,2|0,3:0|0:0,0:0:0:0:
248,104,75585,2,0,P|208:128|160:120,1,88.000002685547,2|0,3:0|0:0,0:0:0:0:
64,24,75977,1,0,0:0:0:0:
32,64,76075,2,0,P|16:112|24:152,1,88.000002685547,2|0,3:0|0:0,0:0:0:0:
432,192,76566,102,0,L|456:192,2,22.0000006713867,0|0|4,0:0|0:0|0:2,0:0:0:0:
344,296,76860,2,0,P|296:328|256:320,1,88.000002685547,6|4,3:0|0:3,0:0:0:0:
248,280,77154,2,0,P|208:256|160:264,1,88.000002685547,2|4,0:0|0:3,0:0:0:0:
64,360,77546,1,0,0:0:0:0:
32,320,77644,2,0,P|16:272|24:232,1,88.000002685547,6|4,0:3|1:3,0:0:0:0:
421,252,78134,6,0,L|443:260,2,22.0000006713867,0|0|4,0:0|0:0|0:2,0:0:0:0:
303,319,78428,2,0,P|247:333|212:312,1,88.000002685547,6|4,0:3|0:3,0:0:0:0:
218,271,78722,2,0,P|189:235|141:226,1,88.000002685547,2|4,0:0|0:3,0:0:0:0:
18,284,79114,1,0,0:0:0:0:
1,235,79212,2,0,P|3:185|24:150,1,88.000002685547,6|4,0:3|1:3,0:0:0:0:
390,305,79703,102,0,L|409:320,2,22.0000006713867,0|0|4,0:0|0:0|0:2,0:0:0:0:
256,328,79997,2,0,P|199:321|173:290,1,88.000002685547,6|4,0:3|0:3,0:0:0:0:
193,254,80291,2,0,P|178:210|136:185,1,88.000002685547,2|4,0:0|0:3,0:0:0:0:
0,197,80683,1,0,0:0:0:0:
2,146,80781,2,0,P|20:99|52:73,1,88.000002685547,6|4,0:3|1:3,0:0:0:0:
344,344,81272,6,0,L|356:365,2,22.0000006713867,0|0|4,0:0|0:0|0:2,0:0:0:0:
209,320,81566,2,0,P|158:294|145:256,1,88.000002685547,6|4,0:3|0:3,0:0:0:0:
175,229,81860,2,0,P|176:182|145:144,1,88.000002685547,2|4,0:0|0:3,0:0:0:0:
14,109,82252,1,0,0:0:0:0:
33,62,82350,2,0,P|66:24|105:11,1,88.000002685547,6|4,0:3|1:3,0:0:0:0:
392,144,82840,102,0,P|416:208|400:248,1,88.000002685547,4|0,0:2|0:0,0:0:0:0:
384,264,83134,1,6,0:3:0:0:
272,352,83330,2,0,L|240:360,2,22.0000006713867,0|0|0,3:0|3:0|3:0,0:0:0:0:
272,72,83624,6,0,P|311:127|306:170,1,88.000002685547,4|0,0:2|0:0,0:0:0:0:
295,189,83918,1,6,0:3:0:0:
209,303,84114,2,0,L|180:319,2,22.0000006713867,0|0|0,3:0|3:0|3:0,0:0:0:0:
144,24,84409,102,0,P|196:67|202:110,1,88.000002685547,4|0,0:2|0:0,0:0:0:0:
196,131,84703,1,6,0:3:0:0:
142,263,84899,2,0,L|118:285,2,22.0000006713867,0|0|0,3:0|3:0|3:0,0:0:0:0:
0,0,85193,6,0,P|62:28|79:67,1,88.000002685547,4|0,0:2|0:0,0:0:0:0:
77,89,85487,1,6,0:3:0:0:
59,231,85683,2,0,L|42:259,2,22.0000006713867,0|0|0,3:0|3:0|3:0,0:0:0:0:
112,176,85879,102,0,L|152:96,1,88.000002685547,6|6,0:3|0:3,0:0:0:0:
256,40,86272,2,0,L|216:118,1,88.000002685547,6|6,0:3|3:3,0:0:0:0:
212,128,86517,1,0,3:0:0:0:
208,138,86566,1,0,3:0:0:0:
204,146,86615,1,0,3:0:0:0:
200,154,86664,6,0,L|160:232,1,88.000002685547,6|6,3:3|0:3,0:0:0:0:
174,357,87056,2,0,L|214:279,1,88.000002685547,6|6,0:3|3:3,0:0:0:0:
218,269,87301,1,0,3:0:0:0:
222,259,87350,1,0,3:0:0:0:
226,251,87399,1,0,3:0:0:0:
230,243,87448,102,0,L|270:165,1,88.000002685547,4|6,3:3|0:3,0:0:0:0:
391,62,87840,2,0,L|351:140,1,88.000002685547,6|6,0:3|3:3,0:0:0:0:
347,150,88085,1,0,3:0:0:0:
343,160,88134,1,0,3:0:0:0:
339,168,88183,1,0,3:0:0:0:
335,176,88232,6,0,L|295:254,1,88.000002685547,6|6,3:3|0:3,0:0:0:0:
312,384,88624,2,0,L|352:306,1,88.000002685547,6|6,0:3|3:3,0:0:0:0:
356,296,88869,1,0,3:0:0:0:
360,286,88918,1,0,3:0:0:0:
364,278,88967,1,0,3:0:0:0:
369,269,89017,102,0,P|384:248|408:240,1,44.0000013427735,6|0,3:3|3:0,0:0:0:0:
440,220,89213,2,0,P|464:204|472:183,1,44.0000013427735,0|0,3:0|3:0,0:0:0:0:
484,148,89409,2,0,P|478:122|452:100,1,44.0000013427735,6|0,3:3|3:0,0:0:0:0:
428,92,89605,2,0,P|404:108|372:100,1,44.0000013427735,0|0,3:0|3:0,0:0:0:0:
356,76,89801,2,0,P|340:60|316:52,1,44.0000013427735,6|0,3:3|3:0,0:0:0:0:
280,40,89997,2,0,P|256:40|227:55,1,44.0000013427735,0|0,3:0|3:0,0:0:0:0:
200,68,90193,2,0,P|184:92|152:104,1,44.0000013427735,6|0,3:3|3:0,0:0:0:0:
128,112,90389,2,0,P|104:123|92:148,1,44.0000013427735,0|0,3:0|3:0,0:0:0:0:
72,176,90585,5,6,3:3:0:0:
79,219,90683,1,0,3:0:0:0:
98,259,90781,1,6,3:3:0:0:
129,289,90879,1,0,3:0:0:0:
165,314,90977,1,6,3:3:0:0:
206,327,91075,1,0,3:0:0:0:
250,328,91173,1,6,3:3:0:0:
290,312,91272,1,0,3:0:0:0:
319,279,91370,101,6,3:3:0:0:
340,241,91468,1,0,3:0:0:0:
343,197,91566,1,6,3:3:0:0:
336,153,91664,1,0,3:0:0:0:
307,120,91762,1,6,3:3:0:0:
267,101,91860,1,0,3:0:0:0:
223,105,91958,1,6,3:3:0:0:
188,132,92056,1,0,3:0:0:0:
256,192,92154,12,0,93698,0:0:0:0:
157,64,96860,101,4,0:0:0:0:
216,40,96958,2,0,P|265:24|304:40,1,95.9999970703126,0|0,0:2|0:0,0:0:0:0:
332,96,97252,2,0,P|379:113|420:96,1,95.9999970703126,2|0,0:2|0:0,0:0:0:0:
448,40,97546,2,0,P|496:88|488:128,1,95.9999970703126,2|0,0:2|0:0,0:0:0:0:
472,168,97840,1,0,0:2:0:0:
408,336,98036,1,4,0:2:0:0:
352,368,98134,1,0,1:3:0:0:
288,384,98232,1,4,0:3:0:0:
128,296,98428,101,0,0:0:0:0:
176,248,98526,2,0,P|200:200|184:160,1,95.9999970703126
216,108,98821,2,0,P|257:86|296:108,1,95.9999970703126,2|0,0:3|0:0,0:0:0:0:
325,162,99115,2,0,P|312:207|336:248,1,95.9999970703126,2|0,0:2|0:0,0:0:0:0:
384,296,99409,1,4,0:3:0:0:
400,128,99605,1,0,0:0:0:0:
256,48,99801,1,0,0:0:0:0:
120,144,99997,5,0,0:0:0:0:
72,184,100095,2,0,P|48:232|56:280,1,95.9999970703126
114,273,100389,2,0,P|170:289|186:337,1,95.9999970703126,2|0,0:2|0:0,0:0:0:0:
208,376,100683,2,0,P|265:365|292:336,1,95.9999970703126,2|0,0:2|0:0,0:0:0:0:
256,288,100977,1,0,0:0:0:0:
352,160,101173,1,0,0:2:0:0:
384,320,101370,1,0,0:0:0:0:
488,192,101566,101,0,0:0:0:0:
504,128,101664,2,0,P|488:88|440:64,1,95.9999970703126
424,128,101958,2,0,P|416:192|376:232,1,95.9999970703126,2|0,0:2|0:0,0:0:0:0:
335,227,102252,2,0,P|279:203|239:219,1,95.9999970703126,2|0,0:2|0:0,0:0:0:0:
200,256,102546,1,0,0:0:0:0:
160,304,102644,2,0,L|128:336,2,23.9999992675781,0|0|2,0:0|0:0|0:2,0:0:0:0:
40,192,102938,1,2,0:2:0:0:
200,136,103134,5,0,0:0:0:0:
264,128,103232,2,0,P|320:112|336:80,1,95.9999970703126
360,24,103526,1,2,0:2:0:0:
448,168,103723,1,2,0:2:0:0:
336,288,103919,1,0,0:0:0:0:
192,200,104115,1,0,0:0:0:0:
128,184,104213,1,0,0:0:0:0:
64,200,104311,1,4,0:2:0:0:
24,248,104409,1,0,0:0:0:0:
8,312,104507,1,0,0:0:0:0:
176,368,104703,101,0,0:0:0:0:
224,328,104801,2,0,P|272:296|312:296,1,95.9999970703126
364,328,105095,2,0,P|428:328|460:288,1,95.9999970703126,2|0,0:2|0:0,0:0:0:0:
432,248,105389,2,0,P|416:200|432:160,1,95.9999970703126,2|0,0:2|0:0,0:0:0:0:
472,112,105683,1,0,0:0:0:0:
320,48,105879,1,0,0:3:0:0:
208,168,106075,1,0,0:0:0:0:
220,328,106272,5,0,0:0:0:0:
168,360,106370,2,0,P|112:368|72:352,1,95.9999970703126
96,296,106664,2,0,P|112:240|96:208,1,95.9999970703126,2|0,0:2|0:0,0:0:0:0:
56,160,106958,2,0,P|80:96|112:88,1,95.9999970703126,2|0,0:2|0:0,0:0:0:0:
160,64,107252,1,0,0:0:0:0:
272,184,107448,1,0,0:0:0:0:
296,344,107644,1,0,0:0:0:0:
464,104,107938,101,0,0:0:0:0:
456,96,107987,1,0,0:0:0:0:
448,88,108036,2,0,P|400:56|360:48,1,95.9999970703126,2|2,0:2|0:2,0:0:0:0:
272,184,108428,1,2,0:2:0:0:
328,224,108526,1,2,0:2:0:0:
184,344,108723,1,2,0:2:0:0:
64,208,108919,1,2,0:2:0:0:
112,160,109017,1,2,0:2:0:0:
232,296,109213,1,2,0:2:0:0:
408,360,109409,5,4,0:0:0:0:
440,304,109507,2,0,P|456:256|440:208,1,95.9999970703126
383,197,109801,2,0,P|367:149|391:109,1,95.9999970703126,2|0,0:2|0:0,0:0:0:0:
448,88,110095,2,0,P|432:32|400:16,1,95.9999970703126,2|0,0:2|0:0,0:0:0:0:
336,16,110389,1,0,0:0:0:0:
144,24,110585,1,4,0:2:0:0:
88,56,110683,1,0,0:3:0:0:
56,112,110781,1,4,0:3:0:0:
88,288,110977,101,0,0:0:0:0:
120,344,111075,2,0,P|168:352|216:344,1,95.9999970703126
208,280,111370,2,0,P|208:232|240:192,1,95.9999970703126,2|0,0:2|0:0,0:0:0:0:
280,240,111664,2,0,P|320:272|376:272,1,95.9999970703126,2|0,0:2|0:0,0:0:0:0:
424,256,111958,1,0,0:0:0:0:
464,96,112154,1,0,0:0:0:0:
304,72,112350,1,0,0:0:0:0:
200,200,112546,5,0,0:0:0:0:
176,256,112644,2,0,P|144:296|88:320,1,95.9999970703126
72,264,112938,2,0,P|80:208|40:176,1,95.9999970703126,2|0,0:2|0:0,0:0:0:0:
24,128,113232,2,0,P|72:96|112:104,1,95.9999970703126,2|0,0:2|0:0,0:0:0:0:
152,144,113526,1,0,0:0:0:0:
256,16,113723,1,0,0:0:0:0:
360,144,113919,1,0,0:0:0:0:
256,264,114115,101,0,0:0:0:0:
288,320,114213,2,0,P|328:360|384:360,1,95.9999970703126
376,304,114507,2,0,P|392:240|424:224,1,95.9999970703126,2|0,0:2|0:0,0:0:0:0:
464,264,114801,2,0,P|496:224|488:176,1,95.9999970703126,2|0,0:2|0:0,0:0:0:0:
456,128,115095,1,0,0:0:0:0:
404,92,115193,2,0,L|380:76,2,23.9999992675781,0|0|2,0:0|0:0|0:2,0:0:0:0:
320,232,115487,1,2,0:2:0:0:
160,280,115683,5,0,0:0:0:0:
96,264,115781,2,0,P|56:232|48:184,1,95.9999970703126
96,144,116075,1,2,0:2:0:0:
192,8,116272,1,2,0:2:0:0:
240,168,116468,1,0,0:0:0:0:
280,328,116664,1,0,0:0:0:0:
328,368,116762,1,0,0:0:0:0:
392,376,116860,1,4,0:2:0:0:
448,352,116958,1,0,0:0:0:0:
488,304,117056,1,4,0:3:0:0:
472,144,117252,101,0,0:0:0:0:
440,88,117350,2,0,P|400:56|352:56,1,95.9999970703126
333,112,117644,2,0,P|261:128|245:120,1,95.9999970703126,2|0,0:2|0:0,0:0:0:0:
216,64,117938,2,0,P|160:48|120:64,1,95.9999970703126,2|0,0:2|0:0,0:0:0:0:
93,113,118232,1,0,0:0:0:0:
32,264,118428,1,0,0:0:0:0:
168,352,118624,1,0,0:0:0:0:
232,200,118821,5,0,0:0:0:0:
280,160,118919,2,0,P|336:136|392:144,1,95.9999970703126
360,200,119213,2,0,P|352:256|376:304,1,95.9999970703126,2|0,0:2|0:0,0:0:0:0:
428,274,119507,2,0,P|476:286|508:326,1,95.9999970703126,2|0,0:2|0:0,0:0:0:0:
456,360,119801,1,0,0:0:0:0:
296,312,119997,1,0,0:0:0:0:
144,376,120193,1,0,0:0:0:0:
144,376,120291,1,0,0:0:0:0:
48,72,120585,101,4,0:3:0:0:
144,288,120781,1,4,0:3:0:0:
256,72,120977,1,4,0:3:0:0:
464,360,121272,1,4,0:3:0:0:
128,200,121566,69,6,0:3:0:0:
384,200,121762,1,4,0:3:0:0:
136,360,121958,102,0,P|32:240|112:64,1,360.000013732911,4|0,0:0|0:0,0:0:0:0:
176,32,122644,1,0,0:0:0:0:
176,224,122840,1,0,0:0:0:0:
251,185,122938,1,0,0:0:0:0:
408,360,123134,1,12,0:2:0:0:
456,304,123232,1,0,0:0:0:0:
472,232,123330,1,0,0:0:0:0:
376,72,123526,54,0,P|256:32|152:72,1,240.000009155274,0|8,0:0|0:2,0:0:0:0:
376,224,124115,1,0,0:0:0:0:
400,304,124213,2,0,P|336:352|296:360,1,120.000004577637
213,359,124507,2,0,P|156:343|112:304,1,120.000004577637,0|10,0:0|0:3,0:0:0:0:
192,128,124899,1,4,0:3:0:0:
368,40,125095,6,0,P|472:152|464:232,1,240.000009155274,0|8,0:0|0:3,0:0:0:0:
296,360,125683,1,0,0:0:0:0:
216,360,125781,1,0,0:0:0:0:
40,184,125977,1,0,0:0:0:0:
56,264,126075,1,0,0:0:0:0:
312,224,126272,1,8,0:3:0:0:
80,112,126468,1,0,0:0:0:0:
56,352,126664,102,0,P|176:288|240:208,1,240.000009155274,2|12,0:2|0:2,0:0:0:0:
384,24,127252,1,0,0:0:0:0:
448,72,127350,1,0,0:0:0:0:
408,360,127546,1,0,0:0:0:0:
336,320,127644,1,0,0:0:0:0:
272,264,127742,2,0,L|248:240,2,30.0000011444092,0|0|8,0:0|0:0|0:3,0:0:0:0:
472,176,128036,1,0,0:0:0:0:
296,56,128232,6,0,P|176:48|96:104,1,180.000006866455,4|0,0:0|0:0,0:0:0:0:
72,136,128624,1,8,0:3:0:0:
8,320,128821,1,0,0:0:0:0:
192,376,129017,2,0,P|312:376|376:344,1,180.000006866455
424,296,129409,1,12,0:2:0:0:
456,216,129507,1,0,0:0:0:0:
456,136,129605,1,0,0:0:0:0:
304,264,129801,102,0,P|192:304|96:240,1,240.000009155274,0|8,0:0|0:3,0:0:0:0:
336,200,130389,1,0,0:0:0:0:
400,136,130487,1,0,0:0:0:0:
96,176,130683,1,0,0:0:0:0:
56,96,130781,1,0,0:0:0:0:
304,264,130977,1,8,0:3:0:0:
168,96,131173,1,0,0:0:0:0:
224,296,131370,6,0,P|128:344|88:240,1,240.000009155274,0|8,0:0|0:3,0:0:0:0:
280,168,131958,1,0,0:0:0:0:
312,96,132056,1,0,0:0:0:0:
368,264,132252,1,0,0:0:0:0:
392,192,132350,1,0,0:0:0:0:
440,360,132546,1,8,0:3:0:0:
440,360,132742,1,0,0:0:0:0:
104,56,133134,101,4,0:3:0:0:
408,56,133330,1,4,0:3:0:0:
256,312,133526,1,4,0:3:0:0:
256,24,133821,1,4,0:3:0:0:
104,352,134115,53,6,0:3:0:0:
408,352,134311,1,4,0:3:0:0:
136,280,134507,6,0,P|120:112|336:40,1,420.000004005432,4|0,0:0|0:0,0:0:0:0:
408,72,135193,1,0,0:0:0:0:
368,280,135389,1,0,0:0:0:0:
312,352,135487,1,0,0:0:0:0:
232,128,135683,1,12,0:2:0:0:
160,192,135781,1,0,0:0:0:0:
136,280,135879,1,0,0:0:0:0:
416,184,136075,38,0,P|392:112|272:48,1,210.000002002716
192,48,136468,1,8,0:3:0:0:
68,284,136664,1,0,0:0:0:0:
36,196,136762,1,0,0:0:0:0:
200,312,136958,1,0,0:0:0:0:
168,224,137056,1,0,0:0:0:0:
376,352,137252,1,8,0:3:0:0:
264,144,137448,1,0,0:0:0:0:
56,24,137644,6,0,P|16:104|48:232,1,210.000002002716,4|0,0:0|0:0,0:0:0:0:
88,296,138036,1,8,0:3:0:0:
200,88,138232,1,0,0:0:0:0:
272,40,138330,1,0,0:0:0:0:
232,280,138526,1,0,0:0:0:0:
304,232,138624,1,0,0:0:0:0:
464,56,138821,1,8,0:3:0:0:
256,160,139017,1,0,0:0:0:0:
128,368,139213,102,0,P|32:256|48:128,1,280.000002670288,2|12,0:2|0:2,0:0:0:0:
272,312,139801,1,0,0:0:0:0:
304,232,139899,1,0,0:0:0:0:
120,216,140095,1,0,0:0:0:0:
152,128,140193,1,0,0:0:0:0:
176,40,140291,2,0,L|185:5,2,35.000000333786,0|0|8,0:0|0:0|0:3,0:0:0:0:
208,224,140585,1,0,0:0:0:0:
400,368,140781,6,0,P|506:192|392:40,1,420.000004005432,4|2,0:0|0:2,0:0:0:0:
112,368,141566,2,0,P|6:192|120:40,1,420.000004005432,2|2,0:2|0:2,0:0:0:0:
136,32,142203,1,0,0:0:0:0:
152,28,142252,1,0,0:0:0:0:
168,24,142301,1,0,0:0:0:0:
184,20,142350,102,0,P|332:16|448:76,2,280.000002670288
164,336,143526,1,2,0:2:0:0:
348,336,143723,1,2,0:2:0:0:
440,176,143919,6,0,P|256:90|72:176,2,420.000004005432,4|2|0,0:0|0:2|0:0,0:0:0:0:
256,360,145487,1,4,0:3:0:0:
256,192,145585,12,4,147056,0:0:0:0:
