osu file format v14

[General]
AudioFilename: Irus.mp3
AudioLeadIn: 0
PreviewTime: 93772
Countdown: 0
SampleSet: Soft
StackLeniency: 0.7
Mode: 0
LetterboxInBreaks: 0
WidescreenStoryboard: 0

[Editor]
Bookmarks: 1174,26272,51370,76468,84409,85193
DistanceSpacing: 1.05
BeatDivisor: 4
GridSize: 4
TimelineZoom: 2.299999

[Metadata]
Title:Jue
TitleUnicode:觉
Artist:Irus
ArtistUnicode:Irus
Creator:Garven
Version:Ambivalent (Hard)
Source:東方心綺楼 ~ Hopeless Masquerade
Tags:TOHO SPEED 02 LiLA'c Records Boushitsu no Emotion 亡失のエモーション 秦心 hata no kokoro Ami Hollow Wings Irreversible val0108 Okoratu Ami
BeatmapID:672750
BeatmapSetID:295510

[Difficulty]
HPDrainRate:5
CircleSize:4.5
OverallDifficulty:7
ApproachRate:7
SliderMultiplier:1.28
SliderTickRate:2

[Events]
//Background and Video events
0,0,"onibg.jpg",0,0
//Break Periods
//Storyboard Layer 0 (Background)
//Storyboard Layer 1 (Fail)
//Storyboard Layer 2 (Pass)
//Storyboard Layer 3 (Foreground)
//Storyboard Sound Samples

[TimingPoints]
1174,392.156862745098,4,1,1,80,1,0
51370,-100,4,2,1,60,0,0
63919,-98.0392156862745,4,2,1,70,0,0
65487,-97.0873786407767,4,2,1,73,0,0
67056,-96.1538461538461,4,2,1,79,0,0
68624,-94.3396226415094,4,2,1,82,0,0
70193,-93.4579439252336,4,2,1,85,0,0
71762,-92.5925925925926,4,2,1,85,0,0
73330,-91.743119266055,4,2,1,85,0,0
74899,-90.9090909090909,4,2,1,85,0,0
76468,-90.9090909090909,4,2,1,100,0,0
93698,-90.9090909090909,4,2,1,5,0,0
93723,-90.9090909090909,4,2,1,60,0,0
96860,-80,4,1,1,80,0,0
121958,-71.4285714285714,4,1,1,80,0,1
122252,-71.4285714285714,4,1,2,65,0,1
122448,-71.4285714285714,4,1,1,80,0,1
125389,-71.4285714285714,4,1,2,65,0,1
125585,-71.4285714285714,4,1,1,80,0,1
128526,-71.4285714285714,4,1,2,65,0,1
128723,-71.4285714285714,4,1,1,80,0,1
129311,-71.4285714285714,4,1,2,65,0,1
129507,-71.4285714285714,4,1,1,80,0,1
131664,-71.4285714285714,4,1,2,65,0,1
131860,-71.4285714285714,4,1,1,80,0,1
134507,-66.6666666666667,4,1,1,80,0,1
134801,-71.4285714285714,4,1,2,65,0,1
134997,-71.4285714285714,4,1,1,80,0,1
137938,-71.4285714285714,4,1,2,65,0,1
138134,-71.4285714285714,4,1,1,80,0,1
143919,-71.4285714285714,4,1,1,75,0,1
147056,-100,4,1,1,80,0,0

[Colours]
Combo1 : 157,0,0
Combo2 : 150,150,150
Combo3 : 255,255,255
Combo4 : 240,70,193
Combo5 : 36,204,204
Combo6 : 150,150,255
Combo7 : 150,237,237
Combo8 : 255,0,0

[HitObjects]
80,80,51370,5,4,0:1:0:0:
128,128,51566,1,0,3:0:0:0:
192,144,51762,1,0,0:0:0:0:
256,128,51958,1,0,3:0:0:0:
392,216,52350,1,0,0:0:0:0:
376,280,52546,1,0,3:0:0:0:
320,312,52742,1,0,0:0:0:0:
256,320,52938,2,0,P|192:312|144:256,1,128,0|2,3:0|0:0,0:0:0:0:
299,195,53723,2,0,P|254:150|192:143,1,128,0|0,3:0|3:0,0:0:0:0:
128,160,54311,1,0,3:0:0:0:
72,120,54507,6,0,P|152:40|248:40,1,192,2|0,0:0|3:0,0:0:0:0:
328,264,55683,1,0,3:0:0:0:
432,152,56075,1,0,0:0:0:0:
312,56,56468,2,0,P|216:32|144:80,1,192,2|2,0:0|3:2,0:0:0:0:
104,144,57252,1,0,0:0:0:0:
88,312,57644,102,0,P|168:344|232:344,1,128,0|0,3:0|0:0,0:0:0:0:
264,304,58232,1,2,3:2:0:0:
328,336,58428,1,0,3:0:0:0:
424,288,58723,2,0,L|464:288,3,32,0|2|0|0,0:0|3:2|3:0|3:0,0:0:0:0:
472,184,59311,2,0,P|496:136|480:72,1,96,0|2,3:0|0:0,0:0:0:0:
384,160,59899,2,0,P|360:208|376:272,1,96,2|0,0:0|3:0,0:0:0:0:
320,304,60389,1,0,3:0:0:0:
254,329,60585,1,0,3:0:0:0:
188,352,60781,6,0,P|112:352|56:256,1,192,2|2,0:0|0:0,0:0:0:0:
136,200,61664,2,0,P|168:224|224:216,1,96,0|2,3:0|0:0,0:0:0:0:
192,152,62154,1,0,3:0:0:0:
320,40,62546,2,0,L|400:80,1,64,2|0,0:0|3:0,0:0:0:0:
344,128,62938,2,0,L|376:144,1,32,2|0,3:2|3:0,0:0:0:0:
344,208,63232,2,0,L|424:248,1,64,0|0,0:0|3:0,0:0:0:0:
400,272,63526,2,0,L|342:300,1,64,2|0,3:2|3:0,0:0:0:0:
264,336,63919,38,0,P|192:336|160:320,1,97.9200005976562,2|0,0:2|0:0,0:0:0:0:
232,240,64507,2,0,P|168:232|128:248,1,97.9200005976562,2|0,0:2|0:0,0:0:0:0:
48,304,65095,2,0,L|16:304,2,32.6400001992187,2|0|0,0:0|3:0|3:0,0:0:0:0:
128,344,65487,2,0,P|176:360|222:353,1,98.879999170166,2|0,0:2|0:0,0:0:0:0:
232,240,66075,2,0,P|288:232|336:248,1,98.879999170166,2|0,0:2|0:0,0:0:0:0:
384,344,66664,1,0,3:0:0:0:
438,296,66860,1,0,3:0:0:0:
472,232,67056,6,0,P|480:160|464:136,1,99.839999390625,2|0,0:2|0:0,0:0:0:0:
360,168,67644,2,0,P|312:112|280:112,1,99.839999390625,2|0,0:2|0:0,0:0:0:0:
208,184,68232,1,0,3:0:0:0:
136,168,68428,1,0,3:0:0:0:
72,128,68624,2,0,P|32:80|40:32,2,101.760000155273,0|2|2,0:0|0:2|0:2,0:0:0:0:
208,64,69605,1,0,3:0:0:0:
272,32,69801,1,2,3:2:0:0:
336,64,69997,1,2,3:2:0:0:
376,128,70193,102,0,P|400:192|376:256,1,136.959995820313
308,228,70781,1,2,3:2:0:0:
308,156,70977,1,0,3:0:0:0:
200,192,71272,2,0,L|144:192,3,34.2399989550782,0|2|0|0,0:0|0:2|3:0|3:0,0:0:0:0:
128,256,71762,1,0,0:0:0:0:
16,248,72056,1,2,0:2:0:0:
16,136,72350,1,0,3:0:0:0:
128,128,72644,1,0,3:0:0:0:
240,156,72938,1,0,3:0:0:0:
272,228,73134,1,0,0:0:0:0:
320,288,73330,6,0,P|376:264|408:224,1,104.640001117676,2|0,0:2|0:0,0:0:0:0:
320,96,73919,2,0,P|376:120|408:160,1,104.640001117676,2|0,0:2|0:0,0:0:0:0:
464,272,74507,1,2,3:2:0:0:
464,272,74703,1,0,3:0:0:0:
360,328,74997,102,0,B|328:312|328:312|296:328|240:328,1,105.600003222656,0|2,3:0|2:0,0:0:0:0:
184,304,75487,1,0,3:0:0:0:
152,280,75585,2,0,L|80:304,1,70.4000021484376,2|0,3:2|0:0,0:0:0:0:
56,232,75977,1,0,3:0:0:0:
88,208,76075,2,0,L|64:136,1,70.4000021484376,2|0,0:0|3:2,0:0:0:0:
208,64,76566,6,0,B|240:80|240:80|272:64|328:64,1,105.600003222656,4|2,3:2|2:0,0:0:0:0:
384,88,77056,1,0,3:0:0:0:
416,112,77154,2,0,L|488:88,1,70.4000021484376,2|0,3:2|0:0,0:0:0:0:
512,160,77546,1,0,3:0:0:0:
480,184,77644,2,0,L|504:256,1,70.4000021484376,2|0,0:0|3:2,0:0:0:0:
360,328,78134,102,0,B|328:312|328:312|296:328|240:328,1,105.600003222656,4|2,3:2|2:0,0:0:0:0:
184,304,78624,1,0,3:0:0:0:
152,280,78722,2,0,L|80:304,1,70.4000021484376,2|0,3:2|0:0,0:0:0:0:
56,232,79114,1,0,3:0:0:0:
88,208,79212,2,0,L|64:136,1,70.4000021484376,2|0,0:0|3:2,0:0:0:0:
208,64,79703,6,0,B|240:80|240:80|272:64|328:64,1,105.600003222656,4|2,3:2|2:0,0:0:0:0:
384,88,80193,1,0,3:0:0:0:
416,112,80291,2,0,L|488:88,1,70.4000021484376,2|0,3:2|0:0,0:0:0:0:
512,160,80683,1,0,3:0:0:0:
480,184,80781,2,0,L|504:256,1,70.4000021484376,2|0,0:0|3:2,0:0:0:0:
360,328,81271,102,0,B|328:312|328:312|296:328|240:328,1,105.600003222656,4|2,3:2|2:0,0:0:0:0:
184,304,81761,1,0,3:0:0:0:
152,280,81859,2,0,L|80:304,1,70.4000021484376,2|0,3:2|0:0,0:0:0:0:
56,232,82251,1,0,3:0:0:0:
88,208,82349,2,0,L|64:136,1,70.4000021484376,2|0,0:0|3:2,0:0:0:0:
192,48,82840,6,0,L|272:80,1,70.4000021484376,4|0,0:2|3:0,0:0:0:0:
288,56,83134,1,2,0:2:0:0:
360,80,83330,1,0,1:0:0:0:
440,216,83624,102,0,L|360:184,1,70.4000021484376,4|0,0:2|3:0,0:0:0:0:
344,208,83918,1,2,0:2:0:0:
272,184,84114,1,0,1:0:0:0:
152,288,84409,6,0,L|232:320,1,70.4000021484376,4|0,0:2|3:0,0:0:0:0:
248,296,84703,1,2,0:2:0:0:
320,320,84899,1,0,1:0:0:0:
440,216,85193,102,0,L|360:184,1,70.4000021484376,4|0,0:2|3:0,0:0:0:0:
344,208,85487,1,2,0:2:0:0:
272,184,85683,1,0,1:0:0:0:
200,112,85879,6,0,L|144:64,1,70.4000021484376,2|0,3:2|3:0,0:0:0:0:
128,152,86272,2,0,L|56:136,1,70.4000021484376,2|0,3:2|1:0,0:0:0:0:
128,232,86664,2,0,L|56:248,1,70.4000021484376,2|0,3:2|3:0,0:0:0:0:
200,272,87056,2,0,L|144:320,1,70.4000021484376,2|0,3:2|1:0,0:0:0:0:
312,272,87448,102,0,L|368:320,1,70.4000021484376,2|0,3:2|3:0,0:0:0:0:
384,232,87841,2,0,L|456:248,1,70.4000021484376,2|0,3:2|1:0,0:0:0:0:
384,152,88233,2,0,L|456:136,1,70.4000021484376,2|0,3:2|3:0,0:0:0:0:
312,112,88625,2,0,L|368:64,1,70.4000021484376,2|0,3:2|1:0,0:0:0:0:
256,40,89017,5,2,3:2:0:0:
208,104,89213,1,0,3:0:0:0:
136,80,89409,1,2,3:2:0:0:
119,158,89605,1,0,3:0:0:0:
40,168,89801,1,2,3:2:0:0:
57,245,89997,1,0,3:0:0:0:
0,304,90193,1,2,3:2:0:0:
47,366,90389,1,0,3:0:0:0:
112,328,90585,101,2,3:2:0:0:
184,304,90781,1,0,3:0:0:0:
240,352,90977,1,2,3:2:0:0:
312,328,91173,1,0,3:0:0:0:
312,248,91370,1,2,3:2:0:0:
240,224,91566,1,0,3:0:0:0:
240,144,91762,1,2,3:2:0:0:
312,120,91958,1,0,3:0:0:0:
256,192,92154,12,0,93698,0:0:0:0:
64,96,96860,85,4,0:0:0:0:
96,64,96958,2,0,P|160:32|216:48,2,120,0|2|0,0:0|0:2|0:0,0:0:0:0:
40,184,97840,1,0,0:0:0:0:
56,272,98036,1,4,0:2:0:0:
58,278,98134,1,2,0:2:0:0:
60,284,98232,1,4,0:3:0:0:
136,332,98428,5,0,0:0:0:0:
176,348,98526,2,0,P|240:360|292:336,2,120,0|2|0,0:0|0:2|0:0,0:0:0:0:
156,216,99409,1,0,0:0:0:0:
108,144,99605,1,2,0:2:0:0:
172,88,99801,1,0,0:0:0:0:
264,100,99997,101,0,0:0:0:0:
308,108,100095,2,0,B|362:118|362:118|394:124|424:97,2,120,0|2|0,0:0|0:2|0:0,0:0:0:0:
140,32,100977,1,0,0:0:0:0:
84,100,101173,1,2,0:2:0:0:
128,176,101370,1,0,0:0:0:0:
196,232,101566,5,0,0:0:0:0:
232,256,101664,2,0,P|288:276|344:252,1,120,0|2,0:0|0:2,0:0:0:0:
288,184,102154,1,0,0:0:0:0:
320,156,102252,2,0,P|368:136|432:168,1,120,0|2,0:0|0:2,0:0:0:0:
476,236,102742,1,2,0:2:0:0:
424,308,102938,1,2,0:2:0:0:
348,352,103134,101,0,0:0:0:0:
308,332,103232,2,0,P|248:312|196:336,1,120
112,360,103723,1,4,0:2:0:0:
28,340,103919,1,4,0:0:0:0:
52,208,104213,1,0,0:0:0:0:
88,184,104311,2,0,P|120:156|140:124,1,80,2|0,0:2|0:0,0:0:0:0:
204,60,104703,5,0,0:0:0:0:
236,28,104801,2,0,P|320:8|352:36,2,120,0|2|0,0:0|0:2|0:0,0:0:0:0:
204,180,105683,1,0,0:0:0:0:
228,264,105879,1,2,0:2:0:0:
296,316,106075,1,0,0:0:0:0:
376,352,106272,101,0,0:0:0:0:
416,332,106370,2,0,P|440:288|440:216,2,120,0|2|0,0:0|0:2|0:0,0:0:0:0:
288,364,107252,1,2,0:2:0:0:
200,368,107448,1,0,0:0:0:0:
112,372,107644,1,0,0:0:0:0:
48,208,108036,6,0,L|64:108,1,80,2|2,0:2|0:2,0:0:0:0:
144,152,108428,1,2,0:2:0:0:
160,112,108526,2,0,P|208:68|236:60,1,80,2|2,0:2|0:2,0:0:0:0:
236,199,108919,1,2,0:2:0:0:
264,180,109017,2,0,P|291:144|294:108,1,80,2|2,0:2|0:2,0:0:0:0:
348,40,109409,101,4,0:0:0:0:
392,48,109507,2,0,P|436:84|448:148,2,120,0|2|0,0:0|0:2|0:0,0:0:0:0:
328,164,110389,1,0,0:0:0:0:
240,148,110585,1,4,0:2:0:0:
234,153,110683,1,0,0:0:0:0:
229,159,110781,1,4,0:3:0:0:
176,236,110977,5,0,0:0:0:0:
196,276,111075,2,0,P|256:304|296:276,2,120,0|2|0,0:0|0:2|0:0,0:0:0:0:
116,164,111958,1,0,0:0:0:0:
144,80,112154,1,2,0:2:0:0:
232,64,112350,1,0,0:0:0:0:
316,84,112546,101,0,0:0:0:0:
348,116,112644,2,0,P|380:168|360:224,2,120,0|2|0,0:0|0:2|0:0,0:0:0:0:
256,236,113526,1,0,0:0:0:0:
168,228,113722,1,2,0:2:0:0:
96,172,113919,1,0,0:0:0:0:
56,92,114115,5,0,0:0:0:0:
92,68,114213,2,0,P|148:48|204:72,1,120,0|2,0:0|0:2,0:0:0:0:
264,132,114703,1,0,0:0:0:0:
296,160,114801,2,0,P|344:180|408:148,1,120,0|2,0:0|0:2,0:0:0:0:
460,88,115291,1,2,0:2:0:0:
396,24,115487,1,2,0:2:0:0:
308,24,115683,101,0,0:0:0:0:
272,48,115781,2,0,P|212:68|160:44,1,120
80,16,116272,1,4,0:2:0:0:
32,92,116468,1,4,0:0:0:0:
84,240,116762,1,0,0:0:0:0:
108,276,116860,2,0,P|140:308|176:312,1,80,2|0,0:2|0:0,0:0:0:0:
252,276,117252,5,0,0:0:0:0:
284,244,117350,2,0,P|368:224|400:252,2,120,0|2|0,0:0|0:2|0:0,0:0:0:0:
176,352,118232,1,0,0:0:0:0:
88,336,118428,1,2,0:2:0:0:
24,276,118624,1,0,0:0:0:0:
8,188,118821,101,0,0:0:0:0:
28,148,118919,2,0,P|60:104|124:100,2,120,0|2|0,0:0|0:2|0:0,0:0:0:0:
24,276,119801,1,2,0:2:0:0:
88,336,119997,1,0,0:0:0:0:
176,352,120193,1,0,0:0:0:0:
182,354,120291,1,0,0:0:0:0:
312,356,120585,5,4,0:3:0:0:
348,260,120781,1,4,0:3:0:0:
440,212,120977,1,4,0:3:0:0:
256,168,121272,1,4,0:3:0:0:
72,212,121566,1,6,0:3:0:0:
164,260,121762,1,4,0:3:0:0:
256,312,121958,38,0,B|316:348|316:348|376:364|428:336|452:280|432:236,1,268.799991796875,4|2,0:0|0:2,0:0:0:0:
400,196,122644,2,0,P|384:148|400:112,1,89.5999972656251
428,68,122938,1,0,0:0:0:0:
500,148,123134,2,0,L|512:200,2,44.7999986328125,12|0|4,0:2|0:0|0:3,0:0:0:0:
428,68,123526,70,0,P|364:40|300:60,1,134.399995898438,2|0,0:2|0:0,0:0:0:0:
260,88,123919,2,0,P|176:108|136:88,1,134.399995898438,10|0,0:2|0:0,0:0:0:0:
92,60,124311,2,0,P|60:128|72:180,1,89.5999972656251,2|0,0:2|0:0,0:0:0:0:
96,228,124703,1,10,0:2:0:0:
52,328,124899,1,0,0:0:0:0:
156,300,125095,102,0,P|256:360|380:296,1,268.799991796875,4|0,0:0|0:0,0:0:0:0:
344,256,125781,2,0,P|328:204|344:168,1,89.5999972656251
380,136,126075,1,0,0:0:0:0:
456,216,126272,1,10,0:2:0:0:
436,320,126468,1,0,0:0:0:0:
332,348,126664,5,0,0:0:0:0:
172,180,127056,2,0,P|212:52|352:64,1,268.799991796875,12|2,0:2|0:2,0:0:0:0:
436,92,127840,1,10,0:3:0:0:
480,192,128036,1,2,0:2:0:0:
428,284,128232,102,0,P|318:364|195:328,1,268.799991796875,2|4,0:2|0:2,0:0:0:0:
128,236,129017,2,0,P|243:164|361:232,1,268.799991796875,4|0,0:0|0:0,0:0:0:0:
400,316,129801,6,0,P|464:268|484:216,1,134.399995898438,2|0,0:2|0:0,0:0:0:0:
484,164,130193,2,0,P|455:103|400:67,1,134.399995898438,10|0,0:2|0:0,0:0:0:0:
364,108,130585,2,0,P|320:116|276:108,1,89.5999972656251,2|0,0:2|0:0,0:0:0:0:
188,48,130977,1,10,0:2:0:0:
92,100,131173,1,0,0:0:0:0:
40,196,131370,102,0,B|92:292|92:292|124:352|216:344|236:312,1,268.799991796875,2|0,0:2|0:0,0:0:0:0:
272,352,132056,2,0,L|352:308,1,89.5999972656251,2|0,0:2|0:0,0:0:0:0:
396,336,132350,2,0,L|476:292,1,89.5999972656251,2|10,0:2|0:2,0:0:0:0:
360,256,132742,1,0,0:0:0:0:
148,284,133134,5,4,0:3:0:0:
92,192,133330,1,4,0:3:0:0:
148,100,133526,1,4,0:3:0:0:
336,284,133821,1,4,0:3:0:0:
336,100,134115,1,6,0:3:0:0:
392,192,134311,1,4,0:3:0:0:
336,284,134507,54,0,P|253:374|149:283,1,288.000010986329,4|0,0:0|0:0,0:0:0:0:
184,244,135193,2,0,B|169:201|169:201|184:160,1,89.5999972656251
152,116,135487,1,0,0:0:0:0:
52,160,135683,1,12,0:2:0:0:
32,196,135781,1,0,0:0:0:0:
52,228,135879,1,4,0:3:0:0:
104,324,136075,54,0,B|192:352|192:352|232:328,1,134.399995898438,2|0,0:2|0:0,0:0:0:0:
272,296,136468,2,0,B|308:274|308:274|396:302,1,134.399995898438,10|0,0:2|0:0,0:0:0:0:
448,316,136860,1,2,0:2:0:0:
480,212,137056,1,0,0:0:0:0:
376,184,137252,2,0,L|404:92,1,89.5999972656251,8|0,0:2|0:0,0:0:0:0:
328,24,137644,102,0,B|276:196|276:196|180:256,1,268.799991796875,4|0,0:0|0:0,0:0:0:0:
156,216,138330,2,0,L|76:264,1,89.5999972656251,2|0,0:2|0:0,0:0:0:0:
32,232,138624,1,0,0:0:0:0:
64,128,138821,1,10,0:2:0:0:
100,28,139017,1,0,0:0:0:0:
168,112,139213,6,0,L|300:80,1,134.399995898438
352,64,139605,2,0,B|420:44|468:116|404:172|404:172|468:228|420:300|352:280,1,358.3999890625,12|4,0:2|0:0,0:0:0:0:
100,172,140781,101,4,0:3:0:0:
432,172,142154,2,0,L|472:172,4,22.3999993164063,0|0|0|0|4,0:0|0:0|0:0|0:0|0:3,0:0:0:0:
364,256,142546,1,4,0:3:0:0:
256,68,142938,1,4,0:3:0:0:
148,256,143330,1,4,0:3:0:0:
256,68,143723,1,4,0:3:0:0:
356,112,143919,6,0,P|256:187|156:112,2,268.799991796875,4|2|0,0:3|0:2|0:3,0:0:0:0:
256,192,145487,12,4,147056,0:0:0:0:
