osu file format v14

[General]
AudioFilename: audio.mp3
AudioLeadIn: 0
PreviewTime: 263634
Countdown: 0
SampleSet: Drum
StackLeniency: 0.2
Mode: 0
LetterboxInBreaks: 0
WidescreenStoryboard: 0

[Editor]
Bookmarks: 2227,10232,17742,45731,57731,73722,96690,139242,191742,240874,246374,251874,260249,269374,271874,283367,295384
DistanceSpacing: 0.6
BeatDivisor: 6
GridSize: 16
TimelineZoom: 4.430002

[Metadata]
Title:Outburst
TitleUnicode:Outburst
Artist:Irreversible Mechanism
ArtistUnicode:Irreversible Mechanism
Creator:Gabdu09
Version:Extinction
Source:
Tags:infinite fields technical death metal marathon deathstream rsi timevid english
BeatmapID:2377917
BeatmapSetID:1127872

[Difficulty]
HPDrainRate:6
CircleSize:4
OverallDifficulty:9.3
ApproachRate:9.8
SliderMultiplier:2.1
SliderTickRate:1

[Events]
//Background and Video events
0,0,"menu-background.jpg",0,0
//Break Periods
2,137050,138763
2,307318,310308
//Storyboard Layer 0 (Background)
//Storyboard Layer 1 (Fail)
//Storyboard Layer 2 (Pass)
//Storyboard Layer 3 (Foreground)
//Storyboard Layer 4 (Overlay)
//Storyboard Sound Samples

[TimingPoints]
227,250,4,3,1,65,1,0
477,-100,4,3,2,65,0,0
643,-100,4,3,1,65,0,0
977,-100,4,3,2,65,0,0
1060,-100,4,3,1,65,0,0
1227,-133.333333333333,4,3,2,65,0,0
1310,-133.333333333333,4,3,1,65,0,0
1477,-133.333333333333,4,3,2,65,0,0
1560,-133.333333333333,4,3,1,65,0,0
1727,-100,4,3,1,65,0,0
2227,-100,4,3,1,65,0,1
2727,-100,4,3,7,65,0,1
3727,-117.647058823529,4,3,7,65,0,1
4477,-100,4,3,7,65,0,1
5727,-100,4,3,1,65,0,1
5977,-200,4,3,2,65,0,1
6227,-125,4,3,1,65,0,1
6477,-111.111111111111,4,3,1,65,0,1
6727,-100,4,3,1,65,0,1
6977,-90.9090909090909,4,3,1,65,0,1
7727,-200,4,3,1,65,0,1
8227,-100,4,3,1,65,0,1
8310,-100,4,3,1,65,0,0
9727,252.631578947368,4,3,1,65,1,0
9727,-133.333333333333,4,3,1,65,0,0
10232,250,4,3,1,65,1,1
10232,-90.9090909090909,4,3,1,65,0,1
16232,-100,4,3,2,65,0,1
16357,-100,4,3,1,65,0,1
16732,-90.9090909090909,4,3,1,65,0,1
17232,-100,4,3,1,65,0,1
17607,-200,4,3,1,65,0,1
17732,-100,4,3,1,65,0,1
18232,-153.846153846153,4,3,1,65,0,0
21232,-100,4,3,1,65,0,0
21732,-133.333333333333,4,3,2,65,0,0
21982,-100,4,3,1,65,0,0
24232,244.897959183673,4,3,1,65,1,0
24232,-133.333333333333,4,3,1,65,0,0
25456,270.27027027027,4,3,1,65,1,0
25456,-133.333333333333,4,3,1,65,0,0
25726,250,4,3,2,65,1,0
25726,-200,4,3,2,65,0,0
25976,-250,4,3,2,65,0,0
26226,249.272953884504,4,3,1,65,1,0
26226,-125,4,3,1,65,0,0
30214,251.256281407035,4,3,1,65,1,0
30214,-125,4,3,1,65,0,0
32344,260.869565217391,4,3,1,65,1,0
32861,246.913580246914,4,3,1,65,1,0
33478,-125,4,3,2,65,0,0
33725,250,4,3,1,65,1,1
37225,-133.333333333333,4,3,2,65,0,1
37475,-100,4,3,1,65,0,1
38725,246.913580246914,4,3,1,65,1,1
39342,-133.333333333333,4,3,1,65,0,1
39465,255.31914893617,4,3,1,65,1,1
39720,250,4,3,1,65,1,1
40720,244.897959183673,4,3,1,65,1,1
40964,257.510729613734,4,3,1,65,1,1
41736,249.687890137328,4,3,1,65,1,0
41736,-153.846153846153,4,3,1,40,0,0
44732,-100,4,3,1,65,0,0
44981,-100,4,3,2,65,0,0
45106,-100,4,3,1,65,0,0
45231,-117.647058823529,4,3,2,65,0,0
45356,-117.647058823529,4,3,1,65,0,0
45481,-142.857142857143,4,3,2,65,0,0
45606,-142.857142857143,4,3,1,65,0,0
45731,250,4,3,1,65,1,0
45731,-111.111111111111,4,3,7,65,0,0
49731,-100,4,3,7,65,0,0
52231,-100,4,3,7,65,0,0
52481,-100,4,3,7,65,0,0
52668,-100,4,3,7,65,0,0
52731,-100,4,3,7,65,0,0
53481,-133.333333333333,4,3,7,65,0,0
53731,-90.9090909090909,4,3,7,65,0,0
57731,246.913580246914,4,3,1,65,1,0
57731,-125,4,3,1,65,0,0
59706,254.237288135593,4,3,1,65,1,0
59706,-125,4,3,1,65,0,0
60722,248.96265560166,4,3,1,65,1,0
60722,-125,4,3,1,65,0,0
61219,247.422680412371,4,3,1,65,1,0
61219,-125,4,3,1,65,0,0
61713,251.046025104603,4,3,1,65,1,0
61713,-125,4,3,1,65,0,0
63721,-100,4,3,1,65,0,0
64725,245.901639344262,4,3,1,65,1,0
64725,-100,4,3,1,65,0,0
64970,-133.333333333333,4,3,2,65,0,0
65462,-100,4,3,1,65,0,0
65727,250,4,3,1,65,1,0
68477,-125,4,3,1,65,0,0
68977,-100,4,3,1,65,0,0
69727,247.933884297521,4,3,1,65,1,0
71214,252.100840336134,4,3,1,65,1,0
71718,252.100840336134,4,3,1,65,1,0
72222,-111.111111111111,4,3,2,65,0,0
72348,-111.111111111111,4,3,1,65,0,0
72474,-142.857142857143,4,3,2,65,0,0
72600,-142.857142857143,4,3,1,65,0,0
72726,247.933884297521,4,3,1,65,1,0
72726,-166.666666666667,4,3,1,65,0,0
73221,-200,4,3,2,65,0,0
73469,253.164556962025,4,3,1,65,1,0
73469,-250,4,3,1,65,0,0
73722,252.100840336134,4,3,1,65,1,0
73722,-125,4,3,1,65,0,0
75738,250,4,3,1,65,1,0
75738,-125,4,3,1,65,0,0
77238,-125,4,3,2,65,0,0
77488,-125,4,3,1,65,0,0
77738,247.933884297521,4,3,1,65,1,0
77738,-125,4,3,1,65,0,0
79721,254.237288135593,4,3,1,65,1,0
79975,-125,4,3,2,65,0,0
80059,-125,4,3,1,65,0,0
80737,251.046025104603,4,3,1,65,1,0
80737,-166.666666666667,4,3,1,65,0,0
81490,259.74025974026,4,3,2,65,1,0
81749,252.100840336134,3,3,1,65,1,0
82505,246.913580246914,3,3,1,65,1,0
84727,250,3,3,1,65,1,0
86477,-111.111111111111,3,3,1,65,0,0
89227,245.901639344262,3,3,1,65,1,0
89227,-111.111111111111,3,3,1,65,0,0
89964,247.933884297521,3,3,1,65,1,0
90211,254.237288135593,3,3,1,65,1,0
90211,-111.111111111111,3,3,2,65,0,0
90465,-111.111111111111,3,3,1,65,0,0
90719,251.046025104603,3,3,1,65,1,0
90719,-111.111111111111,3,3,1,65,0,0
91472,253.69978858351,3,3,1,65,1,0
92740,250,3,3,2,65,1,0
92740,-133.333333333333,3,3,2,65,0,0
92990,250,3,3,2,65,1,0
92990,-111.111111111111,3,3,1,65,0,0
93740,251.046025104603,3,3,1,65,1,0
94493,-250,3,3,1,25,0,0
95246,-250,3,3,1,65,0,0
95472,247.422680412371,4,3,1,65,1,0
96214,240.963855421687,4,3,2,65,1,0
96214,-133.333333333333,3,3,2,65,0,0
96695,258.620689655172,3,3,1,65,1,1
97470,255.31914893617,3,3,1,65,1,1
98235,251.046025104603,3,3,1,65,1,1
98235,-111.111111111111,3,3,1,65,0,1
99490,-125,3,3,2,65,0,1
99741,247.933884297521,3,3,1,65,1,1
101724,-133.333333333333,3,3,2,65,0,1
101972,251.046025104603,3,3,1,65,1,1
104984,245.901639344262,3,3,1,65,1,1
105229,-133.333333333333,3,3,2,65,0,1
105475,-133.333333333333,3,3,1,65,0,1
105721,250,3,3,1,65,1,1
105721,-125,3,3,1,65,0,0
108721,252.100840336134,3,3,1,65,1,0
108721,-125,3,3,1,65,0,0
110989,244.150559511699,3,3,1,65,1,0
111721,250,3,3,1,65,1,0
111721,-125,3,3,1,65,0,0
116971,-250,3,3,1,65,0,0
117221,258.064516129032,3,3,1,65,1,0
117221,-125,3,3,1,65,0,0
117479,-125,3,3,2,65,0,0
117737,248.96265560166,4,3,1,65,1,0
119728,251.151109250733,4,3,1,65,1,0
120732,-133.333333333333,4,3,1,65,0,0
121737,243.90243902439,4,3,1,65,1,0
122712,248.96265560166,4,3,1,65,1,0
123707,252.100840336134,4,3,1,65,1,0
124085,-133.333333333333,4,3,1,65,0,0
124211,-100,4,3,1,65,0,0
124337,-133.333333333333,4,3,1,65,0,0
125471,260.869565217391,4,3,1,65,1,0
125471,-133.333333333333,4,3,1,65,0,0
125731,250,3,3,1,65,1,0
125731,-111.111111111111,3,3,1,65,0,0
127981,-100,3,3,1,65,0,0
128231,-133.333333333333,3,3,1,65,0,0
128731,251.046025104603,3,3,1,65,1,1
129484,-133.333333333333,3,3,1,65,0,1
129735,-100,3,3,1,65,0,1
130237,244.897959183673,3,3,1,65,1,1
130726,-153.846153846153,3,3,1,65,0,1
131216,250,3,3,1,65,1,1
131716,251.046025104603,3,3,1,65,1,1
131716,-111.111111111111,3,3,1,65,0,0
133975,250,3,3,1,65,1,0
134225,-133.333333333333,3,3,1,65,0,0
134725,-111.111111111111,3,3,7,65,0,1
135475,-90.9090909090909,3,3,7,65,0,1
136225,-111.111111111111,3,3,7,65,0,1
136475,-125,3,3,7,65,0,1
136725,-142.857142857143,3,3,2,65,0,1
136850,-666.666666666667,3,3,1,25,0,0
136992,250,3,2,1,12,1,0
136992,-625,3,2,1,12,0,0
152867,-714.285714285714,3,2,1,12,0,0
161992,-434.782608695652,3,2,1,12,0,0
170742,-1000,3,2,1,15,0,0
176742,-833.333333333333,3,2,1,15,0,0
182742,-555.555555555556,3,2,1,15,0,0
188742,-400,3,2,1,15,0,0
191742,285.714285714286,4,2,1,30,1,0
191742,-333.333333333333,4,2,1,30,0,0
207170,-285.714285714286,4,2,1,30,0,0
210027,-250,4,2,1,35,0,0
228313,-222.222222222222,4,2,1,35,0,0
232884,-333.333333333333,4,2,1,20,0,0
239742,-500,4,2,1,15,0,0
240884,250,5,2,1,15,1,0
240884,-500,5,2,1,15,0,0
243384,250,6,2,1,15,1,0
243384,-500,6,2,1,15,0,0
246384,250,5,2,1,20,1,0
246384,-200,5,2,1,20,0,0
248884,250,6,2,1,20,1,0
248884,-200,6,2,1,20,0,0
251884,250,5,2,1,22,1,0
251884,-153.846153846154,5,2,1,22,0,0
252384,-200,5,2,1,22,0,0
252634,-153.846153846154,5,2,1,22,0,0
253634,-200,5,2,1,22,0,0
253884,-153.846153846154,5,2,1,22,0,0
254384,250,6,2,1,22,1,0
254384,-153.846153846154,6,2,1,22,0,0
254884,-200,5,2,1,22,0,0
255134,-153.846153846154,5,2,1,22,0,0
256384,-200,5,2,1,22,0,0
256634,-153.846153846154,5,2,1,22,0,0
257384,250,5,2,1,25,1,0
257384,-133.333333333333,5,2,1,25,0,0
259884,250,6,2,1,35,1,0
259884,-133.333333333333,6,2,1,35,0,0
262134,-111.111111111111,6,2,1,35,0,0
262884,250,4,2,1,15,1,0
262884,-153.846153846153,4,2,1,15,0,0
263884,250,5,3,7,65,1,1
266384,250,6,3,7,65,1,1
267384,-133.333333333333,6,3,7,65,0,1
267884,-100,6,3,7,65,0,1
269384,250,5,3,7,65,1,1
269884,-100,5,3,2,65,0,1
269967,-100,5,3,7,65,0,1
270384,-100,5,3,2,65,0,1
270467,-100,5,3,7,65,0,1
271134,-100,5,3,2,65,0,1
271217,-100,5,3,7,65,0,1
271384,-153.846153846153,5,3,7,65,0,1
271634,-100,5,3,7,65,0,1
271884,250,6,3,7,65,1,1
272634,-111.111111111111,6,3,7,65,0,1
272884,-100,6,3,7,65,0,1
273384,247.933884297521,4,3,7,65,1,1
274127,-133.333333333333,4,3,7,65,0,1
274375,-100,4,3,1,65,0,1
274623,250.521920668058,4,3,1,65,1,1
275124,-133.333333333333,4,3,2,65,0,1
275374,247.933884297521,4,3,1,65,1,0
277357,251.046025104603,4,3,1,65,1,0
278863,255.31914893617,4,3,1,65,1,0
279373,248.96265560166,4,3,1,65,1,0
280368,247.933884297521,4,3,1,65,1,0
281111,255.31914893617,4,3,1,65,1,0
281366,250.208507089241,4,3,1,65,1,0
283367,250,3,3,1,65,1,0
283367,-111.111111111111,3,3,1,65,0,0
284350,-133.333333333333,3,3,1,65,0,0
284867,-111.111111111111,3,3,1,65,0,0
285617,-133.333333333333,3,3,1,65,0,0
286367,-133.333333333333,3,3,1,65,0,1
287617,-117.647058823529,3,3,1,65,0,1
288867,-100,3,3,1,65,0,1
289117,-86.9565217391304,3,3,1,65,0,1
289367,-111.111111111111,3,3,1,65,0,0
289867,-133.333333333333,3,3,1,65,0,0
290117,-111.111111111111,3,3,1,65,0,0
290867,-133.333333333333,3,3,1,65,0,0
291117,-111.111111111111,3,3,1,65,0,0
291367,-133.333333333333,3,3,1,65,0,0
291617,-111.111111111111,3,3,1,65,0,0
291867,-111.111111111111,3,3,2,65,0,0
292367,-99.9999999999999,3,3,1,65,0,1
293117,251.994960100798,3,3,1,65,1,1
294376,-133.333333333333,3,3,2,65,0,1
294628,-99.9999999999999,3,3,1,65,0,1
295258,-99.9999999999999,3,3,2,65,0,1
295384,259.74025974026,3,3,1,65,1,0
296033,-100,3,3,2,65,0,0
296163,255.31914893617,3,3,1,20,1,0
296545,-200,3,3,1,20,0,0
296928,241.935483870968,3,3,1,65,1,0
297169,-100,3,3,1,30,0,0
297532,-100,3,3,1,65,0,0
297895,243.90243902439,3,3,2,65,1,0
298382,251.046025104603,3,3,2,65,1,0
298633,250,3,3,1,65,1,0
299758,-133.333333333333,3,3,2,65,0,0
299883,-99.9999999999999,3,3,1,65,0,0
300383,-99.9999999999999,3,3,2,65,0,0
300633,-99.9999999999999,3,3,2,65,0,0
300883,-99.9999999999999,3,3,1,65,0,0
301133,-99.9999999999999,3,3,2,65,0,0
301383,-200,3,3,1,65,0,0
302383,247.933884297521,3,3,1,65,1,0
302878,-133.333333333333,3,3,1,65,0,0
303126,-133.333333333333,3,3,2,65,0,0
303498,-133.333333333333,3,3,1,65,0,0
303746,-133.333333333333,3,3,2,65,0,0
304118,250,3,3,1,65,1,0
304618,-133.333333333333,3,3,1,65,0,0
304743,-100,3,3,2,65,0,0
305243,-100,3,3,1,65,0,0
305743,-100,3,3,2,50,0,0
305993,-100,3,3,1,50,0,0
306493,-100,3,3,2,65,0,0
307118,493.827160493827,4,3,1,65,1,0
310080,541.76072234763,4,3,1,65,1,0
310621,500,4,3,1,30,1,0
311121,500,4,3,1,30,1,0
311121,-100,4,3,1,30,0,0
311204,-100,4,2,1,30,0,0
313121,500.834724540902,4,3,1,40,1,0
313121,-100,4,3,1,40,0,0
313621,-100,4,3,1,50,0,0
314121,-100,4,3,2,50,0,0
314621,-100,4,3,1,50,0,0
315124,491.803278688525,4,3,1,30,1,0
315124,-76.9230769230769,4,3,1,65,0,0
316107,508.474576271186,4,3,1,65,1,0
316107,-76.9230769230769,4,3,1,65,0,0
316615,-100,4,3,1,65,0,0
317124,491.803278688525,4,3,1,65,1,0
317124,-76.9230769230769,4,3,1,65,0,0
318107,504.201680672269,4,3,1,65,1,0
318107,-76.9230769230769,4,3,1,65,0,0
319115,500,4,3,1,65,1,0
319115,-76.9230769230769,4,3,1,65,0,0
320781,-76.9230769230769,4,3,2,65,0,0
320948,-76.9230769230769,4,3,1,65,0,0
323115,-66.6666666666667,4,3,1,65,0,0
325281,-100,4,3,2,65,0,0
325615,-66.6666666666667,4,3,1,65,0,0
329781,-66.6666666666667,4,3,2,65,0,0
330115,-66.6666666666667,4,3,1,65,0,0
330281,-66.6666666666667,4,3,2,65,0,0
330615,-66.6666666666667,4,3,1,65,0,0
330865,-66.6666666666667,4,3,2,65,0,0
331115,-55.5555555555556,4,3,1,65,0,0
333281,-55.5555555555556,4,3,2,65,0,0
333365,-55.5555555555556,4,3,1,65,0,0
334948,-55.5555555555556,4,3,2,65,0,0
335031,-55.5555555555556,4,3,1,65,0,0
336615,508.474576271186,4,3,1,65,1,0
336615,-66.6666666666667,4,3,1,65,0,0
336784,-76.9230769230769,4,3,1,65,0,0
336953,-100,4,3,1,65,0,0
337123,500,4,3,1,65,1,0
337123,-55.5555555555556,4,3,1,65,0,0
339123,504.201680672269,4,3,1,65,1,1
339456,-100,4,3,2,65,0,1
339627,-100,4,3,1,65,0,1
340467,-100,4,3,2,65,0,1
340635,483.870967741935,4,3,1,65,1,1
340635,-50,4,3,1,65,0,1
341118,-100,4,3,1,65,0,0
341280,-200,4,3,1,20,0,0

[Colours]
Combo1 : 164,51,90
Combo2 : 62,86,145
Combo3 : 253,79,28
Combo4 : 252,158,54

[HitObjects]
367,170,227,6,0,P|401:155|443:158,2,70,2|0|0,0:0|0:0|0:0,0:0:0:0:
279,323,477,6,0,L|256:228,1,70,4|0,0:0|0:0,0:0:0:0:
215,114,643,1,2,0:0:0:0:
231,182,727,1,2,0:0:0:0:
247,250,810,5,8,0:0:0:0:
231,245,893,1,0,0:0:0:0:
216,240,977,5,2,0:0:0:0:
201,235,1060,2,0,L|178:140,1,70,8|0,0:0|0:0,0:0:0:0:
147,302,1227,5,2,0:0:0:0:
132,297,1310,2,0,L|109:202,1,52.5000020027161,8|0,0:0|0:0,0:0:0:0:
78,364,1477,5,2,0:0:0:0:
63,359,1560,1,8,0:0:0:0:
46,290,1643,1,8,0:0:0:0:
30,222,1727,6,0,L|7:127,1,52.5,8|8,0:0|0:0,0:0:0:0:
196,34,1852,2,0,L|173:129,1,52.5,8|8,0:0|0:0,0:0:0:0:
1,102,1977,1,8,0:0:0:0:
1,102,2227,5,6,0:0:0:0:
3,114,2289,1,2,0:0:0:0:
9,126,2352,1,2,0:0:0:0:
18,136,2414,1,2,0:0:0:0:
28,144,2477,1,2,0:0:0:0:
40,149,2539,1,2,0:0:0:0:
53,151,2602,1,2,0:0:0:0:
66,151,2664,1,2,0:0:0:0:
78,147,2727,5,2,0:0:0:0:
94,97,2789,1,8,0:0:0:0:
135,67,2852,1,2,0:0:0:0:
187,67,2914,1,8,0:0:0:0:
229,97,2977,2,0,P|263:104|299:88,3,52.5,2|8|2|8,0:0|0:0|0:0|0:0,0:0:0:0:
384,18,3227,5,2,0:0:0:0:
346,67,3289,1,8,0:0:0:0:
349,127,3352,1,2,0:0:0:0:
379,181,3414,1,8,0:0:0:0:
400,230,3477,1,2,0:0:0:0:
398,276,3539,1,8,0:0:0:0:
371,308,3602,1,2,0:0:0:0:
335,313,3664,1,8,0:0:0:0:
308,304,3727,6,0,P|283:279|274:241,3,44.6250008511543,2|8|2|8,0:0|0:0|0:0|0:0,0:0:0:0:
222,381,3977,2,0,P|243:371|266:370,3,44.6250008511543,2|8|2|8,0:0|0:0|0:0|0:0,0:0:0:0:
198,268,4227,2,0,P|195:291|185:310,3,44.6250008511543,2|8|2|8,0:0|0:0|0:0|0:0,0:0:0:0:
92,355,4477,5,2,0:0:0:0:
77,333,4539,1,8,0:0:0:0:
56,318,4602,1,2,0:0:0:0:
31,311,4664,1,8,0:0:0:0:
5,315,4727,5,6,0:0:0:0:
53,296,4789,1,8,0:0:0:0:
81,253,4852,1,2,0:0:0:0:
79,201,4914,1,8,0:0:0:0:
47,161,4977,1,2,0:0:0:0:
41,122,5039,1,8,0:0:0:0:
56,87,5102,1,2,0:0:0:0:
89,66,5164,1,8,0:0:0:0:
128,66,5227,6,0,L|133:138,3,52.5,6|8|2|8,0:0|0:0|0:0|0:0,0:0:0:0:
249,26,5477,2,0,B|236:9|236:9|353:-4,1,105,6|2,0:0|0:0,0:0:0:0:
495,129,5727,5,8,0:0:0:0:
461,168,5789,1,8,0:0:0:0:
411,172,5852,1,8,0:0:0:0:
410,158,5914,1,2,0:0:0:0:
409,145,5977,2,0,L|407:99,3,26.25,2|2|2|2,0:0|0:0|0:0|0:0,0:0:0:0:
293,141,6227,5,6,0:0:0:0:
292,154,6310,2,0,L|288:249,1,56,2|2,0:0|0:0,0:0:0:0:
212,110,6477,5,2,0:0:0:0:
210,130,6560,2,0,L|206:205,1,62.9999980773926,2|2,0:0|0:0,0:0:0:0:
132,74,6727,5,2,0:0:0:0:
128,106,6810,2,0,L|122:229,1,70,2|2,0:0|0:0,0:0:0:0:
53,31,6977,5,10,0:0:0:0:
46,82,7060,2,0,L|40:210,1,77.0000023498536,2|2,0:0|0:0,0:0:0:0:
26,240,7227,5,6,0:0:0:0:
72,294,7310,1,2,0:0:0:0:
142,281,7393,1,2,0:0:0:0:
191,218,7477,5,10,0:0:0:0:
244,207,7560,1,2,0:0:0:0:
280,249,7643,1,2,0:0:0:0:
296,243,7727,6,0,L|292:284,7,26.25,6|2|2|2|2|2|2|2,0:0|0:0|0:0|0:0|0:0|0:0|0:0|0:0,0:0:0:0:
281,93,8227,6,0,B|283:63|283:63|290:57|290:57|300:-27,2,70,6|2|2,0:0|0:0|0:0,0:0:0:0:
332,164,8477,5,2,0:0:0:0:
332,164,8602,1,0,0:0:0:0:
296,243,8727,1,2,0:0:0:0:
296,243,8852,1,0,0:0:0:0:
91,277,8977,6,0,B|40:270|40:270|10:281,2,70,10|2|2,0:0|0:0|0:0,0:0:0:0:
69,176,9227,2,0,L|0:167,2,70,2|2|2,0:0|0:0|0:0,0:0:0:0:
116,12,9477,1,12,0:0:0:0:
116,12,9727,6,0,L|126:68,7,39.3750015020371,2|2|2|2|2|2|2|2,0:0|0:0|0:0|0:0|0:0|0:0|0:0|0:0,0:0:0:0:
168,185,10232,5,14,0:0:0:0:
207,121,10315,1,0,0:0:0:0:
280,106,10398,1,2,0:0:0:0:
341,150,10482,1,0,0:0:0:0:
350,224,10565,1,2,0:0:0:0:
419,261,10648,1,0,0:0:0:0:
485,228,10732,6,0,L|500:134,1,77.0000023498536,10|0,0:0|0:0,0:0:0:0:
186,197,10898,2,0,L|171:103,1,77.0000023498536,10|0,0:0|0:0,0:0:0:0:
415,114,11065,2,0,L|430:20,1,77.0000023498536,10|0,0:0|0:0,0:0:0:0:
252,240,11232,5,10,0:0:0:0:
274,258,11315,1,0,0:0:0:0:
302,251,11398,1,2,0:0:0:0:
315,225,11482,1,0,0:0:0:0:
302,199,11566,1,2,0:0:0:0:
274,192,11649,1,0,0:0:0:0:
251,209,11732,5,10,0:0:0:0:
291,212,11815,1,0,0:0:0:0:
322,185,11898,1,2,0:0:0:0:
326,145,11982,1,0,0:0:0:0:
300,113,12065,1,2,0:0:0:0:
259,109,12148,1,0,0:0:0:0:
227,135,12232,5,14,0:0:0:0:
231,80,12315,1,0,0:0:0:0:
270,42,12398,1,2,0:0:0:0:
325,41,12482,1,0,0:0:0:0:
366,77,12565,1,2,0:0:0:0:
373,132,12648,1,0,0:0:0:0:
341,176,12732,6,0,L|206:169,1,77.0000023498536,10|0,0:0|0:0,0:0:0:0:
122,291,12898,2,0,L|46:295,1,77.0000023498536,10|0,0:0|0:0,0:0:0:0:
121,117,13065,2,0,L|-14:110,1,77.0000023498536,10|0,0:0|0:0,0:0:0:0:
211,328,13232,5,10,0:0:0:0:
242,322,13315,1,0,0:0:0:0:
255,294,13398,1,2,0:0:0:0:
242,266,13482,1,0,0:0:0:0:
211,259,13565,1,2,0:0:0:0:
187,278,13648,1,0,0:0:0:0:
187,309,13732,5,14,0:0:0:0:
160,259,13815,1,0,0:0:0:0:
174,204,13898,1,2,0:0:0:0:
221,173,13982,1,0,0:0:0:0:
277,182,14065,1,2,0:0:0:0:
312,227,14148,1,0,0:0:0:0:
307,283,14232,5,14,0:0:0:0:
324,210,14315,1,0,0:0:0:0:
285,146,14398,1,2,0:0:0:0:
212,129,14482,1,0,0:0:0:0:
149,169,14565,1,2,0:0:0:0:
72,169,14648,1,0,0:0:0:0:
10,121,14732,6,0,L|31:19,1,77.0000023498536,10|0,0:0|0:0,0:0:0:0:
209,261,14898,2,0,L|110:293,1,77.0000023498536,10|0,0:0|0:0,0:0:0:0:
231,19,15065,2,0,L|308:88,1,77.0000023498536,10|0,0:0|0:0,0:0:0:0:
312,281,15232,5,14,0:0:0:0:
296,254,15315,1,0,0:0:0:0:
312,227,15399,1,2,0:0:0:0:
343,227,15482,1,0,0:0:0:0:
358,254,15565,1,2,0:0:0:0:
343,281,15649,1,0,0:0:0:0:
327,355,15732,5,14,0:0:0:0:
399,332,15815,1,0,0:0:0:0:
435,266,15898,1,2,0:0:0:0:
421,190,15982,1,0,0:0:0:0:
350,163,16065,1,2,0:0:0:0:
302,104,16148,1,0,0:0:0:0:
314,28,16232,6,0,B|348:44|348:44|449:37,1,105,12|2,0:0|0:0,0:0:0:0:
278,192,16482,2,0,L|149:200,1,105,2|2,0:0|0:0,0:0:0:0:
359,327,16732,6,0,L|349:244,1,77.0000023498536,8|0,0:0|0:0,0:0:0:0:
210,14,16898,2,0,L|198:120,1,77.0000023498536,8|0,0:0|0:0,0:0:0:0:
82,346,17065,2,0,L|71:251,1,77.0000023498536,8|0,0:0|0:0,0:0:0:0:
54,106,17232,5,12,0:0:0:0:
201,91,17357,2,0,B|166:122|119:106|119:106|107:116|107:116|82:103|53:107,1,157.5,2|0,0:0|0:0,0:0:0:0:
12,42,17607,2,0,P|14:30|15:12,1,26.25,2|2,0:0|0:0,0:0:0:0:
149,30,17732,5,12,0:0:0:0:
65,193,17857,1,2,0:0:0:0:
201,180,17982,5,8,0:0:0:0:
240,176,18044,1,8,0:0:0:0:
279,172,18107,1,8,0:0:0:0:
318,168,18169,1,8,0:0:0:0:
357,164,18232,2,0,L|362:85,1,68.2499968757631,2|2,0:0|0:0,0:0:0:0:
415,117,21232,5,8,0:0:0:0:
412,156,21294,1,8,0:0:0:0:
409,195,21357,1,8,0:0:0:0:
406,234,21419,1,8,0:0:0:0:
404,274,21482,6,0,L|339:251,3,52.5,2|2|0|2,0:0|0:0|0:0|0:0,0:0:0:0:
285,199,21732,2,0,B|258:189|258:189|237:159,3,39.3750015020371,2|2|2|2,0:0|0:0|0:0|0:0,0:0:0:0:
176,229,21982,1,2,0:0:0:0:
163,224,22044,1,2,0:0:0:0:
151,220,22107,5,8,0:0:0:0:
154,170,22169,1,8,0:0:0:0:
158,120,22231,1,8,0:0:0:0:
158,120,24232,6,0,L|53:130,2,78.7500030040742,2|0|0,0:0|0:0|0:0,0:0:0:0:
247,33,24599,2,0,L|142:23,1,78.7500030040742,2|0,0:0|0:0,0:0:0:0:
263,27,24844,1,2,0:0:0:0:
268,105,24966,1,2,0:0:0:0:
273,184,25089,1,2,0:0:0:0:
279,21,25211,5,8,0:0:0:0:
281,60,25272,1,8,0:0:0:0:
284,99,25334,1,8,0:0:0:0:
286,138,25395,1,8,0:0:0:0:
289,178,25456,2,0,L|293:238,3,39.3750015020371,2|2|2|2,0:0|0:0|0:0|0:0,0:0:0:0:
364,110,25726,5,2,0:0:0:0:
365,129,25788,1,2,0:0:0:0:
366,149,25851,2,0,L|368:179,1,26.25,2|0,0:0|0:0,0:0:0:0:
442,94,25976,5,2,0:0:0:0:
442,106,26038,1,2,0:0:0:0:
443,120,26101,2,0,L|444:140,1,21,2|0,0:0|0:0,0:0:0:0:
444,329,26226,6,0,B|374:343|374:343|329:333,1,84,6|0,0:0|0:0,0:0:0:0:
280,316,26475,1,2,0:0:0:0:
115,307,26599,2,0,L|197:290,1,84,2|8,0:0|0:0,0:0:0:0:
262,232,26849,1,2,0:0:0:0:
217,376,26973,1,2,0:0:0:0:
262,232,27098,1,2,0:0:0:0:
161,122,27223,6,0,L|177:204,2,84,2|0|0,0:0|0:0|0:0,0:0:0:0:
144,38,27597,1,2,0:0:0:0:
262,232,27721,2,0,L|278:149,1,84,8|0,0:0|0:0,0:0:0:0:
294,66,27970,1,2,0:0:0:0:
177,204,28095,1,2,0:0:0:0:
354,237,28220,6,0,B|370:223|370:223|436:236,1,84,6|0,0:0|0:0,0:0:0:0:
463,313,28469,1,2,0:0:0:0:
422,144,28594,2,0,L|504:160,2,84,2|8|0,0:0|0:0|0:0,0:0:0:0:
354,237,28968,5,2,0:0:0:0:
294,66,29092,1,2,0:0:0:0:
177,204,29217,2,0,L|259:188,1,84,2|0,0:0|0:0,0:0:0:0:
88,100,29466,5,2,0:0:0:0:
42,230,29591,1,2,0:0:0:0:
177,204,29715,2,0,L|259:188,1,84,8|0,0:0|0:0,0:0:0:0:
131,334,29965,5,8,0:0:0:0:
88,100,30089,1,8,0:0:0:0:
218,4,30214,6,0,B|209:62|209:62|218:86,1,84,6|0,0:0|0:0,0:0:0:0:
311,47,30465,1,2,0:0:0:0:
285,213,30590,2,0,L|297:129,1,84,2|8,0:0|0:0,0:0:0:0:
192,175,30842,1,2,0:0:0:0:
378,251,30967,1,2,0:0:0:0:
192,175,31093,1,2,0:0:0:0:
66,240,31219,6,0,L|53:156,2,84,2|0|0,0:0|0:0|0:0,0:0:0:0:
79,320,31595,1,2,0:0:0:0:
192,175,31721,2,0,L|205:77,2,84,8|0|0,0:0|0:0|0:0,0:0:0:0:
164,367,32098,1,8,0:0:0:0:
400,158,32224,5,6,0:0:0:0:
458,215,32344,5,8,0:0:0:0:
411,237,32409,1,8,0:0:0:0:
361,227,32474,1,8,0:0:0:0:
327,188,32539,1,8,0:0:0:0:
323,136,32604,1,8,0:0:0:0:
352,94,32670,1,8,0:0:0:0:
401,77,32735,1,8,0:0:0:0:
400,158,32861,5,2,0:0:0:0:
413,156,32923,1,2,0:0:0:0:
426,154,32984,1,2,0:0:0:0:
439,153,33046,1,2,0:0:0:0:
452,151,33108,1,2,0:0:0:0:
465,149,33170,1,2,0:0:0:0:
478,148,33231,5,8,0:0:0:0:
420,140,33293,1,8,0:0:0:0:
363,133,33355,1,8,0:0:0:0:
306,126,33417,1,8,0:0:0:0:
248,119,33478,2,0,L|257:174,3,42,2|2|2|2,0:0|0:0|0:0|0:0,0:0:0:0:
316,314,33725,6,0,L|324:262,3,52.5,6|0|0|0,0:0|0:0|0:0|0:0,0:0:0:0:
221,239,33975,5,2,0:0:0:0:
223,252,34037,1,2,0:0:0:0:
225,265,34100,1,2,0:0:0:0:
227,278,34162,1,2,0:0:0:0:
228,290,34225,5,10,0:0:0:0:
209,272,34287,1,2,0:0:0:0:
184,262,34350,1,2,0:0:0:0:
158,263,34412,1,2,0:0:0:0:
135,274,34475,5,2,0:0:0:0:
172,285,34537,1,2,0:0:0:0:
209,274,34600,1,2,0:0:0:0:
235,246,34662,1,2,0:0:0:0:
242,208,34725,6,0,L|233:156,3,52.5,10|2|2|2,0:0|0:0|0:0|0:0,0:0:0:0:
121,99,34975,2,0,L|113:48,3,52.5,2|2|2|2,0:0|0:0|0:0|0:0,0:0:0:0:
43,241,35225,2,0,L|34:189,3,52.5,10|2|2|2,0:0|0:0|0:0|0:0,0:0:0:0:
227,200,35475,6,0,L|218:148,1,52.5,14|2,0:0|0:0,0:0:0:0:
106,91,35600,2,0,L|98:40,1,52.5,14|2,0:0|0:0,0:0:0:0:
28,233,35725,6,0,L|19:181,3,52.5,14|0|2|0,0:0|0:0|0:0|0:0,0:0:0:0:
128,320,35975,5,2,0:0:0:0:
136,309,36037,1,2,0:0:0:0:
145,301,36100,1,2,0:0:0:0:
157,294,36162,1,2,0:0:0:0:
169,290,36225,2,0,P|201:302|241:302,3,52.5,10|0|2|2,0:0|0:0|0:0|0:0,0:0:0:0:
271,229,36475,2,0,P|239:217|199:217,3,52.5,2|2|2|2,0:0|0:0|0:0|0:0,0:0:0:0:
341,325,36725,5,8,0:0:0:0:
310,283,36787,1,8,0:0:0:0:
310,231,36850,1,8,0:0:0:0:
340,189,36912,1,8,0:0:0:0:
389,174,36975,1,8,0:0:0:0:
417,147,37037,1,8,0:0:0:0:
426,109,37100,1,8,0:0:0:0:
414,72,37162,1,8,0:0:0:0:
385,48,37225,2,0,L|375:102,3,39.3750015020371,2|2|2|2,0:0|0:0|0:0|0:0,0:0:0:0:
388,252,37475,5,8,0:0:0:0:
338,267,37537,1,8,0:0:0:0:
290,249,37600,1,8,0:0:0:0:
263,205,37662,1,8,0:0:0:0:
269,154,37725,6,0,L|279:95,3,52.5,6|2|2|2,0:0|0:0|0:0|0:0,0:0:0:0:
205,16,37975,1,2,0:0:0:0:
202,28,38037,1,2,0:0:0:0:
200,41,38100,6,0,L|190:100,1,52.5,2|2,0:0|0:0,0:0:0:0:
88,15,38225,1,10,0:0:0:0:
90,27,38287,1,2,0:0:0:0:
92,40,38350,1,2,0:0:0:0:
94,53,38412,1,2,0:0:0:0:
96,66,38475,6,0,L|105:126,3,52.5,2|2|2|2,0:0|0:0|0:0|0:0,0:0:0:0:
18,127,38725,2,0,L|26:178,3,52.5,10|0|2|0,0:0|0:0|0:0|0:0,0:0:0:0:
103,256,38971,1,2,0:0:0:0:
105,268,39033,1,2,0:0:0:0:
107,281,39095,5,2,0:0:0:0:
159,289,39157,1,2,0:0:0:0:
211,297,39218,1,8,0:0:0:0:
18,263,39342,2,0,L|25:301,1,39.3750015020371,2|2,0:0|0:0,0:0:0:0:
293,309,39465,5,8,0:0:0:0:
121,358,39592,1,8,0:0:0:0:
286,199,39720,6,0,P|331:205|375:234,2,70,6|0|0,0:0|0:0|0:0,0:0:0:0:
231,231,39970,5,2,0:0:0:0:
250,213,40053,1,2,0:0:0:0:
262,190,40136,1,2,0:0:0:0:
268,150,40220,5,10,0:0:0:0:
216,97,40303,1,0,0:0:0:0:
237,27,40386,1,2,0:0:0:0:
299,16,40470,5,2,0:0:0:0:
308,39,40553,1,2,0:0:0:0:
308,65,40636,1,2,0:0:0:0:
298,119,40720,5,6,0:0:0:0:
363,152,40801,1,0,0:0:0:0:
433,129,40883,1,2,0:0:0:0:
463,65,40964,2,0,B|465:99|465:99|455:134,2,70,10|0|2,0:0|0:0|0:0,0:0:0:0:
445,234,41221,5,6,0:0:0:0:
428,229,41307,1,2,0:0:0:0:
411,224,41393,1,2,0:0:0:0:
337,241,41479,5,10,0:0:0:0:
310,233,41564,1,2,0:0:0:0:
283,225,41650,1,2,0:0:0:0:
209,242,41736,6,0,L|126:218,1,68.2499968757631,4|0,0:0|0:0,0:0:0:0:
117,117,41985,2,0,L|184:136,1,68.2499968757631
209,242,42235,1,0,0:0:0:0:
209,242,42360,1,0,0:0:0:0:
126,279,42485,1,0,0:0:0:0:
126,279,42609,1,0,0:0:0:0:
199,332,42734,2,0,B|252:339|252:339|277:360,1,68.2499968757631
296,244,42984,2,0,B|349:237|349:237|374:216,1,68.2499968757631
406,336,43234,2,0,B|459:343|459:343|484:364,1,68.2499968757631
512,258,43483,1,0,0:0:0:0:
512,258,43608,1,0,0:0:0:0:
311,163,43733,6,0,L|322:73,1,68.2499968757631,4|0,0:0|0:0,0:0:0:0:
214,169,43983,2,0,L|222:102,1,68.2499968757631
117,175,44232,1,0,0:0:0:0:
117,175,44357,1,0,0:0:0:0:
117,175,44482,2,0,L|128:85,1,68.2499968757631
21,231,44732,5,8,0:0:0:0:
68,198,44794,1,8,0:0:0:0:
125,190,44857,1,8,0:0:0:0:
179,208,44919,1,8,0:0:0:0:
220,248,44981,5,2,0:0:0:0:
221,234,45044,1,2,0:0:0:0:
223,221,45106,2,0,P|258:227|290:219,1,52.5,2|2,0:0|0:0,0:0:0:0:
335,301,45231,5,2,0:0:0:0:
335,290,45294,1,2,0:0:0:0:
336,279,45356,2,0,P|351:260|357:239,1,44.6250008511543,2|2,0:0|0:0,0:0:0:0:
436,228,45481,5,2,0:0:0:0:
436,220,45543,1,2,0:0:0:0:
436,212,45606,2,0,P|429:194|417:181,1,36.749998878479,2|2,0:0|0:0,0:0:0:0:
316,133,45731,5,6,0:0:0:0:
309,121,45793,1,8,0:0:0:0:
305,108,45856,1,2,0:0:0:0:
302,96,45918,1,8,0:0:0:0:
302,83,45981,1,2,0:0:0:0:
303,69,46043,1,8,0:0:0:0:
306,57,46106,1,2,0:0:0:0:
311,44,46168,1,8,0:0:0:0:
317,33,46231,5,2,0:0:0:0:
299,52,46293,1,8,0:0:0:0:
276,63,46356,1,2,0:0:0:0:
250,65,46418,1,8,0:0:0:0:
225,56,46481,1,2,0:0:0:0:
200,47,46543,1,8,0:0:0:0:
174,49,46605,1,2,0:0:0:0:
151,60,46668,1,8,0:0:0:0:
134,80,46731,6,0,L|147:155,3,47.2499985580445,2|8|2|8,0:0|0:0|0:0|0:0,0:0:0:0:
235,144,46981,2,0,L|222:219,3,47.2499985580445,2|8|2|8,0:0|0:0|0:0|0:0,0:0:0:0:
131,222,47231,5,2,0:0:0:0:
133,234,47293,1,8,0:0:0:0:
135,247,47356,1,2,0:0:0:0:
137,260,47418,1,8,0:0:0:0:
139,273,47481,2,0,L|152:348,3,47.2499985580445,2|8|0|8,0:0|0:0|0:0|0:0,0:0:0:0:
254,359,47731,5,6,0:0:0:0:
257,346,47793,1,8,0:0:0:0:
264,335,47856,1,2,0:0:0:0:
273,326,47918,1,8,0:0:0:0:
285,320,47981,1,2,0:0:0:0:
298,318,48043,1,8,0:0:0:0:
311,320,48106,1,2,0:0:0:0:
323,326,48168,1,8,0:0:0:0:
332,335,48231,5,2,0:0:0:0:
315,314,48293,1,8,0:0:0:0:
307,289,48356,1,2,0:0:0:0:
308,263,48418,1,8,0:0:0:0:
318,239,48481,1,2,0:0:0:0:
327,215,48543,1,8,0:0:0:0:
328,189,48606,1,2,0:0:0:0:
320,164,48668,1,8,0:0:0:0:
304,144,48731,6,0,L|374:127,3,47.2499985580445,2|8|2|8,0:0|0:0|0:0|0:0,0:0:0:0:
383,53,48981,2,0,L|453:36,3,47.2499985580445,2|8|2|8,0:0|0:0|0:0|0:0,0:0:0:0:
498,92,49231,5,2,0:0:0:0:
502,103,49293,1,8,0:0:0:0:
504,114,49356,1,2,0:0:0:0:
504,126,49418,1,8,0:0:0:0:
503,138,49481,2,0,L|457:149,3,47.2499985580445,2|8|0|8,0:0|0:0|0:0|0:0,0:0:0:0:
304,144,49731,5,6,0:0:0:0:
282,129,49793,1,8,0:0:0:0:
266,109,49856,1,2,0:0:0:0:
257,84,49918,1,8,0:0:0:0:
257,58,49981,2,0,L|200:71,3,52.5,2|8|2|8,0:0|0:0|0:0|0:0,0:0:0:0:
104,22,50231,5,2,0:0:0:0:
115,45,50293,1,8,0:0:0:0:
116,71,50356,1,2,0:0:0:0:
107,96,50418,1,8,0:0:0:0:
90,115,50481,1,2,0:0:0:0:
65,144,50543,1,8,0:0:0:0:
59,183,50606,1,2,0:0:0:0:
75,218,50668,1,8,0:0:0:0:
107,240,50731,6,0,L|132:171,3,52.5,6|8|2|8,0:0|0:0|0:0|0:0,0:0:0:0:
209,161,50981,2,0,L|234:92,3,52.5,2|8|2|8,0:0|0:0|0:0|0:0,0:0:0:0:
241,283,51231,2,0,L|266:214,3,52.5,2|8|2|8,0:0|0:0|0:0|0:0,0:0:0:0:
343,204,51481,2,0,L|368:135,3,52.5,2|8|2|8,0:0|0:0|0:0|0:0,0:0:0:0:
312,334,51731,5,8,0:0:0:0:
269,363,51793,1,8,0:0:0:0:
217,363,51856,1,8,0:0:0:0:
175,333,51918,1,8,0:0:0:0:
157,285,51981,1,8,0:0:0:0:
170,235,52043,1,8,0:0:0:0:
182,185,52106,1,8,0:0:0:0:
159,139,52168,1,8,0:0:0:0:
111,119,52231,2,0,L|136:188,3,52.5,2|2|2|2,0:0|0:0|0:0|0:0,0:0:0:0:
241,283,52481,5,8,0:0:0:0:
258,233,52543,1,8,0:0:0:0:
276,184,52606,2,0,B|289:147|289:147|323:133,1,52.5,8|2,0:0|0:0,0:0:0:0:
425,99,52731,5,8,0:0:0:0:
372,102,52793,1,8,0:0:0:0:
320,105,52856,1,8,0:0:0:0:
267,108,52918,1,8,0:0:0:0:
215,112,52981,1,8,0:0:0:0:
163,115,53043,1,8,0:0:0:0:
110,118,53106,1,8,0:0:0:0:
57,121,53168,1,8,0:0:0:0:
5,124,53231,6,0,P|20:158|23:193,3,52.5,2|2|2|2,0:0|0:0|0:0|0:0,0:0:0:0:
110,217,53481,2,0,P|95:251|92:286,3,39.3750015020371,2|2|2|2,0:0|0:0|0:0|0:0,0:0:0:0:
166,351,53731,5,6,0:0:0:0:
194,355,53793,1,8,0:0:0:0:
221,347,53856,1,2,0:0:0:0:
243,327,53918,1,8,0:0:0:0:
254,301,53981,1,2,0:0:0:0:
253,273,54043,1,8,0:0:0:0:
240,247,54106,1,2,0:0:0:0:
238,218,54168,1,8,0:0:0:0:
249,191,54231,5,2,0:0:0:0:
282,218,54293,1,8,0:0:0:0:
323,227,54356,1,2,0:0:0:0:
365,217,54418,1,8,0:0:0:0:
398,189,54481,1,2,0:0:0:0:
438,176,54543,1,8,0:0:0:0:
479,190,54606,1,2,0:0:0:0:
504,224,54668,1,8,0:0:0:0:
505,266,54731,6,0,L|443:274,3,57.7500017623902,6|8|0|8,0:0|0:0|0:0|0:0,0:0:0:0:
317,329,54981,1,2,0:0:0:0:
305,319,55043,1,8,0:0:0:0:
292,313,55106,1,2,0:0:0:0:
278,309,55168,1,8,0:0:0:0:
264,309,55231,6,0,L|201:316,3,57.7500017623902,6|8|0|8,0:0|0:0|0:0|0:0,0:0:0:0:
108,218,55481,1,2,0:0:0:0:
102,204,55543,1,8,0:0:0:0:
101,190,55606,1,2,0:0:0:0:
105,176,55668,1,8,0:0:0:0:
113,164,55731,5,6,0:0:0:0:
140,196,55793,1,8,0:0:0:0:
181,208,55856,1,2,0:0:0:0:
221,195,55918,1,8,0:0:0:0:
248,162,55981,1,2,0:0:0:0:
251,119,56043,1,8,0:0:0:0:
229,81,56106,1,2,0:0:0:0:
187,68,56168,1,8,0:0:0:0:
148,89,56231,5,6,0:0:0:0:
184,131,56293,1,8,0:0:0:0:
240,134,56356,1,2,0:0:0:0:
279,94,56418,1,8,0:0:0:0:
337,85,56481,1,2,0:0:0:0:
386,112,56543,1,8,0:0:0:0:
404,166,56606,1,2,0:0:0:0:
382,218,56668,1,8,0:0:0:0:
331,242,56731,6,0,L|323:154,3,57.7500017623902,2|8|2|8,0:0|0:0|0:0|0:0,0:0:0:0:
220,295,56981,2,0,L|228:206,3,57.7500017623902,2|8|2|10,0:0|0:0|0:0|0:0,0:0:0:0:
105,362,57231,5,2,0:0:0:0:
62,356,57293,1,8,0:0:0:0:
30,328,57356,1,2,0:0:0:0:
21,286,57418,1,8,0:0:0:0:
36,246,57481,2,0,B|66:234|66:234|119:242,3,57.7500017623902,2|8|2|8,0:0|0:0|0:0|0:0,0:0:0:0:
59,121,57731,6,0,P|101:143|171:125,1,84,6|0,0:0|0:0,0:0:0:0:
170,23,57977,2,0,P|133:2|92:1,1,84,2|0,0:0|0:0,0:0:0:0:
271,160,58224,2,0,L|302:48,1,84,8|0,0:0|0:0,0:0:0:0:
208,98,58471,5,2,0:0:0:0:
356,141,58595,1,2,0:0:0:0:
208,98,58718,1,2,0:0:0:0:
356,141,58842,1,2,0:0:0:0:
416,256,58965,6,0,L|335:233,1,84,2|0,0:0|0:0,0:0:0:0:
207,273,59212,2,0,L|126:250,1,84,8|0,0:0|0:0,0:0:0:0:
197,123,59459,5,2,0:0:0:0:
255,369,59582,1,8,0:0:0:0:
476,157,59706,6,0,B|459:116|459:116|467:78,1,84,12|0,0:0|0:0,0:0:0:0:
378,0,59960,1,2,0:0:0:0:
378,0,60087,1,2,0:0:0:0:
355,117,60214,1,10,0:0:0:0:
355,117,60341,1,2,0:0:0:0:
486,156,60468,2,0,B|469:115|469:115|476:76,1,84,2|0,0:0|0:0,0:0:0:0:
410,223,60722,5,10,0:0:0:0:
413,230,60784,1,2,0:0:0:0:
416,238,60846,1,2,0:0:0:0:
419,246,60908,1,2,0:0:0:0:
422,253,60970,2,0,B|465:237|465:237|510:232,1,84,2|2,0:0|0:0,0:0:0:0:
348,298,61219,5,2,0:0:0:0:
347,304,61280,1,2,0:0:0:0:
346,310,61342,1,2,0:0:0:0:
345,316,61404,1,2,0:0:0:0:
382,343,61466,5,8,0:0:0:0:
317,87,61590,1,8,0:0:0:0:
129,271,61713,6,0,P|99:230|114:168,1,84,6|0,0:0|0:0,0:0:0:0:
199,158,61964,2,0,P|229:199|214:261,1,84,2|0,0:0|0:0,0:0:0:0:
30,70,62215,2,0,L|112:89,1,84,8|0,0:0|0:0,0:0:0:0:
13,158,62466,5,2,0:0:0:0:
129,1,62591,1,2,0:0:0:0:
13,158,62717,1,2,0:0:0:0:
129,1,62842,1,2,0:0:0:0:
275,77,62968,6,0,L|193:58,1,84,2|0,0:0|0:0,0:0:0:0:
153,262,63219,2,0,L|234:243,1,84,8|0,0:0|0:0,0:0:0:0:
108,379,63470,5,2,0:0:0:0:
13,158,63595,1,8,0:0:0:0:
351,177,63721,6,0,B|333:203|333:203|337:277,1,105,12|0,0:0|0:0,0:0:0:0:
428,237,63972,5,2,0:0:0:0:
428,247,64034,1,2,0:0:0:0:
429,257,64097,1,2,0:0:0:0:
429,268,64160,1,2,0:0:0:0:
430,278,64223,2,0,B|435:386,1,105,12|2,0:0|0:0,0:0:0:0:
331,131,64474,5,2,0:0:0:0:
331,141,64536,1,2,0:0:0:0:
332,151,64599,1,2,0:0:0:0:
332,162,64662,1,2,0:0:0:0:
333,172,64725,2,0,B|339:301,1,105,12|2,0:0|0:0,0:0:0:0:
443,118,64970,6,0,B|429:139|429:139|433:207,1,78.7500030040742,2|2,0:0|0:0,0:0:0:0:
338,16,65216,2,0,B|351:33|351:33|354:96,1,78.7500030040742,2|2,0:0|0:0,0:0:0:0:
165,295,65462,5,8,0:0:0:0:
115,281,65523,1,8,0:0:0:0:
84,239,65584,1,8,0:0:0:0:
85,188,65646,1,8,0:0:0:0:
136,136,65727,6,0,P|141:78|101:15,1,105,6|0,0:0|0:0,0:0:0:0:
38,99,65977,1,2,0:0:0:0:
224,66,66102,1,2,0:0:0:0:
57,189,66227,2,0,P|52:247|92:310,1,105,8|0,0:0|0:0,0:0:0:0:
216,325,66477,1,2,0:0:0:0:
30,358,66602,1,2,0:0:0:0:
153,225,66727,6,0,L|282:202,1,105,2|2,0:0|0:0,0:0:0:0:
38,99,66977,2,0,L|167:76,1,105,2|2,0:0|0:0,0:0:0:0:
141,239,67227,2,0,L|270:216,1,105,8|0,0:0|0:0,0:0:0:0:
247,112,67477,5,2,0:0:0:0:
225,326,67602,1,8,0:0:0:0:
421,238,67727,6,0,P|444:178|435:130,1,105,6|0,0:0|0:0,0:0:0:0:
390,53,67977,1,2,0:0:0:0:
390,53,68102,1,2,0:0:0:0:
314,175,68227,5,2,0:0:0:0:
320,173,68289,1,2,0:0:0:0:
327,172,68352,1,2,0:0:0:0:
334,171,68414,1,2,0:0:0:0:
340,170,68477,2,0,B|327:131|327:131|293:100,1,84,2|0,0:0|0:0,0:0:0:0:
194,108,68727,2,0,B|166:138|166:138|157:180,1,84,2|2,0:0|0:0,0:0:0:0:
421,238,68977,5,10,0:0:0:0:
429,236,69039,1,2,0:0:0:0:
438,234,69102,1,2,0:0:0:0:
447,233,69164,1,2,0:0:0:0:
456,231,69227,2,0,L|420:123,1,105,2|0,0:0|0:0,0:0:0:0:
388,379,69477,5,8,0:0:0:0:
295,102,69602,1,8,0:0:0:0:
114,282,69727,6,0,P|53:285|5:248,1,105,6|0,0:0|0:0,0:0:0:0:
190,155,69974,1,2,0:0:0:0:
220,349,70098,1,2,0:0:0:0:
81,190,70222,2,0,L|101:59,1,105,8|0,0:0|0:0,0:0:0:0:
51,384,70470,1,2,0:0:0:0:
81,190,70594,1,2,0:0:0:0:
220,349,70718,6,0,L|200:218,1,105,2|2,0:0|0:0,0:0:0:0:
66,203,70966,2,0,L|86:72,1,105,2|2,0:0|0:0,0:0:0:0:
205,362,71214,2,0,L|185:231,1,105,8|0,0:0|0:0,0:0:0:0:
173,154,71466,1,2,0:0:0:0:
173,154,71592,1,2,0:0:0:0:
323,263,71718,5,8,0:0:0:0:
347,272,71781,1,8,0:0:0:0:
373,269,71844,1,8,0:0:0:0:
395,256,71907,1,8,0:0:0:0:
409,234,71970,1,8,0:0:0:0:
407,208,72033,1,8,0:0:0:0:
404,181,72096,1,2,0:0:0:0:
416,184,72159,1,2,0:0:0:0:
429,188,72222,6,0,L|404:134,1,47.2499985580445,2|2,0:0|0:0,0:0:0:0:
318,103,72348,1,2,0:0:0:0:
308,105,72411,1,2,0:0:0:0:
297,108,72474,6,0,L|317:64,1,36.749998878479,2|2,0:0|0:0,0:0:0:0:
179,48,72600,1,2,0:0:0:0:
187,50,72663,1,2,0:0:0:0:
195,53,72726,5,12,0:0:0:0:
195,123,72808,1,8,0:0:0:0:
137,163,72891,1,8,0:0:0:0:
72,136,72973,2,0,L|58:97,2,41.9999987182618,2|2|2,0:0|0:0|0:0,0:0:0:0:
80,291,73221,5,2,0:0:0:0:
106,322,73304,1,2,0:0:0:0:
145,336,73387,1,2,0:0:0:0:
186,327,73469,2,0,L|218:294,2,28,2|2|2,0:0|0:0|0:0,0:0:0:0:
300,295,73722,5,6,0:0:0:0:
277,278,73806,1,2,0:0:0:0:
251,270,73890,1,2,0:0:0:0:
223,274,73974,1,2,0:0:0:0:
199,287,74058,1,2,0:0:0:0:
184,310,74142,1,2,0:0:0:0:
161,325,74226,1,2,0:0:0:0:
133,330,74310,1,2,0:0:0:0:
106,322,74394,1,2,0:0:0:0:
85,305,74478,1,2,0:0:0:0:
73,280,74562,1,2,0:0:0:0:
72,252,74646,1,2,0:0:0:0:
83,226,74730,5,14,0:0:0:0:
153,160,74982,1,2,0:0:0:0:
78,102,75234,1,2,0:0:0:0:
148,36,75486,1,2,0:0:0:0:
162,29,75570,1,2,0:0:0:0:
177,26,75654,1,2,0:0:0:0:
193,25,75738,6,0,L|205:113,1,84,2|2,0:0|0:0,0:0:0:0:
317,111,75988,2,0,L|305:199,1,84,2|2,0:0|0:0,0:0:0:0:
204,205,76238,2,0,L|216:293,1,84,2|2,0:0|0:0,0:0:0:0:
328,291,76488,1,2,0:0:0:0:
328,291,76613,1,2,0:0:0:0:
476,83,76738,6,0,B|454:102|454:102|385:95,1,84,14|2,0:0|0:0,0:0:0:0:
281,38,76988,2,0,L|175:27,1,84,2|2,0:0|0:0,0:0:0:0:
89,103,77238,1,4,0:0:0:0:
89,103,77488,1,2,0:0:0:0:
89,103,77738,5,6,0:0:0:0:
130,104,77820,1,2,0:0:0:0:
165,127,77903,1,2,0:0:0:0:
184,164,77985,1,2,0:0:0:0:
182,205,78068,1,2,0:0:0:0:
159,240,78151,1,2,0:0:0:0:
136,275,78233,1,2,0:0:0:0:
134,316,78316,1,2,0:0:0:0:
153,353,78399,1,2,0:0:0:0:
188,376,78481,1,2,0:0:0:0:
230,378,78564,1,2,0:0:0:0:
265,356,78647,1,2,0:0:0:0:
278,315,78729,5,14,0:0:0:0:
257,233,78977,1,2,0:0:0:0:
314,171,79225,1,2,0:0:0:0:
293,89,79473,1,2,0:0:0:0:
307,78,79556,1,2,0:0:0:0:
322,74,79638,1,2,0:0:0:0:
339,76,79721,5,2,0:0:0:0:
405,131,79975,1,4,0:0:0:0:
459,64,80229,1,2,0:0:0:0:
393,10,80483,1,2,0:0:0:0:
105,136,80737,6,0,B|106:177|106:177|130:207|130:207|132:272,1,125.999996154785,12|0,0:0|0:0,0:0:0:0:
132,254,81239,5,8,0:0:0:0:
157,248,81301,1,8,0:0:0:0:
183,242,81364,1,8,0:0:0:0:
208,236,81427,1,8,0:0:0:0:
234,230,81490,5,2,0:0:0:0:
228,219,81554,1,2,0:0:0:0:
222,208,81619,1,2,0:0:0:0:
217,196,81684,1,2,0:0:0:0:
212,184,81749,5,6,0:0:0:0:
286,384,82001,1,2,0:0:0:0:
338,59,82253,5,2,0:0:0:0:
234,328,82505,1,10,0:0:0:0:
369,175,82751,5,6,0:0:0:0:
333,268,82875,1,2,0:0:0:0:
426,304,82998,1,2,0:0:0:0:
462,211,83122,1,2,0:0:0:0:
231,98,83245,5,6,0:0:0:0:
358,147,83369,1,2,0:0:0:0:
308,274,83492,1,2,0:0:0:0:
181,225,83616,1,2,0:0:0:0:
337,55,83739,6,0,L|458:101,1,105,6|2,0:0|0:0,0:0:0:0:
316,383,83986,2,0,B|300:354|300:354|234:328,1,105,10|2,0:0|0:0,0:0:0:0:
231,98,84233,5,6,0:0:0:0:
181,225,84356,1,2,0:0:0:0:
117,144,84480,1,2,0:0:0:0:
143,320,84603,1,2,0:0:0:0:
53,104,84727,5,6,0:0:0:0:
81,77,84789,1,2,0:0:0:0:
119,68,84852,1,2,0:0:0:0:
156,79,84914,1,2,0:0:0:0:
183,107,84977,1,2,0:0:0:0:
210,135,85039,1,2,0:0:0:0:
247,146,85102,1,2,0:0:0:0:
285,137,85164,1,2,0:0:0:0:
314,111,85227,1,6,0:0:0:0:
314,111,85477,5,10,0:0:0:0:
290,99,85539,1,2,0:0:0:0:
264,95,85602,1,2,0:0:0:0:
238,99,85664,1,2,0:0:0:0:
214,110,85727,5,6,0:0:0:0:
236,123,85789,1,2,0:0:0:0:
250,145,85852,1,2,0:0:0:0:
253,171,85914,1,2,0:0:0:0:
246,196,85977,1,2,0:0:0:0:
239,221,86039,1,2,0:0:0:0:
242,247,86102,1,2,0:0:0:0:
256,269,86164,1,2,0:0:0:0:
279,283,86227,1,6,0:0:0:0:
279,283,86477,6,0,L|344:260,3,47.2499985580445,2|2|2|2,0:0|0:0|0:0|0:0,0:0:0:0:
213,350,86727,2,0,L|278:373,3,47.2499985580445,6|2|2|2,0:0|0:0|0:0|0:0,0:0:0:0:
385,324,86977,1,8,0:0:0:0:
33,380,87227,5,8,0:0:0:0:
38,322,87289,1,8,0:0:0:0:
44,265,87352,1,8,0:0:0:0:
50,207,87414,1,8,0:0:0:0:
55,150,87477,5,2,0:0:0:0:
56,164,87539,1,2,0:0:0:0:
57,178,87602,1,2,0:0:0:0:
59,193,87664,1,2,0:0:0:0:
60,207,87727,6,0,B|81:213|81:213|175:185,1,94.499997116089,6|0,0:0|0:0,0:0:0:0:
315,41,87977,2,0,L|224:67,1,94.499997116089,2|0,0:0|0:0,0:0:0:0:
299,140,88227,1,2,0:0:0:0:
299,140,88352,1,2,0:0:0:0:
299,331,88477,6,0,L|272:240,1,94.499997116089,14|0,0:0|0:0,0:0:0:0:
299,140,88727,1,2,0:0:0:0:
299,140,88852,1,2,0:0:0:0:
224,67,88977,1,2,0:0:0:0:
224,67,89102,1,2,0:0:0:0:
60,207,89227,6,0,B|81:213|81:213|175:185,1,94.499997116089,6|0,0:0|0:0,0:0:0:0:
224,67,89472,2,0,L|315:41,1,94.499997116089,2|0,0:0|0:0,0:0:0:0:
389,113,89718,2,0,L|298:139,1,94.499997116089,2|2,0:0|0:0,0:0:0:0:
299,331,89964,5,8,0:0:0:0:
285,285,90025,1,8,0:0:0:0:
272,240,90087,1,8,0:0:0:0:
395,219,90211,5,2,0:0:0:0:
407,222,90274,1,2,0:0:0:0:
418,225,90338,1,2,0:0:0:0:
429,229,90401,1,2,0:0:0:0:
441,232,90465,5,8,0:0:0:0:
395,245,90528,1,8,0:0:0:0:
350,258,90592,1,8,0:0:0:0:
305,272,90655,1,8,0:0:0:0:
259,285,90719,6,0,L|271:239,3,47.2499985580445,6|2|2|2,0:0|0:0|0:0|0:0,0:0:0:0:
146,206,90970,2,0,L|179:239,3,47.2499985580445,2|2|2|2,0:0|0:0|0:0|0:0,0:0:0:0:
271,148,91221,2,0,L|225:159,3,47.2499985580445,2|2|2|2,0:0|0:0|0:0|0:0,0:0:0:0:
123,86,91472,5,10,0:0:0:0:
111,88,91535,1,2,0:0:0:0:
100,91,91598,1,2,0:0:0:0:
88,94,91662,1,2,0:0:0:0:
77,97,91725,5,6,0:0:0:0:
94,112,91789,1,2,0:0:0:0:
103,133,91852,1,2,0:0:0:0:
100,157,91915,1,2,0:0:0:0:
86,176,91979,5,2,0:0:0:0:
72,195,92042,1,2,0:0:0:0:
69,219,92106,1,2,0:0:0:0:
78,240,92169,1,2,0:0:0:0:
96,256,92233,5,6,0:0:0:0:
124,234,92296,1,2,0:0:0:0:
158,229,92359,1,2,0:0:0:0:
192,240,92423,1,2,0:0:0:0:
216,265,92486,5,2,0:0:0:0:
247,289,92550,1,2,0:0:0:0:
285,299,92613,1,2,0:0:0:0:
323,292,92677,1,2,0:0:0:0:
356,270,92740,6,0,B|356:245|356:245|340:211,1,39.3750015020371,2|2,0:0|0:0,0:0:0:0:
273,131,92865,2,0,B|273:156|273:156|289:190,1,39.3750015020371,2|2,0:0|0:0,0:0:0:0:
430,180,92990,2,0,L|496:150,3,47.2499985580445,2|2|2|2,0:0|0:0|0:0|0:0,0:0:0:0:
275,34,93240,5,8,0:0:0:0:
225,48,93302,1,8,0:0:0:0:
189,84,93365,1,8,0:0:0:0:
177,135,93427,1,8,0:0:0:0:
193,184,93490,1,8,0:0:0:0:
193,184,93740,5,6,0:0:0:0:
193,184,93991,5,6,0:0:0:0:
61,327,94116,1,2,0:0:0:0:
3,141,94242,1,6,0:0:0:0:
3,141,94493,6,0,L|1:170,3,21
10,150,94744,2,0,L|8:179,3,21
17,159,94995,2,0,L|15:188,3,21
24,168,95246,1,2,0:0:0:0:
61,327,95472,5,8,0:0:0:0:
88,349,95533,1,8,0:0:0:0:
123,355,95595,1,8,0:0:0:0:
156,348,95657,1,8,0:0:0:0:
185,327,95719,1,8,0:0:0:0:
212,307,95781,1,8,0:0:0:0:
247,300,95843,1,8,0:0:0:0:
280,306,95904,1,8,0:0:0:0:
309,326,95966,6,0,B|320:360|320:360|336:372,3,52.5,2|2|2|2,0:0|0:0|0:0|0:0,0:0:0:0:
385,310,96214,2,0,L|372:273,3,39.3750015020371,2|2|2|2,0:0|0:0|0:0|0:0,0:0:0:0:
403,315,96454,1,2,0:0:0:0:
463,41,96695,5,14,0:0:0:0:
452,91,96759,1,2,0:0:0:0:
417,129,96824,1,2,0:0:0:0:
366,140,96888,1,2,0:0:0:0:
317,123,96953,1,2,0:0:0:0:
286,82,97018,1,2,0:0:0:0:
236,70,97082,1,2,0:0:0:0:
191,95,97147,1,2,0:0:0:0:
176,144,97212,1,2,0:0:0:0:
194,194,97276,1,2,0:0:0:0:
186,244,97341,1,2,0:0:0:0:
142,269,97406,1,2,0:0:0:0:
95,251,97470,6,0,L|81:180,3,52.5,14|2|2|2,0:0|0:0|0:0|0:0,0:0:0:0:
249,85,97725,2,0,L|249:5,3,52.5,2|2|2|2,0:0|0:0|0:0|0:0,0:0:0:0:
389,262,97980,2,0,L|403:191,3,52.5,2|2|2|2,0:0|0:0|0:0|0:0,0:0:0:0:
195,290,98235,6,0,L|181:219,3,47.2499985580445,14|2|2|2,0:0|0:0|0:0|0:0,0:0:0:0:
310,365,98486,2,0,L|324:294,3,47.2499985580445,2|2|2|2,0:0|0:0|0:0|0:0,0:0:0:0:
291,170,98737,1,2,0:0:0:0:
300,178,98799,1,2,0:0:0:0:
312,177,98862,1,2,0:0:0:0:
319,167,98925,1,2,0:0:0:0:
316,155,98988,5,8,0:0:0:0:
275,122,99050,1,8,0:0:0:0:
224,111,99113,1,8,0:0:0:0:
174,126,99176,1,8,0:0:0:0:
144,164,99239,1,8,0:0:0:0:
96,164,99301,1,8,0:0:0:0:
63,131,99364,1,8,0:0:0:0:
64,84,99427,1,8,0:0:0:0:
99,53,99490,2,0,L|110:111,3,42,2|2|2|2,0:0|0:0|0:0|0:0,0:0:0:0:
113,238,99741,5,6,0:0:0:0:
250,292,99864,1,2,0:0:0:0:
224,111,99988,5,2,0:0:0:0:
108,204,100112,1,2,0:0:0:0:
276,270,100236,5,2,0:0:0:0:
255,123,100360,1,2,0:0:0:0:
98,320,100484,6,0,B|75:338|75:338|-2:327,1,105,12|0,0:0|0:0,0:0:0:0:
211,328,100732,1,2,0:0:0:0:
198,326,100794,1,2,0:0:0:0:
185,324,100856,5,8,0:0:0:0:
193,278,100918,1,8,0:0:0:0:
199,231,100980,1,8,0:0:0:0:
344,352,101104,5,2,0:0:0:0:
308,115,101228,1,12,0:0:0:0:
325,232,101352,1,2,0:0:0:0:
450,95,101476,5,8,0:0:0:0:
442,146,101538,1,8,0:0:0:0:
434,198,101600,1,8,0:0:0:0:
426,250,101662,1,8,0:0:0:0:
418,302,101724,2,0,L|388:254,3,39.3750015020371,2|2|2|2,0:0|0:0|0:0|0:0,0:0:0:0:
325,232,101972,5,2,0:0:0:0:
313,230,102034,1,0,0:0:0:0:
299,229,102097,1,2,0:0:0:0:
287,232,102160,1,0,0:0:0:0:
275,237,102223,5,2,0:0:0:0:
293,203,102285,1,2,0:0:0:0:
289,164,102348,1,2,0:0:0:0:
262,136,102411,1,2,0:0:0:0:
224,129,102474,5,6,0:0:0:0:
260,167,102536,1,2,0:0:0:0:
310,181,102599,1,2,0:0:0:0:
359,166,102662,1,2,0:0:0:0:
394,127,102725,6,0,L|409:201,3,52.5,6|2|2|2,0:0|0:0|0:0|0:0,0:0:0:0:
489,184,102976,2,0,L|474:257,3,52.5,6|0|2|0,0:0|0:0|0:0|0:0,0:0:0:0:
441,316,103227,5,2,0:0:0:0:
422,289,103289,1,2,0:0:0:0:
394,275,103352,1,2,0:0:0:0:
362,276,103415,1,2,0:0:0:0:
334,291,103478,5,10,0:0:0:0:
338,278,103541,1,0,0:0:0:0:
341,266,103603,1,2,0:0:0:0:
340,252,103666,1,0,0:0:0:0:
337,240,103729,5,6,0:0:0:0:
301,256,103792,1,2,0:0:0:0:
262,259,103854,1,2,0:0:0:0:
225,246,103917,1,2,0:0:0:0:
196,219,103980,5,6,0:0:0:0:
235,220,104043,1,2,0:0:0:0:
271,199,104105,1,2,0:0:0:0:
283,156,104168,1,2,0:0:0:0:
251,101,104231,5,2,0:0:0:0:
183,97,104294,1,2,0:0:0:0:
144,154,104356,1,2,0:0:0:0:
78,171,104419,1,2,0:0:0:0:
20,124,104482,5,2,0:0:0:0:
16,48,104545,1,2,0:0:0:0:
77,3,104607,1,2,0:0:0:0:
148,29,104670,1,2,0:0:0:0:
166,103,104733,2,0,L|154:176,3,52.5,6|2|2|2,0:0|0:0|0:0|0:0,0:0:0:0:
235,302,104984,5,8,0:0:0:0:
242,251,105045,1,8,0:0:0:0:
250,201,105106,1,8,0:0:0:0:
257,150,105168,1,8,0:0:0:0:
265,100,105229,2,0,L|276:172,1,39.3750015020371,2|2,0:0|0:0,0:0:0:0:
281,215,105352,2,0,L|292:287,1,39.3750015020371,2|2,0:0|0:0,0:0:0:0:
220,22,105475,5,8,0:0:0:0:
258,13,105537,1,8,0:0:0:0:
296,19,105598,1,8,0:0:0:0:
329,39,105660,1,8,0:0:0:0:
352,72,105721,6,0,L|369:187,1,84,6|0,0:0|0:0,0:0:0:0:
468,209,105971,2,0,P|452:262|456:325,1,84,2|2,0:0|0:0,0:0:0:0:
288,252,106221,2,0,P|301:291|305:333,1,84,2|2,0:0|0:0,0:0:0:0:
265,100,106471,6,0,L|149:117,1,84,12|0,0:0|0:0,0:0:0:0:
97,124,106721,1,2,0:0:0:0:
97,124,106846,1,2,0:0:0:0:
65,203,106971,1,2,0:0:0:0:
65,203,107096,1,2,0:0:0:0:
116,269,107221,6,0,P|180:271|215:238,1,84,6|0,0:0|0:0,0:0:0:0:
305,333,107471,2,0,P|338:278|327:231,1,84,2|2,0:0|0:0,0:0:0:0:
454,201,107721,2,0,P|423:144|377:130,1,84,2|2,0:0|0:0,0:0:0:0:
173,62,107971,6,0,L|185:145,1,84,12|0,0:0|0:0,0:0:0:0:
94,194,108221,5,2,0:0:0:0:
100,197,108283,1,2,0:0:0:0:
107,201,108346,1,2,0:0:0:0:
115,208,108408,1,2,0:0:0:0:
122,215,108471,1,2,0:0:0:0:
133,226,108533,1,2,0:0:0:0:
141,239,108596,1,2,0:0:0:0:
148,253,108658,1,2,0:0:0:0:
154,292,108721,5,6,0:0:0:0:
168,253,108805,1,2,0:0:0:0:
201,227,108889,1,2,0:0:0:0:
242,223,108973,5,2,0:0:0:0:
280,238,109057,1,2,0:0:0:0:
319,255,109141,1,2,0:0:0:0:
359,250,109225,1,2,0:0:0:0:
392,224,109309,1,2,0:0:0:0:
407,186,109393,1,2,0:0:0:0:
352,125,109477,6,0,L|276:137,2,56,10|2|2,0:0|0:0|0:0,0:0:0:0:
396,185,109729,2,0,L|408:261,2,56,2|2|2,0:0|0:0|0:0,0:0:0:0:
457,141,109981,2,0,L|512:132,2,56,2|2|2,0:0|0:0|0:0,0:0:0:0:
473,46,110233,5,2,0:0:0:0:
441,64,110317,1,2,0:0:0:0:
403,64,110401,1,2,0:0:0:0:
372,45,110485,1,2,0:0:0:0:
341,30,110569,1,2,0:0:0:0:
308,25,110653,1,2,0:0:0:0:
275,30,110737,1,2,0:0:0:0:
245,44,110821,1,2,0:0:0:0:
220,67,110905,1,2,0:0:0:0:
186,135,110989,5,14,0:0:0:0:
188,148,111070,1,2,0:0:0:0:
191,162,111151,1,2,0:0:0:0:
244,216,111233,5,6,0:0:0:0:
242,229,111314,1,2,0:0:0:0:
239,243,111395,1,2,0:0:0:0:
186,297,111477,5,6,0:0:0:0:
188,310,111558,1,2,0:0:0:0:
191,324,111640,1,2,0:0:0:0:
271,351,111721,6,0,P|312:325|342:262,1,84,6|0,0:0|0:0,0:0:0:0:
223,131,111971,2,0,P|225:179|264:236,1,84,2|2,0:0|0:0,0:0:0:0:
438,200,112221,2,0,P|394:177|325:183,1,84,2|2,0:0|0:0,0:0:0:0:
123,65,112471,6,0,B|148:68|148:68|225:39,1,84,12|0,0:0|0:0,0:0:0:0:
281,17,112721,1,2,0:0:0:0:
281,17,112846,1,2,0:0:0:0:
345,70,112971,1,2,0:0:0:0:
345,70,113096,1,2,0:0:0:0:
424,41,113221,1,2,0:0:0:0:
424,41,113346,1,2,0:0:0:0:
512,159,113471,6,0,L|433:188,1,84,2|2,0:0|0:0,0:0:0:0:
431,328,113721,2,0,L|352:357,1,84,2|2,0:0|0:0,0:0:0:0:
264,93,113971,6,0,B|277:129|277:129|262:179,1,84,12|0,0:0|0:0,0:0:0:0:
185,235,114221,5,2,0:0:0:0:
175,239,114283,1,2,0:0:0:0:
165,243,114346,1,2,0:0:0:0:
155,245,114408,1,2,0:0:0:0:
145,246,114471,5,2,0:0:0:0:
128,242,114533,1,2,0:0:0:0:
113,234,114596,1,2,0:0:0:0:
103,221,114658,1,2,0:0:0:0:
75,178,114721,5,14,0:0:0:0:
78,237,114804,1,2,0:0:0:0:
81,296,114887,1,2,0:0:0:0:
55,335,114971,5,2,0:0:0:0:
92,316,115054,1,2,0:0:0:0:
133,317,115137,1,2,0:0:0:0:
171,337,115221,1,2,0:0:0:0:
210,349,115304,1,2,0:0:0:0:
252,344,115387,1,2,0:0:0:0:
321,297,115471,5,14,0:0:0:0:
302,260,115554,1,2,0:0:0:0:
304,218,115637,1,2,0:0:0:0:
337,184,115721,2,0,P|370:174|420:190,2,56,2|2|2,0:0|0:0|0:0,0:0:0:0:
393,84,115971,2,0,P|426:91|461:130,2,56,2|2|2,0:0|0:0|0:0,0:0:0:0:
470,271,116221,5,8,0:0:0:0:
386,265,116304,1,8,0:0:0:0:
302,260,116387,1,8,0:0:0:0:
244,311,116471,5,2,0:0:0:0:
240,283,116554,1,2,0:0:0:0:
236,255,116637,1,2,0:0:0:0:
193,188,116721,5,2,0:0:0:0:
195,167,116804,1,2,0:0:0:0:
198,146,116887,1,2,0:0:0:0:
255,87,116971,2,0,L|251:57,2,28,2|2|2,0:0|0:0|0:0,0:0:0:0:
198,146,117221,5,8,0:0:0:0:
157,139,117285,1,8,0:0:0:0:
129,109,117350,1,8,0:0:0:0:
128,68,117414,1,8,0:0:0:0:
153,35,117479,5,2,0:0:0:0:
153,45,117543,1,2,0:0:0:0:
154,55,117608,1,2,0:0:0:0:
154,66,117672,1,2,0:0:0:0:
155,76,117737,6,0,B|186:67|186:67|269:92,1,105,6|0,0:0|0:0,0:0:0:0:
356,118,117985,1,2,0:0:0:0:
331,15,118110,1,2,0:0:0:0:
279,190,118234,1,10,0:0:0:0:
279,190,118359,1,0,0:0:0:0:
456,129,118483,6,0,B|425:138|425:138|342:113,1,105,2|0,0:0|0:0,0:0:0:0:
178,159,118732,2,0,L|279:190,1,105,2|0,0:0|0:0,0:0:0:0:
356,118,118981,1,2,0:0:0:0:
255,87,119106,1,2,0:0:0:0:
379,220,119230,1,10,0:0:0:0:
379,220,119355,1,0,0:0:0:0:
202,261,119479,5,2,0:0:0:0:
356,118,119604,1,2,0:0:0:0:
177,159,119728,6,0,L|77:129,1,105,14|0,0:0|0:0,0:0:0:0:
255,87,119979,1,2,0:0:0:0:
77,129,120104,1,2,0:0:0:0:
202,261,120230,1,14,0:0:0:0:
202,261,120355,1,0,0:0:0:0:
177,159,120481,5,2,0:0:0:0:
124,334,120607,1,2,0:0:0:0:
301,291,120732,1,10,0:0:0:0:
301,291,120858,2,0,L|367:274,2,39.3750015020371,2|2|2,0:0|0:0|0:0,0:0:0:0:
202,261,121109,1,2,0:0:0:0:
276,189,121234,1,2,0:0:0:0:
273,181,121297,1,2,0:0:0:0:
271,174,121360,1,2,0:0:0:0:
270,166,121423,1,2,0:0:0:0:
285,142,121486,5,8,0:0:0:0:
225,361,121611,1,8,0:0:0:0:
353,62,121737,6,0,P|306:39|254:42,1,105,6|0,0:0|0:0,0:0:0:0:
182,118,121980,1,2,0:0:0:0:
151,16,122102,1,2,0:0:0:0:
109,193,122224,1,10,0:0:0:0:
109,193,122346,1,0,0:0:0:0:
285,142,122468,6,0,B|268:210|268:210|281:254,1,105,2|0,0:0|0:0,0:0:0:0:
140,295,122712,2,0,L|37:270,1,105,2|0,0:0|0:0,0:0:0:0:
109,193,122960,1,2,0:0:0:0:
140,295,123085,1,2,0:0:0:0:
182,118,123209,1,10,0:0:0:0:
182,118,123334,1,0,0:0:0:0:
235,249,123458,2,0,L|210:351,1,105,2|0,0:0|0:0,0:0:0:0:
390,83,123707,5,12,0:0:0:0:
177,104,123833,1,2,0:0:0:0:
429,168,123959,5,12,0:0:0:0:
177,104,124085,2,0,L|164:155,1,39.3750015020371,2|2,0:0|0:0,0:0:0:0:
258,231,124211,2,0,L|233:333,1,105,2|0,0:0|0:0,0:0:0:0:
426,67,124463,5,12,0:0:0:0:
172,90,124589,1,2,0:0:0:0:
469,162,124715,5,12,0:0:0:0:
172,90,124841,2,0,L|159:141,1,39.3750015020371,2|2,0:0|0:0,0:0:0:0:
282,215,124967,5,8,0:0:0:0:
272,253,125030,1,8,0:0:0:0:
263,291,125093,1,8,0:0:0:0:
253,329,125156,1,8,0:0:0:0:
244,367,125219,5,8,0:0:0:0:
241,315,125282,1,8,0:0:0:0:
238,262,125345,1,8,0:0:0:0:
234,210,125408,1,8,0:0:0:0:
231,157,125471,2,0,L|285:179,3,39.3750015020371,2|2|2|2,0:0|0:0|0:0|0:0,0:0:0:0:
151,205,125731,6,0,P|138:163|156:102,1,94.499997116089,6|0,0:0|0:0,0:0:0:0:
309,110,125981,2,0,P|279:142|217:157,1,94.499997116089,2|0,0:0|0:0,0:0:0:0:
147,20,126231,2,0,P|189:29|233:75,1,94.499997116089,2|0,0:0|0:0,0:0:0:0:
139,207,126481,6,0,P|126:165|144:104,1,94.499997116089,14|0,0:0|0:0,0:0:0:0:
309,110,126731,2,0,P|351:119|395:165,1,94.499997116089,2|0,0:0|0:0,0:0:0:0:
309,306,126981,2,0,P|279:338|217:353,1,94.499997116089,2|0,0:0|0:0,0:0:0:0:
127,209,127231,6,0,P|114:167|132:106,1,94.499997116089,6|0,0:0|0:0,0:0:0:0:
399,258,127481,2,0,P|412:300|394:361,1,94.499997116089,2|0,0:0|0:0,0:0:0:0:
231,157,127731,2,0,P|218:115|236:54,1,94.499997116089,2|0,0:0|0:0,0:0:0:0:
309,306,127981,1,12,0:0:0:0:
309,306,128231,6,0,L|317:247,3,39.3750015020371,2|2|2|2,0:0|0:0|0:0|0:0,0:0:0:0:
247,196,128481,2,0,L|242:157,3,39.3750015020371,2|2|2|2,0:0|0:0|0:0|0:0,0:0:0:0:
170,140,128731,5,6,0:0:0:0:
221,147,128793,1,2,0:0:0:0:
273,154,128856,1,2,0:0:0:0:
325,162,128919,1,2,0:0:0:0:
377,169,128982,5,2,0:0:0:0:
369,158,129044,1,2,0:0:0:0:
369,145,129107,1,2,0:0:0:0:
377,135,129170,1,2,0:0:0:0:
390,131,129233,6,0,L|449:139,3,52.5,6|0|2|0,0:0|0:0|0:0|0:0,0:0:0:0:
338,51,129484,6,0,L|397:43,1,39.3750015020371,10|2,0:0|0:0,0:0:0:0:
267,162,129609,2,0,L|326:170,1,39.3750015020371,2|2,0:0|0:0,0:0:0:0:
144,57,129735,5,6,0:0:0:0:
151,109,129797,1,2,0:0:0:0:
159,161,129860,1,2,0:0:0:0:
166,213,129923,1,2,0:0:0:0:
173,264,129986,5,2,0:0:0:0:
179,252,130048,1,2,0:0:0:0:
189,243,130111,1,2,0:0:0:0:
200,237,130174,1,2,0:0:0:0:
213,234,130237,5,6,0:0:0:0:
194,215,130298,1,2,0:0:0:0:
170,204,130359,1,2,0:0:0:0:
144,200,130420,1,2,0:0:0:0:
119,206,130481,6,0,L|111:147,3,52.5,2|0|2|0,0:0|0:0|0:0|0:0,0:0:0:0:
169,297,130726,6,0,L|173:263,1,34.1249984378815,2|2,0:0|0:0,0:0:0:0:
96,339,130849,2,0,L|91:305,1,34.1249984378815,2|2,0:0|0:0,0:0:0:0:
228,340,130971,1,14,0:0:0:0:
22,278,131094,1,2,0:0:0:0:
354,236,131216,5,8,0:0:0:0:
375,189,131278,1,8,0:0:0:0:
362,139,131341,1,8,0:0:0:0:
320,110,131403,1,8,0:0:0:0:
269,114,131466,1,8,0:0:0:0:
232,104,131528,1,8,0:0:0:0:
212,71,131591,1,8,0:0:0:0:
218,33,131653,1,8,0:0:0:0:
248,9,131716,6,0,P|220:21|189:86,1,94.499997116089,6|0,0:0|0:0,0:0:0:0:
217,161,131967,2,0,P|241:180|313:174,1,94.499997116089,2|0,0:0|0:0,0:0:0:0:
363,106,132218,2,0,P|367:75|326:15,1,94.499997116089,2|0,0:0|0:0,0:0:0:0:
184,69,132469,6,0,P|202:26|243:4,1,94.499997116089,14|0,0:0|0:0,0:0:0:0:
147,227,132720,2,0,P|100:232|61:208,1,94.499997116089,2|0,0:0|0:0,0:0:0:0:
302,180,132971,2,0,P|330:217|328:263,1,94.499997116089,2|0,0:0|0:0,0:0:0:0:
61,208,133222,6,0,P|107:202|146:226,1,94.499997116089,6|0,0:0|0:0,0:0:0:0:
241,4,133473,2,0,P|224:46|183:68,1,94.499997116089,2|0,0:0|0:0,0:0:0:0:
327,262,133724,2,0,P|299:226|300:180,1,94.499997116089,2|0,0:0|0:0,0:0:0:0:
427,158,133975,5,14,0:0:0:0:
427,158,134100,1,2,0:0:0:0:
427,158,134225,2,0,L|421:197,3,39.3750015020371,2|2|2|2,0:0|0:0|0:0|0:0,0:0:0:0:
411,277,134475,2,0,L|405:315,3,39.3750015020371,2|2|2|2,0:0|0:0|0:0|0:0,0:0:0:0:
275,282,134725,6,0,L|212:293,1,47.2499985580445,12|2,0:0|0:0,0:0:0:0:
172,220,134850,2,0,L|222:211,1,47.2499985580445,8|2,0:0|0:0,0:0:0:0:
213,310,134975,6,0,L|150:321,1,47.2499985580445,8|2,0:0|0:0,0:0:0:0:
110,247,135100,2,0,L|160:238,1,47.2499985580445,8|2,0:0|0:0,0:0:0:0:
151,337,135225,6,0,L|87:348,1,47.2499985580445,8|2,0:0|0:0,0:0:0:0:
48,275,135350,2,0,L|97:266,1,47.2499985580445,8|2,0:0|0:0,0:0:0:0:
286,300,135475,6,0,L|229:290,1,57.7500017623902,12|2,0:0|0:0,0:0:0:0:
147,161,135600,2,0,L|203:170,1,57.7500017623902,8|2,0:0|0:0,0:0:0:0:
365,265,135725,6,0,L|374:208,1,57.7500017623902,8|2,0:0|0:0,0:0:0:0:
267,124,135850,2,0,L|276:67,1,57.7500017623902,8|2,0:0|0:0,0:0:0:0:
494,171,135975,6,0,L|437:161,1,57.7500017623902,8|2,0:0|0:0,0:0:0:0:
339,20,136100,2,0,L|396:30,1,57.7500017623902,8|2,0:0|0:0,0:0:0:0:
511,97,136225,6,0,L|464:89,1,47.2499985580445,12|2,0:0|0:0,0:0:0:0:
342,98,136350,2,0,L|388:105,1,47.2499985580445,8|2,0:0|0:0,0:0:0:0:
476,181,136475,6,0,L|429:173,1,42,8|2,0:0|0:0,0:0:0:0:
366,202,136600,2,0,L|407:209,1,42,8|2,0:0|0:0,0:0:0:0:
457,323,136725,6,0,P|454:287|471:255,1,73.4999977569581,12|0,0:0|0:0,0:0:0:0:
206,30,139242,6,0,B|239:23|273:39|301:102|251:172|141:121|164:167|201:76|144:39|41:64|11:167|66:244|162:232|202:163|202:163|242:240|207:307|207:307|272:348|324:300|324:300|276:215|279:127|361:154|343:47|322:13|322:13|371:28|404:12|404:12|431:70|404:140|404:140|447:141|442:86|542:107|561:189|509:256|426:252|381:190|381:190|361:227|392:266|405:250|419:306|400:344|372:365,1,1780.8,2|0,0:0|0:0,0:0:0:0:
324,299,152867,6,0,B|222:344|143:242|231:62|427:174|318:301|484:295|484:295|422:195|489:46|489:46|448:91|328:118|328:118|322:177|387:222,1,1029.00001256104,2|0,0:0|0:0,0:0:0:0:
324,299,161992,6,0,B|308:325|270:346|270:346|146:315|120:170|201:227|164:95|61:58|61:58|-8:164|60:274|60:274|128:162|228:141|228:141|212:83|255:31|255:31|348:64|353:171|322:221|322:221|169:213|128:349,1,1497.29994973663,2|0,0:0|0:0,0:0:0:0:
132,339,170742,6,0,B|163:279|129:207|95:255|71:168|104:122,2,231,2|0|0,0:0|0:0|0:0,0:0:0:0:
132,339,176742,2,0,B|162:255|261:254|261:254|285:323|366:332|366:332|402:246|349:195|349:195|406:211|448:168,1,554.400013535157,2|0,0:0|0:0,0:0:0:0:
376,97,182742,6,0,B|260:-1|90:17|13:142|148:210|206:173|216:126|216:126|215:193|232:226|232:226|189:253|128:240|128:240|152:285|155:325|155:325|216:327|265:299,1,869.400021225587,2|0,0:0|0:0,0:0:0:0:
386,257,188742,6,0,B|344:225|372:168|430:145|495:197|510:261|468:351|383:359|336:320|336:320|318:353|318:353|276:316|208:338,1,525,2|0,0:0|0:0,0:0:0:0:
212,336,191742,5,2,0:0:0:0:
212,336,192313,1,0,0:0:0:0:
160,270,192884,1,2,0:0:0:0:
160,270,193456,1,0,0:0:0:0:
109,204,194027,5,2,0:0:0:0:
109,204,194599,1,0,0:0:0:0:
57,138,195170,1,2,0:0:0:0:
26,216,195742,1,2,0:0:0:0:
109,204,196313,6,0,P|148:210|188:243,1,62.9999980773926,2|0,0:0|0:0,0:0:0:0:
230,274,196884,2,0,P|270:274|315:249,1,62.9999980773926,0|0,0:0|0:0,0:0:0:0:
344,205,197456,2,0,L|346:116,1,62.9999980773926,2|0,0:0|0:0,0:0:0:0:
265,150,198027,2,0,L|267:61,1,62.9999980773926,0|0,0:0|0:0,0:0:0:0:
114,199,198599,6,0,P|153:205|193:238,1,62.9999980773926,2|0,0:0|0:0,0:0:0:0:
235,269,199170,2,0,P|275:269|320:244,1,62.9999980773926,0|0,0:0|0:0,0:0:0:0:
350,200,199742,2,0,L|352:111,1,62.9999980773926,2|0,0:0|0:0,0:0:0:0:
270,146,200313,2,0,L|272:57,1,62.9999980773926,0|0,0:0|0:0,0:0:0:0:
185,88,200884,5,2,0:0:0:0:
109,52,201456,1,0,0:0:0:0:
51,113,202027,1,2,0:0:0:0:
91,186,202599,1,0,0:0:0:0:
174,171,203170,1,2,0:0:0:0:
229,236,203742,1,2,0:0:0:0:
257,156,204313,1,0,0:0:0:0:
312,221,204884,1,2,0:0:0:0:
340,141,205456,6,0,P|368:112|413:100,1,62.9999980773926,2|0,0:0|0:0,0:0:0:0:
464,134,206027,2,0,P|475:172|463:217,1,62.9999980773926
409,245,206599,2,0,P|369:235|336:202,1,62.9999980773926,2|0,0:0|0:0,0:0:0:0:
231,120,207170,6,0,L|139:158,1,73.4999977569581,2|0,0:0|0:0,0:0:0:0:
284,251,207742,2,0,P|298:218|293:182,1,73.4999977569581,2|0,0:0|0:0,0:0:0:0:
143,237,208313,2,0,P|164:266|198:279,1,73.4999977569581
232,91,208884,6,0,L|140:129,1,73.4999977569581,2|0,0:0|0:0,0:0:0:0:
333,286,209456,2,0,L|400:257,1,73.4999977569581,2|0,0:0|0:0,0:0:0:0:
422,159,210027,5,2,0:0:0:0:
422,159,210313,1,0,0:0:0:0:
355,82,210599,1,2,0:0:0:0:
355,82,210885,1,0,0:0:0:0:
254,101,211170,1,2,0:0:0:0:
254,101,211456,1,0,0:0:0:0:
321,178,211742,1,2,0:0:0:0:
321,178,212027,1,0,0:0:0:0:
355,82,212313,5,2,0:0:0:0:
355,82,212599,1,0,0:0:0:0:
288,5,212885,1,2,0:0:0:0:
288,5,213171,1,0,0:0:0:0:
187,24,213456,1,2,0:0:0:0:
187,24,213742,1,0,0:0:0:0:
254,101,214028,1,2,0:0:0:0:
254,101,214313,1,0,0:0:0:0:
247,221,214599,6,0,P|219:219|185:211,1,42,2|0,0:0|0:0,0:0:0:0:
140,273,214884,2,0,P|127:247|117:214,1,42,2|0,0:0|0:0,0:0:0:0:
41,206,215170,2,0,P|56:182|117:138,1,84,2|0,0:0|0:0,0:0:0:0:
258,229,215742,6,0,P|227:224|191:212,1,42,2|0,0:0|0:0,0:0:0:0:
135,276,216027,2,0,P|124:247|117:210,1,42,2|0,0:0|0:0,0:0:0:0:
33,193,216313,2,0,P|53:169|123:126,1,84,2|0,0:0|0:0,0:0:0:0:
266,240,216884,6,0,P|234:232|196:216,1,42,2|0,0:0|0:0,0:0:0:0:
131,278,217170,2,0,P|121:245|116:202,1,42,2|0,0:0|0:0,0:0:0:0:
29,180,217456,2,0,P|52:156|132:117,1,84,2|0,0:0|0:0,0:0:0:0:
271,252,218027,6,0,P|238:240|200:220,1,42,2|0,0:0|0:0,0:0:0:0:
126,280,218313,2,0,P|120:245|118:202,1,42,2|0,0:0|0:0,0:0:0:0:
54,78,218599,2,0,P|106:103|151:106,1,84,2|0,0:0|0:0,0:0:0:0:
277,73,219170,5,2,0:0:0:0:
341,128,219456,1,0,0:0:0:0:
421,101,219742,1,2,0:0:0:0:
406,184,220027,1,0,0:0:0:0:
470,239,220313,5,2,0:0:0:0:
390,266,220599,1,0,0:0:0:0:
375,349,220884,1,2,0:0:0:0:
311,294,221170,1,0,0:0:0:0:
231,321,221456,5,2,0:0:0:0:
246,238,221742,1,0,0:0:0:0:
182,183,222027,1,2,0:0:0:0:
262,156,222313,1,0,0:0:0:0:
277,73,222599,5,2,0:0:0:0:
341,128,222884,1,0,0:0:0:0:
421,101,223170,1,2,0:0:0:0:
406,184,223455,1,0,0:0:0:0:
262,156,223742,6,0,P|246:138|236:107,1,42,2|0,0:0|0:0,0:0:0:0:
188,218,224027,2,0,P|183:194|189:162,1,42,2|0,0:0|0:0,0:0:0:0:
93,234,224313,2,0,P|100:211|122:186,1,42,2|0,0:0|0:0,0:0:0:0:
2,200,224599,2,0,P|20:183|51:174,1,42,2|0,0:0|0:0,0:0:0:0:
123,210,224884,6,0,P|108:224|98:243,1,42,2|0,0:0|0:0,0:0:0:0:
235,210,225170,2,0,P|214:215|197:226,1,42,2|0,0:0|0:0,0:0:0:0:
331,266,225456,2,0,P|310:260|289:261,1,42,2|0,0:0|0:0,0:0:0:0:
387,362,225742,2,0,P|372:347|353:337,1,42,2|0,0:0|0:0,0:0:0:0:
481,194,226027,6,0,L|485:142,1,42,2|0,0:0|0:0,0:0:0:0:
393,146,226313,2,0,L|389:94,1,42,2|0,0:0|0:0,0:0:0:0:
323,258,226599,2,0,L|327:206,1,42,2|0,0:0|0:0,0:0:0:0:
235,210,226885,2,0,L|231:158,1,42,2|0,0:0|0:0,0:0:0:0:
470,155,227170,6,0,L|467:197,1,42,2|0,0:0|0:0,0:0:0:0:
375,107,227456,2,0,L|379:149,1,42,2|0,0:0|0:0,0:0:0:0:
312,219,227742,2,0,L|309:261,1,42,2|0,0:0|0:0,0:0:0:0:
217,171,228027,2,0,L|221:213,1,42,2|0,0:0|0:0,0:0:0:0:
34,203,228313,5,2,0:0:0:0:
111,179,228599,1,2,0:0:0:0:
129,350,228884,2,0,P|149:354|185:352,1,47.2499985580445
131,358,229170,2,0,P|151:362|187:360,1,47.2499985580445,0|0,0:0|0:0,0:0:0:0:
20,194,229456,5,2,0:0:0:0:
96,152,229742,1,2,0:0:0:0:
174,331,230027,2,0,P|194:331|229:323,1,47.2499985580445,2|0,0:0|0:0,0:0:0:0:
177,338,230313,2,0,P|197:338|232:330,1,47.2499985580445,0|0,0:0|0:0,0:0:0:0:
13,185,230599,5,2,0:0:0:0:
86,124,230885,1,2,0:0:0:0:
240,291,231170,2,0,P|260:287|293:273,1,47.2499985580445,2|0,0:0|0:0,0:0:0:0:
244,297,231456,2,0,P|264:293|297:279,1,47.2499985580445,0|0,0:0|0:0,0:0:0:0:
0,171,231742,5,2,0:0:0:0:
68,88,232028,1,2,0:0:0:0:
302,237,232313,2,0,P|321:230|351:210,1,47.2499985580445,2|0,0:0|0:0,0:0:0:0:
306,242,232599,2,0,P|325:235|355:215,1,47.2499985580445,0|0,0:0|0:0,0:0:0:0:
403,126,232884,5,2,0:0:0:0:
403,126,233456,1,0,0:0:0:0:
322,57,234027,1,2,0:0:0:0:
322,57,234599,1,0,0:0:0:0:
253,138,235170,1,2,0:0:0:0:
253,138,235742,1,0,0:0:0:0:
334,207,236313,1,2,0:0:0:0:
322,57,236885,1,2,0:0:0:0:
198,142,237456,6,0,L|163:136,1,31.4999990386963
192,153,237742,2,0,L|157:147,1,31.4999990386963,0|0,0:0|0:0,0:0:0:0:
130,268,238027,2,0,L|124:303,1,31.4999990386963,2|0,0:0|0:0,0:0:0:0:
141,274,238313,2,0,L|135:309,1,31.4999990386963,0|0,0:0|0:0,0:0:0:0:
255,317,238599,2,0,L|261:352,1,31.4999990386963,2|0,0:0|0:0,0:0:0:0:
244,323,238885,2,0,L|250:358,1,31.4999990386963,0|0,0:0|0:0,0:0:0:0:
375,293,239170,2,0,L|410:287,1,31.4999990386963,2|0,0:0|0:0,0:0:0:0:
381,304,239456,2,0,L|416:298,1,31.4999990386963,0|0,0:0|0:0,0:0:0:0:
506,311,239742,6,0,P|471:243|479:173,1,147,2|0,0:0|0:0,0:0:0:0:
512,84,240884,6,0,L|130:91,1,378,2|0,0:0|0:0,0:0:0:0:
69,140,243384,6,0,L|64:203,1,63,2|0,0:0|0:0,0:0:0:0:
64,202,244134,2,0,L|104:193,2,42
34,291,244884,2,0,L|98:276,1,63
95,277,245634,2,0,L|91:321,2,42
186,194,246384,6,0,P|221:187|272:233,1,105,2|0,0:0|0:0,0:0:0:0:
270,228,246759,1,0,0:0:0:0:
270,228,246884,1,0,0:0:0:0:
370,346,247134,2,0,L|374:278,1,52.5
450,333,247384,2,0,L|454:265,1,52.5
451,166,247634,6,0,P|416:159|365:205,1,105,2|0,0:0|0:0,0:0:0:0:
366,200,248009,1,0,0:0:0:0:
366,200,248134,1,0,0:0:0:0:
299,89,248384,2,0,P|261:74|237:77,1,52.5
186,194,248634,2,0,P|211:191|234:179,1,52.5
93,124,248884,6,0,B|115:178|81:168|104:232,1,105,2|0,0:0|0:0,0:0:0:0:
102,226,249259,1,0,0:0:0:0:
102,226,249384,1,0,0:0:0:0:
286,174,249634,2,0,P|250:174|213:188,1,52.5
326,289,249884,2,0,P|294:271|255:265,1,52.5
424,201,250134,2,0,P|388:201|351:215,1,52.5
173,359,250384,6,0,P|179:300|137:247,1,105,2|0,0:0|0:0,0:0:0:0:
157,261,250759,1,0,0:0:0:0:
157,261,250884,1,0,0:0:0:0:
191,75,251134,2,0,P|177:110|174:138,1,52.5
322,47,251384,2,0,P|292:70|275:93,1,52.5
449,88,251634,2,0,P|411:93|385:104,1,52.5
468,303,251884,6,0,P|484:224|431:185,1,136.499993751526,2|0,0:0|0:0,0:0:0:0:
407,195,252259,1,0,0:0:0:0:
366,201,252384,2,0,L|362:263,1,52.5
189,384,252634,2,0,L|184:299,1,68.2499968757631,2|0,0:0|0:0,0:0:0:0:
285,125,252884,2,0,L|280:210,1,68.2499968757631,2|0,0:0|0:0,0:0:0:0:
35,271,253134,6,0,P|19:192|72:153,1,136.499993751526,2|0,0:0|0:0,0:0:0:0:
96,163,253509,1,0,0:0:0:0:
137,169,253634,2,0,L|141:238,1,52.5
308,41,253884,2,0,L|303:126,1,68.2499968757631,2|0,0:0|0:0,0:0:0:0:
88,6,254134,2,0,L|93:91,1,68.2499968757631,2|0,0:0|0:0,0:0:0:0:
228,287,254384,6,0,B|321:284|263:256|372:251,1,136.499993751526,2|0,0:0|0:0,0:0:0:0:
398,255,254759,1,0,0:0:0:0:
430,279,254884,2,0,P|427:251|448:212,1,52.5
224,139,255134,2,0,P|240:168|238:202,1,68.2499968757631,2|0,0:0|0:0,0:0:0:0:
400,71,255384,2,0,P|397:104|414:134,1,68.2499968757631,2|0,0:0|0:0,0:0:0:0:
298,351,255634,2,0,P|314:321|312:287,1,68.2499968757631,2|0,0:0|0:0,0:0:0:0:
146,186,255884,6,0,P|76:216|4:201,1,136.499993751526,2|0,0:0|0:0,0:0:0:0:
33,169,256259,1,0,0:0:0:0:
48,131,256384,2,0,L|47:206,1,52.5
241,94,256634,2,0,L|163:47,1,68.2499968757631,2|0,0:0|0:0,0:0:0:0:
74,301,256884,2,0,L|72:391,1,68.2499968757631,2|0,0:0|0:0,0:0:0:0:
336,341,257134,2,0,L|414:296,1,68.2499968757631,2|0,0:0|0:0,0:0:0:0:
455,75,257384,6,0,P|467:111|466:174,1,78.7500030040742,2|0,0:0|0:0,0:0:0:0:
439,230,257634,1,0,0:0:0:0:
385,164,257759,1,2,0:0:0:0:
355,243,257884,1,0,0:0:0:0:
112,75,258134,2,0,L|93:170,1,78.7500030040742,2|0,0:0|0:0,0:0:0:0:
269,1,258384,2,0,L|250:96,1,78.7500030040742,2|0,0:0|0:0,0:0:0:0:
132,373,258634,6,0,L|147:295,1,78.7500030040742,2|0,0:0|0:0,0:0:0:0:
164,210,258884,1,0,0:0:0:0:
81,239,259009,1,2,0:0:0:0:
97,153,259134,1,0,0:0:0:0:
395,306,259384,6,0,L|376:211,1,78.7500030040742,2|0,0:0|0:0,0:0:0:0:
508,353,259634,2,0,L|489:258,1,78.7500030040742,2|0,0:0|0:0,0:0:0:0:
425,38,259884,5,2,0:0:0:0:
402,133,260009,1,0,0:0:0:0:
495,105,260134,1,0,0:0:0:0:
309,161,260259,5,2,0:0:0:0:
402,133,260384,1,0,0:0:0:0:
332,66,260509,1,0,0:0:0:0:
157,133,260634,2,0,L|172:210,1,78.7500030040742,2|0,0:0|0:0,0:0:0:0:
429,353,260884,2,0,L|410:258,1,78.7500030040742,2|0,0:0|0:0,0:0:0:0:
77,272,261134,2,0,L|61:349,1,78.7500030040742,2|0,0:0|0:0,0:0:0:0:
343,178,261384,5,2,0:0:0:0:
294,82,261509,1,0,0:0:0:0:
187,77,261634,1,0,0:0:0:0:
285,269,261759,5,2,0:0:0:0:
343,178,261884,1,0,0:0:0:0:
294,82,262009,1,0,0:0:0:0:
36,230,262134,6,0,B|81:243|81:243|98:240|98:240|141:253,1,94.499997116089,2|0,0:0|0:0,0:0:0:0:
486,315,262384,2,0,B|441:328|441:328|424:325|424:325|381:338,1,94.499997116089,2|0,0:0|0:0,0:0:0:0:
146,58,262634,2,0,B|191:71|191:71|208:68|208:68|251:81,1,94.499997116089,2|0,0:0|0:0,0:0:0:0:
237,77,263884,5,6,0:0:0:0:
238,128,263946,1,8,0:0:0:0:
272,167,264009,1,2,0:0:0:0:
322,177,264071,1,8,0:0:0:0:
368,153,264134,1,2,0:0:0:0:
415,130,264196,1,8,0:0:0:0:
465,140,264258,1,2,0:0:0:0:
499,179,264321,1,8,0:0:0:0:
501,231,264384,5,2,0:0:0:0:
488,194,264446,1,8,0:0:0:0:
456,172,264509,1,2,0:0:0:0:
418,174,264571,1,8,0:0:0:0:
389,200,264634,1,2,0:0:0:0:
388,226,264696,1,8,0:0:0:0:
388,252,264759,1,2,0:0:0:0:
388,278,264821,1,8,0:0:0:0:
387,304,264884,6,0,L|446:285,3,52.5,6|2|2|2,0:0|0:0|0:0|0:0,0:0:0:0:
226,367,265134,2,0,L|167:348,3,52.5,6|2|2|2,0:0|0:0|0:0|0:0,0:0:0:0:
226,281,265384,1,2,0:0:0:0:
227,268,265446,1,2,0:0:0:0:
227,255,265509,5,6,0:0:0:0:
190,266,265571,1,8,0:0:0:0:
154,251,265634,1,2,0:0:0:0:
136,217,265696,1,8,0:0:0:0:
119,184,265759,1,2,0:0:0:0:
83,169,265821,1,8,0:0:0:0:
47,181,265884,5,2,0:0:0:0:
81,197,265946,1,8,0:0:0:0:
120,192,266009,1,2,0:0:0:0:
148,165,266071,1,8,0:0:0:0:
157,127,266134,1,2,0:0:0:0:
143,91,266196,1,8,0:0:0:0:
111,69,266259,1,2,0:0:0:0:
72,69,266321,1,8,0:0:0:0:
40,91,266384,5,6,0:0:0:0:
77,128,266446,1,8,0:0:0:0:
127,142,266509,1,2,0:0:0:0:
178,131,266571,1,8,0:0:0:0:
217,97,266634,1,2,0:0:0:0:
256,63,266696,1,8,0:0:0:0:
307,52,266759,1,2,0:0:0:0:
356,66,266821,1,8,0:0:0:0:
394,103,266884,6,0,L|381:187,3,52.5,6|2|2|2,0:0|0:0|0:0|0:0,0:0:0:0:
255,217,267134,2,0,L|263:268,3,52.5,6|2|2|2,0:0|0:0|0:0|0:0,0:0:0:0:
342,349,267384,6,0,L|303:343,3,39.3750015020371,2|2|2|2,0:0|0:0|0:0|0:0,0:0:0:0:
357,262,267634,2,0,L|396:256,3,39.3750015020371,2|2|2|2,0:0|0:0|0:0|0:0,0:0:0:0:
474,116,267884,5,6,0:0:0:0:
440,96,267946,1,8,0:0:0:0:
401,94,268009,1,2,0:0:0:0:
365,109,268071,1,8,0:0:0:0:
339,138,268134,1,2,0:0:0:0:
315,150,268196,1,8,0:0:0:0:
289,153,268259,1,2,0:0:0:0:
264,147,268321,1,8,0:0:0:0:
242,133,268384,5,2,0:0:0:0:
260,167,268446,1,8,0:0:0:0:
260,206,268509,1,2,0:0:0:0:
241,240,268571,1,8,0:0:0:0:
209,262,268634,1,2,0:0:0:0:
170,267,268696,1,8,0:0:0:0:
138,243,268759,1,2,0:0:0:0:
99,246,268821,1,8,0:0:0:0:
70,274,268884,6,0,L|78:341,3,52.5,6|2|2|2,0:0|0:0|0:0|0:0,0:0:0:0:
0,194,269134,2,0,L|8:127,3,52.5,6|2|2|2,0:0|0:0|0:0|0:0,0:0:0:0:
227,109,269384,5,6,0:0:0:0:
158,118,269467,1,2,0:0:0:0:
89,126,269550,1,2,0:0:0:0:
87,136,269634,1,2,0:0:0:0:
85,146,269717,1,2,0:0:0:0:
83,156,269800,1,6,0:0:0:0:
223,185,269884,6,0,L|207:318,2,70,4|0|2,0:0|0:0|0:0,0:0:0:0:
169,117,270134,5,10,0:0:0:0:
167,127,270217,1,2,0:0:0:0:
166,137,270300,1,2,0:0:0:0:
115,49,270384,5,4,0:0:0:0:
113,59,270467,1,2,0:0:0:0:
112,69,270550,1,2,0:0:0:0:
223,185,270634,5,6,0:0:0:0:
292,176,270717,1,2,0:0:0:0:
361,168,270800,1,2,0:0:0:0:
359,178,270884,1,2,0:0:0:0:
357,188,270967,1,2,0:0:0:0:
356,198,271050,1,6,0:0:0:0:
322,107,271134,6,0,L|313:37,2,70,4|0|2,0:0|0:0|0:0,0:0:0:0:
456,116,271384,5,8,0:0:0:0:
456,116,271509,2,0,L|462:57,1,34.1249984378815,2|2,0:0|0:0,0:0:0:0:
433,245,271634,5,8,0:0:0:0:
428,284,271696,1,8,0:0:0:0:
423,323,271759,1,2,0:0:0:0:
416,319,271821,1,2,0:0:0:0:
409,315,271884,5,6,0:0:0:0:
384,269,271946,1,8,0:0:0:0:
336,250,272009,1,2,0:0:0:0:
287,265,272071,1,8,0:0:0:0:
258,308,272134,1,2,0:0:0:0:
212,330,272196,1,8,0:0:0:0:
163,316,272259,1,2,0:0:0:0:
137,271,272321,1,8,0:0:0:0:
149,221,272384,5,2,0:0:0:0:
171,208,272446,1,8,0:0:0:0:
183,185,272509,1,2,0:0:0:0:
182,159,272571,1,8,0:0:0:0:
167,138,272634,2,0,L|105:147,3,47.2499985580445,2|8|2|8,0:0|0:0|0:0|0:0,0:0:0:0:
302,32,272884,6,0,B|341:37|341:37|362:58,3,52.5,6|8|2|8,0:0|0:0|0:0|0:0,0:0:0:0:
512,145,273134,2,0,B|473:150|473:150|452:171,3,52.5,6|8|2|8,0:0|0:0|0:0|0:0,0:0:0:0:
370,193,273384,5,2,0:0:0:0:
382,215,273445,1,8,0:0:0:0:
401,234,273507,1,2,0:0:0:0:
423,247,273569,1,8,0:0:0:0:
449,254,273631,1,2,0:0:0:0:
475,254,273693,1,8,0:0:0:0:
500,247,273755,5,6,0:0:0:0:
461,230,273817,1,8,0:0:0:0:
421,242,273879,1,2,0:0:0:0:
396,275,273941,1,8,0:0:0:0:
371,309,274003,1,2,0:0:0:0:
331,320,274065,1,8,0:0:0:0:
294,305,274127,2,0,L|283:213,1,78.7500030040742,2|2,0:0|0:0,0:0:0:0:
135,120,274375,5,8,0:0:0:0:
140,172,274437,1,8,0:0:0:0:
146,224,274499,1,2,0:0:0:0:
138,221,274561,1,2,0:0:0:0:
131,218,274623,5,10,0:0:0:0:
174,190,274685,1,8,0:0:0:0:
225,195,274748,1,8,0:0:0:0:
261,232,274810,1,8,0:0:0:0:
265,284,274873,1,8,0:0:0:0:
286,316,274936,1,8,0:0:0:0:
321,333,274998,1,8,0:0:0:0:
359,328,275061,1,8,0:0:0:0:
389,304,275124,2,0,L|381:234,3,39.3750015020371,2|2|2|2,0:0|0:0|0:0|0:0,0:0:0:0:
326,40,275374,5,6,0:0:0:0:
380,111,275497,1,8,0:0:0:0:
291,122,275621,1,2,0:0:0:0:
380,111,275745,1,8,0:0:0:0:
217,89,275869,1,2,0:0:0:0:
453,143,275993,1,8,0:0:0:0:
217,89,276117,2,0,L|105:63,1,105,2|8,0:0|0:0,0:0:0:0:
243,199,276365,5,2,0:0:0:0:
243,199,276427,1,2,0:0:0:0:
243,199,276489,1,8,0:0:0:0:
115,169,276613,1,2,0:0:0:0:
115,169,276737,1,8,0:0:0:0:
161,315,276861,2,0,B|186:298|186:298|274:319,1,105,2|8,0:0|0:0,0:0:0:0:
182,94,277109,2,0,L|70:68,1,105,6|8,0:0|0:0,0:0:0:0:
342,260,277357,5,6,0:0:0:0:
390,169,277482,1,8,0:0:0:0:
396,347,277608,1,2,0:0:0:0:
396,347,277670,1,2,0:0:0:0:
396,347,277733,1,8,0:0:0:0:
288,173,277859,5,2,0:0:0:0:
444,256,277984,1,8,0:0:0:0:
336,82,278110,1,2,0:0:0:0:
492,165,278235,1,8,0:0:0:0:
319,265,278361,6,0,L|328:344,2,52.5,2|2|8,0:0|0:0|0:0,0:0:0:0:
469,274,278612,2,0,L|454:402,1,105,2|8,0:0|0:0,0:0:0:0:
292,115,278863,5,6,0:0:0:0:
302,107,278926,1,2,0:0:0:0:
314,101,278990,1,2,0:0:0:0:
327,98,279054,1,2,0:0:0:0:
340,96,279118,5,10,0:0:0:0:
328,119,279182,1,8,0:0:0:0:
323,145,279245,1,8,0:0:0:0:
324,171,279309,1,8,0:0:0:0:
331,196,279373,6,0,L|201:169,1,105,6|8,0:0|0:0,0:0:0:0:
125,152,279621,1,2,0:0:0:0:
195,74,279746,1,8,0:0:0:0:
157,251,279870,1,2,0:0:0:0:
157,251,279933,1,2,0:0:0:0:
157,251,279995,1,8,0:0:0:0:
125,152,280119,1,2,0:0:0:0:
88,330,280244,1,8,0:0:0:0:
56,231,280368,5,2,0:0:0:0:
56,231,280491,1,8,0:0:0:0:
264,226,280615,2,0,L|243:329,1,105,2|8,0:0|0:0,0:0:0:0:
369,182,280863,2,0,B|380:208|380:208|363:291,1,105,2|8,0:0|0:0,0:0:0:0:
125,152,281111,5,8,0:0:0:0:
134,101,281174,1,8,0:0:0:0:
175,70,281238,1,8,0:0:0:0:
226,73,281302,1,8,0:0:0:0:
261,110,281366,5,6,0:0:0:0:
240,213,281491,1,8,0:0:0:0:
367,141,281616,1,2,0:0:0:0:
367,141,281678,1,2,0:0:0:0:
367,141,281741,1,8,0:0:0:0:
172,253,281866,5,2,0:0:0:0:
195,142,281991,1,8,0:0:0:0:
173,332,282116,1,2,0:0:0:0:
300,260,282241,1,8,0:0:0:0:
104,293,282366,5,2,0:0:0:0:
346,330,282491,1,8,0:0:0:0:
172,253,282617,5,2,0:0:0:0:
173,244,282679,1,2,0:0:0:0:
175,236,282742,1,2,0:0:0:0:
177,228,282804,1,2,0:0:0:0:
166,218,282867,5,2,0:0:0:0:
167,209,282929,1,2,0:0:0:0:
169,201,282992,1,2,0:0:0:0:
171,193,283054,1,2,0:0:0:0:
160,183,283117,5,12,0:0:0:0:
197,190,283180,1,8,0:0:0:0:
232,174,283242,1,8,0:0:0:0:
251,140,283305,1,8,0:0:0:0:
245,102,283367,6,0,P|223:75|149:78,1,94.499997116089,6|0,0:0|0:0,0:0:0:0:
377,193,283617,2,0,P|404:171|401:97,1,94.499997116089,2|0,0:0|0:0,0:0:0:0:
286,325,283867,2,0,P|308:352|382:349,1,94.499997116089,2|0,0:0|0:0,0:0:0:0:
154,234,284117,2,0,P|127:256|130:330,1,94.499997116089,6|0,0:0|0:0,0:0:0:0:
289,228,284367,6,0,L|297:180,3,39.3750015020371,2|2|2|2,0:0|0:0|0:0|0:0,0:0:0:0:
225,146,284617,2,0,L|217:98,3,39.3750015020371,2|2|2|2,0:0|0:0|0:0|0:0,0:0:0:0:
286,10,284867,6,0,P|317:43|317:89,1,94.499997116089,14|0,0:0|0:0,0:0:0:0:
391,337,285117,2,0,P|346:347|307:325,1,94.499997116089,2|0,0:0|0:0,0:0:0:0:
55,266,285367,2,0,P|68:222|107:199,1,94.499997116089,2|0,0:0|0:0,0:0:0:0:
218,107,285617,6,0,L|225:146,3,39.3750015020371,6|2|2|2,0:0|0:0|0:0|0:0,0:0:0:0:
295,189,285867,2,0,L|289:228,3,39.3750015020371,2|2|2|2,0:0|0:0|0:0|0:0,0:0:0:0:
218,271,286117,2,0,L|225:310,3,39.3750015020371,2|2|2|2,0:0|0:0|0:0|0:0,0:0:0:0:
137,237,286367,5,6,0:0:0:0:
212,154,286492,1,0,0:0:0:0:
57,202,286617,1,2,0:0:0:0:
212,154,286742,1,0,0:0:0:0:
137,237,286867,1,2,0:0:0:0:
132,119,286992,1,0,0:0:0:0:
218,271,287117,5,6,0:0:0:0:
132,119,287242,1,2,0:0:0:0:
181,308,287367,6,0,L|170:265,1,39.3750015020371,2|2,0:0|0:0,0:0:0:0:
132,119,287492,2,0,L|121:76,1,39.3750015020371,2|2,0:0|0:0,0:0:0:0:
153,336,287617,6,0,L|145:290,1,44.6250008511543,2|2,0:0|0:0,0:0:0:0:
117,129,287742,2,0,L|109:83,1,44.6250008511543,2|2,0:0|0:0,0:0:0:0:
73,336,287867,6,0,B|62:279|62:279|87:220,1,89.2500017023087,12|0,0:0|0:0,0:0:0:0:
212,154,288117,5,2,0:0:0:0:
212,154,288242,1,0,0:0:0:0:
117,129,288367,1,2,0:0:0:0:
282,85,288492,1,2,0:0:0:0:
142,223,288617,6,0,L|185:179,1,44.6250008511543,6|2,0:0|0:0,0:0:0:0:
282,85,288742,2,0,L|325:41,1,44.6250008511543,2|2,0:0|0:0,0:0:0:0:
152,261,288867,6,0,L|196:207,1,52.5,2|2,0:0|0:0,0:0:0:0:
295,92,288992,2,0,L|339:38,1,52.5,2|2,0:0|0:0,0:0:0:0:
171,295,289117,6,0,L|214:233,1,60.3750011515618,2|2,0:0|0:0,0:0:0:0:
309,98,289242,2,0,L|352:36,1,60.3750011515618,2|2,0:0|0:0,0:0:0:0:
300,288,289367,6,0,P|314:332|353:357,1,94.499997116089,6|0,0:0|0:0,0:0:0:0:
394,218,289617,2,0,P|433:243|447:287,1,94.499997116089,2|0,0:0|0:0,0:0:0:0:
316,211,289867,2,0,L|277:159,3,39.3750015020371,2|2|2|2,0:0|0:0|0:0|0:0,0:0:0:0:
213,170,290117,6,0,P|174:145|160:101,1,94.499997116089,14|0,0:0|0:0,0:0:0:0:
389,193,290367,2,0,P|385:240|355:274,1,94.499997116089,2|0,0:0|0:0,0:0:0:0:
322,29,290617,2,0,P|362:8|407:17,1,94.499997116089,2|0,0:0|0:0,0:0:0:0:
316,211,290867,6,0,L|277:159,3,39.3750015020371,2|2|2|2,0:0|0:0|0:0|0:0,0:0:0:0:
220,199,291117,2,0,P|189:233|186:280,1,94.499997116089,6|0,0:0|0:0,0:0:0:0:
316,211,291367,2,0,L|292:179,3,39.3750015020371,2|2|2|2,0:0|0:0|0:0|0:0,0:0:0:0:
133,124,291617,6,0,L|-1:130,1,94.499997116089,12|0,0:0|0:0,0:0:0:0:
318,74,291867,2,0,B|274:54|274:54|242:16,1,94.499997116089,4|0,0:0|0:0,0:0:0:0:
464,261,292117,2,0,B|431:224|431:224|443:168,1,94.499997116089,4|0,0:0|0:0,0:0:0:0:
471,25,292367,5,6,0:0:0:0:
471,25,292492,1,0,0:0:0:0:
396,52,292617,1,2,0:0:0:0:
471,25,292742,1,8,0:0:0:0:
381,130,292867,1,2,0:0:0:0:
336,1,292992,1,0,0:0:0:0:
366,208,293117,5,8,0:0:0:0:
396,52,293242,1,2,0:0:0:0:
409,280,293368,5,8,0:0:0:0:
358,224,293452,1,8,0:0:0:0:
283,208,293536,1,8,0:0:0:0:
215,240,293620,1,8,0:0:0:0:
147,272,293704,1,8,0:0:0:0:
72,256,293788,1,8,0:0:0:0:
21,200,293872,5,6,0:0:0:0:
55,201,293956,1,2,0:0:0:0:
87,215,294040,1,2,0:0:0:0:
111,240,294124,1,2,0:0:0:0:
125,272,294208,1,2,0:0:0:0:
125,307,294292,1,2,0:0:0:0:
113,339,294376,2,0,P|89:365|58:380,2,52.5000020027161,2|2|2,0:0|0:0|0:0,0:0:0:0:
205,266,294628,5,2,0:0:0:0:
224,258,294691,1,2,0:0:0:0:
245,258,294754,1,2,0:0:0:0:
265,266,294817,1,2,0:0:0:0:
281,279,294880,5,12,0:0:0:0:
257,232,294943,1,8,0:0:0:0:
275,182,295006,1,8,0:0:0:0:
320,156,295069,1,8,0:0:0:0:
351,119,295132,1,8,0:0:0:0:
358,77,295195,1,8,0:0:0:0:
346,38,295258,1,2,0:0:0:0:
119,135,295384,5,6,0:0:0:0:
469,333,296033,1,4,0:0:0:0:
469,333,296545,6,0,L|464:378,5,26.25
477,254,296928,1,2,0:0:0:0:
319,293,297169,6,0,B|322:321|322:321|320:322|320:322|322:322|322:322|328:374,5,52.5
305,166,297532,1,2,0:0:0:0:
23,231,297895,5,4,0:0:0:0:
60,24,298138,1,4,0:0:0:0:
220,159,298382,1,4,0:0:0:0:
505,51,298633,5,6,0:0:0:0:
267,356,299258,1,6,0:0:0:0:
338,317,299445,5,8,0:0:0:0:
322,295,299507,1,8,0:0:0:0:
301,280,299570,1,8,0:0:0:0:
276,273,299632,1,8,0:0:0:0:
250,275,299695,1,8,0:0:0:0:
226,286,299758,2,0,L|219:209,1,39.3750015020371,2|2,0:0|0:0,0:0:0:0:
155,354,299883,5,8,0:0:0:0:
151,314,299945,1,8,0:0:0:0:
147,275,300008,1,8,0:0:0:0:
144,236,300070,1,8,0:0:0:0:
140,197,300133,1,8,0:0:0:0:
63,233,300258,1,2,0:0:0:0:
82,112,300383,5,2,0:0:0:0:
101,145,300445,1,2,0:0:0:0:
136,163,300508,1,2,0:0:0:0:
174,160,300570,1,2,0:0:0:0:
206,137,300633,2,0,L|212:203,1,52.5,8|2,0:0|0:0,0:0:0:0:
147,36,300758,2,0,L|151:88,1,52.5,8|2,0:0|0:0,0:0:0:0:
296,238,300883,5,10,0:0:0:0:
342,232,300945,1,8,0:0:0:0:
379,204,301008,1,10,0:0:0:0:
398,161,301070,1,8,0:0:0:0:
393,115,301133,5,2,0:0:0:0:
392,122,301195,1,2,0:0:0:0:
391,130,301258,1,2,0:0:0:0:
390,138,301320,1,2,0:0:0:0:
390,146,301383,2,0,L|425:142,3,26.25,2|2|2|8,0:0|0:0|0:0|0:0,0:0:0:0:
312,152,301633,5,6,0:0:0:0:
196,292,301758,1,8,0:0:0:0:
373,246,301883,1,8,0:0:0:0:
203,180,302008,1,8,0:0:0:0:
302,333,302133,1,8,0:0:0:0:
170,180,302258,5,6,0:0:0:0:
326,351,302383,1,8,0:0:0:0:
299,119,302506,1,8,0:0:0:0:
185,322,302630,1,8,0:0:0:0:
397,224,302754,1,8,0:0:0:0:
326,186,302878,6,0,B|313:227|313:227|330:275,1,78.7500030040742,6|8,0:0|0:0,0:0:0:0:
247,61,303126,1,4,0:0:0:0:
223,136,303250,1,4,0:0:0:0:
171,78,303374,1,8,0:0:0:0:
319,24,303498,6,0,B|331:58|331:58|318:99,1,78.7500030040742,6|8,0:0|0:0,0:0:0:0:
147,153,303746,1,4,0:0:0:0:
171,78,303870,1,4,0:0:0:0:
223,136,303994,1,8,0:0:0:0:
46,201,304118,5,6,0:0:0:0:
93,180,304180,1,8,0:0:0:0:
145,181,304243,1,8,0:0:0:0:
192,203,304305,1,8,0:0:0:0:
225,244,304368,1,8,0:0:0:0:
250,275,304430,1,8,0:0:0:0:
285,291,304493,1,8,0:0:0:0:
324,292,304555,1,8,0:0:0:0:
360,277,304618,2,0,L|298:238,1,39.3750015020371,6|0,0:0|0:0,0:0:0:0:
65,216,304743,5,2,0:0:0:0:
101,201,304805,1,2,0:0:0:0:
139,201,304868,1,2,0:0:0:0:
175,218,304930,1,2,0:0:0:0:
199,249,304993,1,2,0:0:0:0:
218,272,305055,1,2,0:0:0:0:
245,284,305118,1,2,0:0:0:0:
274,285,305180,1,2,0:0:0:0:
301,273,305243,6,0,L|254:243,3,52.5,6|2|2|2,0:0|0:0|0:0|0:0,0:0:0:0:
461,239,305493,2,0,L|505:266,3,52.5,6|2|2|2,0:0|0:0|0:0|0:0,0:0:0:0:
402,170,305743,5,2,0:0:0:0:
402,170,305805,1,2,0:0:0:0:
402,170,305868,1,2,0:0:0:0:
328,191,305993,1,2,0:0:0:0:
285,128,306118,1,2,0:0:0:0:
331,70,306243,1,2,0:0:0:0:
403,95,306368,1,2,0:0:0:0:
417,181,306493,5,2,0:0:0:0:
423,186,306555,1,2,0:0:0:0:
429,191,306618,1,2,0:0:0:0:
256,123,306743,1,2,0:0:0:0:
418,78,306868,1,2,0:0:0:0:
315,210,306993,1,2,0:0:0:0:
320,43,307118,5,6,0:0:0:0:
467,191,310787,5,0,0:0:0:0:
466,201,310871,1,0,0:0:0:0:
465,211,310954,1,0,0:0:0:0:
464,221,311037,1,0,0:0:0:0:
484,254,311121,6,0,B|453:247|453:247|451:252|451:252|452:247|452:247|417:240,1,70,2|0,0:0|0:0,0:0:0:0:
363,182,311454,1,0,0:0:0:0:
282,205,311621,2,0,B|267:273,1,70,2|0,0:0|0:0,0:0:0:0:
326,331,311954,1,0,0:0:0:0:
291,197,312121,6,0,B|276:265,1,70,2|0,0:0|0:0,0:0:0:0:
335,323,312454,1,0,0:0:0:0:
414,300,312621,2,0,B|482:314,2,70,2|0|0,0:0|0:0|0:0,0:0:0:0:
303,48,313121,5,2,0:0:0:0:
296,122,313287,1,2,0:0:0:0:
291,197,313454,1,2,0:0:0:0:
289,10,313621,5,2,0:0:0:0:
278,122,313788,1,2,0:0:0:0:
272,238,313955,1,2,0:0:0:0:
88,146,314122,5,2,0:0:0:0:
74,314,314289,1,2,0:0:0:0:
226,242,314456,1,2,0:0:0:0:
10,118,314623,5,10,0:0:0:0:
28,325,314790,1,10,0:0:0:0:
199,205,314957,1,10,0:0:0:0:
377,348,315124,6,0,P|389:299|382:244,1,90.9999958343508,6|0,0:0|0:0,0:0:0:0:
337,167,315451,1,0,0:0:0:0:
337,167,315615,1,2,0:0:0:0:
441,170,315779,1,2,0:0:0:0:
386,259,315943,1,2,0:0:0:0:
288,75,316107,6,0,L|170:81,1,90.9999958343508,8|0,0:0|0:0,0:0:0:0:
120,138,316445,1,2,0:0:0:0:
120,138,316615,2,0,L|46:141,1,70,2|0,0:0|0:0,0:0:0:0:
86,58,316954,1,2,0:0:0:0:
125,258,317124,6,0,P|123:304|135:348,1,90.9999958343508,6|0,0:0|0:0,0:0:0:0:
239,351,317451,1,0,0:0:0:0:
239,351,317615,1,2,0:0:0:0:
294,262,317779,1,2,0:0:0:0:
343,354,317943,1,2,0:0:0:0:
493,323,318107,6,0,L|483:232,1,90.9999958343508,8|0,0:0|0:0,0:0:0:0:
482,337,318443,1,2,0:0:0:0:
305,242,318611,6,0,L|316:132,1,90.9999958343508,12|0,0:0|0:0,0:0:0:0:
354,334,318947,1,8,0:0:0:0:
206,157,319115,6,0,P|168:137|112:143,1,90.9999958343508,6|0,0:0|0:0,0:0:0:0:
57,205,319448,1,2,0:0:0:0:
209,152,319615,2,0,P|173:129|116:130,1,90.9999958343508,2|0,0:0|0:0,0:0:0:0:
56,187,319948,1,2,0:0:0:0:
161,312,320115,5,8,0:0:0:0:
145,220,320281,1,2,0:0:0:0:
73,280,320448,1,2,0:0:0:0:
233,252,320615,1,2,0:0:0:0:
233,252,320781,2,0,L|244:142,1,90.9999958343508,4|2,0:0|0:0,0:0:0:0:
423,286,321115,5,6,0:0:0:0:
145,220,321281,1,6,0:0:0:0:
342,13,321448,1,12,0:0:0:0:
297,197,321615,5,2,0:0:0:0:
285,155,321781,1,2,0:0:0:0:
326,165,321948,1,2,0:0:0:0:
129,372,322115,5,12,0:0:0:0:
48,99,322281,1,6,0:0:0:0:
326,165,322448,1,6,0:0:0:0:
167,212,322615,1,12,0:0:0:0:
167,212,322948,1,8,0:0:0:0:
280,48,323115,6,0,P|335:77|396:74,1,105.000004005432,6|0,0:0|0:0,0:0:0:0:
467,24,323448,1,2,0:0:0:0:
378,182,323615,2,0,B|364:210|364:210|387:302,1,105.000004005432,8|2,0:0|0:0,0:0:0:0:
484,306,323948,1,2,0:0:0:0:
376,78,324115,6,0,P|321:49|260:52,1,105.000004005432,2|2,0:0|0:0,0:0:0:0:
189,102,324448,1,2,0:0:0:0:
49,29,324615,5,8,0:0:0:0:
81,107,324781,1,2,0:0:0:0:
78,111,324865,1,2,0:0:0:0:
76,116,324948,1,2,0:0:0:0:
73,120,325031,1,2,0:0:0:0:
43,132,325115,5,2,0:0:0:0:
189,102,325281,2,0,L|220:118,1,35,4|0,0:0|0:0,0:0:0:0:
82,17,325448,2,0,L|113:33,1,35,4|0,0:0|0:0,0:0:0:0:
163,232,325615,2,0,B|196:217|196:217|294:268,2,105.000004005432,12|0|0,0:0|0:0|0:0,0:0:0:0:
184,324,326115,5,2,0:0:0:0:
332,291,326281,1,2,0:0:0:0:
377,146,326448,1,2,0:0:0:0:
195,329,326615,5,8,0:0:0:0:
340,283,326781,1,2,0:0:0:0:
372,135,326948,1,2,0:0:0:0:
512,0,327115,6,0,P|484:38|485:117,1,105.000004005432,6|0,0:0|0:0,0:0:0:0:
511,193,327448,1,2,0:0:0:0:
381,24,327615,2,0,B|346:40|346:40|271:34,2,105.000004005432,8|0|0,0:0|0:0|0:0,0:0:0:0:
169,64,328115,5,2,0:0:0:0:
190,267,328281,1,2,0:0:0:0:
355,145,328448,1,2,0:0:0:0:
143,96,328615,5,8,0:0:0:0:
189,219,328781,1,2,0:0:0:0:
273,113,328948,1,2,0:0:0:0:
59,202,329115,5,8,0:0:0:0:
155,353,329281,5,8,0:0:0:0:
169,303,329365,1,8,0:0:0:0:
210,271,329448,1,8,0:0:0:0:
261,267,329531,1,8,0:0:0:0:
305,294,329615,1,8,0:0:0:0:
453,284,329781,5,2,0:0:0:0:
480,256,329865,1,2,0:0:0:0:
490,219,329948,1,2,0:0:0:0:
480,181,330031,1,2,0:0:0:0:
453,154,330115,1,8,0:0:0:0:
394,52,330281,5,2,0:0:0:0:
372,67,330365,1,2,0:0:0:0:
347,75,330448,1,2,0:0:0:0:
321,75,330531,1,2,0:0:0:0:
258,16,330615,5,8,0:0:0:0:
280,84,330698,1,8,0:0:0:0:
251,149,330781,1,8,0:0:0:0:
197,170,330865,1,8,0:0:0:0:
162,209,330948,1,2,0:0:0:0:
154,244,331031,1,2,0:0:0:0:
161,274,331115,6,0,L|253:267,5,62.9999980773926,6|2|2|2|2|2,0:0|0:0|0:0|0:0|0:0|0:0,0:0:0:0:
130,361,331615,2,0,L|67:356,5,62.9999980773926,12|2|2|2|2|2,0:0|0:0|0:0|0:0|0:0|0:0,0:0:0:0:
46,269,332115,5,2,0:0:0:0:
38,254,332198,1,2,0:0:0:0:
34,239,332281,1,2,0:0:0:0:
33,224,332365,1,2,0:0:0:0:
35,208,332448,1,2,0:0:0:0:
40,193,332531,1,2,0:0:0:0:
47,179,332615,5,10,0:0:0:0:
74,193,332698,1,2,0:0:0:0:
105,195,332781,1,2,0:0:0:0:
134,184,332865,1,2,0:0:0:0:
156,162,332948,2,0,L|190:247,1,62.9999980773926,10|2,0:0|0:0,0:0:0:0:
146,24,333115,6,0,B|158:54|158:54|159:84,1,62.9999980773926,6|2,0:0|0:0,0:0:0:0:
246,170,333281,2,0,B|234:140|234:140|233:110,3,62.9999980773926,4|2|2|2,0:0|0:0|0:0|0:0,0:0:0:0:
327,240,333615,5,10,0:0:0:0:
334,227,333698,1,2,0:0:0:0:
345,215,333781,1,2,0:0:0:0:
358,206,333865,1,2,0:0:0:0:
372,200,333948,1,2,0:0:0:0:
388,197,334031,1,2,0:0:0:0:
403,198,334115,6,0,P|404:158|389:117,1,62.9999980773926,2|2,0:0|0:0,0:0:0:0:
469,278,334281,1,2,0:0:0:0:
477,276,334365,1,2,0:0:0:0:
486,274,334448,2,0,P|485:234|500:193,1,62.9999980773926,2|2,0:0|0:0,0:0:0:0:
323,88,334615,6,0,L|338:26,1,62.9999980773926,14|2,0:0|0:0,0:0:0:0:
384,287,334781,2,0,L|400:349,1,62.9999980773926,2|2,0:0|0:0,0:0:0:0:
239,230,334948,2,0,L|254:168,1,62.9999980773926,4|2,0:0|0:0,0:0:0:0:
276,305,335115,5,6,0:0:0:0:
262,311,335198,1,2,0:0:0:0:
246,314,335281,1,2,0:0:0:0:
231,314,335365,1,2,0:0:0:0:
215,310,335448,1,2,0:0:0:0:
201,305,335531,1,2,0:0:0:0:
187,296,335615,5,10,0:0:0:0:
197,266,335698,1,2,0:0:0:0:
196,235,335781,1,2,0:0:0:0:
184,206,335865,1,2,0:0:0:0:
161,184,335948,1,2,0:0:0:0:
132,172,336031,1,2,0:0:0:0:
101,172,336115,6,0,L|33:191,1,62.9999980773926,2|2,0:0|0:0,0:0:0:0:
171,89,336281,2,0,L|188:20,1,62.9999980773926,2|2,0:0|0:0,0:0:0:0:
208,192,336448,2,0,L|258:240,1,62.9999980773926,2|2,0:0|0:0,0:0:0:0:
134,317,336615,6,0,L|146:266,1,52.5000020027161,8|2,0:0|0:0,0:0:0:0:
194,204,336784,2,0,L|231:240,1,45.4999979171754,2|2,0:0|0:0,0:0:0:0:
252,310,336953,2,0,L|201:324,1,35,2|2,0:0|0:0,0:0:0:0:
40,189,337123,6,0,L|101:172,1,62.9999980773926,6|2,0:0|0:0,0:0:0:0:
286,161,337289,2,0,L|346:143,1,62.9999980773926,6|2,0:0|0:0,0:0:0:0:
110,71,337456,2,0,L|170:88,1,62.9999980773926,6|2,0:0|0:0,0:0:0:0:
436,117,337623,5,10,0:0:0:0:
430,102,337706,1,2,0:0:0:0:
421,89,337789,1,2,0:0:0:0:
411,77,337873,1,2,0:0:0:0:
399,67,337956,1,2,0:0:0:0:
385,59,338039,1,2,0:0:0:0:
371,53,338123,6,0,L|310:70,1,62.9999980773926,6|2,0:0|0:0,0:0:0:0:
201,255,338289,2,0,L|261:272,1,62.9999980773926,6|2,0:0|0:0,0:0:0:0:
286,0,338456,2,0,L|225:17,1,62.9999980773926,6|2,0:0|0:0,0:0:0:0:
246,345,338623,5,10,0:0:0:0:
261,349,338706,1,2,0:0:0:0:
276,353,338789,1,2,0:0:0:0:
291,358,338873,1,2,0:0:0:0:
306,362,338956,1,2,0:0:0:0:
321,366,339039,1,2,0:0:0:0:
336,370,339123,5,8,0:0:0:0:
286,322,339207,1,8,0:0:0:0:
275,254,339291,1,8,0:0:0:0:
307,193,339375,1,8,0:0:0:0:
333,143,339459,1,2,0:0:0:0:
324,89,339543,1,2,0:0:0:0:
285,51,339627,5,2,0:0:0:0:
305,79,339711,1,2,0:0:0:0:
315,108,339795,1,2,0:0:0:0:
318,132,339879,1,2,0:0:0:0:
317,152,339963,1,2,0:0:0:0:
314,169,340047,1,2,0:0:0:0:
309,185,340131,5,8,0:0:0:0:
242,150,340215,1,8,0:0:0:0:
173,178,340299,1,8,0:0:0:0:
151,250,340383,1,8,0:0:0:0:
166,299,340467,1,2,0:0:0:0:
206,332,340551,1,2,0:0:0:0:
258,335,340635,6,0,L|253:236,1,70,6|0,0:0|0:0,0:0:0:0:
269,0,340796,2,0,L|272:69,1,70,2|0,0:0|0:0,0:0:0:0:
377,297,340957,2,0,L|372:198,1,70,2|0,0:0|0:0,0:0:0:0:
9,174,341118,6,0,B|46:171|46:171|49:177|49:177|109:174,1,70,12|0,0:0|0:0,0:0:0:0:
