osu file format v14

[General]
AudioFilename: 02 - Into The Void.mp3
AudioLeadIn: 0
PreviewTime: 234461
Countdown: 0
SampleSet: Normal
StackLeniency: 0.2
Mode: 0
LetterboxInBreaks: 0
WidescreenStoryboard: 0

[Editor]
Bookmarks: 341,8501,16181,31541,39221,46901,62261,75221,86741,95381,107141,108341,116021,123701,139061,164021,171701,185141,210101,234581,246101,254741,260501,273941,281621,289301,302261,317621,340661,356021,369941
DistanceSpacing: 0.9
BeatDivisor: 4
GridSize: 4
TimelineZoom: 3.099998

[Metadata]
Title:Into the Void
TitleUnicode:Into the Void
Artist:Irreversible Mechanism
ArtistUnicode:Irreversible Mechanism
Creator:Mazzerin
Version:Eternal Darkness
Source:
Tags:Infinite Fields technical death metal marathon deathstream rsi
BeatmapID:974352
BeatmapSetID:454451

[Difficulty]
HPDrainRate:7
CircleSize:3.6
OverallDifficulty:9.4
ApproachRate:10
SliderMultiplier:2
SliderTickRate:1

[Events]
//Background and Video events
0,0,"ITV.jpg",0,0
//Break Periods
2,185341,209651
//Storyboard Layer 0 (Background)
//Storyboard Layer 1 (Fail)
//Storyboard Layer 2 (Pass)
//Storyboard Layer 3 (Foreground)
//Storyboard Sound Samples

[TimingPoints]
341,240,4,2,0,10,1,0
821,240,4,2,0,10,1,0
821,-800,4,2,0,10,0,0
851,-800,4,2,1,5,0,0
4181,-100,4,2,0,10,0,0
4661,-800,4,2,0,10,0,0
4691,-800,4,2,1,5,0,0
6101,-800,4,2,0,10,0,0
6611,-800,4,2,1,5,0,0
8021,-100,4,2,0,10,0,0
8501,-200,4,1,5,40,0,0
8561,-200,4,2,5,40,0,0
10421,-200,4,1,5,40,0,0
10481,-200,4,2,5,40,0,0
11141,-200,4,1,5,40,0,0
11381,-200,4,1,8,40,0,0
11861,-200,4,1,5,40,0,0
12101,-200,4,1,8,40,0,0
12341,-200,4,1,5,40,0,0
12401,-200,4,2,5,40,0,0
13781,-200,4,1,5,40,0,0
14321,-200,4,2,5,40,0,0
14741,-200,4,2,8,40,0,0
15221,-100,4,1,5,40,0,0
15461,-100,4,1,8,40,0,0
15701,-100,4,1,5,40,0,0
15941,-100,4,1,8,40,0,0
16181,-100,4,1,7,40,0,1
22901,-100,4,1,5,40,0,1
23201,-100,4,1,8,40,0,1
23381,-100,4,1,5,40,0,1
23861,-100,4,1,7,40,0,1
31541,-100,4,1,7,40,0,0
37541,-100,4,1,7,20,0,0
37781,-100,4,1,7,24,0,0
38021,-100,4,1,7,28,0,0
38261,-100,4,1,7,32,0,0
38501,-100,4,1,7,36,0,0
38741,-100,4,1,7,40,0,0
45941,-100,4,1,5,40,0,0
46181,-100,4,1,8,40,0,0
46301,-100,4,1,5,40,0,0
46901,-133.333333333333,4,1,5,40,0,0
51301,-133.333333333333,4,1,8,40,0,0
52181,-133.333333333333,4,1,5,40,0,0
54261,-133.333333333333,4,1,8,40,0,0
54421,-133.333333333333,4,1,5,40,0,0
59061,-133.333333333333,4,1,8,40,0,0
59861,-133.333333333333,4,1,5,40,0,0
61461,-133.333333333333,4,1,8,40,0,0
61781,-133.333333333333,4,1,5,40,0,0
61941,-133.333333333333,4,1,8,40,0,0
62101,-133.333333333333,4,1,5,40,0,0
62261,240,6,1,5,40,1,0
62261,-100,6,1,5,40,0,0
63701,-100,6,2,5,40,0,0
64421,-100,6,1,5,40,0,0
68861,-100,6,1,8,40,0,0
68981,-100,6,1,5,40,0,0
69221,-100,6,1,8,40,0,0
69461,-100,6,1,5,40,0,0
74261,-100,6,1,8,40,0,0
74501,-100,6,1,5,40,0,0
74741,-100,6,1,8,40,0,0
74981,-100,6,1,5,40,0,0
75221,-100,6,1,7,40,0,1
75461,-125,6,1,7,40,0,1
75701,-166.666666666667,6,1,7,40,0,1
75941,-100,6,1,7,40,0,1
76661,-90.9090909090909,6,1,7,40,0,1
76901,-100,6,1,7,40,0,1
77141,-111.111111111111,6,1,7,40,0,1
77381,-100,6,1,8,40,0,1
77621,-100,6,1,8,40,0,1
77861,-100,6,1,5,40,0,1
78101,-100,6,1,7,40,0,1
79061,-125,6,1,7,40,0,1
79301,-166.666666666667,6,1,7,40,0,1
79541,-100,6,1,7,40,0,1
80021,-125,6,1,7,40,0,1
80261,-100,6,1,7,40,0,1
80501,-100,6,1,8,40,0,1
80981,-100,6,1,7,40,0,1
82181,-166.666666666667,6,1,7,40,0,1
82421,-100,6,1,7,40,0,1
82901,-100,6,1,7,40,0,1
82961,-100,6,1,8,40,0,1
83381,-100,6,1,7,40,0,1
83441,-100,6,1,8,40,0,1
83741,-100,6,1,5,40,0,1
83861,-100,6,1,7,40,0,1
85541,-100,6,1,5,40,0,1
85781,-100,6,1,8,40,0,1
86021,-100,6,1,5,40,0,1
86741,-100,6,1,5,40,0,0
94421,-100,6,1,8,40,0,0
94541,-100,6,1,5,40,0,0
94901,-100,6,1,8,40,0,0
95381,-100,6,1,7,40,0,1
95621,-125,6,1,7,40,0,1
95861,-100,6,1,7,40,0,1
97301,-111.111111111111,6,1,7,40,0,1
97541,-100,6,1,8,40,0,1
97781,-100,6,1,8,40,0,1
98021,-100,6,1,5,40,0,1
98261,-100,6,1,7,40,0,1
99461,-166.666666666667,6,1,7,40,0,1
99701,-100,6,1,7,40,0,1
100181,-125,6,1,7,40,0,1
100421,-100,6,1,7,40,0,1
100661,-100,6,1,8,40,0,1
101141,-100,6,1,7,40,0,1
103121,-100,6,1,8,40,0,1
103541,-100,6,1,7,40,0,1
103601,-100,6,1,8,40,0,1
103901,-100,6,1,5,40,0,1
104021,-100,6,1,7,40,0,1
104501,-166.666666666667,6,1,7,40,0,1
104741,-100,6,1,7,40,0,1
105221,-166.666666666667,6,1,7,40,0,1
105461,-100,6,1,7,40,0,1
105701,-100,6,1,8,40,0,1
106181,-100,6,1,7,40,0,1
106421,-100,6,1,8,40,0,1
106661,-100,6,1,5,40,0,1
106901,-100,6,1,5,40,0,0
107021,-100,6,2,5,40,0,0
108341,240,4,1,7,40,1,1
115541,-100,4,1,7,40,0,0
115601,-100,4,1,8,40,0,0
115781,-100,4,1,7,40,0,0
115841,-100,4,1,8,40,0,0
116021,-100,4,1,5,40,0,0
122741,-100,4,1,8,40,0,0
122981,-100,4,1,5,40,0,0
123221,-100,4,1,8,40,0,0
123461,-100,4,1,5,40,0,0
123701,-133.333333333333,4,1,5,40,0,0
128101,-133.333333333333,4,1,8,40,0,0
128981,-133.333333333333,4,1,5,40,0,0
135861,-133.333333333333,4,1,8,40,0,0
136501,-133.333333333333,4,1,5,40,0,0
138101,-133.333333333333,4,1,8,40,0,0
138261,-133.333333333333,4,1,8,40,0,0
138421,-133.333333333333,4,1,5,40,0,0
138581,-133.333333333333,4,1,8,40,0,0
138741,-133.333333333333,4,1,5,40,0,0
138901,-133.333333333333,4,1,8,40,0,0
139061,-800,4,1,8,40,0,0
139121,-800,4,1,66,5,0,0
139541,-800,4,1,8,40,0,0
139601,-800,4,1,66,5,0,0
140021,-800,4,1,8,40,0,0
140081,-800,4,1,66,5,0,0
140981,-200,4,2,8,40,0,0
141941,-133.333333333333,4,1,5,40,0,0
152021,-133.333333333333,4,1,8,40,0,0
152341,-133.333333333333,4,1,5,40,0,0
155741,-133.333333333333,4,1,8,40,0,0
155861,-133.333333333333,4,1,5,40,0,0
156221,-133.333333333333,4,1,8,40,0,0
156341,-133.333333333333,4,1,5,40,0,0
163061,-133.333333333333,4,1,8,40,0,0
164021,-200,4,1,5,40,0,0
164101,-200,4,2,5,40,0,0
169841,-200,4,2,5,5,0,0
171701,-200,4,1,7,40,0,1
178901,-200,4,1,8,40,0,1
179381,-133.333333333333,4,1,7,40,0,1
181301,-100,4,1,7,40,0,1
183221,-80,4,1,7,40,0,1
184181,-66.6666666666667,4,1,7,40,0,1
185141,-80,4,1,5,60,0,0
210101,240,6,1,5,40,1,0
210324,240,6,1,5,40,1,0
210482,240,6,1,5,40,1,0
211220,240,6,1,8,40,1,0
211541,240,6,1,5,40,1,0
213221,-100,6,1,8,40,0,0
213461,-100,6,1,5,40,0,0
213941,-100,6,1,8,40,0,0
214181,-100,6,1,5,40,0,0
215921,-100,6,1,8,40,0,0
216221,-100,6,1,5,40,0,0
219581,-100,6,1,8,40,0,0
220181,-100,6,1,5,40,0,0
222341,-100,6,1,8,40,0,0
223061,-100,6,1,5,40,0,0
225701,-100,6,1,8,40,0,0
225941,-100,6,1,5,40,0,0
227621,-100,6,3,5,40,0,0
227741,-100,6,1,5,40,0,0
227861,-100,6,3,5,40,0,0
227981,-100,6,1,5,40,0,0
228101,-100,6,1,8,40,0,0
228341,-100,6,1,5,40,0,0
228461,-100,6,1,8,40,0,0
228701,-100,6,1,5,40,0,0
229301,-100,6,1,8,40,0,0
230261,-100,6,1,5,40,0,0
231221,-100,6,1,8,40,0,0
231461,-100,6,1,5,40,0,0
231701,-100,6,1,8,40,0,0
231821,-100,6,1,5,40,0,0
231941,-100,6,1,8,40,0,0
232061,-100,6,1,5,40,0,0
233261,-100,6,2,5,40,0,0
234581,-100,6,1,5,40,0,1
237461,-57.1428571428571,6,1,5,40,0,1
237581,-100,6,1,5,40,0,1
238261,-80,6,1,5,40,0,1
238421,-100,6,1,5,40,0,1
239221,-133.333333333333,6,1,5,40,0,1
239461,-200,6,1,5,40,0,1
239621,-133.333333333333,6,1,5,40,0,1
239861,-100,6,1,5,40,0,1
240101,-80,6,1,5,40,0,1
240341,-100,6,1,5,40,0,1
243221,-100,6,1,5,40,0,0
245861,-100,6,1,8,40,0,0
246101,-200,6,1,5,40,0,1
246341,-133.333333333333,6,1,5,40,0,1
246581,-100,6,1,5,40,0,1
248261,-119.047619047619,6,1,5,40,0,1
248501,-149.253731343284,6,1,5,40,0,1
248741,-200,6,1,5,40,0,1
248981,-100,6,1,5,40,0,1
249701,-133.333333333333,6,1,5,40,0,1
249941,-100,6,1,5,40,0,1
250181,-80,6,1,5,40,0,1
250421,-100,6,1,5,40,0,1
250901,-200,6,1,5,40,0,1
251141,-100,6,1,5,40,0,1
251621,-100,6,1,8,40,0,1
251861,-200,6,1,5,40,0,1
252101,-133.333333333333,6,1,5,40,0,1
252341,-100,6,1,5,40,0,1
253861,-133.333333333333,6,1,5,40,0,1
254021,-200,6,1,5,40,0,1
254261,-100,6,1,5,40,0,1
254741,-100,6,1,5,40,0,0
256661,-100,6,1,8,40,0,0
256901,-100,6,1,5,40,0,0
257141,-100,6,1,8,40,0,0
257621,-100,6,1,5,40,0,0
260021,-100,6,1,8,40,0,0
260501,240,4,1,5,40,1,1
261461,-80,4,1,5,40,0,1
261701,-66.6666666666667,4,1,5,40,0,1
261941,-100,4,1,5,40,0,1
262421,240,6,1,5,40,1,1
263141,-80,6,1,5,40,0,1
263381,-100,6,1,5,40,0,1
264581,-80,6,1,5,40,0,1
264821,-100,6,1,5,40,0,1
265301,-100,6,1,5,40,0,1
265541,-80,6,1,5,40,0,1
265781,-100,6,1,5,40,0,1
266101,-200,6,1,5,40,0,1
266261,-100,6,1,5,40,0,1
267061,-80,6,1,5,40,0,1
267221,-100,6,1,5,40,0,1
267861,-100,6,1,8,40,0,1
268181,-100,6,1,5,40,0,1
272981,-100,6,1,8,40,0,1
273941,240,4,1,5,40,1,0
273941,-200,4,1,5,40,0,0
274021,-200,4,2,0,40,0,0
275861,-133.333333333333,4,1,5,40,0,0
276021,-133.333333333333,4,2,5,40,0,0
276101,-100,4,1,7,40,0,1
280661,-100,4,1,5,40,0,1
280901,-100,4,1,8,40,0,1
281141,-100,4,1,5,40,0,1
281381,-100,4,1,8,40,0,1
281621,-100,4,1,5,40,0,0
288581,-100,4,1,8,40,0,0
288821,-100,4,1,5,40,0,0
289301,240,6,1,5,40,1,0
289781,-200,6,2,5,40,0,0
290741,240,4,1,5,40,1,0
291221,-200,4,2,5,40,0,0
292661,-200,4,1,5,40,0,0
296501,240,6,1,5,40,1,0
296501,-200,6,1,5,40,0,0
299061,-200,6,1,8,40,0,0
299381,240,4,1,5,40,1,0
299381,-200,4,1,5,40,0,0
300981,-200,4,1,8,40,0,0
302261,-200,4,1,5,40,0,0
302291,-200,4,2,1,5,0,0
304001,-200,4,1,5,40,0,0
304211,-200,4,2,1,5,0,0
305921,-200,4,1,5,40,0,0
306131,-200,4,2,1,5,0,0
307841,-200,4,1,5,40,0,0
308051,-200,4,2,1,5,0,0
309761,-200,4,1,5,40,0,0
309971,-200,4,2,1,5,0,0
311681,-200,4,1,5,40,0,0
311891,-200,4,2,1,5,0,0
313461,-200,4,1,5,40,0,0
313811,-200,4,2,1,5,0,0
315521,-200,4,1,5,40,0,0
315731,-200,4,2,1,5,0,0
316661,-200,4,1,5,40,0,0
317621,240,6,2,5,40,1,0
318341,-200,6,2,5,40,0,0
340601,-200,6,2,5,5,0,0
340661,240,4,1,5,40,1,0
343701,-100,4,1,8,40,0,0
344021,-200,4,1,5,40,0,0
356021,240,6,1,5,40,1,0
356021,-200,6,1,5,40,0,0
357461,240,4,1,5,40,1,0
357461,-200,4,1,5,40,0,0
363221,240,6,1,5,40,1,0
363221,-200,6,1,5,40,0,0
365781,-200,6,1,8,40,0,0
366101,240,4,1,5,40,1,0
366101,-200,4,1,5,40,0,0

[Colours]
Combo1 : 97,90,133
Combo2 : 214,124,252
Combo3 : 129,13,145
Combo4 : 119,131,187

[HitObjects]
114,279,341,5,0,0:0:0:0:
94,197,461,1,0,0:0:0:0:
172,226,581,5,0,0:0:0:0:
192,144,701,1,0,0:0:0:0:
250,204,821,6,0,B|259:279|196:302|196:302|184:343|147:358,1,200,2|0,0:0|0:0,0:0:0:0:
147,152,4181,5,0,0:0:0:0:
127,234,4301,1,0,0:0:0:0:
210,217,4421,5,0,0:0:0:0:
230,299,4541,1,0,0:0:0:0:
291,242,4661,6,0,P|290:189|261:149,1,100
53,86,6101,5,0,0:0:0:0:
83,257,6341,1,0,0:0:0:0:
122,146,6581,6,0,L|127:173,1,25
70,256,8021,5,0,0:0:0:0:
105,178,8141,1,0,0:0:0:0:
59,344,8261,5,0,0:0:0:0:
137,309,8381,1,0,0:0:0:0:
186,120,8501,6,0,L|196:164,5,33.3333333333333,4|0|0|0|0|0,0:0|0:0|0:0|0:0|0:0|0:0,0:0:0:0:
275,151,8981,6,0,L|265:197,5,33.3333333333333
348,94,9461,6,0,L|394:83,5,33.3333333333333
403,181,9941,6,0,L|447:192,5,33.3333333333333
425,306,10421,6,0,L|439:357,5,33.3333333333333,4|0|0|0|0|0,0:0|0:0|0:0|0:0|0:0|0:0,0:0:0:0:
341,254,10901,6,0,L|326:303,2,33.3333333333333
263,190,11141,5,8,0:0:0:0:
256,220,11201,1,8,0:0:0:0:
250,251,11261,1,8,0:0:0:0:
244,281,11321,1,8,0:0:0:0:
237,312,11381,5,2,0:0:0:0:
215,300,11441,1,2,0:0:0:0:
190,295,11501,1,4,0:0:0:0:
165,298,11561,1,4,0:0:0:0:
143,308,11621,5,4,0:0:0:0:
120,318,11681,1,4,0:0:0:0:
95,319,11741,1,4,0:0:0:0:
72,309,11801,1,4,0:0:0:0:
55,292,11861,5,2,0:0:0:0:
55,294,11921,1,2,0:0:0:0:
55,296,11981,1,2,0:0:0:0:
55,298,12041,1,2,0:0:0:0:
55,300,12101,5,4,0:0:0:0:
78,291,12161,1,4,0:0:0:0:
94,273,12221,1,4,0:0:0:0:
101,249,12281,1,4,0:0:0:0:
97,225,12341,6,0,L|108:191,5,33.3333333333333,4|0|0|0|0|0,0:0|0:0|0:0|0:0|0:0|0:0,0:0:0:0:
192,163,12821,6,0,L|181:124,5,33.3333333333333
280,220,13301,6,0,L|293:183,5,33.3333333333333
382,66,13781,5,4,0:0:0:0:
282,345,14021,1,4,0:0:0:0:
200,96,14261,6,0,L|188:59,5,33.3333333333333,4|0|0|0|0|0,0:0|0:0|0:0|0:0|0:0|0:0,0:0:0:0:
3,309,14741,5,2,0:1:0:0:
9,307,14801,1,2,0:1:0:0:
15,303,14861,1,2,0:1:0:0:
19,297,14921,1,2,0:1:0:0:
20,291,14981,1,2,0:1:0:0:
19,284,15041,1,2,0:1:0:0:
15,278,15101,1,2,0:1:0:0:
10,274,15161,1,2,0:1:0:0:
4,270,15221,5,8,0:0:0:0:
44,216,15281,1,8,0:0:0:0:
107,192,15341,1,8,0:0:0:0:
172,207,15401,1,8,0:0:0:0:
216,258,15461,5,4,0:0:0:0:
256,291,15521,1,4,0:0:0:0:
307,301,15581,1,4,0:0:0:0:
357,286,15641,1,4,0:0:0:0:
399,255,15701,5,2,0:0:0:0:
398,258,15761,1,2,0:0:0:0:
397,261,15821,1,2,0:0:0:0:
396,264,15881,1,2,0:0:0:0:
395,267,15941,1,2,0:0:0:0:
395,270,16001,1,2,0:0:0:0:
394,273,16061,1,2,0:0:0:0:
394,276,16121,1,2,0:0:0:0:
380,306,16181,5,6,0:0:0:0:
312,320,16241,1,8,0:0:0:0:
254,283,16301,1,2,0:0:0:0:
233,218,16361,1,8,0:0:0:0:
174,183,16421,1,2,0:0:0:0:
106,196,16481,1,8,0:0:0:0:
64,250,16541,1,2,0:0:0:0:
67,317,16601,1,8,0:0:0:0:
114,366,16661,2,0,L|133:315,3,50,2|8|2|8,0:0|0:0|0:0|0:0,0:0:0:0:
106,196,16901,2,0,L|132:130,3,50,2|8|2|8,0:0|0:0|0:0|0:0,0:0:0:0:
150,322,17141,5,2,0:0:0:0:
197,350,17201,1,8,0:0:0:0:
250,337,17261,1,2,0:0:0:0:
276,288,17321,1,8,0:0:0:0:
263,235,17381,1,2,0:0:0:0:
286,186,17441,1,8,0:0:0:0:
334,161,17501,1,2,0:0:0:0:
387,172,17561,1,8,0:0:0:0:
436,149,17621,1,2,0:0:0:0:
460,101,17681,1,8,0:0:0:0:
449,48,17741,1,2,0:0:0:0:
407,14,17801,1,8,0:0:0:0:
353,13,17861,1,2,0:0:0:0:
311,47,17921,1,8,0:0:0:0:
299,99,17981,1,2,0:0:0:0:
322,148,18041,1,8,0:0:0:0:
375,162,18101,6,0,L|356:221,3,50,6|8|2|8,0:0|0:0|0:0|0:0,0:0:0:0:
471,197,18341,2,0,L|490:256,3,50,2|8|2|8,0:0|0:0|0:0|0:0,0:0:0:0:
374,257,18581,2,0,L|354:316,3,50,2|8|2|8,0:0|0:0|0:0|0:0,0:0:0:0:
483,292,18821,2,0,L|502:351,3,50,2|8|2|8,0:0|0:0|0:0|0:0,0:0:0:0:
325,319,19061,5,2,0:0:0:0:
296,305,19121,1,8,0:0:0:0:
265,299,19181,1,2,0:0:0:0:
233,300,19241,1,8,0:0:0:0:
202,307,19301,1,2,0:0:0:0:
173,317,19361,1,8,0:0:0:0:
141,315,19421,1,2,0:0:0:0:
113,300,19481,1,8,0:0:0:0:
93,276,19541,1,2,0:0:0:0:
85,246,19601,1,8,0:0:0:0:
91,215,19661,1,2,0:0:0:0:
109,188,19721,1,8,0:0:0:0:
136,172,19781,1,2,0:0:0:0:
167,168,19841,1,8,0:0:0:0:
197,176,19901,1,2,0:0:0:0:
222,196,19961,1,8,0:0:0:0:
234,226,20021,5,6,0:0:0:0:
195,234,20081,1,8,0:0:0:0:
160,216,20141,1,2,0:0:0:0:
143,181,20201,1,8,0:0:0:0:
151,143,20261,1,2,0:0:0:0:
181,119,20321,1,8,0:0:0:0:
220,117,20381,1,2,0:0:0:0:
251,140,20441,1,8,0:0:0:0:
277,169,20501,1,2,0:0:0:0:
315,181,20561,1,8,0:0:0:0:
353,171,20621,1,2,0:0:0:0:
379,142,20681,1,8,0:0:0:0:
385,102,20741,1,2,0:0:0:0:
369,65,20801,1,8,0:0:0:0:
337,44,20861,1,2,0:0:0:0:
296,43,20921,1,8,0:0:0:0:
263,65,20981,6,0,L|249:13,3,50,2|8|2|8,0:0|0:0|0:0|0:0,0:0:0:0:
313,169,21221,2,0,L|327:116,3,50,2|8|2|8,0:0|0:0|0:0|0:0,0:0:0:0:
244,232,21461,2,0,L|229:179,3,50,2|8|2|8,0:0|0:0|0:0|0:0,0:0:0:0:
300,328,21701,2,0,L|314:275,3,50,2|8|2|8,0:0|0:0|0:0|0:0,0:0:0:0:
151,345,21941,5,2,0:0:0:0:
164,318,22001,1,8,0:0:0:0:
167,288,22061,1,2,0:0:0:0:
160,259,22121,1,8,0:0:0:0:
143,234,22181,1,2,0:0:0:0:
119,217,22241,1,8,0:0:0:0:
98,196,22301,1,2,0:0:0:0:
87,168,22361,1,8,0:0:0:0:
88,138,22421,1,2,0:0:0:0:
100,112,22481,1,8,0:0:0:0:
123,92,22541,1,2,0:0:0:0:
151,83,22601,1,8,0:0:0:0:
181,85,22661,1,2,0:0:0:0:
207,98,22721,1,8,0:0:0:0:
227,121,22781,1,2,0:0:0:0:
235,149,22841,1,8,0:0:0:0:
231,179,22901,5,8,0:0:0:0:
252,134,22961,1,8,0:0:0:0:
273,88,23021,2,0,B|283:61|283:61|262:15,1,50,8|2,0:0|0:0,0:0:0:0:
384,82,23141,6,0,L|412:30,3,50,2|4|4|4,2:1|2:1|2:1|2:1,2:1:0:0:
378,179,23381,5,8,0:0:0:0:
426,191,23441,2,0,L|480:171,1,50,8|2,0:0|2:1,0:0:0:0:
425,306,23561,2,0,L|371:326,1,50,8|2,0:0|2:1,0:0:0:0:
269,325,23681,5,8,0:0:0:0:
256,276,23741,1,8,0:0:0:0:
245,227,23801,1,8,0:0:0:0:
231,179,23861,5,6,0:0:0:0:
207,211,23921,1,8,0:0:0:0:
171,226,23981,1,2,0:0:0:0:
132,221,24041,1,8,0:0:0:0:
101,196,24101,1,2,0:0:0:0:
87,159,24161,1,8,0:0:0:0:
94,121,24221,1,2,0:0:0:0:
120,91,24281,1,8,0:0:0:0:
157,78,24341,2,0,L|139:23,3,50,2|8|2|8,0:0|0:0|0:0|0:0,0:0:0:0:
231,179,24581,2,0,L|249:123,3,50,2|8|2|8,0:0|0:0|0:0|0:0,0:0:0:0:
404,84,24821,5,2,0:0:0:0:
411,113,24881,1,8,0:0:0:0:
417,142,24941,1,2,0:0:0:0:
425,172,25001,1,8,0:0:0:0:
431,201,25061,1,2,0:0:0:0:
438,230,25121,1,8,0:0:0:0:
445,259,25181,1,2,0:0:0:0:
452,288,25241,1,8,0:0:0:0:
459,317,25301,1,2,0:0:0:0:
431,305,25361,1,8,0:0:0:0:
401,301,25421,1,2,0:0:0:0:
371,304,25481,1,8,0:0:0:0:
343,315,25541,1,2,0:0:0:0:
318,330,25601,1,8,0:0:0:0:
289,337,25661,1,2,0:0:0:0:
259,333,25721,1,8,0:0:0:0:
232,318,25781,5,2,0:0:0:0:
204,327,25841,1,8,0:0:0:0:
174,322,25901,1,2,0:0:0:0:
151,304,25961,1,8,0:0:0:0:
138,277,26021,2,0,L|93:307,3,50,2|8|2|8,0:0|0:0|0:0|0:0,0:0:0:0:
80,212,26261,1,2,0:0:0:0:
106,198,26321,1,8,0:0:0:0:
135,191,26381,1,2,0:0:0:0:
165,192,26441,1,8,0:0:0:0:
194,201,26501,2,0,L|239:170,3,50,2|8|2|8,0:0|0:0|0:0|0:0,0:0:0:0:
186,82,26741,5,2,0:0:0:0:
214,72,26801,1,8,0:0:0:0:
244,71,26861,1,2,0:0:0:0:
273,79,26921,1,8,0:0:0:0:
298,95,26981,1,2,0:0:0:0:
318,117,27041,1,8,0:0:0:0:
330,144,27101,1,2,0:0:0:0:
335,174,27161,1,8,0:0:0:0:
330,203,27221,2,0,L|276:216,1,50,2|8,0:0|0:0,0:0:0:0:
451,243,27341,2,0,L|505:230,1,50,2|8,0:0|0:0,0:0:0:0:
420,148,27461,2,0,L|474:135,1,50,2|8,0:0|0:0,0:0:0:0:
363,291,27581,2,0,L|309:304,1,50,2|8,0:0|0:0,0:0:0:0:
318,117,27701,5,6,0:0:0:0:
278,109,27761,1,8,0:0:0:0:
239,114,27821,1,2,0:0:0:0:
203,131,27881,1,8,0:0:0:0:
174,159,27941,1,2,0:0:0:0:
156,194,28001,1,8,0:0:0:0:
129,223,28061,1,2,0:0:0:0:
91,232,28121,1,8,0:0:0:0:
54,218,28181,1,2,0:0:0:0:
31,186,28241,1,8,0:0:0:0:
30,146,28301,1,2,0:0:0:0:
51,113,28361,1,8,0:0:0:0:
85,94,28421,1,2,0:0:0:0:
125,98,28481,1,8,0:0:0:0:
155,123,28541,1,2,0:0:0:0:
165,161,28601,1,8,0:0:0:0:
156,194,28661,5,2,0:0:0:0:
191,177,28721,1,8,0:0:0:0:
231,178,28781,1,2,0:0:0:0:
266,196,28841,1,8,0:0:0:0:
290,228,28901,2,0,L|336:207,3,50,2|8|2|8,0:0|0:0|0:0|0:0,0:0:0:0:
210,266,29141,1,2,0:0:0:0:
233,295,29201,1,8,0:0:0:0:
270,313,29261,1,2,0:0:0:0:
309,313,29321,1,8,0:0:0:0:
345,295,29381,2,0,L|375:334,3,50,2|8|2|8,0:0|0:0|0:0|0:0,0:0:0:0:
459,260,29621,5,6,0:0:0:0:
421,243,29681,1,8,0:0:0:0:
392,217,29741,1,2,0:0:0:0:
373,182,29801,1,8,0:0:0:0:
368,142,29861,1,2,0:0:0:0:
376,104,29921,1,8,0:0:0:0:
398,70,29981,1,2,0:0:0:0:
430,46,30041,1,8,0:0:0:0:
469,39,30101,5,2,0:0:0:0:
466,43,30161,1,8,0:0:0:0:
465,48,30221,1,2,0:0:0:0:
463,53,30281,1,8,0:0:0:0:
461,58,30341,1,2,0:0:0:0:
459,62,30401,1,8,0:0:0:0:
458,67,30461,1,2,0:0:0:0:
456,71,30521,1,8,0:0:0:0:
454,76,30581,5,2,0:0:0:0:
408,29,30641,1,8,0:0:0:0:
344,22,30701,1,2,0:0:0:0:
290,59,30761,1,8,0:0:0:0:
273,121,30821,1,2,0:0:0:0:
219,158,30881,1,8,0:0:0:0:
154,151,30941,1,2,0:0:0:0:
109,103,31001,1,8,0:0:0:0:
109,39,31061,5,4,0:0:0:0:
245,290,31181,1,4,0:0:0:0:
280,5,31301,1,4,0:0:0:0:
86,214,31421,1,4,0:0:0:0:
368,158,31541,1,12,0:0:0:0:
245,289,31781,5,8,0:0:0:0:
245,294,31841,1,8,0:0:0:0:
246,299,31901,1,8,0:0:0:0:
247,304,31961,1,8,0:0:0:0:
248,309,32021,1,8,0:0:0:0:
328,269,32141,1,8,0:0:0:0:
417,258,32261,1,8,0:0:0:0:
417,263,32321,1,8,0:0:0:0:
416,268,32381,1,8,0:0:0:0:
415,273,32441,1,8,0:0:0:0:
414,278,32501,1,8,0:0:0:0:
324,291,32621,1,8,0:0:0:0:
244,333,32741,1,8,0:0:0:0:
203,252,32861,1,8,0:0:0:0:
283,210,32981,1,8,0:0:0:0:
245,128,33101,1,8,0:0:0:0:
165,171,33221,1,8,0:0:0:0:
165,166,33281,1,8,0:0:0:0:
164,161,33341,1,8,0:0:0:0:
163,156,33401,1,8,0:0:0:0:
162,151,33461,1,6,0:0:0:0:
27,320,33701,5,8,0:0:0:0:
32,319,33761,1,8,0:0:0:0:
37,318,33821,1,8,0:0:0:0:
42,317,33881,1,8,0:0:0:0:
47,316,33941,1,8,0:0:0:0:
24,228,34061,1,8,0:0:0:0:
113,234,34181,1,8,0:0:0:0:
69,312,34301,1,8,0:0:0:0:
157,317,34421,1,8,0:0:0:0:
162,316,34481,1,8,0:0:0:0:
167,315,34541,1,8,0:0:0:0:
172,314,34601,1,8,0:0:0:0:
177,313,34661,1,8,0:0:0:0:
137,231,34781,1,8,0:0:0:0:
177,151,34901,1,8,0:0:0:0:
182,150,34961,1,8,0:0:0:0:
187,149,35021,1,8,0:0:0:0:
192,148,35081,1,8,0:0:0:0:
197,147,35141,1,8,0:0:0:0:
156,227,35261,1,8,0:0:0:0:
195,308,35381,1,6,0:0:0:0:
341,170,35621,5,8,0:0:0:0:
339,174,35681,1,8,0:0:0:0:
338,179,35741,1,8,0:0:0:0:
336,184,35801,1,8,0:0:0:0:
335,189,35861,1,8,0:0:0:0:
424,201,35981,1,8,0:0:0:0:
397,287,36101,1,8,0:0:0:0:
308,271,36221,1,8,0:0:0:0:
281,353,36341,1,8,0:0:0:0:
370,369,36461,1,8,0:0:0:0:
397,287,36581,1,8,0:0:0:0:
308,271,36701,1,8,0:0:0:0:
335,189,36821,1,8,0:0:0:0:
424,201,36941,1,8,0:0:0:0:
451,115,37061,1,8,0:0:0:0:
450,110,37121,1,8,0:0:0:0:
449,105,37181,1,8,0:0:0:0:
448,100,37241,1,8,0:0:0:0:
447,95,37301,1,6,0:0:0:0:
247,57,37541,5,8,0:0:0:0:
252,59,37601,1,8,0:0:0:0:
257,60,37661,1,8,0:0:0:0:
262,61,37721,1,8,0:0:0:0:
267,62,37781,1,8,0:0:0:0:
271,63,37841,1,8,0:0:0:0:
276,64,37901,1,8,0:0:0:0:
281,65,37961,1,8,0:0:0:0:
286,67,38021,1,8,0:0:0:0:
291,68,38081,1,8,0:0:0:0:
296,69,38141,1,8,0:0:0:0:
301,70,38201,1,8,0:0:0:0:
306,71,38261,1,8,0:0:0:0:
310,72,38321,1,8,0:0:0:0:
315,73,38381,1,8,0:0:0:0:
320,75,38441,1,8,0:0:0:0:
325,76,38501,1,8,0:0:0:0:
330,77,38561,1,8,0:0:0:0:
335,78,38621,1,8,0:0:0:0:
340,79,38681,1,8,0:0:0:0:
344,80,38741,1,8,0:0:0:0:
349,81,38801,1,8,0:0:0:0:
354,83,38861,1,8,0:0:0:0:
359,84,38921,1,8,0:0:0:0:
364,85,38981,1,2,0:0:0:0:
412,190,39221,5,2,0:0:0:0:
392,187,39281,1,8,0:0:0:0:
372,189,39341,1,2,0:0:0:0:
353,195,39401,1,8,0:0:0:0:
336,206,39461,1,2,0:0:0:0:
322,220,39521,1,8,0:0:0:0:
311,236,39581,1,2,0:0:0:0:
305,256,39641,1,8,0:0:0:0:
301,276,39701,5,2,0:0:0:0:
313,253,39761,1,8,0:0:0:0:
330,235,39821,1,2,0:0:0:0:
351,222,39881,1,8,0:0:0:0:
375,215,39941,1,2,0:0:0:0:
400,214,40001,1,8,0:0:0:0:
425,218,40061,1,2,0:0:0:0:
447,229,40121,1,8,0:0:0:0:
466,246,40181,5,2,0:0:0:0:
436,248,40241,1,8,0:0:0:0:
406,250,40301,1,2,0:0:0:0:
376,253,40361,1,8,0:0:0:0:
346,255,40421,1,2,0:0:0:0:
316,257,40481,1,8,0:0:0:0:
286,259,40541,1,2,0:0:0:0:
256,262,40601,1,8,0:0:0:0:
226,264,40661,6,0,L|202:208,7,50,2|8|2|8|2|8|2|8,0:0|0:0|0:0|0:0|0:0|0:0|0:0|0:0,0:0:0:0:
81,285,41141,5,2,0:0:0:0:
99,295,41201,1,8,0:0:0:0:
119,291,41261,1,2,0:0:0:0:
131,276,41321,1,8,0:0:0:0:
131,256,41381,1,2,0:0:0:0:
119,240,41441,1,8,0:0:0:0:
99,237,41501,1,2,0:0:0:0:
81,247,41561,1,8,0:0:0:0:
75,266,41621,5,2,0:0:0:0:
114,260,41681,1,8,0:0:0:0:
154,255,41741,1,2,0:0:0:0:
194,250,41801,1,8,0:0:0:0:
233,245,41861,1,2,0:0:0:0:
273,240,41921,1,8,0:0:0:0:
313,235,41981,1,2,0:0:0:0:
352,230,42041,1,8,0:0:0:0:
392,225,42101,5,2,0:0:0:0:
348,218,42161,1,8,0:0:0:0:
303,210,42221,1,2,0:0:0:0:
259,203,42281,1,8,0:0:0:0:
214,196,42341,1,2,0:0:0:0:
170,188,42401,1,8,0:0:0:0:
126,181,42461,1,2,0:0:0:0:
81,174,42521,1,8,0:0:0:0:
37,166,42581,5,2,0:0:0:0:
86,160,42641,1,8,0:0:0:0:
136,154,42701,1,2,0:0:0:0:
186,148,42761,1,8,0:0:0:0:
235,142,42821,1,2,0:0:0:0:
285,136,42881,1,8,0:0:0:0:
334,130,42941,1,2,0:0:0:0:
384,123,43001,1,8,0:0:0:0:
434,117,43061,6,0,L|456:52,7,50,2|8|2|8|2|8|2|8,0:0|0:0|0:0|0:0|0:0|0:0|0:0|0:0,0:0:0:0:
489,214,43541,6,0,L|510:148,7,50,2|8|2|8|2|8|2|8,0:0|0:0|0:0|0:0|0:0|0:0|0:0|0:0,0:0:0:0:
405,235,44021,5,2,0:0:0:0:
378,223,44081,1,8,0:0:0:0:
349,219,44141,1,2,0:0:0:0:
319,224,44201,1,8,0:0:0:0:
292,237,44261,1,2,0:0:0:0:
271,258,44321,1,8,0:0:0:0:
257,284,44381,1,2,0:0:0:0:
250,313,44441,1,8,0:0:0:0:
253,343,44501,5,2,0:0:0:0:
257,308,44561,1,8,0:0:0:0:
262,274,44621,1,2,0:0:0:0:
266,239,44681,1,8,0:0:0:0:
270,204,44741,1,2,0:0:0:0:
274,169,44801,1,8,0:0:0:0:
278,135,44861,1,2,0:0:0:0:
282,100,44921,1,8,0:0:0:0:
287,65,44981,6,0,L|212:72,7,50,2|8|2|8|2|8|2|8,0:0|0:0|0:0|0:0|0:0|0:0|0:0|0:0,0:0:0:0:
181,164,45461,5,2,0:0:0:0:
147,143,45521,1,8,0:0:0:0:
107,140,45581,1,2,0:0:0:0:
71,155,45641,1,8,0:0:0:0:
46,186,45701,2,0,L|31:120,1,50,2|0,0:0|2:0,0:0:0:0:
11,312,45821,2,0,L|-4:246,1,50,2|0,0:0|2:0,0:0:0:0:
123,229,45941,5,8,0:0:0:0:
93,269,46001,2,0,L|108:335,2,50,10|2|2,0:0|0:0|0:0,0:0:0:0:
220,301,46181,5,2,0:0:0:0:
217,296,46241,1,2,0:0:0:0:
215,291,46301,1,2,0:0:0:0:
233,267,46361,1,2,0:0:0:0:
251,243,46421,2,0,B|339:237|339:237|405:256,2,150,8|0|0,0:0|0:0|0:0,0:0:0:0:
379,164,46901,6,0,B|348:155|348:155|235:163,2,100.000003814697,2|2|2,0:0|0:0|0:0,0:0:0:0:
453,103,47381,6,0,P|472:157|449:232,2,100.000003814697,10|2|2,0:0|0:0|0:0,0:0:0:0:
408,88,47781,1,2,0:0:0:0:
399,75,47861,5,2,0:0:0:0:
299,83,48021,1,2,0:0:0:0:
199,91,48181,1,2,0:0:0:0:
391,61,48341,5,10,0:0:0:0:
291,69,48501,1,2,0:0:0:0:
191,77,48661,1,2,0:0:0:0:
180,64,48741,1,0,0:0:0:0:
170,51,48821,6,0,P|145:90|146:184,2,100.000003814697,2|2|2,0:0|0:0|0:0,0:0:0:0:
189,242,49301,6,0,L|173:355,1,100.000003814697,10|2,0:0|0:0,0:0:0:0:
179,231,49621,1,10,0:0:0:0:
308,230,49781,6,0,L|323:333,1,100.000003814697,2|2,0:0|0:0,0:0:0:0:
321,217,50101,1,10,0:0:0:0:
438,160,50261,6,0,L|423:263,2,100.000003814697,10|2|2,0:0|0:0|0:0,0:0:0:0:
352,101,50741,5,10,0:0:0:0:
256,131,50901,1,2,0:0:0:0:
271,32,51061,1,2,0:0:0:0:
166,77,51221,5,10,0:0:0:0:
152,124,51301,1,4,0:0:0:0:
160,173,51381,1,4,0:0:0:0:
188,214,51461,1,4,0:0:0:0:
213,255,51541,1,4,0:0:0:0:
204,304,51621,1,4,0:0:0:0:
165,333,51701,5,2,0:0:0:0:
117,329,51781,1,2,0:0:0:0:
91,288,51861,1,2,0:0:0:0:
99,239,51941,1,2,0:0:0:0:
138,209,52021,1,2,0:0:0:0:
186,213,52101,1,2,0:0:0:0:
220,248,52181,6,0,L|349:224,2,100.000003814697,14|2|2,0:0|0:0|0:0,0:0:0:0:
344,322,52661,5,2,0:0:0:0:
441,301,52821,1,2,0:0:0:0:
420,203,52981,1,2,0:0:0:0:
360,330,53141,5,10,0:0:0:0:
457,309,53301,1,2,0:0:0:0:
436,211,53461,1,2,0:0:0:0:
338,233,53621,5,2,0:0:0:0:
286,259,53701,1,8,0:0:0:0:
233,237,53781,1,8,0:0:0:0:
216,181,53861,1,8,0:0:0:0:
176,138,53941,1,8,0:0:0:0:
118,129,54021,1,8,0:0:0:0:
67,159,54101,6,0,L|60:91,1,50.0000019073487,2|2,0:0|0:0,0:0:0:0:
138,221,54261,2,0,L|145:289,1,50.0000019073487,4|2,0:0|0:0,0:0:0:0:
284,192,54421,2,0,L|276:123,1,50.0000019073487,2|2,0:0|0:0,0:0:0:0:
136,360,54581,6,0,P|85:341|58:303,2,100.000003814697,6|2|2,0:0|0:0|0:0,0:0:0:0:
143,270,55061,5,10,0:0:0:0:
224,327,55221,1,2,0:0:0:0:
232,227,55381,1,2,0:0:0:0:
157,263,55541,5,2,0:0:0:0:
238,320,55701,1,2,0:0:0:0:
246,220,55861,1,2,0:0:0:0:
171,257,56021,5,10,0:0:0:0:
252,314,56181,1,2,0:0:0:0:
260,214,56341,1,2,0:0:0:0:
357,281,56501,6,0,L|368:155,2,100.000003814697,2|2|2,0:0|0:0|0:0,0:0:0:0:
471,212,56981,6,0,L|460:86,1,100.000003814697,10|2,0:0|0:0,0:0:0:0:
456,224,57301,1,8,0:0:0:0:
374,90,57461,5,2,0:0:0:0:
210,55,57621,1,10,0:0:0:0:
260,214,57781,1,10,0:0:0:0:
296,61,57941,5,10,0:0:0:0:
230,136,58101,1,2,0:0:0:0:
326,161,58261,1,2,0:0:0:0:
335,172,58341,1,0,0:0:0:0:
343,184,58421,6,0,L|336:319,2,100.000003814697,6|2|2,0:0|0:0|0:0,0:0:0:0:
428,208,58821,1,2,0:0:0:0:
440,216,58901,6,0,L|443:147,1,50.0000019073487,8|2,0:0|0:0,0:0:0:0:
466,310,59061,1,4,0:0:0:0:
417,300,59141,1,4,0:0:0:0:
367,306,59221,1,4,0:0:0:0:
323,329,59301,1,4,0:0:0:0:
278,351,59381,5,2,0:0:0:0:
229,352,59461,1,2,0:0:0:0:
184,331,59541,1,2,0:0:0:0:
153,292,59621,1,2,0:0:0:0:
109,270,59701,1,2,0:0:0:0:
59,274,59781,1,2,0:0:0:0:
19,302,59861,6,0,B|28:246|28:246|19:188,2,100.000003814697,14|2|2,0:0|0:0|0:0,0:0:0:0:
92,368,60341,5,6,0:0:0:0:
109,270,60501,1,2,0:0:0:0:
92,171,60661,1,2,0:0:0:0:
107,356,60821,5,10,0:0:0:0:
124,258,60981,1,2,0:0:0:0:
107,159,61141,1,2,0:0:0:0:
266,241,61301,5,8,0:0:0:0:
247,183,61381,1,8,0:0:0:0:
229,126,61461,2,4,L|208:194,1,50.0000019073487
315,75,61621,2,4,L|336:142,1,50.0000019073487
145,235,61781,6,2,L|126:296,1,50.0000019073487
396,28,61941,2,4,L|418:94,1,50.0000019073487
263,216,62101,2,2,L|259:296,1,50.0000019073487
396,164,62261,6,2,L|401:263,1,100
410,151,62621,6,2,L|415:250,1,100
425,138,62981,5,2,0:0:0:0:
430,237,63101,1,2,0:0:0:0:
35,164,63701,5,0,0:0:0:0:
43,181,63821,1,0,0:0:0:0:
144,205,63941,5,0,0:0:0:0:
136,222,64061,1,0,0:0:0:0:
59,292,64181,5,0,0:0:0:0:
51,275,64301,1,0,0:0:0:0:
153,314,64421,6,0,B|179:303|179:303|281:313,1,100,2|8,0:0|0:0,0:0:0:0:
430,237,64661,2,0,L|308:225,1,100,2|8,0:0|0:0,0:0:0:0:
231,214,64901,1,2,0:0:0:0:
340,320,65021,1,8,0:0:0:0:
404,144,65141,5,2,0:0:0:0:
400,134,65201,1,2,0:0:0:0:
396,124,65261,1,8,0:0:0:0:
340,320,65381,1,2,0:0:0:0:
430,237,65501,1,8,0:0:0:0:
313,201,65621,1,2,0:0:0:0:
340,320,65741,1,8,0:0:0:0:
169,277,65861,6,0,P|147:228|160:165,1,100,2|8,0:0|0:0,0:0:0:0:
52,34,66101,2,0,P|74:83|61:146,1,100,2|8,0:0|0:0,0:0:0:0:
173,88,66341,1,2,0:0:0:0:
58,222,66461,1,8,0:0:0:0:
231,214,66581,6,0,B|261:224|261:224|352:207,1,100,6|8,0:0|0:0,0:0:0:0:
405,88,66821,2,0,L|282:111,1,100,2|8,0:0|0:0,0:0:0:0:
222,227,67061,1,2,0:0:0:0:
173,88,67181,1,8,0:0:0:0:
78,205,67301,6,0,L|61:319,1,100,2|8,0:0|0:0,0:0:0:0:
149,341,67541,2,0,P|196:332|281:355,1,100,2|8,0:0|0:0,0:0:0:0:
222,227,67781,2,0,L|239:113,1,100,2|8,0:0|0:0,0:0:0:0:
350,297,68021,5,2,0:0:0:0:
313,189,68141,1,8,0:0:0:0:
360,315,68261,1,2,0:0:0:0:
408,199,68381,1,8,0:0:0:0:
368,335,68501,1,2,0:0:0:0:
458,287,68621,1,8,0:0:0:0:
222,227,68741,5,2,0:0:0:0:
408,199,68861,1,2,0:0:0:0:
403,183,68921,1,2,0:0:0:0:
398,169,68981,5,8,0:0:0:0:
446,162,69041,1,8,0:0:0:0:
476,124,69101,1,8,0:0:0:0:
471,76,69161,1,8,0:0:0:0:
434,44,69221,5,2,0:0:0:0:
298,68,69341,1,2,0:0:0:0:
299,72,69401,1,2,0:0:0:0:
300,76,69461,6,0,B|268:94|268:94|165:84,1,100,6|8,0:0|0:0,0:0:0:0:
100,55,69701,2,0,L|121:171,1,100,2|8,0:0|0:0,0:0:0:0:
67,232,69941,2,0,L|88:348,1,100,2|8,0:0|0:0,0:0:0:0:
186,357,70181,5,2,0:0:0:0:
222,227,70301,1,8,0:0:0:0:
310,305,70421,2,0,B|333:312|333:312|411:293,1,100,2|8,0:0|0:0,0:0:0:0:
443,165,70661,2,0,B|420:158|420:158|342:177,1,100,2|8,0:0|0:0,0:0:0:0:
409,303,70901,5,6,0:0:0:0:
336,169,71021,1,8,0:0:0:0:
222,227,71141,1,8,0:0:0:0:
225,177,71201,1,8,0:0:0:0:
229,127,71261,1,8,0:0:0:0:
232,77,71321,1,8,0:0:0:0:
236,27,71381,1,2,0:0:0:0:
132,81,71501,1,8,0:0:0:0:
345,69,71621,5,6,0:0:0:0:
229,127,71741,1,8,0:0:0:0:
336,169,71861,1,8,0:0:0:0:
333,219,71921,1,8,0:0:0:0:
329,269,71981,1,8,0:0:0:0:
326,319,72041,1,8,0:0:0:0:
322,369,72101,1,6,0:0:0:0:
433,306,72221,1,8,0:0:0:0:
99,344,72341,6,0,B|116:328|116:328|218:313,1,100,6|8,0:0|0:0,0:0:0:0:
314,204,72581,2,0,B|296:219|296:219|195:235,1,100,2|8,0:0|0:0,0:0:0:0:
66,169,72821,2,0,L|173:154,1,100,2|8,0:0|0:0,0:0:0:0:
134,248,73061,5,2,0:0:0:0:
250,142,73181,1,8,0:0:0:0:
271,282,73301,2,0,P|321:292|381:264,1,100,2|8,0:0|0:0,0:0:0:0:
329,89,73541,1,6,0:0:0:0:
271,282,73661,1,6,0:0:0:0:
449,187,73781,6,0,L|430:88,1,100,2|8,0:0|0:0,0:0:0:0:
369,293,74021,1,8,0:0:0:0:
329,89,74141,1,8,0:0:0:0:
461,272,74261,1,2,0:0:0:0:
470,270,74321,1,2,0:0:0:0:
479,268,74381,1,2,0:0:0:0:
364,212,74501,5,8,0:0:0:0:
318,231,74561,1,8,0:0:0:0:
294,274,74621,1,8,0:0:0:0:
297,324,74681,1,8,0:0:0:0:
327,362,74741,6,0,L|394:347,3,50,2|2|2|2,0:0|0:0|0:0|0:0,0:0:0:0:
185,113,74981,5,8,0:0:0:0:
190,162,75041,1,8,0:0:0:0:
196,212,75101,1,8,0:0:0:0:
202,261,75161,1,8,0:0:0:0:
208,311,75221,6,0,L|142:303,3,50,6|2|2|2,0:0|0:0|0:0|0:0,0:0:0:0:
294,274,75461,6,0,L|358:282,3,40,8|2|8|2,0:0|0:0|0:0|0:0,0:0:0:0:
196,212,75701,6,0,L|146:206,3,29.9999990844727,8|2|8|2,0:0|0:0|0:0|0:0,0:0:0:0:
290,165,75941,5,8,0:0:0:0:
334,186,76001,1,2,0:0:0:0:
383,181,76061,1,8,0:0:0:0:
423,152,76121,1,2,0:0:0:0:
442,106,76181,5,8,0:0:0:0:
440,67,76241,1,2,0:0:0:0:
421,32,76301,1,8,0:0:0:0:
390,8,76361,1,2,0:0:0:0:
351,0,76421,5,8,0:0:0:0:
321,3,76481,1,2,0:0:0:0:
294,17,76541,1,8,0:0:0:0:
273,39,76601,1,2,0:0:0:0:
260,66,76661,6,0,L|222:20,3,55.0000016784668,8|2|8|2,0:0|0:0|0:0|0:0,0:0:0:0:
129,51,76901,6,0,L|109:105,3,50,8|2|8|2,0:0|0:0|0:0|0:0,0:0:0:0:
178,171,77141,6,0,L|234:161,3,44.999998626709,8|2|8|2,0:0|0:0|0:0|0:0,0:0:0:0:
66,199,77381,5,4,0:0:0:0:
75,223,77441,1,4,0:0:0:0:
76,248,77501,1,4,0:0:0:0:
70,272,77561,1,4,0:0:0:0:
58,294,77621,6,0,B|66:321|66:321|67:371,3,50,2|2|2|2,0:0|0:0|0:0|0:0,0:0:0:0:
163,270,77861,5,8,0:0:0:0:
210,256,77921,1,8,0:0:0:0:
237,215,77981,1,8,0:0:0:0:
228,167,78041,1,8,0:0:0:0:
190,136,78101,5,12,0:0:0:0:
234,156,78161,1,2,0:0:0:0:
282,147,78221,1,8,0:0:0:0:
316,111,78281,1,2,0:0:0:0:
323,63,78341,5,8,0:0:0:0:
345,30,78401,1,2,0:0:0:0:
379,9,78461,1,8,0:0:0:0:
418,4,78521,1,2,0:0:0:0:
455,16,78581,5,8,0:0:0:0:
477,35,78641,1,2,0:0:0:0:
494,59,78701,1,8,0:0:0:0:
500,88,78761,1,2,0:0:0:0:
500,118,78821,6,0,L|439:110,3,50,8|2|8|2,0:0|0:0|0:0|0:0,0:0:0:0:
372,202,79061,6,0,L|433:194,3,40,8|2|8|2,0:0|0:0|0:0|0:0,0:0:0:0:
476,286,79301,6,0,L|421:278,3,29.9999990844727,8|2|8|2,0:0|0:0|0:0|0:0,0:0:0:0:
377,358,79541,5,8,0:0:0:0:
341,310,79601,1,2,0:0:0:0:
288,284,79661,1,8,0:0:0:0:
228,287,79721,1,2,0:0:0:0:
177,317,79781,5,8,0:0:0:0:
128,318,79841,1,2,0:0:0:0:
85,294,79901,1,8,0:0:0:0:
61,250,79961,1,2,0:0:0:0:
63,201,80021,6,0,L|8:220,3,40,8|2|8|2,0:0|0:0|0:0|0:0,0:0:0:0:
153,157,80261,5,8,0:0:0:0:
206,180,80321,1,2,0:0:0:0:
262,162,80381,1,8,0:0:0:0:
290,110,80441,1,2,0:0:0:0:
276,53,80501,5,4,0:0:0:0:
276,58,80561,1,4,0:0:0:0:
275,62,80621,2,0,L|217:66,1,50,4|4,0:0|0:0,0:0:0:0:
380,82,80741,5,2,0:0:0:0:
381,86,80801,1,2,0:0:0:0:
382,90,80861,2,0,L|440:94,1,50,2|2,0:0|0:0,0:0:0:0:
468,239,80981,5,12,0:0:0:0:
428,209,81041,1,2,0:0:0:0:
379,204,81101,1,8,0:0:0:0:
335,226,81161,1,2,0:0:0:0:
308,267,81221,5,8,0:0:0:0:
275,289,81281,1,2,0:0:0:0:
236,295,81341,1,8,0:0:0:0:
198,284,81401,1,2,0:0:0:0:
169,257,81461,5,8,0:0:0:0:
141,244,81521,1,2,0:0:0:0:
111,242,81581,1,8,0:0:0:0:
83,249,81641,1,2,0:0:0:0:
57,265,81701,5,8,0:0:0:0:
105,275,81761,1,2,0:0:0:0:
148,252,81821,1,8,0:0:0:0:
168,207,81881,1,2,0:0:0:0:
155,160,81941,5,8,0:0:0:0:
162,121,82001,1,2,0:0:0:0:
184,88,82061,1,8,0:0:0:0:
218,67,82121,1,2,0:0:0:0:
257,63,82181,6,0,L|244:17,3,29.9999990844727,8|2|8|2,0:0|0:0|0:0|0:0,0:0:0:0:
388,22,82421,5,8,0:0:0:0:
354,64,82481,1,2,0:0:0:0:
347,118,82541,1,8,0:0:0:0:
370,167,82601,1,2,0:0:0:0:
416,197,82661,5,8,0:0:0:0:
428,245,82721,1,2,0:0:0:0:
411,291,82781,1,8,0:0:0:0:
372,321,82841,1,2,0:0:0:0:
322,319,82901,5,4,0:0:0:0:
324,314,82961,1,4,0:0:0:0:
326,309,83021,2,0,L|269:300,1,50,4|4,0:0|0:0,0:0:0:0:
181,330,83141,5,4,0:0:0:0:
183,335,83201,1,4,0:0:0:0:
185,340,83261,2,0,L|128:349,1,50,4|4,0:0|0:0,0:0:0:0:
61,295,83381,5,4,0:0:0:0:
63,290,83441,1,4,0:0:0:0:
65,285,83501,2,0,L|8:276,3,50,4|4|2|2,0:0|0:0|0:0|0:0,0:0:0:0:
17,174,83741,5,8,0:0:0:0:
277,218,83861,6,0,P|328:213|365:164,1,100,12|0,0:0|0:0,0:0:0:0:
470,40,84101,5,8,0:0:0:0:
492,84,84161,1,2,0:0:0:0:
494,133,84221,1,8,0:0:0:0:
477,180,84281,1,2,0:0:0:0:
442,216,84341,5,8,0:0:0:0:
433,254,84401,1,2,0:0:0:0:
442,293,84461,1,8,0:0:0:0:
466,324,84521,1,2,0:0:0:0:
501,342,84581,5,8,0:0:0:0:
458,315,84641,1,2,0:0:0:0:
410,303,84701,1,8,0:0:0:0:
360,307,84761,1,2,0:0:0:0:
315,327,84821,5,8,0:0:0:0:
279,343,84881,1,2,0:0:0:0:
239,347,84941,1,8,0:0:0:0:
200,338,85001,1,2,0:0:0:0:
167,317,85061,5,8,0:0:0:0:
137,312,85121,1,2,0:0:0:0:
107,315,85181,1,8,0:0:0:0:
78,325,85241,1,2,0:0:0:0:
55,344,85301,6,0,P|54:289|14:255,1,100,6|2,0:0|0:0,0:0:0:0:
258,247,85541,5,8,0:0:0:0:
208,237,85601,1,8,0:0:0:0:
159,227,85661,5,2,0:0:0:0:
163,223,85721,1,2,0:0:0:0:
166,219,85781,6,4,L|156:156,3,50
267,158,86021,5,2,0:0:0:0:
266,153,86081,1,2,0:0:0:0:
265,148,86141,1,2,0:0:0:0:
264,143,86201,1,2,0:0:0:0:
263,138,86261,1,2,0:0:0:0:
263,133,86321,1,2,0:0:0:0:
262,128,86381,5,8,0:0:0:0:
309,143,86441,1,8,0:0:0:0:
357,131,86501,1,8,0:0:0:0:
392,96,86561,1,8,0:0:0:0:
403,48,86621,5,2,0:0:0:0:
399,45,86681,1,2,0:0:0:0:
395,42,86741,6,0,B|372:64|372:64|383:163,1,100,6|0,0:0|0:0,0:0:0:0:
493,120,86981,1,2,0:0:0:0:
494,115,87041,1,2,0:0:0:0:
495,110,87101,1,8,0:0:0:0:
460,220,87221,2,0,B|483:242|483:242|472:341,1,100,2|8,0:0|0:0,0:0:0:0:
336,342,87461,5,2,0:0:0:0:
336,342,87581,1,8,0:0:0:0:
252,271,87701,2,0,L|136:289,1,100,2|8,0:0|0:0,0:0:0:0:
61,196,87941,2,0,L|177:178,1,100,2|8,0:0|0:0,0:0:0:0:
266,166,88181,5,2,0:0:0:0:
222,45,88301,1,8,0:0:0:0:
274,184,88421,1,2,0:0:0:0:
353,100,88541,1,8,0:0:0:0:
380,141,88601,1,8,0:0:0:0:
387,190,88661,1,8,0:0:0:0:
372,238,88721,1,8,0:0:0:0:
367,287,88781,1,8,0:0:0:0:
392,329,88841,1,8,0:0:0:0:
437,349,88901,6,0,B|421:343|421:343|301:363,1,100,2|8,0:0|0:0,0:0:0:0:
252,271,89141,1,2,0:0:0:0:
251,276,89201,1,2,0:0:0:0:
250,281,89261,1,8,0:0:0:0:
133,316,89381,1,2,0:0:0:0:
169,193,89501,1,8,0:0:0:0:
47,356,89621,6,0,L|38:230,1,100,6|8,0:0|0:0,0:0:0:0:
68,132,89861,2,0,L|77:6,1,100,2|8,0:0|0:0,0:0:0:0:
186,99,90101,1,2,0:0:0:0:
186,99,90221,1,8,0:0:0:0:
331,73,90341,6,0,B|314:96|314:96|312:183,1,100,2|8,0:0|0:0,0:0:0:0:
447,146,90581,2,0,L|443:245,1,100,2|8,0:0|0:0,0:0:0:0:
320,263,90821,2,0,L|316:362,1,100,2|8,0:0|0:0,0:0:0:0:
111,374,91061,5,6,0:0:0:0:
327,351,91181,1,8,0:0:0:0:
234,322,91301,1,8,0:0:0:0:
259,279,91361,1,8,0:0:0:0:
302,255,91421,1,8,0:0:0:0:
352,256,91481,1,8,0:0:0:0:
394,281,91541,1,2,0:0:0:0:
452,181,91661,1,8,0:0:0:0:
231,338,91781,5,6,0:0:0:0:
185,238,91901,1,8,0:0:0:0:
327,351,92021,1,8,0:0:0:0:
313,302,92081,1,8,0:0:0:0:
300,254,92141,1,8,0:0:0:0:
287,206,92201,1,8,0:0:0:0:
274,157,92261,1,6,0:0:0:0:
185,238,92381,1,8,0:0:0:0:
20,31,92501,6,0,L|141:17,1,100,6|8,0:0|0:0,0:0:0:0:
227,63,92741,2,0,L|348:49,1,100,2|8,0:0|0:0,0:0:0:0:
445,94,92981,1,2,0:0:0:0:
444,89,93041,1,2,0:0:0:0:
443,84,93101,1,8,0:0:0:0:
484,208,93221,6,0,B|466:226|466:226|462:324,1,100,2|8,0:0|0:0,0:0:0:0:
357,351,93461,1,2,0:0:0:0:
357,351,93581,1,8,0:0:0:0:
300,254,93701,2,0,L|293:128,1,100,2|8,0:0|0:0,0:0:0:0:
69,263,93941,5,6,0:0:0:0:
308,143,94061,1,8,0:0:0:0:
310,192,94121,1,8,0:0:0:0:
313,242,94181,1,8,0:0:0:0:
316,292,94241,1,8,0:0:0:0:
318,342,94301,5,2,0:0:0:0:
322,339,94361,1,2,0:0:0:0:
325,335,94421,6,4,L|391:330,1,50
415,243,94541,5,2,0:0:0:0:
414,238,94601,1,2,0:0:0:0:
413,233,94661,5,8,0:0:0:0:
363,237,94721,1,8,0:0:0:0:
313,242,94781,1,8,0:0:0:0:
263,247,94841,1,8,0:0:0:0:
213,252,94901,5,2,0:0:0:0:
220,228,94961,1,2,0:0:0:0:
221,203,95021,1,2,0:0:0:0:
215,178,95081,1,2,0:0:0:0:
191,153,95141,5,6,0:0:0:0:
183,129,95201,1,2,0:0:0:0:
182,104,95261,1,2,0:0:0:0:
188,79,95321,1,2,0:0:0:0:
217,60,95381,6,0,L|206:5,3,50,6|2|2|2,0:0|0:0|0:0|0:0,0:0:0:0:
335,70,95621,6,0,L|339:14,3,40,8|2|8|2,0:0|0:0|0:0|0:0,0:0:0:0:
464,61,95861,5,8,0:0:0:0:
448,86,95921,1,2,0:0:0:0:
443,115,95981,1,8,0:0:0:0:
449,145,96041,1,2,0:0:0:0:
466,169,96101,5,8,0:0:0:0:
422,145,96161,1,2,0:0:0:0:
374,153,96221,1,8,0:0:0:0:
339,188,96281,1,2,0:0:0:0:
333,237,96341,5,8,0:0:0:0:
312,270,96401,1,2,0:0:0:0:
278,292,96461,1,8,0:0:0:0:
238,296,96521,1,2,0:0:0:0:
199,283,96581,5,8,0:0:0:0:
177,262,96641,1,2,0:0:0:0:
162,236,96701,1,8,0:0:0:0:
156,207,96761,1,2,0:0:0:0:
159,177,96821,5,8,0:0:0:0:
127,220,96881,1,2,0:0:0:0:
75,234,96941,1,8,0:0:0:0:
26,212,97001,1,2,0:0:0:0:
2,164,97061,5,8,0:0:0:0:
13,116,97121,1,2,0:0:0:0:
49,82,97181,1,8,0:0:0:0:
98,76,97241,1,2,0:0:0:0:
141,99,97301,6,0,L|154:40,3,44.999998626709,8|2|8|2,0:0|0:0|0:0|0:0,0:0:0:0:
65,186,97541,5,4,0:0:0:0:
74,209,97601,1,4,0:0:0:0:
75,234,97661,1,4,0:0:0:0:
69,258,97721,1,4,0:0:0:0:
57,280,97781,6,0,L|92:325,3,50,2|2|2|2,0:0|0:0|0:0|0:0,0:0:0:0:
236,304,98021,5,8,0:0:0:0:
206,264,98081,1,8,0:0:0:0:
198,215,98141,1,8,0:0:0:0:
221,172,98201,1,8,0:0:0:0:
265,151,98261,6,0,L|283:97,3,50,12|2|8|2,0:0|0:0|0:0|0:0,0:0:0:0:
368,32,98501,5,8,0:0:0:0:
393,62,98561,1,2,0:0:0:0:
403,101,98621,1,8,0:0:0:0:
395,139,98681,1,2,0:0:0:0:
371,171,98741,5,8,0:0:0:0:
362,200,98801,1,2,0:0:0:0:
365,229,98861,1,8,0:0:0:0:
379,255,98921,1,2,0:0:0:0:
402,274,98981,5,8,0:0:0:0:
398,225,99041,1,2,0:0:0:0:
364,189,99101,1,8,0:0:0:0:
315,184,99161,1,2,0:0:0:0:
275,212,99221,5,8,0:0:0:0:
261,249,99281,1,2,0:0:0:0:
231,275,99341,1,8,0:0:0:0:
192,283,99401,1,2,0:0:0:0:
155,271,99461,6,0,L|160:317,3,29.9999990844727,8|2|8|2,0:0|0:0|0:0|0:0,0:0:0:0:
50,238,99701,5,8,0:0:0:0:
40,179,99761,1,2,0:0:0:0:
70,129,99821,1,8,0:0:0:0:
126,110,99881,1,2,0:0:0:0:
181,131,99941,5,8,0:0:0:0:
228,120,100001,1,2,0:0:0:0:
256,80,100061,1,8,0:0:0:0:
248,32,100121,1,2,0:0:0:0:
209,2,100181,6,0,L|260:-2,3,40,8|2|8|2,0:0|0:0|0:0|0:0,0:0:0:0:
381,42,100421,5,8,0:0:0:0:
349,90,100481,1,2,0:0:0:0:
364,146,100541,1,8,0:0:0:0:
417,171,100601,1,2,0:0:0:0:
470,148,100661,5,4,0:0:0:0:
467,143,100721,1,4,0:0:0:0:
463,139,100781,2,0,L|454:200,1,50,4|4,0:0|0:0,0:0:0:0:
393,275,100901,5,2,0:0:0:0:
396,270,100961,1,2,0:0:0:0:
400,266,101021,2,0,L|409:327,1,50,2|2,0:0|0:0,0:0:0:0:
295,338,101141,5,12,0:0:0:0:
270,295,101201,1,2,0:0:0:0:
228,267,101261,1,8,0:0:0:0:
179,261,101321,1,2,0:0:0:0:
133,277,101381,5,8,0:0:0:0:
93,273,101441,1,2,0:0:0:0:
59,252,101501,1,8,0:0:0:0:
37,219,101561,1,2,0:0:0:0:
32,180,101621,5,8,0:0:0:0:
37,150,101681,1,2,0:0:0:0:
52,125,101741,1,8,0:0:0:0:
75,105,101801,1,2,0:0:0:0:
102,94,101861,5,8,0:0:0:0:
113,142,101921,1,2,0:0:0:0:
153,171,101981,1,8,0:0:0:0:
201,166,102041,1,2,0:0:0:0:
235,131,102101,5,8,0:0:0:0:
272,117,102161,1,2,0:0:0:0:
312,119,102221,1,8,0:0:0:0:
346,139,102281,1,2,0:0:0:0:
369,172,102341,5,8,0:0:0:0:
394,186,102401,1,2,0:0:0:0:
424,192,102461,1,8,0:0:0:0:
453,189,102521,1,2,0:0:0:0:
480,177,102581,5,8,0:0:0:0:
437,146,102641,1,2,0:0:0:0:
385,157,102701,1,8,0:0:0:0:
358,203,102761,1,2,0:0:0:0:
375,254,102821,6,0,L|320:231,3,50,2|8|2|8,0:0|0:0|0:0|0:0,0:0:0:0:
215,300,103061,5,4,0:0:0:0:
217,304,103121,1,4,0:0:0:0:
219,308,103181,2,0,L|278:297,1,50,4|4,0:0|0:0,0:0:0:0:
143,211,103301,5,4,0:0:0:0:
145,207,103361,1,4,0:0:0:0:
147,203,103421,2,0,L|206:214,1,50,4|4,0:0|0:0,0:0:0:0:
130,363,103541,5,4,0:0:0:0:
128,359,103601,1,2,0:0:0:0:
126,355,103661,2,0,L|67:366,3,50,4|4|2|2,0:0|0:0|0:0|0:0,0:0:0:0:
14,279,103901,5,8,0:0:0:0:
80,69,104021,5,12,0:0:0:0:
123,92,104081,1,2,0:0:0:0:
173,96,104141,1,8,0:0:0:0:
220,81,104201,1,2,0:0:0:0:
258,48,104261,5,8,0:0:0:0:
297,46,104321,1,2,0:0:0:0:
335,58,104381,1,8,0:0:0:0:
365,85,104441,1,2,0:0:0:0:
382,120,104501,6,0,L|395:74,3,29.9999990844727,2|8|2|8,0:0|0:0|0:0|0:0,0:0:0:0:
489,237,104741,5,8,0:0:0:0:
445,215,104801,1,2,0:0:0:0:
397,223,104861,1,8,0:0:0:0:
362,258,104921,1,2,0:0:0:0:
355,307,104981,5,8,0:0:0:0:
329,337,105041,1,2,0:0:0:0:
293,353,105101,1,8,0:0:0:0:
253,353,105161,1,2,0:0:0:0:
216,335,105221,6,0,L|209:290,3,29.9999990844727,2|8|2|8,0:0|0:0|0:0|0:0,0:0:0:0:
355,307,105461,5,2,0:0:0:0:
355,302,105521,1,2,0:0:0:0:
356,297,105581,1,2,0:0:0:0:
357,292,105641,1,2,0:0:0:0:
358,287,105701,5,4,0:0:0:0:
350,271,105761,1,4,0:0:0:0:
348,254,105821,1,4,0:0:0:0:
352,237,105881,1,4,0:0:0:0:
361,222,105941,5,4,0:0:0:0:
379,204,106001,1,4,0:0:0:0:
388,181,106061,1,4,0:0:0:0:
389,156,106121,1,4,0:0:0:0:
380,133,106181,5,2,0:0:0:0:
379,138,106241,1,2,0:0:0:0:
378,143,106301,1,2,0:0:0:0:
378,148,106361,1,2,0:0:0:0:
377,153,106421,5,2,0:0:0:0:
354,142,106481,1,2,0:0:0:0:
329,138,106541,1,2,0:0:0:0:
305,139,106601,1,2,0:0:0:0:
281,146,106661,5,8,0:0:0:0:
234,160,106721,1,8,0:0:0:0:
194,134,106781,1,8,0:0:0:0:
189,86,106841,1,8,0:0:0:0:
222,51,106901,5,2,0:0:0:0:
219,42,107021,1,0,0:0:0:0:
119,79,107141,5,2,0:0:0:0:
122,69,107261,1,0,0:0:0:0:
198,144,107381,5,2,0:0:0:0:
194,134,107501,1,0,0:0:0:0:
234,41,107621,5,2,0:0:0:0:
230,29,107741,1,0,0:0:0:0:
102,76,107861,5,2,0:0:0:0:
106,64,107981,1,0,0:0:0:0:
203,160,108101,5,2,0:0:0:0:
198,147,108221,1,0,0:0:0:0:
37,195,108341,5,6,0:0:0:0:
46,194,108401,1,8,0:0:0:0:
56,195,108461,1,2,0:0:0:0:
66,197,108521,1,8,0:0:0:0:
76,200,108581,1,2,0:0:0:0:
89,207,108641,1,8,0:0:0:0:
101,216,108701,1,2,0:0:0:0:
111,226,108761,1,8,0:0:0:0:
120,238,108821,1,2,0:0:0:0:
136,249,108881,1,8,0:0:0:0:
154,257,108941,1,2,0:0:0:0:
174,261,109001,1,8,0:0:0:0:
194,261,109061,1,2,0:0:0:0:
218,256,109121,1,8,0:0:0:0:
240,244,109181,1,2,0:0:0:0:
258,227,109241,1,8,0:0:0:0:
270,205,109301,5,2,0:0:0:0:
244,220,109361,1,8,0:0:0:0:
214,223,109421,1,2,0:0:0:0:
186,215,109481,1,8,0:0:0:0:
163,196,109541,1,2,0:0:0:0:
140,186,109601,1,8,0:0:0:0:
115,182,109661,1,2,0:0:0:0:
91,185,109721,1,8,0:0:0:0:
67,194,109781,1,2,0:0:0:0:
52,207,109841,1,8,0:0:0:0:
40,223,109901,1,2,0:0:0:0:
31,241,109961,1,8,0:0:0:0:
24,260,110021,1,2,0:0:0:0:
23,274,110081,1,8,0:0:0:0:
24,289,110141,1,2,0:0:0:0:
27,304,110201,1,8,0:0:0:0:
33,318,110261,5,6,0:0:0:0:
55,298,110321,1,8,0:0:0:0:
82,285,110381,1,2,0:0:0:0:
112,281,110441,1,8,0:0:0:0:
141,286,110501,1,2,0:0:0:0:
171,304,110561,1,8,0:0:0:0:
205,312,110621,1,2,0:0:0:0:
240,310,110681,1,8,0:0:0:0:
273,299,110741,1,2,0:0:0:0:
304,274,110801,1,8,0:0:0:0:
321,238,110861,1,2,0:0:0:0:
322,198,110921,1,8,0:0:0:0:
305,162,110981,1,2,0:0:0:0:
278,127,111041,1,8,0:0:0:0:
278,83,111101,1,2,0:0:0:0:
305,48,111161,1,8,0:0:0:0:
347,35,111221,5,2,0:0:0:0:
342,84,111281,1,8,0:0:0:0:
308,120,111341,1,2,0:0:0:0:
259,127,111401,1,8,0:0:0:0:
216,104,111461,1,2,0:0:0:0:
172,98,111521,1,8,0:0:0:0:
133,118,111581,1,2,0:0:0:0:
111,157,111641,1,8,0:0:0:0:
116,201,111701,2,0,L|57:187,3,50,2|8|2|8,0:0|0:0|0:0|0:0,0:0:0:0:
183,278,111941,2,0,L|242:292,3,50,2|8|2|8,0:0|0:0|0:0|0:0,0:0:0:0:
316,337,112181,5,6,0:0:0:0:
324,342,112241,1,8,0:0:0:0:
332,347,112301,1,2,0:0:0:0:
342,350,112361,1,8,0:0:0:0:
352,352,112421,1,2,0:0:0:0:
366,353,112481,1,8,0:0:0:0:
381,353,112541,1,2,0:0:0:0:
396,350,112601,1,8,0:0:0:0:
410,346,112661,1,2,0:0:0:0:
427,335,112721,1,8,0:0:0:0:
441,322,112781,1,2,0:0:0:0:
453,306,112841,1,8,0:0:0:0:
460,287,112901,1,2,0:0:0:0:
463,262,112961,1,8,0:0:0:0:
461,237,113021,1,2,0:0:0:0:
451,214,113081,1,8,0:0:0:0:
437,194,113141,5,2,0:0:0:0:
409,206,113201,1,8,0:0:0:0:
379,209,113261,1,2,0:0:0:0:
350,203,113321,1,8,0:0:0:0:
323,190,113381,1,2,0:0:0:0:
300,182,113441,1,8,0:0:0:0:
275,180,113501,1,2,0:0:0:0:
250,185,113561,1,8,0:0:0:0:
227,195,113621,2,0,L|241:124,3,50,2|8|2|8,0:0|0:0|0:0|0:0,0:0:0:0:
146,268,113861,2,0,L|132:197,3,50,2|8|2|8,0:0|0:0|0:0|0:0,0:0:0:0:
29,250,114101,5,6,0:0:0:0:
52,233,114161,1,8,0:0:0:0:
72,211,114221,1,2,0:0:0:0:
86,183,114281,1,8,0:0:0:0:
93,154,114341,1,2,0:0:0:0:
92,119,114401,1,8,0:0:0:0:
104,86,114461,1,2,0:0:0:0:
127,61,114521,1,8,0:0:0:0:
159,44,114581,1,2,0:0:0:0:
198,44,114641,1,8,0:0:0:0:
235,58,114701,1,2,0:0:0:0:
261,87,114761,1,8,0:0:0:0:
276,124,114821,1,2,0:0:0:0:
272,169,114881,1,8,0:0:0:0:
246,205,114941,1,2,0:0:0:0:
207,227,115001,1,8,0:0:0:0:
161,225,115061,5,2,0:0:0:0:
182,269,115121,1,8,0:0:0:0:
229,280,115181,1,2,0:0:0:0:
266,250,115241,1,8,0:0:0:0:
266,202,115301,1,2,0:0:0:0:
285,163,115361,1,8,0:0:0:0:
326,147,115421,1,2,0:0:0:0:
366,164,115481,1,8,0:0:0:0:
388,203,115541,5,2,0:0:0:0:
377,213,115601,1,4,0:0:0:0:
364,220,115661,1,4,0:0:0:0:
350,226,115721,1,4,0:0:0:0:
335,228,115781,5,2,0:0:0:0:
337,233,115841,1,4,0:0:0:0:
338,238,115901,1,4,0:0:0:0:
339,242,115961,1,4,0:0:0:0:
341,248,116021,5,6,0:0:0:0:
301,253,116081,1,2,0:0:0:0:
261,259,116141,1,2,0:0:0:0:
222,265,116201,1,2,0:0:0:0:
182,271,116261,1,2,0:0:0:0:
143,277,116321,1,2,0:0:0:0:
103,283,116381,1,2,0:0:0:0:
64,289,116441,1,2,0:0:0:0:
24,294,116501,6,0,B|44:268|44:268|176:250,1,150,2|0,0:0|3:0,0:0:0:0:
71,82,116821,1,0,3:0:0:0:
24,294,116981,5,6,0:0:0:0:
64,289,117041,1,2,0:0:0:0:
103,283,117101,1,2,0:0:0:0:
143,277,117161,1,2,0:0:0:0:
182,271,117221,1,2,0:0:0:0:
222,265,117281,1,2,0:0:0:0:
261,259,117341,1,2,0:0:0:0:
301,253,117401,1,2,0:0:0:0:
341,248,117461,5,6,0:0:0:0:
305,230,117521,1,2,0:0:0:0:
266,220,117581,1,2,0:0:0:0:
226,219,117641,1,2,0:0:0:0:
187,227,117701,1,2,0:0:0:0:
150,242,117761,1,2,0:0:0:0:
118,266,117821,1,2,0:0:0:0:
91,296,117881,1,2,0:0:0:0:
72,330,117941,5,6,0:0:0:0:
74,290,118001,1,2,0:0:0:0:
77,250,118061,1,2,0:0:0:0:
80,211,118121,1,2,0:0:0:0:
82,171,118181,1,2,0:0:0:0:
85,131,118241,1,2,0:0:0:0:
87,91,118301,1,2,0:0:0:0:
90,51,118361,1,2,0:0:0:0:
93,11,118421,6,0,B|123:30|123:30|113:168,1,150,2|8,0:0|0:0,0:0:0:0:
307,88,118741,1,8,0:0:0:0:
93,11,118901,5,6,0:0:0:0:
90,51,118961,1,2,0:0:0:0:
87,91,119021,1,2,0:0:0:0:
85,131,119081,1,2,0:0:0:0:
82,171,119141,1,2,0:0:0:0:
80,211,119201,1,2,0:0:0:0:
77,250,119261,1,2,0:0:0:0:
74,290,119321,1,2,0:0:0:0:
72,330,119381,5,6,0:0:0:0:
97,299,119441,1,2,0:0:0:0:
127,273,119501,1,2,0:0:0:0:
162,253,119561,1,2,0:0:0:0:
199,240,119621,1,2,0:0:0:0:
239,234,119681,1,2,0:0:0:0:
279,235,119741,1,2,0:0:0:0:
318,243,119801,1,2,0:0:0:0:
355,258,119861,5,6,0:0:0:0:
319,275,119921,1,2,0:0:0:0:
279,278,119981,1,2,0:0:0:0:
241,267,120041,1,2,0:0:0:0:
210,242,120101,1,2,0:0:0:0:
190,207,120161,1,2,0:0:0:0:
184,168,120221,1,2,0:0:0:0:
193,129,120281,1,2,0:0:0:0:
215,97,120341,6,0,B|231:112|231:112|188:179|256:243,1,150,2|0,0:0|3:0,0:0:0:0:
424,155,120661,1,0,3:0:0:0:
215,97,120821,5,6,0:0:0:0:
193,129,120881,1,2,0:0:0:0:
184,168,120941,1,2,0:0:0:0:
190,207,121001,1,2,0:0:0:0:
210,242,121061,1,2,0:0:0:0:
241,267,121121,1,2,0:0:0:0:
279,278,121181,1,2,0:0:0:0:
319,275,121241,1,2,0:0:0:0:
355,258,121301,5,6,0:0:0:0:
321,235,121361,1,2,0:0:0:0:
284,221,121421,1,2,0:0:0:0:
245,216,121481,1,2,0:0:0:0:
205,220,121541,1,2,0:0:0:0:
167,233,121601,1,2,0:0:0:0:
133,254,121661,1,2,0:0:0:0:
105,282,121721,1,2,0:0:0:0:
84,316,121781,5,6,0:0:0:0:
124,311,121841,1,2,0:0:0:0:
164,307,121901,1,2,0:0:0:0:
204,302,121961,1,2,0:0:0:0:
243,298,122021,1,2,0:0:0:0:
283,293,122081,1,2,0:0:0:0:
323,288,122141,1,2,0:0:0:0:
362,284,122201,1,2,0:0:0:0:
402,279,122261,5,6,0:0:0:0:
377,310,122321,1,2,0:0:0:0:
341,327,122381,1,2,0:0:0:0:
302,325,122441,1,2,0:0:0:0:
267,306,122501,1,2,0:0:0:0:
244,274,122561,1,2,0:0:0:0:
239,234,122621,1,2,0:0:0:0:
251,197,122681,1,2,0:0:0:0:
279,169,122741,6,4,L|214:172,3,50
187,99,122981,5,8,0:0:0:0:
236,96,123041,1,8,0:0:0:0:
286,94,123101,1,8,0:0:0:0:
336,92,123161,1,8,0:0:0:0:
386,90,123221,5,4,0:0:0:0:
367,73,123281,1,4,0:0:0:0:
345,64,123341,1,4,0:0:0:0:
320,62,123401,1,4,0:0:0:0:
295,67,123461,5,8,0:0:0:0:
328,102,123521,1,8,0:0:0:0:
330,151,123581,1,8,0:0:0:0:
299,189,123641,1,8,0:0:0:0:
251,197,123701,6,0,B|273:237|273:237|264:322,2,100.000003814697,2|2|0,0:0|0:0|0:0,0:0:0:0:
175,360,124181,6,0,L|184:259,2,100.000003814697,10|2|2,0:0|0:0|0:0,0:0:0:0:
97,338,124581,1,2,0:0:0:0:
84,331,124661,5,2,0:0:0:0:
73,231,124821,1,2,0:0:0:0:
63,132,124981,1,2,0:0:0:0:
71,325,125141,5,10,0:0:0:0:
60,225,125301,1,2,0:0:0:0:
50,126,125461,1,2,0:0:0:0:
179,286,125621,5,2,0:0:0:0:
189,186,125781,1,2,0:0:0:0:
199,87,125941,1,2,0:0:0:0:
323,151,126101,6,0,L|313:50,1,100.000003814697,10|2,0:0|0:0,0:0:0:0:
336,139,126421,1,10,0:0:0:0:
435,217,126581,6,0,L|444:116,1,100.000003814697,2|2,0:0|0:0,0:0:0:0:
422,205,126901,1,10,0:0:0:0:
336,338,127061,6,0,L|326:237,2,100.000003814697,10|2|2,0:0|0:0|0:0,0:0:0:0:
249,318,127461,1,2,0:0:0:0:
240,306,127541,5,2,0:0:0:0:
142,327,127701,1,2,0:0:0:0:
171,232,127861,1,2,0:0:0:0:
71,231,128021,5,10,0:0:0:0:
83,183,128101,1,4,0:0:0:0:
117,146,128181,1,4,0:0:0:0:
164,131,128261,1,4,0:0:0:0:
212,139,128341,1,4,0:0:0:0:
251,169,128421,1,4,0:0:0:0:
297,188,128501,5,2,0:0:0:0:
344,176,128581,1,2,0:0:0:0:
375,137,128661,1,2,0:0:0:0:
377,88,128741,1,2,0:0:0:0:
349,48,128821,1,2,0:0:0:0:
303,32,128901,1,2,0:0:0:0:
256,47,128981,6,0,B|275:69|275:69|262:178,2,100.000003814697,6|2|2,0:0|0:0|0:0,0:0:0:0:
359,77,129461,5,6,0:0:0:0:
344,176,129621,1,2,0:0:0:0:
258,228,129781,1,2,0:0:0:0:
377,88,129941,5,10,0:0:0:0:
362,187,130101,1,2,0:0:0:0:
276,239,130261,1,2,0:0:0:0:
374,289,130421,6,0,L|416:263,1,50.0000019073487,10|2,0:0|0:0,0:0:0:0:
288,341,130581,1,8,0:0:0:0:
234,313,130661,1,8,0:0:0:0:
175,305,130741,1,8,0:0:0:0:
116,315,130821,1,8,0:0:0:0:
64,344,130901,6,0,L|50:286,1,50.0000019073487,2|2,0:0|0:0,0:0:0:0:
276,239,131061,2,0,L|290:181,1,50.0000019073487,2|2,0:0|0:0,0:0:0:0:
20,258,131221,2,0,L|6:200,1,50.0000019073487,8|8,0:0|0:0,0:0:0:0:
110,82,131381,6,0,L|134:178,2,100.000003814697,6|2|2,0:0|0:0|0:0,0:0:0:0:
198,85,131781,1,2,0:0:0:0:
209,95,131861,5,10,0:0:0:0:
308,85,132021,1,2,0:0:0:0:
267,176,132181,1,2,0:0:0:0:
220,106,132341,5,2,0:0:0:0:
319,96,132501,1,2,0:0:0:0:
278,187,132661,1,2,0:0:0:0:
231,120,132821,5,10,0:0:0:0:
330,110,132981,1,2,0:0:0:0:
289,201,133141,1,2,0:0:0:0:
432,76,133301,5,2,0:0:0:0:
424,175,133461,1,2,0:0:0:0:
414,274,133621,1,2,0:0:0:0:
298,300,133781,6,0,L|287:184,1,100.000003814697,10|2,0:0|0:0,0:0:0:0:
286,314,134101,1,10,0:0:0:0:
143,261,134261,6,0,L|154:145,1,100.000003814697,2|2,0:0|0:0,0:0:0:0:
155,275,134581,1,10,0:0:0:0:
59,219,134741,5,10,0:0:0:0:
68,119,134901,1,2,0:0:0:0:
154,68,135061,1,2,0:0:0:0:
270,204,135221,6,0,B|262:185|262:185|274:87,2,100.000003814697,2|2|2,0:0|0:0|0:0,0:0:0:0:
364,83,135701,6,0,L|357:139,1,50.0000019073487,8|2,0:0|0:0,0:0:0:0:
456,64,135861,1,4,0:0:0:0:
450,113,135941,1,4,0:0:0:0:
444,163,136021,1,4,0:0:0:0:
438,213,136101,1,4,0:0:0:0:
433,262,136181,5,2,0:0:0:0:
389,239,136261,1,6,0:0:0:0:
339,236,136341,1,6,0:0:0:0:
292,253,136421,1,6,0:0:0:0:
256,287,136501,1,2,0:0:0:0:
254,272,136581,1,2,0:0:0:0:
251,257,136661,6,0,B|216:265|216:265|138:243,1,100.000003814697,6|2,0:0|0:0,0:0:0:0:
249,240,136981,1,10,0:0:0:0:
51,224,137141,5,2,0:0:0:0:
127,159,137301,1,2,0:0:0:0:
32,127,137461,1,2,0:0:0:0:
138,46,137621,5,10,0:0:0:0:
184,64,137701,1,2,0:0:0:0:
233,68,137781,1,2,0:0:0:0:
282,58,137861,1,2,0:0:0:0:
326,35,137941,1,2,0:0:0:0:
375,27,138021,1,2,0:0:0:0:
418,50,138101,5,4,0:0:0:0:
362,71,138181,1,4,0:0:0:0:
306,93,138261,5,2,0:0:0:0:
349,117,138341,1,2,0:0:0:0:
394,138,138421,5,2,0:0:0:0:
390,152,138501,1,2,0:0:0:0:
386,166,138581,5,2,0:0:0:0:
336,173,138661,1,2,0:0:0:0:
286,177,138741,5,2,0:0:0:0:
293,190,138821,1,2,0:0:0:0:
300,202,138901,5,2,0:0:0:0:
348,214,138981,1,2,0:0:0:0:
399,226,139061,6,0,P|395:248|396:272,1,43.75,2|0,0:0|2:0,0:0:0:0:
296,158,139541,6,0,P|300:180|299:204,1,43.75,2|0,2:0|2:0,0:0:0:0:
433,121,140021,6,0,P|434:72|455:28,1,93.75,2|0,2:0|1:0,0:0:0:0:
337,51,140981,6,0,L|343:24,7,25
246,72,141461,6,0,L|240:45,7,25
272,74,141941,6,0,L|280:168,1,75.0000028610231,14|2,0:0|0:0,0:0:0:0:
177,137,142181,2,0,L|184:230,1,75.0000028610231,2|2,0:0|0:0,0:0:0:0:
296,221,142421,2,0,L|288:314,1,75.0000028610231,2|2,0:0|0:0,0:0:0:0:
187,287,142661,1,2,0:0:0:0:
187,287,142781,1,2,0:0:0:0:
60,145,142901,6,0,B|78:162|78:162|88:235,1,75.0000028610231,6|2,0:0|0:0,0:0:0:0:
177,137,143141,2,0,L|164:46,1,75.0000028610231,2|2,0:0|0:0,0:0:0:0:
269,192,143381,2,0,L|281:101,2,75.0000028610231,2|2|2,0:0|0:0|0:0,0:0:0:0:
378,148,143741,1,10,0:0:0:0:
483,326,143861,6,0,P|447:317|399:326,1,75.0000028610231,14|2,0:0|0:0,0:0:0:0:
187,287,144101,2,0,P|223:296|271:287,1,75.0000028610231,6|2,0:0|0:0,0:0:0:0:
331,358,144341,1,2,0:0:0:0:
269,192,144461,1,6,0:0:0:0:
358,225,144581,1,2,0:0:0:0:
312,104,144701,1,2,0:0:0:0:
444,214,144821,6,0,P|437:259|409:297,1,75.0000028610231,6|2,0:0|0:0,0:0:0:0:
343,368,145061,2,0,L|243:375,1,75.0000028610231,2|2,0:0|0:0,0:0:0:0:
187,287,145301,2,0,L|287:280,2,75.0000028610231,2|2|0,0:0|0:0|0:0,0:0:0:0:
114,210,145661,1,10,0:0:0:0:
312,104,145781,6,0,B|296:93|296:93|224:99,1,75.0000028610231,14|2,0:0|0:0,0:0:0:0:
37,46,146021,2,0,B|53:57|53:57|125:51,1,75.0000028610231,6|2,0:0|0:0,0:0:0:0:
190,21,146261,1,2,0:0:0:0:
153,134,146381,1,2,0:0:0:0:
250,88,146501,1,2,0:0:0:0:
100,65,146621,1,2,0:0:0:0:
306,169,146741,6,0,P|333:140|347:93,1,75.0000028610231,6|2,0:0|0:0,0:0:0:0:
439,46,146981,2,0,L|434:128,1,75.0000028610231,2|2,0:0|0:0,0:0:0:0:
399,201,147221,2,0,L|394:283,2,75.0000028610231,2|2|2,0:0|0:0|0:0,0:0:0:0:
484,247,147581,1,10,0:0:0:0:
302,377,147701,6,0,P|334:358|371:359,2,75.0000028610231,14|2|2,0:0|0:0|0:0,0:0:0:0:
309,277,148061,1,10,0:0:0:0:
102,347,148181,2,0,L|193:340,1,75.0000028610231,14|2,0:0|0:0,0:0:0:0:
192,83,148421,1,8,0:0:0:0:
195,120,148481,1,8,0:0:0:0:
199,157,148541,1,8,0:0:0:0:
203,194,148601,1,8,0:0:0:0:
206,232,148661,6,0,L|146:237,5,50.0000019073487,6|2|2|2|2|2,0:0|0:0|0:0|0:0|0:0|0:0,0:0:0:0:
99,155,149141,6,0,L|39:150,5,50.0000019073487,10|2|2|2|2|2,0:0|0:0|0:0|0:0|0:0|0:0,0:0:0:0:
195,120,149621,5,6,0:0:0:0:
214,135,149701,1,2,0:0:0:0:
236,147,149781,1,2,0:0:0:0:
260,154,149861,1,2,0:0:0:0:
284,156,149941,1,2,0:0:0:0:
309,154,150021,1,2,0:0:0:0:
333,146,150101,5,10,0:0:0:0:
327,170,150181,1,2,0:0:0:0:
329,195,150261,1,2,0:0:0:0:
336,219,150341,1,2,0:0:0:0:
350,240,150421,1,2,0:0:0:0:
368,256,150501,1,2,0:0:0:0:
390,267,150581,5,6,0:0:0:0:
366,265,150661,1,2,0:0:0:0:
341,264,150741,1,2,0:0:0:0:
316,262,150821,1,2,0:0:0:0:
291,260,150901,1,2,0:0:0:0:
266,258,150981,1,2,0:0:0:0:
241,256,151061,5,10,0:0:0:0:
260,272,151141,1,2,0:0:0:0:
270,294,151221,1,2,0:0:0:0:
270,319,151301,1,2,0:0:0:0:
260,342,151381,1,2,0:0:0:0:
241,358,151461,1,2,0:0:0:0:
217,364,151541,6,0,L|204:315,1,50.0000019073487,14|2,0:0|0:0,0:0:0:0:
70,148,151701,1,10,0:0:0:0:
82,196,151781,1,10,0:0:0:0:
95,244,151861,1,10,0:0:0:0:
108,293,151941,1,10,0:0:0:0:
120,341,152021,5,6,0:0:0:0:
101,326,152101,1,6,0:0:0:0:
77,318,152181,1,6,0:0:0:0:
52,318,152261,1,6,0:0:0:0:
29,327,152341,5,10,0:0:0:0:
60,287,152421,1,10,0:0:0:0:
91,248,152501,5,6,0:0:0:0:
106,269,152581,1,2,0:0:0:0:
125,284,152661,1,2,0:0:0:0:
148,294,152741,1,2,0:0:0:0:
173,296,152821,1,2,0:0:0:0:
198,292,152901,1,2,0:0:0:0:
220,282,152981,5,10,0:0:0:0:
235,302,153061,1,2,0:0:0:0:
255,317,153141,1,2,0:0:0:0:
278,326,153221,1,2,0:0:0:0:
303,327,153301,1,2,0:0:0:0:
327,322,153381,1,2,0:0:0:0:
349,309,153461,5,6,0:0:0:0:
326,299,153541,1,2,0:0:0:0:
301,295,153621,1,2,0:0:0:0:
276,296,153701,1,2,0:0:0:0:
252,302,153781,1,2,0:0:0:0:
231,314,153861,1,2,0:0:0:0:
212,331,153941,5,10,0:0:0:0:
214,306,154021,1,2,0:0:0:0:
217,281,154101,1,2,0:0:0:0:
219,257,154181,1,2,0:0:0:0:
221,232,154261,1,2,0:0:0:0:
223,207,154341,1,2,0:0:0:0:
225,182,154421,5,6,0:0:0:0:
213,204,154501,1,2,0:0:0:0:
195,221,154581,1,2,0:0:0:0:
173,231,154661,1,2,0:0:0:0:
148,235,154741,1,2,0:0:0:0:
124,230,154821,1,2,0:0:0:0:
102,218,154901,6,0,L|118:277,5,50.0000019073487,10|2|2|2|2|2,0:0|0:0|0:0|0:0|0:0|0:0,0:0:0:0:
171,342,155381,5,12,0:0:0:0:
202,322,155441,1,8,0:0:0:0:
238,313,155501,1,8,0:0:0:0:
276,315,155561,1,8,0:0:0:0:
310,329,155621,1,8,0:0:0:0:
346,338,155681,1,8,0:0:0:0:
382,328,155741,5,4,0:0:0:0:
375,310,155801,1,4,0:0:0:0:
368,292,155861,5,8,0:0:0:0:
332,282,155921,1,8,0:0:0:0:
307,255,155981,1,8,0:0:0:0:
302,218,156041,1,8,0:0:0:0:
318,185,156101,1,8,0:0:0:0:
350,166,156161,1,8,0:0:0:0:
387,168,156221,5,0,0:2:0:0:
385,187,156281,1,0,0:2:0:0:
383,205,156341,5,2,0:0:0:0:
102,218,156821,5,8,0:0:0:0:
383,205,157301,5,2,0:0:0:0:
102,218,157781,2,0,L|84:100,2,100.000003814697,8|2|2,0:0|0:0|0:0,0:0:0:0:
202,120,158261,5,2,0:0:0:0:
383,205,158741,5,8,0:0:0:0:
464,139,158901,1,2,0:0:0:0:
459,138,158981,1,2,0:0:0:0:
454,137,159061,1,2,0:0:0:0:
449,136,159141,1,2,0:0:0:0:
444,135,159221,5,2,0:0:0:0:
202,120,159541,1,2,0:0:0:0:
238,293,159701,5,8,0:0:0:0:
292,209,159861,1,2,0:0:0:0:
348,126,160021,1,8,0:0:0:0:
261,34,160181,5,6,0:0:0:0:
240,48,160261,1,2,0:0:0:0:
217,57,160341,1,2,0:0:0:0:
192,60,160421,1,2,0:0:0:0:
167,56,160501,1,2,0:0:0:0:
144,46,160581,1,2,0:0:0:0:
125,31,160661,5,10,0:0:0:0:
128,56,160741,1,2,0:0:0:0:
131,81,160821,1,2,0:0:0:0:
134,105,160901,1,2,0:0:0:0:
137,130,160981,1,2,0:0:0:0:
140,155,161061,1,2,0:0:0:0:
143,180,161141,5,6,0:0:0:0:
161,153,161221,1,2,0:0:0:0:
190,139,161301,1,2,0:0:0:0:
222,139,161381,1,2,0:0:0:0:
250,155,161461,1,2,0:0:0:0:
267,183,161541,1,2,0:0:0:0:
269,215,161621,5,10,0:0:0:0:
239,188,161701,1,2,0:0:0:0:
230,150,161781,1,2,0:0:0:0:
244,113,161861,1,2,0:0:0:0:
276,90,161941,1,2,0:0:0:0:
315,89,162021,1,2,0:0:0:0:
348,110,162101,5,6,0:0:0:0:
321,151,162181,1,2,0:0:0:0:
274,166,162261,1,2,0:0:0:0:
228,151,162341,1,2,0:0:0:0:
201,110,162421,1,2,0:0:0:0:
204,61,162501,1,2,0:0:0:0:
237,24,162581,5,10,0:0:0:0:
235,74,162661,1,2,0:0:0:0:
234,124,162741,1,2,0:0:0:0:
232,174,162821,1,2,0:0:0:0:
230,224,162901,1,2,0:0:0:0:
229,274,162981,1,2,0:0:0:0:
227,324,163061,5,4,0:0:0:0:
175,295,163141,1,4,0:0:0:0:
147,243,163221,1,4,0:0:0:0:
151,185,163301,1,2,0:0:0:0:
188,138,163381,1,6,0:0:0:0:
243,118,163461,1,6,0:0:0:0:
301,132,163541,5,4,0:0:0:0:
286,199,163621,1,4,0:0:0:0:
232,242,163701,1,4,0:0:0:0:
163,241,163781,1,2,0:0:0:0:
110,198,163861,1,2,0:0:0:0:
95,131,163941,1,2,0:0:0:0:
126,70,164021,6,0,L|40:56,2,66.6666666666667,6|0|0,0:0|0:0|0:0,0:0:0:0:
209,187,164501,6,0,L|295:173,2,66.6666666666667
398,195,164981,5,0,0:0:0:0:
383,165,165141,1,0,0:0:0:0:
368,135,165301,1,0,0:0:0:0:
275,177,165461,5,0,0:0:0:0:
217,96,165621,1,0,0:0:0:0:
368,135,165781,1,0,0:0:0:0:
74,336,165941,6,0,L|149:328,1,66.6666666666667,6|0,1:0|0:0,0:0:0:0:
85,243,166261,1,0,0:0:0:0:
260,253,166421,6,0,L|185:245,1,66.6666666666667
260,337,166741,1,0,0:0:0:0:
348,306,166901,6,0,P|352:343|346:372,2,66.6666666666667
340,209,167381,5,0,0:0:0:0:
429,230,167541,2,0,P|448:259|457:296,1,66.6666666666667
84,216,167861,5,6,1:0:0:0:
106,106,168021,2,0,L|191:93,1,66.6666666666667
190,185,168341,6,0,L|275:172,2,66.6666666666667
330,51,168821,5,0,0:0:0:0:
328,83,168981,1,0,0:0:0:0:
324,116,169141,1,0,0:0:0:0:
434,122,169301,5,0,0:0:0:0:
324,116,169461,1,0,0:0:0:0:
473,221,169621,1,0,0:0:0:0:
337,223,169781,5,0,0:0:0:0:
256,192,169841,12,0,170741,2:0:0:0:
256,192,170801,12,0,171641,2:0:0:0:
16,261,171701,6,0,L|58:222,1,33.3333333333333,2|8,0:0|0:0,0:0:0:0:
125,194,171861,2,0,L|137:249,1,33.3333333333333,2|8,0:0|0:0,0:0:0:0:
127,315,172021,2,0,L|72:298,1,33.3333333333333,2|8,0:0|0:0,0:0:0:0:
17,241,172181,6,0,L|68:215,1,33.3333333333333,2|8,0:0|0:0,0:0:0:0:
140,205,172341,2,0,L|137:262,1,33.3333333333333,2|8,0:0|0:0,0:0:0:0:
110,322,172501,2,0,L|62:292,1,33.3333333333333,2|8,0:0|0:0,0:0:0:0:
23,223,172661,6,0,L|79:210,1,33.3333333333333,2|8,0:0|0:0,0:0:0:0:
151,220,172821,2,0,L|134:275,1,33.3333333333333,2|8,0:0|0:0,0:0:0:0:
92,326,172981,2,0,L|53:284,1,33.3333333333333,2|8,0:0|0:0,0:0:0:0:
34,207,173141,6,0,L|91:209,1,33.3333333333333,2|8,0:0|0:0,0:0:0:0:
158,237,173301,2,0,L|128:286,1,33.3333333333333,2|8,0:0|0:0,0:0:0:0:
74,324,173461,2,0,L|47:273,1,33.3333333333333,2|8,0:0|0:0,0:0:0:0:
233,305,173621,6,0,L|287:323,1,33.3333333333333,2|8,0:0|0:0,0:0:0:0:
360,321,173781,2,0,L|348:264,1,33.3333333333333,2|8,0:0|0:0,0:0:0:0:
313,210,173941,2,0,L|269:247,1,33.3333333333333,2|8,0:0|0:0,0:0:0:0:
242,321,174101,6,0,L|299:325,1,33.3333333333333,2|8,0:0|0:0,0:0:0:0:
368,304,174261,2,0,L|343:253,1,33.3333333333333,2|8,0:0|0:0,0:0:0:0:
294,209,174421,2,0,L|262:257,1,33.3333333333333,2|8,0:0|0:0,0:0:0:0:
255,335,174581,6,0,L|311:324,1,33.3333333333333,2|8,0:0|0:0,0:0:0:0:
373,286,174741,2,0,L|335:243,1,33.3333333333333,2|8,0:0|0:0,0:0:0:0:
277,213,174901,2,0,L|258:267,1,33.3333333333333,2|8,0:0|0:0,0:0:0:0:
271,346,175061,6,0,L|323:320,1,33.3333333333333,2|8,0:0|0:0,0:0:0:0:
372,267,175221,2,0,L|325:235,1,33.3333333333333,2|8,0:0|0:0,0:0:0:0:
261,222,175381,2,0,L|257:279,1,33.3333333333333,2|8,0:0|0:0,0:0:0:0:
506,222,175541,6,0,L|514:172,1,33.3333333333333,2|8,0:0|0:0,0:0:0:0:
453,127,175701,2,0,L|461:77,1,33.3333333333333,2|8,0:0|0:0,0:0:0:0:
401,34,175861,2,0,L|409:-16,1,33.3333333333333,2|8,0:0|0:0,0:0:0:0:
500,254,176021,6,0,L|508:204,1,33.3333333333333,2|8,0:0|0:0,0:0:0:0:
447,159,176181,2,0,L|455:109,1,33.3333333333333,2|8,0:0|0:0,0:0:0:0:
395,66,176341,2,0,L|403:16,1,33.3333333333333,2|8,0:0|0:0,0:0:0:0:
494,286,176501,6,0,L|502:236,1,33.3333333333333,2|8,0:0|0:0,0:0:0:0:
441,191,176661,2,0,L|449:141,1,33.3333333333333,2|8,0:0|0:0,0:0:0:0:
389,98,176821,2,0,L|397:48,1,33.3333333333333,2|8,0:0|0:0,0:0:0:0:
488,318,176981,6,0,L|496:268,1,33.3333333333333,2|8,0:0|0:0,0:0:0:0:
435,223,177141,2,0,L|443:173,1,33.3333333333333,2|8,0:0|0:0,0:0:0:0:
383,130,177301,2,0,L|391:80,1,33.3333333333333,2|8,0:0|0:0,0:0:0:0:
269,154,177461,6,0,L|258:210,1,33.3333333333333,2|8,0:0|0:0,0:0:0:0:
222,273,177621,2,0,L|178:236,1,33.3333333333333,2|8,0:0|0:0,0:0:0:0:
147,177,177781,2,0,L|200:157,1,33.3333333333333,2|8,0:0|0:0,0:0:0:0:
280,170,177941,6,0,L|255:221,1,33.3333333333333,2|8,0:0|0:0,0:0:0:0:
203,273,178101,2,0,L|170:225,1,33.3333333333333,2|8,0:0|0:0,0:0:0:0:
157,161,178261,2,0,L|214:156,1,33.3333333333333,2|8,0:0|0:0,0:0:0:0:
286,188,178421,6,0,L|249:231,1,33.3333333333333,2|8,0:0|0:0,0:0:0:0:
185,267,178581,2,0,L|165:213,1,33.3333333333333,2|8,0:0|0:0,0:0:0:0:
169,147,178741,2,0,L|225:157,1,33.3333333333333,2|8,0:0|0:0,0:0:0:0:
287,207,178901,6,0,L|239:239,1,33.3333333333333,2|2,0:0|0:0,0:0:0:0:
170,258,179061,2,0,L|165:200,1,33.3333333333333,2|2,0:0|0:0,0:0:0:0:
184,138,179221,2,0,L|235:162,1,33.3333333333333,2|2,0:0|0:0,0:0:0:0:
147,239,179381,6,0,L|151:288,1,50.0000019073487,2|8,0:0|0:0,0:0:0:0:
281,243,179542,2,0,L|322:215,1,50.0000019073487,2|8,0:0|0:0,0:0:0:0:
209,119,179702,2,0,L|164:97,1,50.0000019073487,2|8,0:0|0:0,0:0:0:0:
159,254,179862,6,0,L|176:301,1,50.0000019073487,2|8,0:0|0:0,0:0:0:0:
290,224,180022,2,0,L|322:186,1,50.0000019073487,2|8,0:0|0:0,0:0:0:0:
188,122,180181,2,0,L|139:113,1,50.0000019073487,2|8,0:0|0:0,0:0:0:0:
175,266,180341,6,0,L|204:307,1,50.0000019073487,2|8,0:0|0:0,0:0:0:0:
294,203,180501,2,0,L|315:158,1,50.0000019073487,2|8,0:0|0:0,0:0:0:0:
169,131,180661,2,0,L|119:135,1,50.0000019073487,2|8,0:0|0:0,0:0:0:0:
193,274,180822,6,0,L|231:306,1,50.0000019073487,2|8,0:0|0:0,0:0:0:0:
292,182,180982,2,0,L|300:133,1,50.0000019073487,2|8,0:0|0:0,0:0:0:0:
153,145,181141,2,0,L|106:162,1,50.0000019073487,2|8,0:0|0:0,0:0:0:0:
328,102,181301,6,0,L|316:168,1,66.6666666666667,2|8,0:0|0:0,0:0:0:0:
232,346,181461,2,0,L|181:303,1,66.6666666666667,2|8,0:0|0:0,0:0:0:0:
78,152,181620,2,0,L|141:129,1,66.6666666666667,2|8,0:0|0:0,0:0:0:0:
349,136,181782,6,0,L|321:196,1,66.6666666666667,2|8,0:0|0:0,0:0:0:0:
193,346,181941,2,0,L|155:292,1,66.6666666666667,2|8,0:0|0:0,0:0:0:0:
95,119,182101,2,0,L|162:113,1,66.6666666666667,2|8,0:0|0:0,0:0:0:0:
361,173,182262,6,0,L|318:224,1,66.6666666666667,2|8,0:0|0:0,0:0:0:0:
156,336,182420,2,0,L|133:274,1,66.6666666666667,2|8,0:0|0:0,0:0:0:0:
120,91,182581,2,0,L|186:103,1,66.6666666666667,2|8,0:0|0:0,0:0:0:0:
363,213,182740,6,0,L|306:254,1,66.6666666666667,2|8,0:0|0:0,0:0:0:0:
123,317,182900,2,0,L|117:251,1,66.6666666666667,2|8,0:0|0:0,0:0:0:0:
152,71,183061,2,0,L|212:99,1,66.6666666666667,2|8,0:0|0:0,0:0:0:0:
83,224,183221,6,0,L|90:306,1,83.3333333333333,2|8,0:0|0:0,0:0:0:0:
327,272,183381,2,0,L|394:224,1,83.3333333333333,2|8,0:0|0:0,0:0:0:0:
207,64,183541,2,0,L|132:29,1,83.3333333333333,2|8,0:0|0:0,0:0:0:0:
103,249,183700,6,0,L|131:327,1,83.3333333333333,2|8,0:0|0:0,0:0:0:0:
342,240,183861,2,0,L|394:176,1,83.3333333333333,2|8,0:0|0:0,0:0:0:0:
172,71,184020,2,0,L|84:56,1,83.3333333333333,2|8,0:0|0:0,0:0:0:0:
159,349,184181,6,0,L|125:254,1,100.000003814697,2|8,0:0|0:0,0:0:0:0:
63,36,184341,2,0,L|161:55,1,100.000003814697,2|8,0:0|0:0,0:0:0:0:
419,179,184501,2,0,L|353:262,1,100.000003814697,2|8,0:0|0:0,0:0:0:0:
149,363,184661,6,0,L|91:280,1,100.000003814697,2|8,0:0|0:0,0:0:0:0:
49,20,184821,2,0,L|148:12,1,100.000003814697,2|8,0:0|0:0,0:0:0:0:
427,190,184981,2,0,L|384:287,1,100.000003814697,2|8,0:0|0:0,0:0:0:0:
0,186,185141,5,6,0:0:0:0:
92,152,210101,5,6,0:0:0:0:
137,286,210324,2,0,B|114:286|114:286|62:312,1,50,8|8,0:0|0:0,0:0:0:0:
260,96,210482,5,8,0:0:0:0:
254,145,210542,1,8,0:0:0:0:
249,195,210602,1,8,0:0:0:0:
243,245,210662,1,8,0:0:0:0:
238,294,210722,6,0,L|315:277,2,66.6666666666667,8|8|8,0:0|0:0|0:0,0:0:0:0:
342,197,210962,6,0,L|419:180,2,66.6666666666667,8|8|8,0:0|0:0|0:0,0:0:0:0:
461,275,211220,5,4,0:0:0:0:
427,272,211300,1,4,0:0:0:0:
395,281,211380,1,4,0:0:0:0:
367,298,211460,1,4,0:0:0:0:
346,324,211540,5,6,0:0:0:0:
94,99,212261,5,2,0:0:0:0:
388,120,212501,1,2,0:0:0:0:
45,201,212741,1,2,0:0:0:0:
468,209,212981,5,6,0:0:0:0:
337,277,213221,1,4,0:0:0:0:
314,265,213281,1,4,0:0:0:0:
290,259,213341,1,4,0:0:0:0:
265,260,213401,1,4,0:0:0:0:
241,267,213461,1,2,0:0:0:0:
282,347,213581,1,2,0:0:0:0:
133,336,213701,5,2,0:0:0:0:
143,346,213761,1,8,0:0:0:0:
146,296,213821,1,8,0:0:0:0:
149,246,213881,1,8,0:0:0:0:
152,196,213941,5,4,0:0:0:0:
175,205,214001,1,4,0:0:0:0:
200,207,214061,1,4,0:0:0:0:
224,203,214121,1,4,0:0:0:0:
247,192,214181,5,8,0:0:0:0:
296,185,214241,1,8,0:0:0:0:
344,196,214301,1,8,0:0:0:0:
386,223,214361,1,8,0:0:0:0:
415,264,214421,5,2,0:0:0:0:
511,224,214541,1,2,0:0:0:0:
380,16,214781,1,2,0:0:0:0:
415,264,215021,1,2,0:0:0:0:
408,271,215081,1,2,0:0:0:0:
451,309,215141,5,12,0:0:0:0:
50,191,215381,1,2,0:0:0:0:
479,140,215621,1,2,0:0:0:0:
192,336,215861,6,0,L|173:271,2,50,6|4|4,0:0|0:0|0:0,0:0:0:0:
117,374,216041,1,4,0:0:0:0:
113,364,216101,1,4,0:0:0:0:
267,282,216221,1,2,0:0:0:0:
271,273,216281,1,2,0:0:0:0:
276,264,216341,2,0,P|320:254|384:261,1,100,2|2,0:0|0:0,0:0:0:0:
304,146,216581,6,0,L|423:133,1,100,2|2,0:0|0:0,0:0:0:0:
296,45,216821,2,0,L|177:58,1,100,2|2,0:0|0:0,0:0:0:0:
111,167,217061,2,0,L|230:154,1,100,2|2,0:0|0:0,0:0:0:0:
102,65,217301,5,2,0:0:0:0:
102,65,217421,1,2,0:0:0:0:
28,143,217541,2,0,P|31:195|76:248,1,100,2|2,0:0|0:0,0:0:0:0:
116,312,217781,2,0,L|228:306,1,100,2|2,0:0|0:0,0:0:0:0:
146,219,218021,6,0,L|258:213,1,100,2|2,0:0|0:0,0:0:0:0:
307,295,218261,1,2,0:0:0:0:
307,295,218381,1,2,0:0:0:0:
361,197,218501,1,2,0:0:0:0:
361,197,218621,1,2,0:0:0:0:
423,294,218741,5,2,0:0:0:0:
480,194,218861,1,8,0:0:0:0:
454,151,218921,1,8,0:0:0:0:
452,101,218981,1,8,0:0:0:0:
472,56,219041,1,8,0:0:0:0:
341,92,219161,1,8,0:0:0:0:
291,96,219221,1,8,0:0:0:0:
241,101,219281,1,8,0:0:0:0:
191,106,219341,1,8,0:0:0:0:
141,111,219401,1,8,0:0:0:0:
92,115,219461,5,2,0:0:0:0:
13,301,219581,1,4,0:0:0:0:
30,283,219641,1,4,0:0:0:0:
52,271,219701,1,4,0:0:0:0:
76,266,219761,2,0,L|85:197,2,50,4|2|2,0:0|0:0|0:0,0:0:0:0:
185,295,219941,5,2,0:0:0:0:
204,311,220001,1,4,0:0:0:0:
228,317,220061,1,4,0:0:0:0:
253,313,220121,1,4,0:0:0:0:
274,299,220181,5,6,0:0:0:0:
376,330,220421,1,2,0:0:0:0:
373,320,220541,1,2,0:0:0:0:
481,317,220661,1,2,0:0:0:0:
484,297,220781,1,2,0:0:0:0:
497,112,220901,5,2,0:0:0:0:
470,198,221021,1,2,0:0:0:0:
400,69,221141,1,2,0:0:0:0:
387,227,221261,1,2,0:0:0:0:
304,27,221381,1,2,0:0:0:0:
305,255,221501,1,2,0:0:0:0:
64,123,221621,5,6,0:0:0:0:
64,123,222341,5,4,0:0:0:0:
64,123,222461,1,4,0:0:0:0:
249,196,222701,1,4,0:0:0:0:
425,101,222941,1,4,0:0:0:0:
328,341,223061,5,6,0:0:0:0:
191,298,223181,1,8,0:0:0:0:
433,272,223301,1,8,0:0:0:0:
249,196,223421,1,2,0:0:0:0:
256,189,223481,1,2,0:0:0:0:
264,183,223541,2,0,L|250:81,1,100,8|2,0:0|0:0,0:0:0:0:
378,137,223781,6,0,L|392:35,1,100,8|2,0:0|0:0,0:0:0:0:
493,132,224021,1,8,0:0:0:0:
493,132,224141,2,0,L|479:234,1,100,8|2,0:0|0:0,0:0:0:0:
372,240,224381,1,8,0:0:0:0:
492,333,224501,5,6,0:0:0:0:
328,349,224621,1,2,0:0:0:0:
326,353,224681,1,2,0:0:0:0:
324,358,224741,1,2,0:0:0:0:
322,362,224801,1,2,0:0:0:0:
320,367,224861,1,2,0:0:0:0:
318,372,224921,1,2,0:0:0:0:
316,376,224981,1,2,0:0:0:0:
488,243,225101,1,8,0:0:0:0:
265,292,225221,5,8,0:0:0:0:
391,285,225341,1,2,0:0:0:0:
387,287,225401,1,2,0:0:0:0:
383,290,225461,5,8,0:0:0:0:
372,240,225521,1,8,0:0:0:0:
360,192,225581,1,8,0:0:0:0:
348,143,225641,1,8,0:0:0:0:
336,95,225701,5,4,0:0:0:0:
316,110,225761,1,4,0:0:0:0:
292,118,225821,1,4,0:0:0:0:
268,119,225881,1,4,0:0:0:0:
244,112,225941,5,6,0:0:0:0:
196,98,226001,1,8,0:0:0:0:
148,110,226061,1,8,0:0:0:0:
113,145,226121,1,8,0:0:0:0:
101,193,226181,5,12,0:0:0:0:
150,184,226241,1,8,0:0:0:0:
199,192,226301,1,8,0:0:0:0:
238,222,226361,1,8,0:0:0:0:
245,270,226421,5,2,0:0:0:0:
227,261,226481,1,8,0:0:0:0:
208,257,226541,1,2,0:0:0:0:
188,258,226601,1,8,0:0:0:0:
169,263,226661,1,2,0:0:0:0:
152,274,226721,1,8,0:0:0:0:
138,288,226781,1,2,0:0:0:0:
127,303,226841,1,8,0:0:0:0:
114,318,226901,1,2,0:0:0:0:
98,329,226961,1,8,0:0:0:0:
78,334,227021,1,2,0:0:0:0:
59,332,227081,1,8,0:0:0:0:
41,324,227141,1,2,0:0:0:0:
26,310,227201,1,8,0:0:0:0:
17,292,227261,1,2,0:0:0:0:
15,272,227321,1,8,0:0:0:0:
19,253,227381,5,6,0:0:0:0:
113,145,227621,1,0,0:0:0:0:
132,152,227681,1,0,0:0:0:0:
151,158,227741,1,2,0:0:0:0:
171,161,227801,1,2,0:0:0:0:
191,162,227861,1,0,0:0:0:0:
211,162,227921,1,0,0:0:0:0:
230,159,227981,1,2,0:0:0:0:
250,154,228041,1,2,0:0:0:0:
269,147,228101,5,4,0:0:0:0:
287,139,228161,1,4,0:0:0:0:
304,128,228221,1,4,0:0:0:0:
319,116,228281,1,4,0:0:0:0:
335,104,228341,1,2,0:0:0:0:
353,95,228401,1,2,0:0:0:0:
372,89,228461,1,4,0:0:0:0:
391,85,228521,1,4,0:0:0:0:
411,84,228581,1,4,0:0:0:0:
431,85,228641,1,4,0:0:0:0:
451,89,228701,1,2,0:0:0:0:
470,96,228761,1,2,0:0:0:0:
487,105,228821,6,0,L|481:34,1,66.6666666666667,12|8,0:0|0:0,0:0:0:0:
390,239,228981,2,0,L|383:167,1,66.6666666666667,8|8,0:0|0:0,0:0:0:0:
510,295,229141,2,0,L|503:223,1,66.6666666666667,8|8,0:0|0:0,0:0:0:0:
340,323,229301,5,4,0:0:0:0:
304,309,229381,1,4,0:0:0:0:
269,304,229461,1,4,0:0:0:0:
232,306,229541,1,4,0:0:0:0:
198,317,229621,1,4,0:0:0:0:
166,335,229701,1,4,0:0:0:0:
138,359,229781,5,4,0:0:0:0:
107,379,229861,1,4,0:0:0:0:
72,384,229941,1,4,0:0:0:0:
38,371,230021,1,4,0:0:0:0:
14,345,230101,1,4,0:0:0:0:
4,309,230181,1,4,0:0:0:0:
13,274,230261,5,6,0:0:0:0:
23,288,230341,1,2,0:0:0:0:
35,302,230421,1,2,0:0:0:0:
50,313,230501,1,2,0:0:0:0:
67,321,230581,1,2,0:0:0:0:
83,327,230661,1,2,0:0:0:0:
102,329,230741,5,6,0:0:0:0:
160,112,230981,5,8,0:0:0:0:
209,103,231041,1,8,0:0:0:0:
258,93,231101,6,0,L|248:162,1,50,2|2,0:0|0:0,0:0:0:0:
395,75,231221,5,4,0:0:0:0:
375,90,231281,1,4,0:0:0:0:
361,111,231341,1,4,0:0:0:0:
353,134,231401,1,4,0:0:0:0:
351,159,231461,5,2,0:0:0:0:
356,158,231521,1,2,0:0:0:0:
361,158,231581,2,0,L|345:215,1,50,8|2,0:0|0:0,0:0:0:0:
431,208,231701,6,0,L|415:265,1,50,4|4,0:0|0:0,0:0:0:0:
323,326,231821,5,2,0:0:0:0:
320,321,231881,1,2,0:0:0:0:
317,316,231941,2,4,L|241:316,1,50
175,214,232061,5,2,0:0:0:0:
178,219,232121,1,2,0:0:0:0:
181,224,232181,2,8,L|257:224,1,50
114,315,232301,5,2,0:0:0:0:
111,310,232361,1,2,0:0:0:0:
108,305,232421,5,8,0:0:0:0:
62,285,232481,1,8,0:0:0:0:
36,244,232541,1,8,0:0:0:0:
40,195,232601,1,8,0:0:0:0:
71,157,232661,5,8,0:0:0:0:
116,321,232781,1,8,0:0:0:0:
162,92,232901,1,8,0:0:0:0:
117,323,233021,1,8,0:0:0:0:
274,59,233141,5,2,0:0:0:0:
274,59,233261,1,0,0:0:0:0:
230,282,233381,5,0,0:0:0:0:
230,282,233501,1,0,0:0:0:0:
71,157,233621,5,0,0:0:0:0:
71,157,233741,1,0,0:0:0:0:
353,196,233861,5,0,0:0:0:0:
353,196,233981,1,0,0:0:0:0:
142,36,234101,5,0,0:0:0:0:
142,36,234221,1,0,0:0:0:0:
94,307,234341,5,0,0:0:0:0:
94,307,234461,1,0,0:0:0:0:
119,188,234581,5,6,0:0:0:0:
179,136,234661,1,0,0:0:0:0:
258,130,234741,1,0,0:0:0:0:
324,175,234821,5,2,0:0:0:0:
348,244,234901,1,0,0:0:0:0:
415,273,234981,1,0,0:0:0:0:
483,247,235061,5,2,0:0:0:0:
510,186,235141,1,0,0:0:0:0:
492,121,235221,1,0,0:0:0:0:
434,86,235301,5,2,0:0:0:0:
448,72,235381,2,0,L|457:147,1,66.6666666666667
401,287,235541,5,2,0:0:0:0:
415,273,235621,2,0,L|424:348,1,66.6666666666667
361,208,235781,5,2,0:0:0:0:
301,215,235861,1,0,0:0:0:0:
242,221,235941,1,0,0:0:0:0:
197,261,236021,5,2,0:0:0:0:
131,254,236101,1,0,0:0:0:0:
64,248,236181,1,0,0:0:0:0:
18,199,236261,5,2,0:0:0:0:
91,349,236381,1,8,0:0:0:0:
22,190,236501,5,2,0:0:0:0:
100,351,236621,1,8,0:0:0:0:
54,95,236741,5,2,0:0:0:0:
131,254,236861,1,8,0:0:0:0:
59,86,236981,5,2,0:0:0:0:
141,256,237101,1,8,0:0:0:0:
22,190,237221,5,2,0:0:0:0:
109,371,237341,1,8,0:0:0:0:
204,114,237461,6,0,B|263:116|263:116|289:133|289:133|382:137,1,175.00000166893,6|8,0:0|0:0,0:0:0:0:
470,85,237701,5,2,0:0:0:0:
421,237,237821,1,8,0:0:0:0:
374,137,237941,5,2,0:0:0:0:
360,127,238021,2,0,L|263:123,1,66.6666666666667
24,185,238181,5,2,0:0:0:0:
38,195,238261,2,0,L|137:199,1,83.3333333333333
165,345,238421,5,2,0:0:0:0:
229,366,238501,1,0,0:0:0:0:
289,334,238581,1,0,0:0:0:0:
307,268,238661,5,2,0:0:0:0:
375,232,238741,1,0,0:0:0:0:
450,243,238821,1,0,0:0:0:0:
485,310,238901,5,6,0:0:0:0:
480,290,238981,2,0,B|462:325|462:325|469:368,1,66.6666666666667
358,205,239141,5,2,0:0:0:0:
363,185,239221,2,0,B|377:212|377:212|372:260,1,50.0000019073487
485,97,239381,5,2,0:0:0:0:
480,77,239461,2,0,B|468:93|468:93|472:129,1,33.3333333333333
270,55,239621,5,2,0:0:0:0:
265,75,239701,2,0,L|348:65,1,50.0000019073487
325,333,239861,5,2,0:0:0:0:
320,353,239941,2,0,L|408:342,1,66.6666666666667
26,237,240101,5,2,0:0:0:0:
21,257,240181,2,0,L|118:244,1,83.3333333333333
272,271,240341,5,6,0:0:0:0:
325,315,240421,1,0,0:0:0:0:
394,323,240501,1,0,0:0:0:0:
456,292,240581,1,2,0:0:0:0:
490,231,240661,1,0,0:0:0:0:
486,161,240741,1,0,0:0:0:0:
442,106,240821,1,2,0:0:0:0:
377,83,240901,1,0,0:0:0:0:
310,102,240981,1,0,0:0:0:0:
263,153,241061,1,2,0:0:0:0:
193,161,241141,1,0,0:0:0:0:
137,118,241221,1,0,0:0:0:0:
119,50,241301,5,2,0:0:0:0:
136,40,241381,2,0,L|126:132,1,66.6666666666667
0,260,241541,1,2,0:0:0:0:
17,250,241621,2,0,L|7:342,1,66.6666666666667
113,209,241781,5,2,0:0:0:0:
94,137,241861,1,0,0:0:0:0:
135,75,241941,1,0,0:0:0:0:
207,64,242021,1,2,0:0:0:0:
264,110,242101,1,0,0:0:0:0:
268,184,242181,1,0,0:0:0:0:
217,236,242261,1,2,0:0:0:0:
226,309,242341,1,0,0:0:0:0:
275,364,242421,1,0,0:0:0:0:
347,380,242501,1,2,0:0:0:0:
416,354,242581,1,0,0:0:0:0:
456,293,242661,1,0,0:0:0:0:
455,219,242741,5,0,0:0:0:0:
438,229,242821,2,0,L|446:153,1,66.6666666666667
331,135,242981,2,0,L|339:59,2,66.6666666666667
157,250,243221,6,0,B|189:232|189:232|288:242,1,100,6|8,0:0|0:0,0:0:0:0:
325,359,243461,2,0,L|198:344,1,100,2|8,0:0|0:0,0:0:0:0:
103,117,243701,2,0,L|229:131,1,100,2|8,0:0|0:0,0:0:0:0:
44,211,243941,5,2,0:0:0:0:
44,211,244061,1,8,0:0:0:0:
17,330,244181,2,0,P|74:314|150:327,1,100,2|8,0:0|0:0,0:0:0:0:
225,347,244421,2,0,P|282:363|358:350,1,100,2|8,0:0|0:0,0:0:0:0:
448,287,244661,5,12,0:0:0:0:
290,242,244781,1,2,0:0:0:0:
412,132,244901,1,2,0:0:0:0:
229,89,245021,5,8,0:0:0:0:
387,134,245141,1,2,0:0:0:0:
265,244,245261,1,2,0:0:0:0:
398,291,245381,5,8,0:0:0:0:
240,246,245501,1,2,0:0:0:0:
362,136,245621,1,8,0:0:0:0:
346,183,245681,1,8,0:0:0:0:
331,231,245741,1,8,0:0:0:0:
315,278,245801,1,8,0:0:0:0:
294,323,245861,6,0,L|357:331,3,50,4|4|4|4,0:0|0:0|0:0|0:0,0:0:0:0:
199,310,246101,6,0,L|138:302,2,33.3333333333333,6|0|0,0:0|0:0|0:0,0:0:0:0:
54,317,246341,6,0,L|-16:309,2,50.0000019073487,2|0|0,0:0|0:0|0:0,0:0:0:0:
80,196,246581,6,0,L|-1:186,2,66.6666666666667,2|0|0,0:0|0:0|0:0,0:0:0:0:
45,84,246821,5,10,0:0:0:0:
94,80,246901,1,0,0:0:0:0:
141,97,246981,1,0,0:0:0:0:
176,131,247061,5,2,0:0:0:0:
228,152,247141,1,0,0:0:0:0:
284,148,247221,1,0,0:0:0:0:
333,120,247301,5,2,0:0:0:0:
323,102,247381,2,0,L|330:198,1,66.6666666666667
506,188,247541,5,6,0:0:0:0:
455,141,247621,1,0,0:0:0:0:
387,134,247701,1,0,0:0:0:0:
327,168,247781,5,2,0:0:0:0:
259,177,247861,1,0,0:0:0:0:
199,143,247941,1,0,0:0:0:0:
172,80,248021,6,0,L|159:162,2,66.6666666666667,2|0|0,0:0|0:0|0:0,0:0:0:0:
82,27,248261,6,0,L|70:104,2,55.9999982910157,6|2|2,0:0|0:0|0:0,0:0:0:0:
57,168,248501,6,0,L|47:237,2,44.6666645538331,2|2|2,0:0|0:0|0:0,0:0:0:0:
161,145,248741,6,0,L|153:194,2,33.3333333333333,6|2|2,0:0|0:0|0:0,0:0:0:0:
109,324,248981,5,2,0:0:0:0:
177,325,249061,1,2,0:0:0:0:
224,276,249141,1,2,0:0:0:0:
221,208,249221,5,6,0:0:0:0:
184,160,249301,1,2,0:0:0:0:
195,99,249381,1,2,0:0:0:0:
247,66,249461,5,2,0:0:0:0:
255,91,249541,2,0,L|262:8,1,66.6666666666667
429,116,249701,5,6,0:0:0:0:
421,141,249781,2,0,L|415:67,1,50.0000019073487
362,269,249941,5,2,0:0:0:0:
337,277,250021,2,0,L|420:284,1,66.6666666666667
111,314,250181,5,6,0:0:0:0:
86,306,250261,2,0,L|171:300,1,83.3333333333333
208,378,250421,5,2,0:0:0:0:
251,333,250501,1,2,0:0:0:0:
254,271,250581,1,2,0:0:0:0:
217,222,250661,5,6,0:0:0:0:
216,165,250741,1,2,0:0:0:0:
240,115,250821,1,2,0:0:0:0:
284,80,250901,6,0,L|227:72,2,33.3333333333333,2|0|0,0:0|0:0|0:0,0:0:0:0:
486,205,251141,5,8,0:0:0:0:
417,182,251221,1,8,0:0:0:0:
344,188,251301,1,8,0:0:0:0:
279,222,251381,5,8,0:0:0:0:
213,249,251461,1,8,0:0:0:0:
142,233,251541,1,8,0:0:0:0:
95,178,251621,5,4,0:0:0:0:
99,218,251701,1,4,0:0:0:0:
103,258,251781,1,4,0:0:0:0:
106,298,251861,5,6,0:0:0:0:
89,286,251941,2,0,L|86:344,1,33.3333333333333
197,169,252101,5,2,0:0:0:0:
214,157,252181,2,0,L|218:223,1,50.0000019073487
312,313,252341,5,2,0:0:0:0:
295,301,252421,2,0,L|290:379,1,66.6666666666667
410,264,252581,5,10,0:0:0:0:
390,218,252661,1,0,0:0:0:0:
385,169,252741,1,0,0:0:0:0:
398,121,252821,5,2,0:0:0:0:
414,68,252901,1,0,0:0:0:0:
386,21,252981,1,0,0:0:0:0:
332,13,253061,5,2,0:0:0:0:
344,28,253141,2,0,L|255:22,1,66.6666666666667
364,149,253301,5,6,0:0:0:0:
419,185,253381,1,0,0:0:0:0:
417,251,253461,1,0,0:0:0:0:
356,280,253541,5,2,0:0:0:0:
295,247,253621,1,0,0:0:0:0:
227,267,253701,1,0,0:0:0:0:
205,333,253781,5,2,0:0:0:0:
195,315,253861,2,0,L|268:319,1,50.0000019073487
130,180,254021,5,14,0:0:0:0:
140,198,254101,2,0,L|80:195,1,33.3333333333333
254,91,254261,5,2,0:0:0:0:
264,56,254341,1,0,0:0:0:0:
251,23,254421,1,0,0:0:0:0:
219,5,254501,5,6,0:0:0:0:
191,12,254581,1,2,0:0:0:0:
170,33,254661,1,2,0:0:0:0:
166,62,254741,6,0,L|106:73,3,50,2|0|0|0,0:0|2:0|2:0|2:0,0:0:0:0:
121,153,254981,6,0,L|60:163,3,50,6|0|0|0,0:0|2:0|2:0|2:0,0:0:0:0:
80,244,255221,6,0,L|19:254,3,50,2|0|0|0,0:0|2:0|2:0|2:0,0:0:0:0:
241,299,255461,6,0,L|217:356,3,50,12|0|0|0,0:0|2:0|2:0|2:0,0:0:0:0:
334,244,255701,6,0,L|357:301,3,50,2|0|0|0,0:0|2:0|2:0|2:0,0:0:0:0:
256,159,255941,6,0,L|232:216,3,50,6|0|0|0,0:0|2:0|2:0|2:0,0:0:0:0:
328,99,256181,6,0,L|449:91,1,100,10|2,0:0|0:0,0:0:0:0:
462,181,256361,1,2,0:0:0:0:
454,169,256421,5,8,0:0:0:0:
404,173,256481,1,8,0:0:0:0:
354,176,256541,1,8,0:0:0:0:
304,180,256601,1,8,0:0:0:0:
254,184,256661,5,4,0:0:0:0:
273,199,256721,1,4,0:0:0:0:
280,222,256781,1,4,0:0:0:0:
278,246,256841,1,4,0:0:0:0:
266,268,256901,5,8,0:0:0:0:
267,218,256961,1,8,0:0:0:0:
269,168,257021,1,8,0:0:0:0:
270,118,257081,1,8,0:0:0:0:
272,68,257141,6,0,L|215:79,3,50,4|4|4|4,0:0|0:0|0:0|0:0,0:0:0:0:
370,127,257381,5,4,0:0:0:0:
181,166,257501,1,4,0:0:0:0:
286,370,257621,5,6,0:0:0:0:
293,351,257681,1,2,0:0:0:0:
290,331,257741,1,2,0:0:0:0:
281,312,257801,1,2,0:0:0:0:
262,276,257861,5,6,0:0:0:0:
255,257,257921,1,2,0:0:0:0:
258,237,257981,1,2,0:0:0:0:
267,218,258041,1,2,0:0:0:0:
280,180,258101,5,6,0:0:0:0:
287,161,258161,1,2,0:0:0:0:
284,141,258221,1,2,0:0:0:0:
275,122,258281,1,2,0:0:0:0:
248,92,258341,5,10,0:0:0:0:
262,89,258401,1,2,0:0:0:0:
276,87,258461,1,2,0:0:0:0:
290,85,258521,1,2,0:0:0:0:
314,101,258581,5,2,0:0:0:0:
328,98,258641,1,2,0:0:0:0:
342,96,258701,1,2,0:0:0:0:
356,94,258761,1,2,0:0:0:0:
380,76,258821,5,2,0:0:0:0:
394,73,258881,1,2,0:0:0:0:
408,71,258941,1,2,0:0:0:0:
422,69,259001,1,2,0:0:0:0:
448,82,259061,6,2,L|434:143,3,50,6|2|2|2,0:0|0:0|0:0|0:0,0:0:0:0:
350,188,259301,6,2,L|336:249,3,50,6|2|2|2,0:0|0:0|0:0|0:0,0:0:0:0:
254,300,259541,6,2,L|240:361,3,50,6|2|2|2,0:0|0:0|0:0|0:0,0:0:0:0:
133,277,259781,5,8,0:0:0:0:
123,227,259841,1,8,0:0:0:0:
113,178,259901,1,8,0:0:0:0:
104,129,259961,1,8,0:0:0:0:
94,80,260021,5,4,0:0:0:0:
117,88,260081,1,4,0:0:0:0:
142,87,260141,1,4,0:0:0:0:
165,77,260201,1,4,0:0:0:0:
183,60,260261,5,2,0:0:0:0:
178,60,260321,1,2,0:0:0:0:
173,59,260381,1,2,0:0:0:0:
168,58,260441,1,2,0:0:0:0:
163,57,260501,5,2,0:0:0:0:
180,257,260621,1,2,0:0:0:0:
251,11,260741,5,2,0:0:0:0:
180,257,260861,1,2,0:0:0:0:
88,130,260981,5,2,0:0:0:0:
360,176,261101,1,2,0:0:0:0:
163,57,261221,5,10,0:0:0:0:
360,176,261341,1,2,0:0:0:0:
21,273,261461,5,2,0:0:0:0:
14,254,261541,2,0,L|99:266,1,83.3333333333333
309,283,261701,5,2,0:0:0:0:
302,302,261781,2,0,L|410:289,1,100.000003814697
423,178,261941,5,8,0:0:0:0:
349,151,262021,1,8,0:0:0:0:
269,158,262101,1,8,0:0:0:0:
201,198,262181,5,8,0:0:0:0:
125,204,262261,1,8,0:0:0:0:
86,139,262341,1,8,0:0:0:0:
127,75,262421,5,14,0:0:0:0:
149,99,262501,1,0,0:0:0:0:
159,130,262581,1,0,0:0:0:0:
155,163,262661,5,2,0:0:0:0:
137,191,262741,1,0,0:0:0:0:
120,219,262821,1,0,0:0:0:0:
117,252,262901,5,2,0:0:0:0:
97,246,262981,2,0,L|103:319,1,66.6666666666667
271,303,263141,5,2,0:0:0:0:
291,297,263221,2,0,L|283:383,1,83.3333333333333
347,168,263381,5,2,0:0:0:0:
398,128,263461,1,0,0:0:0:0:
461,141,263541,1,0,0:0:0:0:
493,197,263621,5,2,0:0:0:0:
463,254,263701,1,0,0:0:0:0:
400,268,263781,1,0,0:0:0:0:
348,229,263861,5,10,0:0:0:0:
312,213,263941,1,0,0:0:0:0:
273,212,264021,1,0,0:0:0:0:
236,228,264101,5,2,0:0:0:0:
210,248,264181,1,0,0:0:0:0:
177,254,264261,1,0,0:0:0:0:
145,246,264341,5,2,0:0:0:0:
159,232,264421,2,0,L|166:303,1,66.6666666666667
294,143,264581,5,2,0:0:0:0:
280,129,264661,2,0,L|272:214,1,83.3333333333333
149,29,264821,5,10,0:0:0:0:
86,34,264901,1,0,0:0:0:0:
56,91,264981,1,0,0:0:0:0:
86,147,265061,5,2,0:0:0:0:
122,200,265141,1,0,0:0:0:0:
97,258,265221,1,0,0:0:0:0:
34,269,265301,5,6,0:0:0:0:
47,254,265381,2,0,L|40:335,1,66.6666666666667
91,78,265541,5,2,0:0:0:0:
78,63,265621,2,0,L|86:153,1,83.3333333333333
204,100,265781,5,2,0:0:0:0:
258,81,265861,1,0,0:0:0:0:
311,103,265941,1,0,0:0:0:0:
329,158,266021,5,2,0:0:0:0:
377,209,266101,1,0,0:0:0:0:
447,198,266181,1,0,0:0:0:0:
477,135,266261,5,2,0:0:0:0:
438,128,266341,1,0,0:0:0:0:
402,143,266421,1,0,0:0:0:0:
380,176,266501,5,2,0:0:0:0:
346,206,266581,1,0,0:0:0:0:
300,209,266661,1,0,0:0:0:0:
262,183,266741,5,14,0:0:0:0:
275,168,266821,2,0,L|269:246,1,66.6666666666667,2|2,0:0|0:0,0:0:0:0:
194,24,266981,5,2,0:0:0:0:
181,9,267061,2,0,L|187:99,1,83.3333333333333,2|2,0:0|0:0,0:0:0:0:
57,99,267221,5,2,0:0:0:0:
96,135,267301,1,2,0:0:0:0:
108,186,267381,1,2,0:0:0:0:
89,234,267461,5,2,0:0:0:0:
75,277,267541,1,2,0:0:0:0:
99,316,267621,1,2,0:0:0:0:
143,322,267701,5,8,0:0:0:0:
204,271,267781,1,8,0:0:0:0:
263,217,267861,6,4,L|342:233,1,66.6666666666667
42,172,268021,2,4,L|113:187,1,66.6666666666667
305,322,268181,5,6,0:0:0:0:
370,336,268261,1,2,0:0:0:0:
434,351,268341,1,2,0:0:0:0:
479,302,268421,6,0,L|469:222,2,66.6666666666667,2|2|2,0:0|0:0|0:0,0:0:0:0:
356,234,268661,5,2,0:0:0:0:
315,193,268741,1,2,0:0:0:0:
257,198,268821,1,2,0:0:0:0:
223,245,268901,5,2,0:0:0:0:
176,288,268981,1,2,0:0:0:0:
115,269,269061,1,2,0:0:0:0:
102,207,269141,5,2,0:0:0:0:
155,161,269221,1,2,0:0:0:0:
220,186,269301,1,2,0:0:0:0:
229,256,269381,5,2,0:0:0:0:
246,245,269461,2,2,L|235:138,1,66.6666666666667
12,132,269621,5,6,0:0:0:0:
33,61,269701,1,2,0:0:0:0:
100,31,269781,1,2,0:0:0:0:
170,54,269861,5,2,0:0:0:0:
224,79,269941,1,2,0:0:0:0:
283,82,270021,1,2,0:0:0:0:
340,63,270101,5,2,0:0:0:0:
330,45,270181,2,2,L|252:69,1,66.6666666666667
469,202,270341,5,2,0:0:0:0:
406,178,270421,1,2,0:0:0:0:
340,181,270501,1,2,0:0:0:0:
280,209,270581,5,10,0:0:0:0:
218,231,270661,1,2,0:0:0:0:
152,223,270741,1,2,0:0:0:0:
97,188,270821,5,2,0:0:0:0:
97,208,270901,2,0,L|162:248,1,66.6666666666667,2|2,0:0|0:0,0:0:0:0:
488,337,271061,5,6,0:0:0:0:
413,293,271141,1,2,0:0:0:0:
328,283,271221,1,2,0:0:0:0:
245,306,271301,5,2,0:0:0:0:
172,328,271381,1,2,0:0:0:0:
105,289,271461,1,2,0:0:0:0:
88,215,271541,5,2,0:0:0:0:
77,231,271621,2,0,L|160:222,1,66.6666666666667,2|2,0:0|0:0,0:0:0:0:
274,229,271781,5,2,0:0:0:0:
357,252,271861,1,2,0:0:0:0:
436,217,271941,1,2,0:0:0:0:
475,139,272021,5,2,0:0:0:0:
452,55,272101,1,2,0:0:0:0:
382,3,272181,1,2,0:0:0:0:
295,11,272261,5,2,0:0:0:0:
291,77,272341,1,2,0:0:0:0:
287,144,272421,1,2,0:0:0:0:
321,216,272501,5,6,0:0:0:0:
272,196,272581,1,2,0:0:0:0:
219,195,272661,1,2,0:0:0:0:
169,213,272741,5,2,0:0:0:0:
125,243,272821,1,2,0:0:0:0:
72,250,272901,1,2,0:0:0:0:
22,234,272981,5,4,0:0:0:0:
57,215,273061,1,4,0:0:0:0:
97,208,273141,1,4,0:0:0:0:
136,212,273221,1,4,0:0:0:0:
173,227,273301,1,4,0:0:0:0:
204,252,273381,1,4,0:0:0:0:
226,285,273461,5,2,0:0:0:0:
205,269,273541,1,2,0:0:0:0:
181,257,273621,1,2,0:0:0:0:
156,250,273701,1,2,0:0:0:0:
129,247,273781,1,2,0:0:0:0:
103,248,273861,1,2,0:0:0:0:
77,255,273941,6,0,B|35:268|35:268|-16:255,2,66.6666666666667,2|0|0,0:0|0:0|0:0,0:0:0:0:
175,159,274421,6,0,B|132:146|132:146|81:159,2,66.6666666666667
100,293,274901,5,0,0:0:0:0:
184,274,275061,1,0,0:0:0:0:
267,253,275221,1,0,0:0:0:0:
113,273,275381,5,0,0:0:0:0:
181,257,275541,1,0,0:0:0:0:
247,241,275701,1,0,0:0:0:0:
353,108,275861,6,0,L|375:218,1,100.000003814697,2|0,0:0|2:0,0:0:0:0:
498,238,276101,5,2,0:0:0:0:
472,213,276161,1,8,0:0:0:0:
441,199,276221,1,2,0:0:0:0:
406,196,276281,1,8,0:0:0:0:
372,206,276341,1,2,0:0:0:0:
339,228,276401,1,8,0:0:0:0:
300,237,276461,1,2,0:0:0:0:
260,233,276521,1,8,0:0:0:0:
225,215,276581,1,2,0:0:0:0:
183,199,276641,1,8,0:0:0:0:
141,212,276701,1,2,0:0:0:0:
114,247,276761,1,8,0:0:0:0:
115,291,276821,5,2,0:0:0:0:
157,268,276881,1,8,0:0:0:0:
172,222,276941,1,2,0:0:0:0:
149,178,277001,1,8,0:0:0:0:
103,164,277061,1,2,0:0:0:0:
72,132,277121,1,8,0:0:0:0:
69,88,277181,1,2,0:0:0:0:
94,52,277241,1,8,0:0:0:0:
137,41,277301,1,2,0:0:0:0:
173,56,277361,1,8,0:0:0:0:
196,88,277421,1,2,0:0:0:0:
198,128,277481,1,8,0:0:0:0:
179,162,277541,1,2,0:0:0:0:
173,196,277601,1,8,0:0:0:0:
183,229,277661,1,2,0:0:0:0:
208,253,277721,1,8,0:0:0:0:
242,262,277781,5,6,0:0:0:0:
238,253,277841,1,8,0:0:0:0:
236,243,277901,1,2,0:0:0:0:
235,233,277961,1,8,0:0:0:0:
234,223,278021,1,2,0:0:0:0:
236,208,278081,1,8,0:0:0:0:
240,193,278141,1,2,0:0:0:0:
246,179,278201,1,8,0:0:0:0:
253,167,278261,1,2,0:0:0:0:
265,151,278321,1,8,0:0:0:0:
281,139,278381,1,2,0:0:0:0:
298,129,278441,1,8,0:0:0:0:
317,123,278501,1,2,0:0:0:0:
341,121,278561,1,8,0:0:0:0:
366,125,278621,1,2,0:0:0:0:
389,135,278681,1,8,0:0:0:0:
409,150,278741,5,2,0:0:0:0:
381,161,278801,1,8,0:0:0:0:
352,163,278861,1,2,0:0:0:0:
323,155,278921,1,8,0:0:0:0:
298,139,278981,1,2,0:0:0:0:
274,131,279041,1,8,0:0:0:0:
249,133,279101,1,2,0:0:0:0:
225,140,279161,1,8,0:0:0:0:
204,154,279221,2,0,L|130:158,3,50,2|8|2|8,0:0|0:0|0:0|0:0,0:0:0:0:
166,250,279461,2,0,L|92:247,3,50,2|8|2|8,0:0|0:0|0:0|0:0,0:0:0:0:
186,344,279701,5,2,0:0:0:0:
210,327,279761,1,8,0:0:0:0:
240,322,279821,1,2,0:0:0:0:
269,328,279881,1,8,0:0:0:0:
292,346,279941,1,2,0:0:0:0:
326,352,280001,1,8,0:0:0:0:
359,340,280061,1,2,0:0:0:0:
382,314,280121,1,8,0:0:0:0:
389,280,280181,1,2,0:0:0:0:
371,245,280241,1,8,0:0:0:0:
337,225,280301,1,2,0:0:0:0:
298,228,280361,1,8,0:0:0:0:
267,253,280421,1,2,0:0:0:0:
223,263,280481,1,8,0:0:0:0:
179,254,280541,1,2,0:0:0:0:
144,227,280601,1,8,0:0:0:0:
123,188,280661,6,0,L|131:271,1,66.6666666666667,8|8,0:0|0:0,0:0:0:0:
389,280,280821,1,8,0:0:0:0:
399,271,280901,6,0,L|407:354,1,66.6666666666667,4|4,0:0|0:0,0:0:0:0:
208,92,281141,5,8,0:0:0:0:
257,87,281201,1,8,0:0:0:0:
307,82,281261,1,8,0:0:0:0:
357,78,281321,1,8,0:0:0:0:
407,73,281381,5,4,0:0:0:0:
384,83,281441,1,4,0:0:0:0:
366,100,281501,1,4,0:0:0:0:
353,121,281561,1,4,0:0:0:0:
347,146,281621,5,6,0:0:0:0:
308,150,281681,1,2,0:0:0:0:
268,154,281741,1,2,0:0:0:0:
228,159,281801,1,2,0:0:0:0:
188,163,281861,1,2,0:0:0:0:
149,168,281921,1,2,0:0:0:0:
109,172,281981,1,2,0:0:0:0:
69,176,282041,1,2,0:0:0:0:
29,181,282101,2,0,B|52:201|52:201|181:189,1,150,2|0,0:0|3:0,0:0:0:0:
107,371,282421,1,0,3:0:0:0:
29,181,282581,5,6,0:0:0:0:
69,176,282641,1,2,0:0:0:0:
109,172,282701,1,2,0:0:0:0:
149,168,282761,1,2,0:0:0:0:
188,163,282821,1,2,0:0:0:0:
228,159,282881,1,2,0:0:0:0:
268,154,282941,1,2,0:0:0:0:
308,150,283001,1,2,0:0:0:0:
347,146,283061,5,6,0:0:0:0:
319,117,283121,1,2,0:0:0:0:
284,98,283181,1,2,0:0:0:0:
244,91,283241,1,2,0:0:0:0:
205,96,283301,1,2,0:0:0:0:
169,112,283361,1,2,0:0:0:0:
139,139,283421,1,2,0:0:0:0:
119,173,283481,1,2,0:0:0:0:
111,212,283541,5,6,0:0:0:0:
148,199,283601,1,2,0:0:0:0:
186,185,283661,1,2,0:0:0:0:
223,171,283721,1,2,0:0:0:0:
261,158,283781,1,2,0:0:0:0:
298,144,283841,1,2,0:0:0:0:
336,130,283901,1,2,0:0:0:0:
374,117,283961,1,2,0:0:0:0:
411,103,284021,2,0,B|406:127|406:127|258:183,1,150,2|8,0:0|0:0,0:0:0:0:
432,297,284341,1,8,0:0:0:0:
411,103,284501,5,6,0:0:0:0:
374,117,284561,1,2,0:0:0:0:
336,130,284621,1,2,0:0:0:0:
298,144,284681,1,2,0:0:0:0:
261,158,284741,1,2,0:0:0:0:
223,171,284801,1,2,0:0:0:0:
186,185,284861,1,2,0:0:0:0:
148,199,284921,1,2,0:0:0:0:
111,212,284981,5,6,0:0:0:0:
133,178,285041,1,2,0:0:0:0:
163,152,285101,1,2,0:0:0:0:
198,134,285161,1,2,0:0:0:0:
237,126,285221,1,2,0:0:0:0:
277,128,285281,1,2,0:0:0:0:
315,140,285341,1,2,0:0:0:0:
349,161,285401,1,2,0:0:0:0:
376,190,285461,5,6,0:0:0:0:
338,204,285521,1,2,0:0:0:0:
301,218,285581,1,2,0:0:0:0:
263,232,285641,1,2,0:0:0:0:
226,245,285701,1,2,0:0:0:0:
188,259,285761,1,2,0:0:0:0:
151,273,285821,1,2,0:0:0:0:
113,286,285881,1,2,0:0:0:0:
75,300,285941,2,0,B|101:317|101:317|228:270,1,150,2|0,0:0|3:0,0:0:0:0:
92,128,286261,1,0,3:0:0:0:
75,300,286421,5,6,0:0:0:0:
113,286,286481,1,2,0:0:0:0:
151,273,286541,1,2,0:0:0:0:
188,259,286601,1,2,0:0:0:0:
226,245,286661,1,2,0:0:0:0:
263,232,286721,1,2,0:0:0:0:
301,218,286781,1,2,0:0:0:0:
338,204,286841,1,2,0:0:0:0:
376,190,286901,5,6,0:0:0:0:
339,175,286961,1,2,0:0:0:0:
300,171,287021,1,2,0:0:0:0:
260,177,287081,1,2,0:0:0:0:
224,193,287141,1,2,0:0:0:0:
194,219,287201,1,2,0:0:0:0:
172,252,287261,1,2,0:0:0:0:
159,290,287321,1,2,0:0:0:0:
158,330,287381,5,6,0:0:0:0:
153,290,287441,1,2,0:0:0:0:
148,251,287501,1,2,0:0:0:0:
143,211,287561,1,2,0:0:0:0:
139,171,287621,1,2,0:0:0:0:
134,132,287681,1,2,0:0:0:0:
129,92,287741,1,2,0:0:0:0:
124,52,287801,1,2,0:0:0:0:
120,12,287861,5,6,0:0:0:0:
138,48,287921,1,2,0:0:0:0:
164,78,287981,1,2,0:0:0:0:
197,101,288041,1,2,0:0:0:0:
233,117,288101,1,2,0:0:0:0:
273,124,288161,1,2,0:0:0:0:
313,121,288221,1,2,0:0:0:0:
351,110,288281,1,2,0:0:0:0:
385,90,288341,5,8,0:0:0:0:
432,76,288401,1,8,0:0:0:0:
479,92,288461,1,8,0:0:0:0:
506,134,288521,1,8,0:0:0:0:
503,183,288581,6,4,P|494:211|489:252,3,50
371,260,288821,5,8,0:0:0:0:
323,243,288881,1,8,0:0:0:0:
274,242,288941,1,8,0:0:0:0:
225,254,289001,1,8,0:0:0:0:
183,280,289061,5,8,0:0:0:0:
136,295,289121,1,8,0:0:0:0:
93,273,289181,1,8,0:0:0:0:
76,227,289241,1,8,0:0:0:0:
95,183,289301,5,6,0:0:0:0:
95,183,289781,6,0,L|76:69,2,66.6666666666667
189,128,290261,6,0,L|208:13,2,66.6666666666667
290,161,290741,5,4,0:0:0:0:
290,161,291221,6,0,B|279:111|279:111|282:84,2,66.6666666666667
392,221,291701,6,0,B|403:171|403:171|400:144,2,66.6666666666667
290,279,292181,6,0,L|275:344,2,66.6666666666667
183,240,292661,5,6,0:0:0:0:
393,220,292981,1,2,0:0:0:0:
391,217,293061,1,2,0:0:0:0:
389,214,293141,5,10,0:0:0:0:
387,211,293221,1,2,0:0:0:0:
385,208,293301,1,2,0:0:0:0:
451,141,293621,5,2,0:0:0:0:
432,126,293701,1,2,0:0:0:0:
411,117,293781,1,2,0:0:0:0:
388,114,293861,1,2,0:0:0:0:
364,116,293941,1,2,0:0:0:0:
342,123,294021,1,2,0:0:0:0:
323,136,294101,6,0,L|326:82,1,33.3333333333333,10|2,0:0|0:0,0:0:0:0:
268,260,294261,1,2,0:0:0:0:
250,245,294341,1,2,0:0:0:0:
229,236,294421,1,2,0:0:0:0:
205,234,294501,1,2,0:0:0:0:
183,240,294581,6,0,L|187:187,1,33.3333333333333,8|2,0:0|0:0,0:0:0:0:
82,355,294741,1,2,0:0:0:0:
77,332,294821,1,2,0:0:0:0:
72,309,294901,1,2,0:0:0:0:
67,286,294981,1,2,0:0:0:0:
62,263,295061,6,0,L|11:282,1,33.3333333333333,8|2,0:0|0:0,0:0:0:0:
117,160,295221,1,2,0:0:0:0:
122,137,295301,1,2,0:0:0:0:
127,114,295381,1,2,0:0:0:0:
132,91,295461,1,2,0:0:0:0:
137,68,295541,5,12,0:0:0:0:
365,170,295701,1,6,0:0:0:0:
62,263,295861,1,6,0:0:0:0:
141,47,296021,5,14,0:0:0:0:
369,149,296181,1,6,0:0:0:0:
66,242,296341,1,6,0:0:0:0:
152,319,296501,5,2,0:0:0:0:
169,304,296581,1,2,0:0:0:0:
190,294,296661,1,2,0:0:0:0:
213,291,296741,1,2,0:0:0:0:
236,295,296821,1,2,0:0:0:0:
256,306,296901,1,2,0:0:0:0:
300,245,296981,5,2,0:0:0:0:
317,260,297061,1,2,0:0:0:0:
338,270,297141,1,2,0:0:0:0:
361,273,297221,1,2,0:0:0:0:
384,269,297301,1,2,0:0:0:0:
404,258,297381,1,2,0:0:0:0:
465,209,297461,5,2,0:0:0:0:
450,191,297541,1,2,0:0:0:0:
442,169,297621,1,2,0:0:0:0:
442,146,297701,1,2,0:0:0:0:
449,124,297781,1,2,0:0:0:0:
464,106,297861,1,2,0:0:0:0:
483,93,297941,5,10,0:0:0:0:
355,133,298101,1,2,0:0:0:0:
382,2,298261,1,2,0:0:0:0:
89,87,298421,5,0,0:0:0:0:
217,47,298581,1,2,0:0:0:0:
190,178,298741,1,2,0:0:0:0:
355,133,298901,5,10,0:0:0:0:
334,217,299061,1,4,0:0:0:0:
312,300,299221,1,4,0:0:0:0:
118,291,299381,5,6,0:0:0:0:
95,287,299461,1,2,0:0:0:0:
74,277,299541,1,2,0:0:0:0:
56,261,299621,1,2,0:0:0:0:
45,241,299701,1,2,0:0:0:0:
39,219,299781,1,2,0:0:0:0:
40,195,299861,5,8,0:0:0:0:
193,71,300021,1,2,0:0:0:0:
190,94,300101,1,2,0:0:0:0:
188,117,300181,1,2,0:0:0:0:
185,140,300261,1,2,0:0:0:0:
183,163,300341,5,8,0:0:0:0:
334,120,300581,2,0,L|328:72,3,25,2|2|2|2,0:0|0:0|0:0|0:0,0:0:0:0:
411,73,300821,5,8,0:0:0:0:
469,225,300981,1,2,0:0:0:0:
448,213,301061,1,2,0:0:0:0:
426,207,301141,1,2,0:0:0:0:
402,207,301221,1,2,0:0:0:0:
380,212,301301,5,4,0:0:0:0:
306,292,301461,1,2,0:0:0:0:
285,303,301541,1,2,0:0:0:0:
263,309,301621,1,2,0:0:0:0:
239,309,301701,1,2,0:0:0:0:
217,304,301781,5,4,0:0:0:0:
150,224,301941,1,2,0:0:0:0:
129,212,302021,1,2,0:0:0:0:
107,206,302101,1,2,0:0:0:0:
83,206,302181,1,2,0:0:0:0:
61,211,302261,6,0,B|106:248|96:288|96:288|148:251|204:269|204:269|208:177|208:177|137:158|137:158|127:340|127:340|168:328|194:343|194:343|249:343|272:296,1,700,6|0,0:0|0:0,0:0:0:0:
271,304,304021,1,2,0:0:0:0:
475,29,304181,6,0,B|462:58|462:58|473:71|473:71|446:85|446:85|469:127|461:170|461:170|425:155|367:156|367:156|407:143|371:107|371:107|306:104|306:104|338:231|338:231|425:222|461:255|461:255|491:254|512:224,1,700,12|0,0:0|0:0,0:0:0:0:
509,229,305941,1,0,3:0:0:0:
58,316,306101,6,0,B|174:311|174:311|212:237|212:237|106:242|106:242|133:386|133:386|221:379|221:379|304:217,1,700,6|0,0:0|0:0,0:0:0:0:
299,228,307861,1,2,0:0:0:0:
31,48,308021,6,0,B|89:58|126:102|126:102|204:95|204:95|167:19|107:1|107:1|83:179|83:179|236:165|236:165|284:119,1,700,12|0,0:0|3:0,0:0:0:0:
270,131,309781,1,0,3:0:0:0:
457,361,309941,6,0,B|477:292|477:292|317:304|317:304|385:351|385:351|416:223|416:223|266:235|266:235|222:341,1,700,6|0,0:0|0:0,0:0:0:0:
226,340,311701,1,2,0:0:0:0:
189,68,311861,6,0,B|246:73|246:73|218:142|218:142|144:133|144:133|90:271|90:271|82:198|82:198|195:212|195:212|154:308,1,633.333333333333,6|0,0:0|0:0,0:0:0:0:
156,305,313461,1,8,0:0:0:0:
413,288,313781,6,0,B|367:287|340:254|340:254|306:324|414:348|414:348|466:206|466:206|393:231|391:196|391:196|416:144|416:144|476:127|476:127|371:77,1,700,6|0,0:0|0:0,0:0:0:0:
364,73,315541,1,0,0:0:0:0:
70,128,315701,6,0,B|4:183|4:183|171:90|135:214|287:141,1,366.666666666667,12|0,0:0|0:0,0:0:0:0:
341,43,316661,5,0,0:0:0:0:
424,93,316821,1,0,0:0:0:0:
456,186,316981,1,0,0:0:0:0:
318,46,317141,5,0,0:0:0:0:
401,96,317301,1,0,0:0:0:0:
433,189,317461,1,0,0:0:0:0:
238,235,317621,5,0,0:0:0:0:
238,235,317861,1,0,0:0:0:0:
130,313,318101,1,0,0:0:0:0:
133,200,318341,2,0,L|113:86,1,100
128,93,318701,1,0,0:0:0:0:
140,84,318821,1,0,0:0:0:0:
252,134,319061,5,0,0:0:0:0:
252,134,319301,1,0,0:0:0:0:
377,68,319541,1,0,0:0:0:0:
377,68,319781,1,0,0:0:0:0:
374,238,320021,1,0,0:0:0:0:
387,233,320141,1,0,0:0:0:0:
402,229,320261,1,0,0:0:0:0:
416,224,320381,1,0,0:0:0:0:
450,192,320501,6,0,L|442:298,1,100
316,315,320981,2,0,P|267:302|204:328,1,100
114,301,321461,1,0,0:0:0:0:
121,288,321581,1,0,0:0:0:0:
127,274,321701,1,0,0:0:0:0:
129,259,321821,1,0,0:0:0:0:
122,228,321941,6,0,B|145:242|145:242|225:233,1,100
296,139,322421,2,0,B|273:125|273:125|193:134,1,100
101,88,322901,1,0,0:0:0:0:
101,88,323141,1,0,0:0:0:0:
215,34,323381,6,0,L|332:21,1,100
404,86,323861,1,0,0:0:0:0:
404,86,324101,2,0,L|396:194,1,100
411,183,324461,1,0,0:0:0:0:
425,180,324581,1,0,0:0:0:0:
301,246,324821,5,0,0:0:0:0:
301,246,325061,1,0,0:0:0:0:
209,162,325301,1,0,0:0:0:0:
209,162,325541,1,0,0:0:0:0:
185,279,325781,1,0,0:0:0:0:
185,279,326021,1,0,0:0:0:0:
74,216,326261,6,0,P|79:190|61:113,1,100
209,162,326741,2,0,P|204:136|222:59,1,100
332,32,327221,1,0,0:0:0:0:
332,32,327461,1,0,0:0:0:0:
311,142,327701,6,0,B|327:165|327:165|317:260,1,100
441,89,328181,2,0,L|431:188,1,100
418,290,328661,1,0,0:0:0:0:
418,290,328901,1,0,0:0:0:0:
90,323,329141,6,0,L|204:311,1,100
490,196,329621,2,0,L|376:184,1,100
78,125,330101,2,0,L|192:113,1,100
468,58,330581,5,0,0:0:0:0:
468,58,330821,1,0,0:0:0:0:
160,225,331061,1,0,0:0:0:0:
160,225,331301,1,0,0:0:0:0:
456,362,331541,1,0,0:0:0:0:
456,362,331781,1,0,0:0:0:0:
96,288,332021,6,0,P|134:311|199:304,1,100
286,350,332501,1,0,0:0:0:0:
272,234,332741,2,0,L|285:124,1,100
270,29,333221,1,0,0:0:0:0:
395,49,333461,6,0,B|384:74|384:74|397:159,1,100
494,172,333941,1,0,0:0:0:0:
494,172,334181,1,0,0:0:0:0:
402,253,334421,2,0,L|281:265,1,100
295,276,334781,1,0,0:0:0:0:
288,289,334901,6,0,B|261:302|261:302|194:255,1,100
100,271,335381,1,0,0:0:0:0:
100,271,335621,1,0,0:0:0:0:
135,156,335861,2,0,P|176:167|244:151,1,100
301,61,336341,5,0,0:0:0:0:
301,61,336581,1,0,0:0:0:0:
400,109,336821,2,0,L|390:216,1,100
478,260,337301,2,0,L|468:367,1,100
367,320,337781,5,0,0:0:0:0:
367,320,338021,1,0,0:0:0:0:
258,347,338261,1,0,0:0:0:0:
159,299,338501,2,0,P|114:289|56:301,1,100
108,193,338981,1,0,0:0:0:0:
234,231,339221,5,0,0:0:0:0:
234,231,339461,1,0,0:0:0:0:
358,190,339701,1,0,0:0:0:0:
351,176,339821,1,0,0:0:0:0:
344,162,339941,1,0,0:0:0:0:
476,121,340181,2,0,L|470:233,1,100
459,230,340481,2,0,L|462:170,1,50
358,190,340661,5,4,0:0:0:0:
92,58,341621,5,0,2:0:0:0:
125,239,341781,1,0,2:0:0:0:
277,129,341941,1,0,2:0:0:0:
311,310,342101,1,2,0:0:0:0:
512,0,342581,5,4,0:0:0:0:
219,361,343541,5,8,0:0:0:0:
179,178,343701,1,4,0:0:0:0:
356,229,343861,1,4,0:0:0:0:
395,46,344021,6,0,L|470:76,2,66.6666666666667,2|2|2,0:0|0:0|0:0,0:0:0:0:
0,104,344501,5,2,0:0:0:0:
323,58,344981,5,0,3:0:0:0:
415,44,345141,1,0,3:0:0:0:
415,44,345221,1,0,3:0:0:0:
415,44,345301,1,0,3:0:0:0:
384,132,345461,5,8,0:0:0:0:
218,218,345621,1,0,3:0:0:0:
394,305,345781,1,0,3:0:0:0:
394,305,345861,1,0,3:0:0:0:
394,305,345941,1,0,3:0:0:0:
219,33,346261,1,2,0:0:0:0:
65,238,346421,5,8,0:0:0:0:
384,132,346741,1,8,0:0:0:0:
307,78,346901,1,0,3:0:0:0:
307,78,346981,1,0,3:0:0:0:
392,41,347221,5,2,0:0:0:0:
221,118,347381,5,6,0:0:0:0:
388,220,347541,1,8,0:0:0:0:
392,41,347701,1,8,0:0:0:0:
307,78,347861,1,2,0:0:0:0:
305,261,348021,1,8,0:0:0:0:
379,317,348181,1,2,0:0:0:0:
75,321,348341,5,4,0:0:0:0:
366,183,348981,5,8,0:0:0:0:
207,113,349141,1,8,0:0:0:0:
318,79,349301,5,0,3:0:0:0:
164,185,349461,1,2,0:0:0:0:
196,369,349621,1,2,0:0:0:0:
354,267,349781,1,0,3:0:0:0:
152,26,350101,5,2,0:0:0:0:
275,315,350261,5,6,0:0:0:0:
101,100,350741,5,0,0:0:0:0:
36,279,351061,1,2,0:0:0:0:
70,19,351221,5,8,0:0:0:0:
134,193,351381,1,2,0:0:0:0:
264,59,351541,1,0,2:0:0:0:
328,233,351701,1,2,0:0:0:0:
294,145,351861,1,2,0:0:0:0:
154,281,352021,1,8,0:0:0:0:
264,59,352181,5,6,0:0:0:0:
512,359,352661,5,0,3:0:0:0:
242,302,353141,5,0,3:0:0:0:
61,255,353301,1,0,2:0:0:0:
196,126,353461,2,0,L|105:94,1,66.6666666666667,0|0,2:0|0:0,0:0:0:0:
384,192,353941,1,2,0:0:0:0:
175,22,354101,5,8,0:0:0:0:
240,302,354421,1,8,0:0:0:0:
150,278,354581,2,0,L|97:275,2,33.3333333333333,0|0|0,3:0|3:0|3:0,3:0:0:0:
219,208,354901,1,2,0:0:0:0:
0,53,355061,5,0,3:0:0:0:
130,77,355221,1,0,3:0:0:0:
261,100,355381,1,8,0:0:0:0:
44,157,355541,5,2,0:0:0:0:
174,183,355701,1,8,0:0:0:0:
304,210,355861,1,8,0:0:0:0:
366,118,356021,6,0,L|380:50,2,66.6666666666667,6|2|2,0:0|0:0|0:0,0:0:0:0:
276,184,356501,6,0,L|262:116,1,66.6666666666667,2|2,0:0|0:0,0:0:0:0:
276,184,356821,1,2,0:0:0:0:
375,222,356981,6,0,P|365:258|372:308,1,66.6666666666667,2|2,0:0|0:0,0:0:0:0:
375,222,357301,1,2,0:0:0:0:
91,282,357461,5,14,0:0:0:0:
182,301,357621,1,2,0:0:0:0:
272,322,357781,1,2,0:0:0:0:
238,234,357941,6,0,B|231:184|231:184|244:147,1,66.6666666666667,2|2,0:0|0:0,0:0:0:0:
238,234,358261,1,2,0:0:0:0:
119,185,358421,5,2,0:0:0:0:
133,167,358501,1,2,0:0:0:0:
140,144,358581,1,2,0:0:0:0:
137,121,358661,1,2,0:0:0:0:
125,101,358741,1,2,0:0:0:0:
106,87,358821,1,2,0:0:0:0:
175,109,358901,5,2,0:0:0:0:
190,92,358981,1,2,0:0:0:0:
211,84,359061,1,2,0:0:0:0:
234,89,359141,1,2,0:0:0:0:
255,100,359221,1,2,0:0:0:0:
278,101,359301,1,2,0:0:0:0:
300,95,359381,6,0,L|295:53,1,33.3333333333333,2|2,0:0|0:0,0:0:0:0:
405,97,359541,1,2,0:0:0:0:
402,120,359621,1,2,0:0:0:0:
399,143,359701,1,2,0:0:0:0:
396,166,359781,1,2,0:0:0:0:
394,189,359861,6,0,L|345:180,2,33.3333333333333,2|2|2,0:0|0:0|0:0,0:0:0:0:
450,286,360101,1,2,0:0:0:0:
452,309,360181,1,2,0:0:0:0:
455,332,360261,1,2,0:0:0:0:
458,355,360341,6,0,L|507:345,2,33.3333333333333,2|2|2,0:0|0:0|0:0,0:0:0:0:
352,305,360581,1,2,0:0:0:0:
329,299,360661,1,2,0:0:0:0:
306,292,360741,1,2,0:0:0:0:
238,320,360821,5,2,0:0:0:0:
219,334,360901,1,2,0:0:0:0:
196,338,360981,1,2,0:0:0:0:
172,335,361061,1,2,0:0:0:0:
150,326,361141,1,2,0:0:0:0:
132,310,361221,1,2,0:0:0:0:
126,287,361301,5,14,0:0:0:0:
3,343,361461,1,2,0:0:0:0:
15,323,361541,1,2,0:0:0:0:
22,301,361621,1,2,0:0:0:0:
21,278,361701,1,2,0:0:0:0:
13,256,361781,5,14,0:0:0:0:
207,172,361941,1,2,0:0:0:0:
194,152,362021,1,2,0:0:0:0:
187,130,362101,1,2,0:0:0:0:
188,107,362181,1,2,0:0:0:0:
196,85,362261,5,6,0:0:0:0:
478,286,362421,1,6,0:0:0:0:
78,369,362581,1,6,0:0:0:0:
212,66,362741,5,14,0:0:0:0:
494,267,362901,1,6,0:0:0:0:
94,350,363061,1,6,0:0:0:0:
226,343,363221,5,6,0:0:0:0:
242,326,363301,1,2,0:0:0:0:
261,313,363381,1,2,0:0:0:0:
283,304,363461,1,2,0:0:0:0:
305,299,363541,1,2,0:0:0:0:
329,299,363621,1,2,0:0:0:0:
351,304,363701,6,0,L|347:253,2,33.3333333333333,2|2|2,0:0|0:0|0:0,0:0:0:0:
269,221,363941,1,2,0:0:0:0:
246,216,364021,1,2,0:0:0:0:
222,216,364101,1,2,0:0:0:0:
201,220,364181,6,0,L|205:169,2,33.3333333333333,2|2|2,0:0|0:0|0:0,0:0:0:0:
80,223,364421,1,2,0:0:0:0:
83,200,364501,1,2,0:0:0:0:
82,176,364581,1,2,0:0:0:0:
75,154,364661,5,12,0:0:0:0:
157,109,364821,1,2,0:0:0:0:
239,65,364981,1,2,0:0:0:0:
238,158,365141,5,2,0:0:0:0:
152,23,365301,1,2,0:0:0:0:
319,112,365461,1,2,0:0:0:0:
239,65,365621,5,8,0:0:0:0:
232,250,365781,1,4,0:0:0:0:
398,165,365941,1,4,0:0:0:0:
238,158,366101,5,6,0:0:0:0:
316,208,366261,1,2,0:0:0:0:
319,112,366421,1,2,0:0:0:0:
398,165,366581,6,0,L|491:148,1,66.6666666666667,2|2,0:0|0:0,0:0:0:0:
398,165,366901,1,2,0:0:0:0:
429,249,367061,6,0,L|494:260,1,66.6666666666667,2|2,0:0|0:0,0:0:0:0:
429,249,367381,1,2,0:0:0:0:
348,318,367541,5,2,0:0:0:0:
255,308,367701,1,2,0:0:0:0:
171,349,367861,1,2,0:0:0:0:
166,215,368021,5,12,0:0:0:0:
313,174,368181,1,2,0:0:0:0:
311,150,368261,1,2,0:0:0:0:
315,128,368341,1,2,0:0:0:0:
326,107,368421,1,2,0:0:0:0:
342,90,368501,5,12,0:0:0:0:
96,157,368661,1,2,0:0:0:0:
97,133,368741,1,2,0:0:0:0:
93,111,368821,1,2,0:0:0:0:
82,90,368901,1,2,0:0:0:0:
66,73,368981,5,6,0:0:0:0:
400,162,369141,1,6,0:0:0:0:
171,349,369301,1,6,0:0:0:0:
61,51,369461,5,14,0:0:0:0:
395,140,369621,1,6,0:0:0:0:
166,327,369781,1,6,0:0:0:0:
