osu file format v14

[General]
AudioFilename: audio.mp3
AudioLeadIn: 0
PreviewTime: 213854
Countdown: 0
SampleSet: Drum
StackLeniency: 0.6
Mode: 0
LetterboxInBreaks: 0
WidescreenStoryboard: 0

[Editor]
Bookmarks: 7508,10899,15334,24204,32551,40899,54985,67507,82115,111333,128028,136376,144724,180724,255853,273201,282201,289244
DistanceSpacing: 1
BeatDivisor: 4
GridSize: 16
TimelineZoom: 3.5

[Metadata]
Title:Existence II: Collision
TitleUnicode:Existence II: Collision
Artist:Irreversible Mechanism
ArtistUnicode:Irreversible Mechanism
Creator:Platnuu
Version:Null Resonance
Source:
Tags:fa featured artist Immersion progressive technical death metal english WHATT
BeatmapID:2674582
BeatmapSetID:1288264

[Difficulty]
HPDrainRate:5
CircleSize:4
OverallDifficulty:9.5
ApproachRate:9.8
SliderMultiplier:2
SliderTickRate:1

[Events]
//Background and Video events
0,0,"bgimage.jpg",0,0
//Break Periods
2,178576,180245
//Storyboard Layer 0 (Background)
//Storyboard Layer 1 (Fail)
//Storyboard Layer 2 (Pass)
//Storyboard Layer 3 (Foreground)
//Storyboard Layer 4 (Overlay)
//Storyboard Sound Samples

[TimingPoints]
2291,260.869565217391,4,3,1,90,1,0
2291,-294.117647058824,4,3,1,90,0,0
2486,-294.117647058824,4,2,1,90,0,0
4377,-100,4,3,1,90,0,0
7508,-80,4,3,1,90,0,0
11682,-80,4,3,1,90,0,0
12986,-133.333333333333,4,3,1,90,0,0
13247,-100,4,3,1,90,0,0
13508,-80,4,3,1,90,0,0
15073,-100,4,3,1,90,0,0
15856,-80,4,3,1,90,0,0
19508,-80,4,3,1,90,0,0
20030,-80,4,3,1,90,0,0
21334,-133.333333333333,4,3,1,90,0,0
21595,-100,4,3,1,90,0,0
21856,-80,4,3,1,90,0,0
23421,-100,4,3,1,90,0,0
30856,-133.333333333333,4,3,1,90,0,0
31247,-100,4,3,1,90,0,0
32551,-80,4,3,1,90,0,0
39204,-100,4,3,1,90,0,0
39464,-133.333333333333,4,3,1,90,0,0
39725,-200,4,3,1,90,0,0
39856,-80,4,3,1,90,0,0
40899,260.869565217391,3,3,1,90,1,0
40899,-151.515151515152,3,3,1,90,0,0
41094,-151.515151515152,3,2,1,90,0,0
41225,-151.515151515152,3,3,1,5,0,0
41290,-151.515151515152,3,3,1,90,0,0
42203,-80,3,3,1,90,0,0
43768,-100,3,3,1,90,0,0
43964,-100,3,3,1,5,0,0
44029,-100,3,3,1,90,0,0
53029,-133.333333333333,3,3,1,90,0,0
53290,-133.333333333333,3,2,1,90,0,0
54985,-80,3,3,1,90,0,0
66985,-66.6666666666667,3,3,1,90,0,0
67507,260.869565217391,4,3,1,90,1,0
69072,-66.6666666666667,4,3,1,90,0,0
69593,-100,4,3,1,90,0,0
69854,-66.6666666666667,4,3,1,90,0,0
72724,-100,4,3,1,90,0,0
72985,-66.6666666666667,4,3,1,90,0,0
75854,-100,4,3,1,90,0,0
76115,-66.6666666666667,4,3,1,90,0,0
82115,-80,4,3,1,90,0,0
82376,-100,4,3,1,90,0,0
82506,-200,4,3,1,90,0,0
82898,-80,4,3,1,90,0,0
83159,-100,4,3,1,90,0,0
83289,-100,4,3,1,90,0,0
94898,-100,4,2,1,90,0,0
94963,-100,4,3,1,5,0,0
95028,-100,4,3,1,90,0,0
102985,-86.9565217391304,4,3,1,70,0,0
111333,-80,4,3,1,70,0,0
115506,-80,4,3,1,70,0,0
116811,-133.333333333333,4,3,1,70,0,0
117072,-100,4,3,1,70,0,0
117333,-80,4,3,1,70,0,0
119680,-80,4,3,1,70,0,0
123854,-80,4,3,1,70,0,0
125159,-133.333333333333,4,3,1,70,0,0
125420,-100,4,3,1,70,0,0
125680,-80,4,3,1,70,0,0
128028,-100,4,3,1,90,0,0
144724,-133.333333333333,4,3,1,50,0,0
144985,-133.333333333333,4,2,1,50,0,0
145441,-133.333333333333,4,2,1,5,0,0
145506,-133.333333333333,4,2,1,50,0,0
145702,-133.333333333333,4,2,1,5,0,0
145767,-100,4,3,1,50,0,0
145833,-100,4,2,1,50,0,0
147267,-100,4,2,1,5,0,0
147333,-500,4,2,1,50,0,0
147789,-500,4,2,1,5,0,0
147854,-303.030303030303,4,2,1,50,0,0
148898,-400,4,2,1,50,0,0
149615,-303.030303030303,4,2,1,5,0,0
149680,-250,4,2,1,50,0,0
149876,-250,4,2,1,5,0,0
149941,-210.526315789474,4,2,1,50,0,0
150920,-210.526315789474,4,2,1,5,0,0
150985,-400,4,2,1,50,0,0
153006,-400,4,2,1,5,0,0
153072,-166.666666666667,4,2,1,50,0,0
153789,-166.666666666667,4,2,1,5,0,0
153854,-400,4,2,1,50,0,0
154050,-400,4,2,1,5,0,0
154115,-416.666666666667,4,2,1,50,0,0
156006,-666.666666666667,4,2,1,5,0,0
156072,-303.030303030303,4,2,1,50,0,0
157246,-111.111111111111,4,2,1,50,0,0
157963,-142.857142857143,4,2,1,5,0,0
158028,-200,4,2,1,50,0,0
158224,-333.333333333333,4,2,1,5,0,0
158289,-263.157894736842,4,2,1,50,0,0
159006,-333.333333333333,4,2,1,5,0,0
159072,-142.857142857143,4,2,1,50,0,0
159267,-142.857142857143,4,2,1,5,0,0
159333,-86.9565217391304,4,2,1,50,0,0
160050,-111.111111111111,4,2,1,5,0,0
160115,-142.857142857143,4,2,1,50,0,0
160311,-142.857142857143,4,2,1,5,0,0
160376,-105.263157894737,4,2,1,50,0,0
161941,-400,4,2,1,30,0,0
180724,260.869565217391,4,3,1,70,1,0
180724,-80,4,3,1,90,0,0
214115,-400,4,3,1,90,0,0
214180,-400,4,2,1,90,0,0
214897,-200,4,2,1,90,0,0
215680,-133.333333333333,4,2,1,90,0,0
216202,-80,4,3,1,90,0,1
220637,-100,4,3,1,90,0,1
220897,-133.333333333333,4,3,1,90,0,1
221158,-200,4,3,1,90,0,1
221419,-80,4,3,1,90,0,1
221810,-100,4,3,1,90,0,1
222071,-133.333333333333,4,3,1,90,0,1
222332,-200,4,3,1,90,0,1
222463,-100,4,3,1,90,0,1
222723,-100,4,2,1,90,0,1
222854,-100,4,3,1,5,0,1
222984,-100,4,3,1,90,0,1
223767,-100,4,2,1,90,0,1
223897,-100,4,3,1,90,0,1
226897,-100,4,2,1,90,0,1
227028,-100,4,3,1,90,0,1
230810,-232.558139534884,4,3,1,90,0,1
230876,-232.558139534884,4,2,1,90,0,1
232376,-100,4,3,1,90,0,0
234202,-111.111111111111,4,3,1,90,0,0
234463,-125,4,3,1,90,0,0
234723,-142.857142857143,4,3,1,90,0,0
234984,-100,4,3,1,90,0,0
243332,260.869565217391,3,3,1,90,1,0
243332,-151.515151515152,3,3,1,90,0,0
243592,-151.515151515152,3,2,1,90,0,0
243658,-151.515151515152,3,3,1,5,0,0
243723,-151.515151515152,3,3,1,90,0,0
244636,-80,3,3,1,90,0,0
250375,-100,3,3,1,90,0,0
255853,-80,3,3,1,90,0,0
268375,260.869565217391,4,3,1,90,1,0
268375,-80,4,3,1,90,0,0
269940,-66.6666666666667,4,3,1,90,0,0
270461,-100,4,3,1,90,0,0
270722,-66.6666666666667,4,3,1,90,0,0
273592,-100,4,3,1,90,0,0
273853,-66.6666666666667,4,3,1,90,0,0
276722,-100,4,3,1,90,0,0
276983,-66.6666666666667,4,3,1,90,0,0
282461,-66.6666666666667,4,2,2,90,0,0
289244,260.869565217391,3,3,1,90,1,0
289244,-80,3,3,1,90,0,0
290287,-57.1428571428571,3,3,1,90,0,0
290548,-44.4444444444445,3,3,1,90,0,0
290809,-80,3,3,1,90,0,0
291852,-57.1428571428571,3,3,1,90,0,0
292113,-44.4444444444445,3,3,1,90,0,0
292374,-80,3,3,1,90,0,0
294983,-57.1428571428571,3,3,1,90,0,0
295244,-44.4444444444445,3,3,1,90,0,0
296157,-80,3,3,1,90,0,0
296548,-57.1428571428571,3,3,1,90,0,0
296809,-44.4444444444445,3,3,1,90,0,0
297070,-80,3,3,1,90,0,0
299678,-57.1428571428571,3,3,1,90,0,0
299939,-44.4444444444445,3,3,1,90,0,0
300200,-80,3,3,1,90,0,0
301244,-57.1428571428571,3,3,1,90,0,0
301504,-44.4444444444445,3,3,1,90,0,0
301765,-80,3,3,1,90,0,0
304374,-57.1428571428571,3,3,1,90,0,0
304635,-44.4444444444445,3,3,1,90,0,0
305287,-80,3,3,1,90,0,0

[Colours]
Combo1 : 134,230,216
Combo2 : 214,133,153
Combo3 : 92,101,173
Combo4 : 222,223,159

[HitObjects]
143,201,2291,5,4,0:0:0:0:
439,140,2421,2,0,B|374:160|313:124|313:124|253:146|206:97|206:97|177:109|146:109|146:109|188:114|229:145|231:200,1,442.000002697754,4|0,0:0|0:0,0:0:0:0:
199,326,4377,5,8,0:0:0:0:
171,369,4443,1,8,0:0:0:0:
122,384,4508,1,8,0:0:0:0:
78,362,4573,1,8,0:0:0:0:
61,315,4638,2,8,L|3:320,1,50,8|0,0:0|0:0,0:0:0:0:
143,201,4769,1,8,0:0:0:0:
143,201,4834,5,8,0:0:0:0:
192,204,4899,1,8,0:0:0:0:
241,208,4964,1,8,0:0:0:0:
291,214,5030,1,8,0:0:0:0:
340,219,5095,1,8,0:0:0:0:
389,226,5160,5,0,0:0:0:0:
377,216,5225,1,0,0:0:0:0:
365,206,5290,2,0,L|365:153,1,50
362,55,5421,5,8,0:0:0:0:
396,19,5486,1,8,0:0:0:0:
445,15,5551,1,8,0:0:0:0:
488,40,5617,1,8,0:0:0:0:
499,88,5682,2,0,B|493:112|493:112|499:142,3,50,8|0|0|0,0:0|0:0|0:0|0:0,0:0:0:0:
365,206,5943,2,0,B|371:229|371:229|392:252,3,50,2|0|0|0,0:0|0:0|0:0|0:0,0:0:0:0:
312,357,6204,2,0,B|329:374|329:374|358:384,1,50,2|0,0:0|0:0,0:0:0:0:
326,352,6334,2,0,B|344:368|344:368|373:377,1,50
496,237,6464,1,4,0:0:0:0:
125,362,6986,5,2,0:0:0:0:
125,362,7247,1,2,0:0:0:0:
26,241,7508,5,6,0:0:0:0:
44,208,7573,1,8,0:0:0:0:
74,186,7638,1,0,0:0:0:0:
110,176,7704,1,8,0:0:0:0:
147,180,7769,1,2,0:0:0:0:
181,195,7834,1,8,0:0:0:0:
205,223,7899,2,0,L|212:291,1,62.5,0|8,0:0|0:0,0:0:0:0:
187,85,8030,2,0,L|180:17,1,62.5,2|8,0:0|0:0,0:0:0:0:
204,69,8160,2,0,L|198:7,1,62.5,0|8,0:0|0:0,0:0:0:0:
312,26,8290,5,0,0:0:0:0:
325,61,8356,1,8,0:0:0:0:
352,86,8421,1,0,0:0:0:0:
387,97,8486,1,8,0:0:0:0:
424,95,8551,1,2,0:0:0:0:
459,80,8617,1,8,0:0:0:0:
481,50,8682,2,0,L|478:119,1,62.5,0|8,0:0|0:0,0:0:0:0:
447,261,8812,2,0,L|442:198,1,62.5,2|8,0:0|0:0,0:0:0:0:
464,282,8943,2,0,L|459:219,1,62.5,0|8,0:0|0:0,0:0:0:0:
354,278,9073,5,0,0:0:0:0:
316,282,9138,1,8,0:0:0:0:
279,287,9203,1,0,0:0:0:0:
242,292,9268,1,8,0:0:0:0:
204,299,9334,2,0,L|129:307,1,62.5,2|8,0:0|0:0,0:0:0:0:
297,191,9464,2,0,L|359:197,1,62.5,0|8,0:0|0:0,0:0:0:0:
111,384,9595,5,0,0:0:0:0:
80,363,9660,1,8,0:0:0:0:
62,329,9725,1,0,0:0:0:0:
58,291,9790,1,8,0:0:0:0:
66,254,9856,1,2,0:0:0:0:
90,225,9921,1,8,0:0:0:0:
124,211,9986,2,0,L|118:146,1,62.5,0|8,0:0|0:0,0:0:0:0:
205,32,10117,2,0,L|199:96,1,62.5,2|8,0:0|0:0,0:0:0:0:
219,16,10247,2,0,L|213:80,1,62.5,0|8,0:0|0:0,0:0:0:0:
309,0,10377,5,0,0:0:0:0:
347,1,10443,1,8,0:0:0:0:
376,24,10508,1,0,0:0:0:0:
393,57,10573,1,8,0:0:0:0:
394,93,10638,1,2,0:0:0:0:
376,126,10704,1,8,0:0:0:0:
342,143,10769,2,0,L|335:206,1,62.5,0|8,0:0|0:0,0:0:0:0:
411,342,10899,2,0,L|404:278,1,62.5,2|8,0:0|0:0,0:0:0:0:
401,360,11030,2,0,L|394:296,1,62.5,0|8,0:0|0:0,0:0:0:0:
229,384,11160,6,0,B|197:386|197:386|167:379,3,62.5,0|8|0|8,0:0|0:0|0:0|0:0,0:0:0:0:
284,152,11421,2,0,B|313:145|313:145|345:147,1,62.5,2|8,0:0|0:0,0:0:0:0:
265,135,11551,2,0,B|293:125|293:125|325:125,1,62.5,0|8,0:0|0:0,0:0:0:0:
51,122,11682,5,4,0:0:0:0:
39,136,11747,1,0,0:0:0:0:
31,153,11812,1,0,0:0:0:0:
27,171,11877,1,0,0:0:0:0:
25,189,11943,1,0,0:0:0:0:
26,207,12008,1,0,0:0:0:0:
29,225,12073,2,0,P|40:265|57:290,1,62.5
233,368,12204,2,0,B|276:383|276:383|368:367,1,125,4|0,0:0|0:0,0:0:0:0:
131,306,12464,1,0,0:0:0:0:
296,274,12595,1,0,0:0:0:0:
296,274,12725,2,0,L|284:144,1,125,12|0,0:0|0:0,0:0:0:0:
160,26,12986,6,0,P|182:83|175:127,1,75.0000028610231
0,146,13247,2,0,P|38:98|91:74,1,100,4|0,0:0|0:0,0:0:0:0:
213,221,13508,2,0,P|151:212|102:175,1,125,0|8,0:0|0:0,0:0:0:0:
49,288,13769,5,8,0:0:0:0:
89,340,13856,1,8,0:0:0:0:
153,355,13943,1,8,0:0:0:0:
211,322,14030,1,8,0:0:0:0:
272,295,14117,1,8,0:0:0:0:
337,305,14204,1,8,0:0:0:0:
386,349,14290,2,0,L|475:342,1,83.3333333333333,8|0,0:0|0:0,0:0:0:0:
304,175,14464,5,8,0:0:0:0:
273,209,14551,2,0,L|189:202,2,83.3333333333333,0|8|0,0:0|0:0|0:0,0:0:0:0:
0,79,14812,5,0,0:0:0:0:
39,66,14899,1,0,0:0:0:0:
80,68,14986,1,0,0:0:0:0:
116,88,15073,2,0,L|110:5,2,66.6666666666667
189,202,15334,5,0,0:0:0:0:
146,221,15421,1,0,0:0:0:0:
99,223,15508,1,0,0:0:0:0:
56,203,15595,2,0,L|62:286,2,66.6666666666667
212,8,15856,5,4,0:0:0:0:
247,0,15921,1,8,0:0:0:0:
283,9,15986,1,0,0:0:0:0:
310,33,16051,1,8,0:0:0:0:
320,69,16117,1,2,0:0:0:0:
317,106,16182,1,8,0:0:0:0:
297,137,16247,2,0,L|373:143,1,62.5,0|8,0:0|0:0,0:0:0:0:
497,62,16377,2,0,L|420:68,1,62.5,2|8,0:0|0:0,0:0:0:0:
485,77,16508,2,0,L|408:83,1,62.5,0|8,0:0|0:0,0:0:0:0:
493,178,16638,5,0,0:0:0:0:
500,215,16704,1,8,0:0:0:0:
489,250,16769,1,0,0:0:0:0:
467,280,16834,1,8,0:0:0:0:
433,296,16899,1,2,0:0:0:0:
395,294,16964,1,8,0:0:0:0:
361,275,17030,2,0,L|368:194,1,62.5,0|8,0:0|0:0,0:0:0:0:
250,145,17160,2,0,L|257:225,1,62.5,2|8,0:0|0:0,0:0:0:0:
266,158,17290,2,0,L|273:238,1,62.5,0|8,0:0|0:0,0:0:0:0:
236,384,17421,5,0,0:0:0:0:
206,382,17486,1,8,0:0:0:0:
176,377,17551,1,0,0:0:0:0:
145,374,17617,1,8,0:0:0:0:
115,371,17682,2,0,L|38:364,1,62.5,2|8,0:0|0:0,0:0:0:0:
252,309,17812,2,0,L|325:302,1,62.5,0|8,0:0|0:0,0:0:0:0:
82,275,17943,5,0,0:0:0:0:
48,257,18008,1,8,0:0:0:0:
25,227,18073,1,0,0:0:0:0:
18,190,18138,1,8,0:0:0:0:
32,154,18204,1,2,0:0:0:0:
59,128,18269,1,8,0:0:0:0:
95,120,18334,2,0,L|88:42,1,62.5,0|8,0:0|0:0,0:0:0:0:
190,203,18464,2,0,L|184:265,1,62.5,2|8,0:0|0:0,0:0:0:0:
203,227,18595,2,0,L|197:289,1,62.5,0|8,0:0|0:0,0:0:0:0:
227,71,18725,5,0,0:0:0:0:
248,40,18790,1,8,0:0:0:0:
279,18,18856,1,0,0:0:0:0:
316,14,18921,1,8,0:0:0:0:
352,21,18986,1,2,0:0:0:0:
384,40,19051,1,8,0:0:0:0:
399,74,19117,2,0,L|480:66,1,62.5,0|8,0:0|0:0,0:0:0:0:
322,158,19247,2,0,L|240:150,1,62.5,2|8,0:0|0:0,0:0:0:0:
335,149,19377,2,0,L|253:141,1,62.5,0|8,0:0|0:0,0:0:0:0:
391,296,19508,6,0,B|386:333|386:333|395:377,3,62.5,4|8|0|8,0:0|0:0|0:0|0:0,0:0:0:0:
200,375,19769,2,0,B|205:338|205:338|196:294,1,62.5,0|8,0:0|0:0,0:0:0:0:
223,357,19899,2,0,B|225:319|225:319|213:276,1,62.5,0|8,0:0|0:0,0:0:0:0:
213,148,20030,5,4,0:0:0:0:
198,136,20095,1,0,0:0:0:0:
180,130,20160,1,0,0:0:0:0:
161,130,20225,1,0,0:0:0:0:
144,137,20290,1,0,0:0:0:0:
129,149,20356,1,0,0:0:0:0:
119,164,20421,2,0,L|125:236,1,62.5
168,370,20551,2,0,B|125:388|125:388|35:367,1,125,4|0,0:0|0:0,0:0:0:0:
258,305,20812,1,0,0:0:0:0:
108,288,20943,1,0,0:0:0:0:
108,288,21073,2,0,L|119:152,1,125,12|0,0:0|0:0,0:0:0:0:
278,22,21334,6,0,P|306:77|302:118,1,75.0000028610231
118,163,21595,2,0,P|169:97|219:85,1,100,4|8,0:0|0:0,0:0:0:0:
345,234,21856,2,0,P|262:222|225:173,1,125,0|8,0:0|0:0,0:0:0:0:
431,13,22117,5,8,0:0:0:0:
482,40,22204,1,8,0:0:0:0:
501,94,22290,1,8,0:0:0:0:
475,146,22377,1,8,0:0:0:0:
435,188,22464,1,8,0:0:0:0:
442,245,22551,1,8,0:0:0:0:
488,280,22638,2,0,L|498:371,1,83.3333333333333,8|0,0:0|0:0,0:0:0:0:
245,358,22812,5,8,0:0:0:0:
263,319,22899,2,0,L|354:310,2,83.3333333333333,0|8|0,0:0|0:0|0:0,0:0:0:0:
101,359,23160,5,0,0:0:0:0:
82,321,23247,1,0,0:0:0:0:
87,279,23334,1,0,0:0:0:0:
117,249,23421,2,0,L|49:255,2,66.6666666666667
240,213,23682,5,0,0:0:0:0:
258,170,23769,1,0,0:0:0:0:
252,123,23856,1,0,0:0:0:0:
226,84,23943,2,0,L|294:90,2,66.6666666666667
15,16,24204,5,6,0:0:0:0:
15,35,24269,1,0,0:0:0:0:
17,53,24334,1,0,0:0:0:0:
18,72,24399,1,0,0:0:0:0:
20,91,24464,1,2,0:0:0:0:
22,111,24530,1,0,0:0:0:0:
25,130,24595,2,0,B|76:133|76:133|134:114,2,100,8|2|0,0:0|0:0|0:0,0:0:0:0:
226,309,24986,5,12,0:0:0:0:
226,290,25051,1,0,0:0:0:0:
224,272,25116,1,0,0:0:0:0:
223,253,25181,1,0,0:0:0:0:
221,234,25246,1,0,0:0:0:0:
219,214,25312,1,0,0:0:0:0:
216,195,25377,2,0,B|165:192|165:192|107:211,2,100,8|2|0,0:0|0:0|0:0,0:0:0:0:
257,21,25769,5,12,0:0:0:0:
276,36,25834,1,0,0:0:0:0:
300,41,25899,1,0,0:0:0:0:
324,36,25964,1,0,0:0:0:0:
346,23,26030,2,0,L|411:28,1,50,8|0,0:0|0:0,0:0:0:0:
512,87,26160,2,0,L|446:92,1,50
403,171,26290,5,12,0:0:0:0:
403,190,26356,1,0,0:0:0:0:
405,208,26420,1,2,0:0:0:0:
406,227,26485,1,0,0:0:0:0:
408,246,26550,1,2,0:0:0:0:
410,266,26616,1,0,0:0:0:0:
411,286,26682,2,0,B|461:269|461:269|519:279,2,100,10|2|0,0:0|0:0|0:0,0:0:0:0:
277,381,27073,5,12,0:0:0:0:
277,362,27138,1,0,0:0:0:0:
275,344,27203,1,0,0:0:0:0:
274,325,27268,1,0,0:0:0:0:
272,306,27333,1,2,0:0:0:0:
270,286,27399,1,0,0:0:0:0:
269,266,27465,2,0,B|217:279|217:279|161:273,2,100,8|2|0,0:0|0:0|0:0,0:0:0:0:
403,171,27856,5,12,0:0:0:0:
425,151,27921,1,0,0:0:0:0:
436,123,27986,1,0,0:0:0:0:
435,93,28051,1,0,0:0:0:0:
420,66,28117,2,0,L|483:71,1,50,12|0,0:0|0:0,0:0:0:0:
276,1,28247,2,0,L|212:6,1,50
235,226,28377,5,12,0:0:0:0:
222,234,28443,1,0,0:0:0:0:
207,236,28508,1,0,0:0:0:0:
192,235,28573,1,0,0:0:0:0:
177,232,28638,1,2,0:0:0:0:
163,225,28704,1,0,0:0:0:0:
153,213,28769,2,0,B|164:256|164:256|144:323,2,100,8|2|0,0:0|0:0|0:0,0:0:0:0:
261,77,29160,5,12,0:0:0:0:
276,70,29226,1,0,0:0:0:0:
291,69,29291,1,0,0:0:0:0:
306,71,29356,1,0,0:0:0:0:
321,75,29421,1,2,0:0:0:0:
334,83,29487,1,0,0:0:0:0:
343,95,29552,2,0,B|335:51|335:51|359:-14,2,100,8|2|0,0:0|0:0|0:0,0:0:0:0:
365,238,29943,5,12,0:0:0:0:
366,261,30008,1,0,0:0:0:0:
368,286,30073,1,0,0:0:0:0:
370,311,30138,1,0,0:0:0:0:
372,335,30204,2,0,L|379:418,1,50,8|0,0:0|0:0,0:0:0:0:
487,292,30334,2,0,L|494:208,1,50
263,353,30464,5,12,0:0:0:0:
244,360,30530,1,0,0:0:0:0:
224,361,30595,1,0,0:0:0:0:
204,356,30660,1,0,0:0:0:0:
187,345,30725,1,2,0:0:0:0:
177,327,30790,1,0,0:0:0:0:
175,306,30856,2,0,L|85:298,2,75.0000028610231,8|2|0,0:0|0:0|0:0,0:0:0:0:
284,141,31247,5,8,0:0:0:0:
300,107,31312,1,0,0:0:0:0:
296,69,31377,1,0,0:0:0:0:
270,41,31443,1,0,0:0:0:0:
233,34,31508,1,0,0:0:0:0:
198,48,31573,1,0,0:0:0:0:
160,52,31638,2,0,P|125:49|103:37,1,50,8|0,0:0|0:0,0:0:0:0:
0,147,31769,2,0,L|6:71,3,50,2|0|0|0,0:0|0:0|0:0|0:0,0:0:0:0:
188,152,32030,5,8,0:0:0:0:
190,189,32095,1,8,0:0:0:0:
193,226,32160,1,8,0:0:0:0:
197,263,32225,1,8,0:0:0:0:
199,301,32290,5,0,0:0:0:0:
204,286,32356,1,0,0:0:0:0:
209,271,32421,2,0,L|275:276,1,50
439,245,32551,5,4,0:0:0:0:
451,259,32617,1,0,0:0:0:0:
456,277,32682,1,0,0:0:0:0:
456,295,32747,1,0,0:0:0:0:
453,313,32812,2,0,L|446:384,1,62.5
333,239,32943,5,0,0:0:0:0:
335,220,33008,1,0,0:0:0:0:
337,201,33073,1,10,0:0:0:0:
339,182,33138,1,0,0:0:0:0:
341,163,33204,2,0,L|349:93,1,62.5
243,70,33334,5,2,0:0:0:0:
227,57,33399,1,0,0:0:0:0:
210,50,33464,1,0,0:0:0:0:
190,46,33529,1,0,0:0:0:0:
171,44,33595,1,0,0:0:0:0:
152,47,33660,1,0,0:0:0:0:
135,56,33725,2,0,L|141:131,1,62.5
269,190,33856,5,0,0:0:0:0:
269,190,33921,1,0,0:0:0:0:
269,190,33986,2,0,L|262:114,1,62.5
98,217,34117,6,0,B|65:216|65:216|32:226,3,62.5,10|0|0|0,0:0|0:0|0:0|0:0,0:0:0:0:
187,291,34377,2,0,B|204:262|204:262|212:229,3,62.5
82,331,34638,2,0,B|97:360|97:360|122:383,3,62.5,2|0|0|0,0:0|0:0|0:0|0:0,0:0:0:0:
301,343,34899,5,0,0:0:0:0:
325,341,34964,1,0,0:0:0:0:
350,337,35030,2,0,L|357:246,1,62.5
495,285,35160,5,10,0:0:0:0:
471,283,35225,1,0,0:0:0:0:
446,279,35291,2,0,L|438:188,1,62.5
311,187,35421,5,0,0:0:0:0:
335,185,35486,1,0,0:0:0:0:
360,181,35552,2,0,L|367:90,1,62.5
465,52,35682,5,2,0:0:0:0:
453,37,35747,1,0,0:0:0:0:
438,25,35812,1,0,0:0:0:0:
420,18,35877,1,0,0:0:0:0:
401,16,35943,1,0,0:0:0:0:
382,16,36008,1,0,0:0:0:0:
364,22,36073,2,0,L|288:28,1,62.5
192,80,36204,5,10,0:0:0:0:
192,80,36269,1,0,0:0:0:0:
192,80,36334,2,0,L|185:155,1,62.5
311,187,36464,5,0,0:0:0:0:
311,187,36529,1,0,0:0:0:0:
311,187,36594,2,0,L|304:111,1,62.5
126,221,36725,5,6,0:0:0:0:
108,222,36790,1,0,0:0:0:0:
90,224,36856,1,0,0:0:0:0:
72,225,36921,1,0,0:0:0:0:
54,227,36986,1,0,0:0:0:0:
36,228,37051,1,0,0:0:0:0:
18,230,37117,2,0,L|23:291,1,62.5
135,380,37247,5,10,0:0:0:0:
154,379,37312,1,0,0:0:0:0:
172,377,37378,2,0,L|166:315,1,62.5
314,274,37508,5,0,0:0:0:0:
295,276,37573,1,0,0:0:0:0:
277,277,37639,2,0,L|271:215,1,62.5
164,134,37769,5,2,0:0:0:0:
173,118,37834,1,0,0:0:0:0:
187,106,37899,1,0,0:0:0:0:
204,99,37964,1,0,0:0:0:0:
222,96,38030,1,0,0:0:0:0:
240,96,38095,1,0,0:0:0:0:
257,101,38160,2,0,L|323:106,1,62.5
469,69,38290,2,0,L|407:74,3,62.5,10|0|0|0,0:0|0:0|0:0|0:0,0:0:0:0:
315,196,38551,5,2,0:0:0:0:
315,196,38617,1,0,0:0:0:0:
315,196,38682,2,0,L|308:271,1,62.5
143,13,38812,5,6,0:0:0:0:
179,18,38877,1,0,0:0:0:0:
216,24,38943,2,0,L|285:35,1,62.5
344,95,39073,5,0,0:0:0:0:
316,98,39138,1,0,0:0:0:0:
291,104,39204,2,0,L|225:114,1,50
189,176,39334,5,10,0:0:0:0:
209,180,39399,1,0,0:0:0:0:
228,184,39465,2,0,L|286:192,1,37.5000014305115
319,257,39595,5,0,0:0:0:0:
309,258,39660,1,0,0:0:0:0:
298,260,39726,2,0,L|257:272,1,25
0,382,39856,5,2,0:0:0:0:
15,348,39921,1,0,0:0:0:0:
45,325,39986,1,0,0:0:0:0:
81,318,40051,1,0,0:0:0:0:
117,326,40117,1,2,0:0:0:0:
143,352,40182,1,0,0:0:0:0:
160,384,40247,2,0,L|235:377,1,62.5
435,318,40377,5,8,0:0:0:0:
437,261,40443,1,8,0:0:0:0:
440,205,40508,1,8,0:0:0:0:
444,149,40573,1,8,0:0:0:0:
448,93,40638,5,0,0:0:0:0:
450,105,40704,1,0,0:0:0:0:
452,117,40769,1,0,0:0:0:0:
453,129,40834,1,0,0:0:0:0:
454,138,40899,6,0,B|411:169|411:169|281:145,1,164.99999949646
258,140,41290,1,0,0:0:0:0:
391,58,41420,1,0,0:0:0:0:
364,255,41551,1,0,0:0:0:0:
392,48,41681,1,0,0:0:0:0:
174,28,42072,5,0,0:0:0:0:
174,28,42138,1,0,0:0:0:0:
174,28,42203,2,0,L|180:103,1,62.5,8|0,0:0|0:0,0:0:0:0:
68,167,42333,2,0,L|73:104,1,62.5,8|0,0:0|0:0,0:0:0:0:
202,226,42464,5,8,0:0:0:0:
94,366,42594,1,8,0:0:0:0:
202,226,42725,1,8,0:0:0:0:
202,226,42855,1,0,0:0:0:0:
329,322,42985,5,10,0:0:0:0:
357,336,43051,1,0,0:0:0:0:
388,337,43116,1,0,0:0:0:0:
418,330,43181,1,0,0:0:0:0:
442,310,43246,2,0,L|448:375,1,62.5
479,162,43377,2,0,B|500:117|500:117|480:41,2,125,10|0|0,0:0|0:0|0:0,0:0:0:0:
334,205,43768,2,0,B|276:218|216:215|216:215|237:206|250:185,1,150
281,136,44029,6,0,P|283:51|274:7,2,100,6|0|0,0:0|0:0|0:0,0:0:0:0:
216,215,44420,1,2,0:0:0:0:
435,190,44551,1,0,0:0:0:0:
205,217,44681,1,0,0:0:0:0:
423,293,44812,6,0,P|476:279|514:251,2,100,10|0|0,0:0|0:0|0:0,0:0:0:0:
342,226,45203,1,2,0:0:0:0:
366,8,45333,1,0,0:0:0:0:
341,234,45464,1,0,0:0:0:0:
191,76,45594,5,6,0:0:0:0:
165,60,45659,1,0,0:0:0:0:
135,52,45725,1,0,0:0:0:0:
105,51,45790,1,0,0:0:0:0:
75,57,45855,1,0,0:0:0:0:
49,73,45920,1,0,0:0:0:0:
30,96,45985,2,0,B|18:58|18:58|31:-4,2,100
184,330,46377,5,10,0:0:0:0:
258,190,46507,1,2,0:0:0:0:
96,198,46638,1,2,0:0:0:0:
249,187,46768,5,10,0:0:0:0:
192,322,46898,1,2,0:0:0:0:
100,208,47029,1,2,0:0:0:0:
345,328,47159,5,6,0:0:0:0:
365,328,47225,1,0,0:0:0:0:
384,329,47290,1,0,0:0:0:0:
402,331,47355,1,0,0:0:0:0:
421,332,47420,1,0,0:0:0:0:
440,334,47485,1,0,0:0:0:0:
460,335,47551,2,0,L|454:395,1,50,2|0,0:0|0:0,0:0:0:0:
508,226,47681,2,0,L|513:286,1,50
450,126,47812,2,0,L|444:186,1,50
313,208,47942,6,0,B|245:236|245:236|114:205,1,200,10|0,0:0|0:0,0:0:0:0:
242,113,48333,1,2,0:0:0:0:
174,335,48464,1,0,0:0:0:0:
245,104,48594,1,0,0:0:0:0:
25,245,48725,5,6,0:0:0:0:
7,220,48790,1,0,0:0:0:0:
0,190,48855,1,0,0:0:0:0:
5,160,48920,1,0,0:0:0:0:
21,135,48985,1,0,0:0:0:0:
46,118,49051,1,0,0:0:0:0:
75,112,49116,2,0,L|69:51,1,50,2|0,0:0|0:0,0:0:0:0:
157,0,49246,2,0,L|151:60,1,50
242,113,49377,2,0,L|236:52,1,50
235,376,49507,5,10,0:0:0:0:
321,227,49638,1,2,0:0:0:0:
143,236,49768,1,2,0:0:0:0:
315,238,49898,5,10,0:0:0:0:
227,366,50029,1,2,0:0:0:0:
155,233,50159,1,2,0:0:0:0:
397,185,50290,6,0,P|414:248|404:303,2,100,6|0|0,0:0|0:0|0:0,0:0:0:0:
256,50,50681,1,2,0:0:0:0:
156,244,50812,1,0,0:0:0:0:
257,41,50942,1,0,0:0:0:0:
46,187,51072,6,0,B|19:250|19:250|45:386,1,200,10|0,0:0|0:0,0:0:0:0:
226,383,51464,5,2,0:0:0:0:
254,380,51529,1,0,0:0:0:0:
283,377,51594,1,0,0:0:0:0:
312,375,51659,1,0,0:0:0:0:
342,372,51725,1,0,0:0:0:0:
371,370,51790,1,0,0:0:0:0:
400,367,51855,5,6,0:0:0:0:
414,329,51920,1,0,0:0:0:0:
406,289,51985,1,0,0:0:0:0:
375,262,52051,1,0,0:0:0:0:
336,253,52116,1,0,0:0:0:0:
298,266,52181,1,0,0:0:0:0:
276,299,52246,2,0,L|207:292,1,50,2|0,0:0|0:0,0:0:0:0:
118,217,52377,2,0,L|186:210,1,50
292,157,52507,2,0,L|223:150,1,50
42,60,52638,5,10,0:0:0:0:
31,98,52703,1,0,0:0:0:0:
32,137,52768,1,2,0:0:0:0:
166,0,52898,1,2,0:0:0:0:
292,157,53029,2,0,B|328:185|363:185|400:171|400:171|435:155|469:157|469:157|454:138|408:138,1,225.000008583069,2|0,0:0|0:0,0:0:0:0:
256,192,53485,12,0,54855,0:0:0:0:
235,22,54985,5,12,0:0:0:0:
230,63,55051,1,0,0:0:0:0:
245,100,55116,1,0,0:0:0:0:
280,120,55181,1,0,0:0:0:0:
320,124,55246,1,0,0:0:0:0:
353,99,55312,1,0,0:0:0:0:
367,59,55377,5,8,0:0:0:0:
331,81,55442,1,0,0:0:0:0:
320,124,55507,1,2,0:0:0:0:
341,159,55572,1,0,0:0:0:0:
367,191,55638,1,0,0:0:0:0:
370,231,55703,1,0,0:0:0:0:
346,264,55768,5,12,0:0:0:0:
382,239,55833,1,0,0:0:0:0:
425,240,55898,1,0,0:0:0:0:
461,264,55964,1,0,0:0:0:0:
471,306,56029,2,0,L|477:216,1,62.5
287,380,56159,5,8,0:0:0:0:
242,375,56225,1,0,0:0:0:0:
198,370,56290,1,2,0:0:0:0:
154,365,56355,1,0,0:0:0:0:
110,361,56420,2,0,L|39:354,1,62.5
251,261,56551,5,10,0:0:0:0:
103,207,56681,1,0,0:0:0:0:
321,237,56812,5,10,0:0:0:0:
92,205,56942,1,8,0:0:0:0:
375,187,57072,5,10,0:0:0:0:
80,203,57203,1,8,0:0:0:0:
223,107,57333,5,8,0:0:0:0:
242,91,57398,1,0,0:0:0:0:
263,76,57464,2,0,L|347:83,1,62.5
118,73,57594,5,12,0:0:0:0:
126,49,57659,1,0,0:0:0:0:
137,26,57725,2,0,L|214:-9,1,62.5
8,138,57855,5,12,0:0:0:0:
2,113,57920,1,0,0:0:0:0:
0,87,57986,2,0,L|48:17,1,62.5
46,310,58116,6,0,B|93:329|93:329|179:307,2,125,12|0|2,0:0|0:0|0:0,0:0:0:0:
145,86,58507,5,10,0:0:0:0:
161,231,58638,1,2,0:0:0:0:
26,180,58768,1,0,0:0:0:0:
268,58,58898,5,8,0:0:0:0:
299,60,58964,1,0,0:0:0:0:
330,64,59029,1,0,0:0:0:0:
361,67,59094,1,0,0:0:0:0:
392,71,59159,2,0,L|398:-4,1,62.5,2|0,0:0|0:0,0:0:0:0:
512,159,59290,5,8,0:0:0:0:
482,160,59356,1,0,0:0:0:0:
451,164,59420,1,2,0:0:0:0:
420,168,59486,1,0,0:0:0:0:
389,172,59551,2,0,L|395:247,1,62.5
189,236,59681,5,10,0:0:0:0:
339,352,59812,1,0,0:0:0:0:
128,243,59942,5,10,0:0:0:0:
350,357,60072,1,10,0:0:0:0:
76,272,60203,5,10,0:0:0:0:
362,361,60333,1,10,0:0:0:0:
257,334,60464,5,8,0:0:0:0:
268,304,60529,1,0,0:0:0:0:
278,274,60594,2,0,L|364:265,1,62.5
147,233,60725,5,12,0:0:0:0:
136,203,60790,1,0,0:0:0:0:
126,173,60855,2,0,L|39:164,1,62.5
258,129,60985,5,12,0:0:0:0:
269,99,61050,1,0,0:0:0:0:
279,69,61116,2,0,L|365:60,1,62.5
82,0,61246,5,12,0:0:0:0:
47,16,61312,1,0,0:0:0:0:
23,45,61377,1,0,0:0:0:0:
18,82,61442,1,0,0:0:0:0:
32,116,61507,1,0,0:0:0:0:
61,139,61572,1,0,0:0:0:0:
98,146,61638,5,8,0:0:0:0:
61,121,61703,1,0,0:0:0:0:
19,134,61768,1,2,0:0:0:0:
8,176,61833,1,0,0:0:0:0:
32,212,61898,1,0,0:0:0:0:
29,256,61964,1,0,0:0:0:0:
0,288,62029,5,12,0:0:0:0:
37,266,62094,1,0,0:0:0:0:
80,259,62159,1,0,0:0:0:0:
123,267,62225,1,0,0:0:0:0:
153,298,62290,2,0,L|147:361,1,62.5
323,382,62420,5,8,0:0:0:0:
353,378,62485,1,0,0:0:0:0:
384,375,62551,1,0,0:0:0:0:
415,372,62616,1,0,0:0:0:0:
446,370,62681,2,0,L|563:359,1,62.5
510,211,62812,6,0,B|495:160|495:160|513:72,1,125,10|0,0:0|0:0,0:0:0:0:
390,0,63072,5,10,0:0:0:0:
301,225,63203,1,10,0:0:0:0:
388,10,63333,5,10,0:0:0:0:
370,190,63464,1,10,0:0:0:0:
210,26,63594,5,8,0:0:0:0:
178,23,63659,1,0,0:0:0:0:
146,20,63725,2,0,L|134:85,1,62.5
0,129,63855,5,12,0:0:0:0:
31,126,63920,1,0,0:0:0:0:
63,123,63986,2,0,L|75:187,1,62.5
237,197,64116,5,12,0:0:0:0:
205,194,64181,1,0,0:0:0:0:
173,191,64247,2,0,L|160:255,1,62.5
23,261,64377,6,0,B|12:311|12:311|24:396,2,125,12|0|0,0:0|0:0|0:0,0:0:0:0:
173,191,64768,1,8,0:0:0:0:
156,355,64898,1,0,0:0:0:0:
23,261,65029,1,0,0:0:0:0:
262,312,65159,5,8,0:0:0:0:
292,314,65225,1,0,0:0:0:0:
323,317,65290,1,0,0:0:0:0:
354,320,65355,1,0,0:0:0:0:
385,322,65420,2,0,L|379:384,1,62.5,2|0,0:0|0:0,0:0:0:0:
500,171,65551,5,8,0:0:0:0:
478,173,65617,1,0,0:0:0:0:
454,175,65682,1,2,0:0:0:0:
431,177,65747,1,0,0:0:0:0:
408,180,65812,2,0,L|413:242,1,62.5
310,124,65942,5,12,0:0:0:0:
315,124,66007,1,0,0:0:0:0:
321,125,66072,1,0,0:0:0:0:
327,125,66138,1,0,0:0:0:0:
333,126,66203,2,0,B|326:89|326:89|336:50,1,62.5
478,173,66333,2,0,B|489:207|489:207|472:260,1,62.5
340,119,66464,2,0,B|333:82|333:82|343:43,1,62.5
485,166,66594,2,0,B|496:200|496:200|479:253,1,62.5
304,349,66725,5,8,0:0:0:0:
271,303,66790,1,8,0:0:0:0:
216,289,66855,1,8,0:0:0:0:
165,312,66920,1,8,0:0:0:0:
149,359,66985,2,0,B|116:367|116:367|67:359,3,75.0000028610231
0,247,67246,2,0,B|33:239|33:239|82:247,3,75.0000028610231
135,22,67507,5,6,0:0:0:0:
128,29,67572,1,0,0:0:0:0:
125,38,67637,1,0,0:0:0:0:
125,47,67702,1,0,0:0:0:0:
127,56,67767,1,0,0:0:0:0:
131,65,67833,1,0,0:0:0:0:
137,72,67898,5,0,0:0:0:0:
164,60,67963,1,0,0:0:0:0:
193,67,68028,1,10,0:0:0:0:
214,87,68093,1,0,0:0:0:0:
221,116,68159,1,0,0:0:0:0:
207,142,68224,1,0,0:0:0:0:
181,158,68289,5,0,0:0:0:0:
201,123,68354,1,0,0:0:0:0:
237,106,68420,1,0,0:0:0:0:
275,116,68485,1,0,0:0:0:0:
310,133,68550,1,2,0:0:0:0:
349,133,68615,1,0,0:0:0:0:
381,109,68680,5,0,0:0:0:0:
380,129,68746,1,0,0:0:0:0:
378,148,68811,1,0,0:0:0:0:
376,167,68876,1,0,0:0:0:0:
374,186,68941,1,0,0:0:0:0:
372,206,69007,1,0,0:0:0:0:
369,228,69072,2,0,L|360:311,1,75.0000028610231,10|0,0:0|0:0,0:0:0:0:
228,180,69202,2,0,L|236:105,1,75.0000028610231
102,249,69333,6,0,P|53:237|16:240,1,75.0000028610231
242,353,69463,2,0,P|290:364|327:361,1,75.0000028610231
112,265,69593,2,0,P|84:261|43:265,1,50,2|0,0:0|0:0,0:0:0:0:
232,337,69724,2,0,P|260:341|301:337,1,50
29,238,69854,5,4,0:0:0:0:
16,210,69920,1,0,0:0:0:0:
15,180,69985,1,0,0:0:0:0:
29,154,70050,1,0,0:0:0:0:
56,141,70115,1,8,0:0:0:0:
77,118,70181,1,0,0:0:0:0:
89,91,70246,1,0,0:0:0:0:
85,61,70311,1,0,0:0:0:0:
68,36,70376,2,0,L|153:43,3,75.0000028610231,4|0|0|0,0:0|0:0|0:0|0:0,0:0:0:0:
226,123,70637,5,4,0:0:0:0:
237,132,70702,1,0,0:0:0:0:
250,137,70767,1,0,0:0:0:0:
264,140,70833,1,0,0:0:0:0:
278,140,70898,1,0,0:0:0:0:
292,136,70963,1,0,0:0:0:0:
305,128,71028,5,0,0:0:0:0:
275,131,71093,1,0,0:0:0:0:
249,147,71159,1,10,0:0:0:0:
233,172,71224,1,0,0:0:0:0:
228,201,71289,1,0,0:0:0:0:
232,230,71354,1,0,0:0:0:0:
249,254,71420,5,0,0:0:0:0:
214,225,71485,1,0,0:0:0:0:
169,221,71550,1,0,0:0:0:0:
127,237,71615,1,0,0:0:0:0:
103,275,71680,1,2,0:0:0:0:
105,320,71746,1,0,0:0:0:0:
132,355,71811,5,0,0:0:0:0:
130,332,71876,1,0,0:0:0:0:
128,309,71941,1,0,0:0:0:0:
125,286,72007,1,0,0:0:0:0:
122,263,72072,1,0,0:0:0:0:
119,240,72137,1,0,0:0:0:0:
116,217,72202,2,0,L|28:209,1,75.0000028610231,10|0,0:0|0:0,0:0:0:0:
149,77,72333,2,0,L|237:69,1,75.0000028610231
214,325,72463,6,0,B|244:331|244:331|301:316,1,75.0000028610231,2|0,0:0|0:0,0:0:0:0:
420,230,72593,2,0,B|390:224|390:224|333:239,1,75.0000028610231,2|0,0:0|0:0,0:0:0:0:
225,305,72724,2,0,B|255:311|255:311|306:298,1,50,2|0,0:0|0:0,0:0:0:0:
414,249,72854,2,0,B|384:243|384:243|333:256,1,50
420,230,72985,5,4,0:0:0:0:
422,215,73050,1,0,0:0:0:0:
425,200,73115,1,0,0:0:0:0:
428,185,73181,1,0,0:0:0:0:
469,163,73246,5,8,0:0:0:0:
467,148,73311,1,0,0:0:0:0:
464,133,73376,1,0,0:0:0:0:
461,118,73442,1,0,0:0:0:0:
425,74,73507,2,0,L|432:-11,3,75.0000028610231,4|0|0|0,0:0|0:0|0:0|0:0,0:0:0:0:
282,29,73767,5,4,0:0:0:0:
270,38,73833,1,0,0:0:0:0:
256,43,73898,1,0,0:0:0:0:
241,47,73963,1,0,0:0:0:0:
226,48,74028,1,2,0:0:0:0:
211,47,74093,1,0,0:0:0:0:
196,43,74159,5,0,0:0:0:0:
198,72,74224,1,0,0:0:0:0:
199,101,74289,1,10,0:0:0:0:
201,130,74354,1,0,0:0:0:0:
203,160,74420,1,0,0:0:0:0:
205,189,74485,1,0,0:0:0:0:
205,218,74550,5,0,0:0:0:0:
220,174,74615,1,0,0:0:0:0:
257,147,74680,1,0,0:0:0:0:
302,147,74746,1,0,0:0:0:0:
341,171,74811,1,2,0:0:0:0:
365,208,74876,1,0,0:0:0:0:
354,251,74941,5,0,0:0:0:0:
348,229,75006,1,0,0:0:0:0:
348,206,75072,1,0,0:0:0:0:
352,184,75137,1,0,0:0:0:0:
360,163,75202,1,0,0:0:0:0:
372,144,75267,1,0,0:0:0:0:
388,127,75333,2,0,L|473:134,1,75.0000028610231,10|0,0:0|0:0,0:0:0:0:
314,39,75463,2,0,L|229:46,1,75.0000028610231,2|0,0:0|0:0,0:0:0:0:
172,121,75593,6,0,P|122:109|84:114,1,75.0000028610231,2|0,0:0|0:0,0:0:0:0:
274,199,75723,2,0,P|322:207|358:204,1,75.0000028610231
184,137,75854,2,0,P|153:128|96:130,1,50,2|0,0:0|0:0,0:0:0:0:
264,187,75985,2,0,P|295:196|351:193,1,50,2|0,0:0|0:0,0:0:0:0:
187,262,76115,5,4,0:0:0:0:
189,284,76180,1,0,0:0:0:0:
191,306,76246,1,0,0:0:0:0:
192,328,76311,1,0,0:0:0:0:
194,350,76376,2,0,B|231:357|231:357|267:346,3,75.0000028610231,8|0|0|0,0:0|0:0|0:0|0:0,0:0:0:0:
72,285,76637,2,0,B|35:278|35:278|-1:289,3,75.0000028610231,4|0|0|0,0:0|0:0|0:0|0:0,0:0:0:0:
186,201,76898,5,4,0:0:0:0:
207,170,76963,1,8,0:0:0:0:
209,132,77028,1,0,0:0:0:0:
191,98,77093,1,8,0:0:0:0:
158,78,77159,2,0,L|234:71,1,75.0000028610231,2|8,0:0|0:0,0:0:0:0:
17,34,77289,5,0,0:0:0:0:
17,78,77354,1,8,0:0:0:0:
18,123,77420,1,2,0:0:0:0:
20,167,77485,1,8,0:0:0:0:
22,211,77550,2,0,L|24:292,1,75.0000028610231,0|8,0:0|0:0,0:0:0:0:
114,376,77680,5,2,0:0:0:0:
141,330,77746,1,8,0:0:0:0:
189,309,77811,1,0,0:0:0:0:
239,322,77876,1,8,0:0:0:0:
274,360,77941,2,0,L|359:352,1,75.0000028610231,2|8,0:0|0:0,0:0:0:0:
473,353,78072,5,0,0:0:0:0:
473,309,78137,1,8,0:0:0:0:
472,264,78203,1,2,0:0:0:0:
470,220,78268,1,8,0:0:0:0:
468,176,78333,2,0,L|466:95,1,75.0000028610231,0|8,0:0|0:0,0:0:0:0:
371,39,78463,5,2,0:0:0:0:
353,25,78528,1,8,0:0:0:0:
331,18,78593,1,0,0:0:0:0:
308,19,78659,1,8,0:0:0:0:
287,27,78724,2,0,B|249:34|249:34|206:19,1,75.0000028610231,2|8,0:0|0:0,0:0:0:0:
159,100,78854,2,0,B|184:129|184:129|192:174,1,75.0000028610231,2|8,0:0|0:0,0:0:0:0:
287,173,78985,2,0,B|299:136|299:136|334:106,1,75.0000028610231,2|8,0:0|0:0,0:0:0:0:
74,178,79115,5,0,0:0:0:0:
74,178,79180,1,8,0:0:0:0:
74,178,79246,5,2,0:0:0:0:
55,201,79311,1,8,0:0:0:0:
58,230,79376,1,0,0:0:0:0:
76,253,79441,1,8,0:0:0:0:
102,267,79506,1,2,0:0:0:0:
132,265,79572,1,8,0:0:0:0:
158,250,79637,2,0,L|151:331,1,75.0000028610231,0|8,0:0|0:0,0:0:0:0:
283,344,79767,5,2,0:0:0:0:
312,349,79833,1,8,0:0:0:0:
341,352,79898,1,0,0:0:0:0:
370,357,79963,1,8,0:0:0:0:
399,361,80028,1,2,0:0:0:0:
256,192,80093,12,0,81985,0:0:0:0:
332,140,82115,6,0,B|375:144|375:144|393:131,3,62.5,2|0|2|0,0:0|0:0|0:0|0:0,0:0:0:0:
315,155,82376,2,0,L|237:150,1,50,2|0,0:0|0:0,0:0:0:0:
367,223,82506,2,0,L|376:335,1,100,2|0,0:0|0:0,0:0:0:0:
135,203,82898,6,0,B|91:207|91:207|74:193,3,62.5,6|0|2|0,0:0|0:0|0:0|0:0,0:0:0:0:
152,217,83159,2,0,L|230:212,1,50,2|0,0:0|0:0,0:0:0:0:
104,285,83289,2,0,B|92:335|92:335|106:396,1,100,2|0,0:0|0:0,0:0:0:0:
210,334,83550,1,0,0:0:0:0:
285,142,83680,5,8,0:0:0:0:
259,98,83746,1,8,0:0:0:0:
212,80,83811,1,8,0:0:0:0:
162,87,83876,1,8,0:0:0:0:
122,116,83941,5,0,0:0:0:0:
120,101,84006,1,0,0:0:0:0:
117,85,84072,2,0,L|108:-6,1,50
25,193,84202,5,4,0:0:0:0:
27,218,84267,1,0,0:0:0:0:
29,243,84332,1,0,0:0:0:0:
32,268,84397,1,0,0:0:0:0:
34,292,84462,1,0,0:0:0:0:
36,317,84528,1,0,0:0:0:0:
39,344,84593,2,0,B|91:319|135:325|135:325|156:342|156:342|202:341|243:361,1,200
495,383,84985,5,12,0:0:0:0:
492,358,85050,1,0,0:0:0:0:
490,333,85115,1,0,0:0:0:0:
488,308,85180,1,0,0:0:0:0:
486,283,85245,1,0,0:0:0:0:
484,258,85311,1,0,0:0:0:0:
482,230,85376,2,0,B|456:223|434:230|434:230|416:222|416:222|391:226|370:237,2,100
494,40,85767,6,0,L|499:148,1,100
354,138,86028,1,0,0:0:0:0:
354,138,86159,1,0,0:0:0:0:
362,0,86289,5,4,0:0:0:0:
337,2,86354,1,0,0:0:0:0:
312,4,86419,1,0,0:0:0:0:
287,6,86484,1,0,0:0:0:0:
262,8,86549,1,0,0:0:0:0:
237,10,86615,1,0,0:0:0:0:
211,13,86680,2,0,B|236:65|230:109|230:109|213:130|213:130|214:176|194:217,1,200,8|0,0:0|0:0,0:0:0:0:
153,314,87072,5,12,0:0:0:0:
128,311,87137,1,0,0:0:0:0:
103,309,87202,1,0,0:0:0:0:
77,307,87267,1,0,0:0:0:0:
53,305,87332,1,0,0:0:0:0:
28,303,87398,1,0,0:0:0:0:
0,301,87463,2,0,B|-7:275|0:253|0:253|-8:235|-8:235|-4:210|0:189,2,100,8|0|0,0:0|0:0|0:0,0:0:0:0:
106,111,87854,5,8,0:0:0:0:
131,108,87920,1,0,0:0:0:0:
155,105,87985,1,0,0:0:0:0:
179,102,88050,1,0,0:0:0:0:
203,99,88115,5,8,0:0:0:0:
199,123,88180,1,0,0:0:0:0:
194,148,88246,2,0,L|178:228,1,50
153,314,88376,5,12,0:0:0:0:
177,317,88441,1,0,0:0:0:0:
201,320,88506,1,0,0:0:0:0:
225,323,88572,1,0,0:0:0:0:
249,326,88637,1,2,0:0:0:0:
273,330,88702,1,0,0:0:0:0:
297,333,88767,2,0,B|331:302|328:263|328:263|350:233|346:198|346:198|360:221|361:248,1,200,8|0,0:0|0:0,0:0:0:0:
433,376,89159,5,8,0:0:0:0:
437,351,89224,1,0,0:0:0:0:
441,326,89289,1,0,0:0:0:0:
445,301,89354,1,0,0:0:0:0:
449,276,89420,1,2,0:0:0:0:
453,251,89485,1,0,0:0:0:0:
457,226,89550,2,0,B|483:255|483:255|474:328,2,100,8|2|0,0:0|0:0|0:0,0:0:0:0:
323,219,89941,5,12,0:0:0:0:
298,224,90006,1,0,0:0:0:0:
273,229,90072,1,0,0:0:0:0:
248,234,90137,1,0,0:0:0:0:
223,239,90202,5,12,0:0:0:0:
226,214,90267,1,0,0:0:0:0:
230,186,90333,2,0,L|245:119,1,50
285,20,90463,5,10,0:0:0:0:
307,8,90528,1,0,0:0:0:0:
330,0,90593,1,2,0:0:0:0:
354,0,90658,1,0,0:0:0:0:
378,6,90724,1,2,0:0:0:0:
399,18,90789,1,0,0:0:0:0:
415,37,90854,1,10,0:0:0:0:
470,155,90985,1,2,0:0:0:0:
470,155,91115,1,2,0:0:0:0:
356,226,91246,5,10,0:0:0:0:
337,242,91311,1,0,0:0:0:0:
325,263,91376,1,2,0:0:0:0:
319,287,91442,1,0,0:0:0:0:
319,311,91507,1,2,0:0:0:0:
327,334,91572,1,0,0:0:0:0:
339,356,91637,1,10,0:0:0:0:
458,339,91767,1,2,0:0:0:0:
458,339,91898,1,2,0:0:0:0:
214,343,92028,5,10,0:0:0:0:
189,344,92093,1,0,0:0:0:0:
163,346,92159,2,0,L|156:269,1,50,2|0,0:0|0:0,0:0:0:0:
225,217,92289,1,10,0:0:0:0:
64,353,92420,1,2,0:0:0:0:
33,230,92550,5,10,0:0:0:0:
21,207,92615,1,0,0:0:0:0:
15,182,92680,1,2,0:0:0:0:
15,156,92746,1,0,0:0:0:0:
24,133,92811,1,2,0:0:0:0:
38,112,92876,1,0,0:0:0:0:
59,100,92941,1,10,0:0:0:0:
180,118,93072,1,2,0:0:0:0:
180,118,93202,1,2,0:0:0:0:
250,211,93333,5,10,0:0:0:0:
262,232,93398,1,0,0:0:0:0:
283,246,93463,1,2,0:0:0:0:
306,255,93528,1,0,0:0:0:0:
332,255,93594,1,2,0:0:0:0:
357,249,93659,1,0,0:0:0:0:
380,237,93724,1,10,0:0:0:0:
327,149,93854,1,2,0:0:0:0:
451,375,93985,1,2,0:0:0:0:
451,375,94050,1,0,0:0:0:0:
451,375,94115,5,8,0:0:0:0:
452,330,94180,1,0,0:0:0:0:
458,284,94246,1,0,0:0:0:0:
464,239,94311,1,0,0:0:0:0:
471,194,94376,1,12,0:0:0:0:
176,22,94637,6,0,B|148:24|126:45|126:45|170:66|224:56|224:56|280:46|331:77,1,250,12|0,0:0|0:0,0:0:0:0:
358,81,95028,5,0,0:0:0:0:
357,90,95093,1,0,0:0:0:0:
356,100,95159,1,0,0:0:0:0:
355,108,95224,1,0,0:0:0:0:
355,117,95289,1,0,0:0:0:0:
354,126,95354,1,0,0:0:0:0:
353,136,95420,1,12,0:0:0:0:
259,181,95811,5,0,0:0:0:0:
260,189,95876,1,0,0:0:0:0:
261,199,95942,1,0,0:0:0:0:
262,208,96007,1,0,0:0:0:0:
263,217,96072,1,0,0:0:0:0:
264,226,96137,1,0,0:0:0:0:
264,236,96202,1,12,0:0:0:0:
512,288,96463,1,12,0:0:0:0:
165,362,96724,1,12,0:0:0:0:
203,384,97115,5,0,0:0:0:0:
202,374,97181,1,0,0:0:0:0:
201,365,97246,1,0,0:0:0:0:
200,356,97311,1,0,0:0:0:0:
199,347,97376,1,0,0:0:0:0:
198,337,97442,1,0,0:0:0:0:
198,328,97507,1,12,0:0:0:0:
100,262,97898,5,0,0:0:0:0:
101,252,97964,1,0,0:0:0:0:
102,243,98029,1,0,0:0:0:0:
103,234,98094,1,0,0:0:0:0:
104,225,98159,1,0,0:0:0:0:
105,215,98225,1,0,0:0:0:0:
105,206,98290,1,12,0:0:0:0:
430,159,98550,1,12,0:0:0:0:
144,25,98811,1,12,0:0:0:0:
165,11,99202,5,0,0:0:0:0:
166,21,99268,1,0,0:0:0:0:
167,30,99333,1,0,0:0:0:0:
168,39,99398,1,0,0:0:0:0:
169,48,99463,1,0,0:0:0:0:
170,58,99529,1,0,0:0:0:0:
170,67,99594,1,12,0:0:0:0:
73,122,99985,5,0,0:0:0:0:
72,132,100051,1,0,0:0:0:0:
71,141,100116,1,0,0:0:0:0:
70,150,100181,1,0,0:0:0:0:
69,159,100246,1,0,0:0:0:0:
68,169,100312,1,0,0:0:0:0:
68,178,100377,1,12,0:0:0:0:
353,56,100637,1,12,0:0:0:0:
330,362,100898,1,12,0:0:0:0:
347,384,101289,5,0,0:0:0:0:
346,374,101355,1,0,0:0:0:0:
345,365,101420,1,0,0:0:0:0:
344,356,101485,1,0,0:0:0:0:
343,347,101550,1,0,0:0:0:0:
342,337,101616,1,0,0:0:0:0:
342,328,101681,1,12,0:0:0:0:
453,161,102072,5,0,0:0:0:0:
454,151,102138,1,0,0:0:0:0:
455,142,102203,1,0,0:0:0:0:
456,133,102268,1,0,0:0:0:0:
457,121,102333,2,0,L|516:116,1,50
217,79,102464,5,8,0:0:0:0:
433,33,102593,1,8,0:0:0:0:
217,79,102724,5,8,0:0:0:0:
452,0,102853,1,8,0:0:0:0:
184,168,102985,6,0,B|170:216|170:216|186:307,1,115.000002193451,4|0,0:0|0:0,0:0:0:0:
295,369,103246,2,0,L|429:380,1,115.000002193451
493,187,103506,1,2,0:0:0:0:
392,259,103637,1,0,0:0:0:0:
379,135,103767,1,0,0:0:0:0:
379,135,103833,1,0,0:0:0:0:
379,135,103898,1,0,0:0:0:0:
239,352,104028,6,0,B|283:368|283:368|392:348,1,115.000002193451,10|0,0:0|0:0,0:0:0:0:
492,306,104289,1,0,0:0:0:0:
491,288,104354,1,0,0:0:0:0:
490,270,104420,1,0,0:0:0:0:
489,252,104485,1,0,0:0:0:0:
488,231,104550,6,0,B|440:220|440:220|334:239,1,115.000002193451,2|0,0:0|0:0,0:0:0:0:
230,305,104811,1,0,0:0:0:0:
443,377,104941,1,8,0:0:0:0:
320,165,105072,5,2,0:0:0:0:
266,134,105159,1,0,0:0:0:0:
204,139,105246,1,0,0:0:0:0:
156,178,105333,1,0,0:0:0:0:
94,179,105420,1,0,0:0:0:0:
43,145,105506,1,0,0:0:0:0:
38,83,105593,5,2,0:0:0:0:
83,124,105680,1,0,0:0:0:0:
94,179,105767,1,0,0:0:0:0:
64,232,105854,1,0,0:0:0:0:
49,291,105941,2,0,P|51:330|76:368,1,76.6666681289673
237,334,106115,6,0,P|277:341|318:336,2,76.6666681289673,10|0|0,0:0|0:0|0:0,0:0:0:0:
267,222,106376,2,0,P|227:215|186:220,2,76.6666681289673
438,283,106637,5,2,0:0:0:0:
469,254,106724,2,0,L|460:161,1,76.6666681289673
350,51,106898,5,0,0:0:0:0:
321,75,106985,2,0,L|329:168,1,76.6666681289673
199,31,107159,5,6,0:0:0:0:
237,167,107289,1,0,0:0:0:0:
321,75,107420,1,0,0:0:0:0:
119,126,107550,1,0,0:0:0:0:
119,126,107615,1,0,0:0:0:0:
119,126,107680,2,0,L|127:242,1,115.000002193451,2|0,0:0|0:0,0:0:0:0:
254,312,107941,1,0,0:0:0:0:
254,312,108006,1,0,0:0:0:0:
254,312,108072,1,0,0:0:0:0:
130,362,108202,6,0,B|81:381|81:381|8:369,1,115.000002193451,10|0,0:0|0:0,0:0:0:0:
2,240,108463,1,0,0:0:0:0:
2,240,108528,1,0,0:0:0:0:
2,240,108593,1,0,0:0:0:0:
119,126,108724,2,0,L|130:12,2,115.000002193451,2|0|0,0:0|0:0|0:0,0:0:0:0:
177,276,109115,1,8,0:0:0:0:
278,149,109246,5,2,0:0:0:0:
299,141,109311,1,0,0:0:0:0:
321,139,109376,1,0,0:0:0:0:
343,142,109441,1,0,0:0:0:0:
364,151,109506,2,0,L|357:220,3,57.5000010967255
512,108,109767,1,2,0:0:0:0:
512,108,109898,1,0,0:0:0:0:
454,218,110028,5,0,0:0:0:0:
447,240,110093,1,0,0:0:0:0:
444,263,110159,1,0,0:0:0:0:
448,285,110224,1,0,0:0:0:0:
460,304,110289,5,10,0:0:0:0:
418,284,110354,1,0,0:0:0:0:
372,294,110420,1,0,0:0:0:0:
189,384,110550,1,0,0:0:0:0:
372,294,110680,2,0,L|235:305,1,115.000002193451,8|2,0:0|0:0,0:0:0:0:
181,374,110941,1,0,0:0:0:0:
364,284,111072,2,0,L|227:295,1,115.000002193451,8|0,0:0|0:0,0:0:0:0:
72,374,111333,5,4,0:0:0:0:
34,351,111398,1,8,0:0:0:0:
16,310,111463,1,0,0:0:0:0:
19,266,111528,1,8,0:0:0:0:
45,231,111593,1,2,0:0:0:0:
86,215,111659,1,8,0:0:0:0:
128,225,111724,2,0,L|121:297,1,62.5,0|8,0:0|0:0,0:0:0:0:
98,89,111854,2,0,L|91:16,1,62.5,2|8,0:0|0:0,0:0:0:0:
115,101,111985,2,0,L|108:28,1,62.5,0|8,0:0|0:0,0:0:0:0:
243,25,112115,5,0,0:0:0:0:
257,66,112180,1,8,0:0:0:0:
291,93,112246,1,0,0:0:0:0:
333,102,112311,1,8,0:0:0:0:
375,94,112376,1,2,0:0:0:0:
410,68,112441,1,8,0:0:0:0:
424,27,112506,2,0,L|335:19,1,62.5,0|8,0:0|0:0,0:0:0:0:
443,162,112637,2,0,L|531:154,1,62.5,2|8,0:0|0:0,0:0:0:0:
450,148,112767,2,0,L|538:140,1,62.5,0|8,0:0|0:0,0:0:0:0:
301,209,112898,5,0,0:0:0:0:
269,210,112963,1,8,0:0:0:0:
237,211,113028,1,0,0:0:0:0:
205,213,113093,1,8,0:0:0:0:
173,215,113159,2,0,L|98:218,1,62.5,2|8,0:0|0:0,0:0:0:0:
0,284,113289,2,0,L|75:287,1,62.5,0|8,0:0|0:0,0:0:0:0:
125,362,113420,5,0,0:0:0:0:
162,339,113485,1,8,0:0:0:0:
184,301,113550,1,0,0:0:0:0:
187,257,113615,1,8,0:0:0:0:
173,215,113680,1,2,0:0:0:0:
144,180,113746,1,8,0:0:0:0:
100,174,113811,2,0,L|94:72,1,62.5,0|8,0:0|0:0,0:0:0:0:
186,8,113941,2,0,L|180:110,1,62.5,2|8,0:0|0:0,0:0:0:0:
198,24,114072,2,0,L|192:126,1,62.5,0|8,0:0|0:0,0:0:0:0:
295,0,114202,5,0,0:0:0:0:
311,38,114267,1,8,0:0:0:0:
343,68,114332,1,0,0:0:0:0:
382,87,114397,1,8,0:0:0:0:
425,80,114463,1,2,0:0:0:0:
461,59,114528,1,8,0:0:0:0:
483,21,114593,2,0,L|477:113,1,62.5,0|8,0:0|0:0,0:0:0:0:
449,261,114724,2,0,L|444:198,1,62.5,2|8,0:0|0:0,0:0:0:0:
458,272,114854,2,0,L|453:209,1,62.5,0|8,0:0|0:0,0:0:0:0:
270,186,114985,6,0,B|305:191|305:191|361:181,3,62.5,0|8|0|8,0:0|0:0|0:0|0:0,0:0:0:0:
193,340,115246,2,0,B|158:335|158:335|102:345,1,62.5,2|8,0:0|0:0,0:0:0:0:
182,355,115376,2,0,B|147:350|147:350|91:360,1,62.5,0|8,0:0|0:0,0:0:0:0:
56,263,115506,5,4,0:0:0:0:
31,242,115572,1,0,0:0:0:0:
23,211,115637,1,0,0:0:0:0:
34,182,115702,1,0,0:0:0:0:
59,163,115767,1,0,0:0:0:0:
90,160,115833,1,0,0:0:0:0:
117,174,115898,2,0,L|193:167,1,62.5
378,144,116028,6,0,B|388:92|388:92|360:5,2,125,2|0|0,0:0|0:0|0:0,0:0:0:0:
328,277,116420,1,0,0:0:0:0:
170,107,116550,2,0,L|294:96,1,125,10|0,0:0|0:0,0:0:0:0:
489,64,116811,6,0,P|478:98|479:137,1,75.0000028610231,2|0,0:0|0:0,0:0:0:0:
378,144,117072,2,0,P|394:196|422:234,1,100
328,277,117333,2,0,P|403:338|478:347,1,125,0|8,0:0|0:0,0:0:0:0:
223,201,117593,5,8,0:0:0:0:
164,168,117680,1,8,0:0:0:0:
98,178,117767,1,8,0:0:0:0:
57,230,117854,1,8,0:0:0:0:
52,296,117941,1,8,0:0:0:0:
96,345,118028,1,8,0:0:0:0:
159,363,118115,2,0,L|150:260,1,83.3333333333333,8|0,0:0|0:0,0:0:0:0:
114,87,118289,5,8,0:0:0:0:
96,40,118376,2,0,L|0:31,2,83.3333333333333,0|8|0,0:0|0:0|0:0,0:0:0:0:
225,7,118637,5,0,0:0:0:0:
257,11,118724,1,0,0:0:0:0:
289,16,118811,1,0,0:0:0:0:
321,20,118898,2,0,L|328:113,2,83.3333333333333
512,166,119159,5,0,0:0:0:0:
470,170,119246,1,0,0:0:0:0:
428,175,119333,1,0,0:0:0:0:
386,182,119420,2,0,L|378:274,2,83.3333333333333
474,337,119680,5,4,0:0:0:0:
452,368,119746,1,8,0:0:0:0:
417,381,119811,1,0,0:0:0:0:
379,376,119876,1,8,0:0:0:0:
345,360,119941,1,2,0:0:0:0:
321,330,120006,1,8,0:0:0:0:
314,292,120072,2,0,L|194:307,1,62.5,0|8,0:0|0:0,0:0:0:0:
395,198,120202,2,0,L|515:213,1,62.5,2|8,0:0|0:0,0:0:0:0:
386,182,120333,2,0,L|506:197,1,62.5,0|8,0:0|0:0,0:0:0:0:
325,96,120463,5,0,0:0:0:0:
291,75,120528,1,8,0:0:0:0:
252,72,120593,1,0,0:0:0:0:
216,87,120659,1,8,0:0:0:0:
190,115,120724,1,2,0:0:0:0:
179,151,120789,1,8,0:0:0:0:
186,187,120854,2,0,L|248:194,1,62.5,0|8,0:0|0:0,0:0:0:0:
62,204,120985,2,0,L|0:211,1,62.5,2|8,0:0|0:0,0:0:0:0:
69,190,121115,2,0,L|7:197,1,62.5,0|8,0:0|0:0,0:0:0:0:
105,320,121246,5,0,0:0:0:0:
129,322,121311,1,8,0:0:0:0:
153,324,121376,1,0,0:0:0:0:
177,326,121441,1,8,0:0:0:0:
201,328,121506,2,0,L|210:228,1,62.5,2|8,0:0|0:0,0:0:0:0:
273,135,121637,2,0,L|281:234,1,62.5,0|8,0:0|0:0,0:0:0:0:
315,314,121767,5,0,0:0:0:0:
342,338,121833,1,8,0:0:0:0:
379,345,121898,1,0,0:0:0:0:
416,338,121963,1,8,0:0:0:0:
447,316,122028,1,2,0:0:0:0:
462,280,122093,1,8,0:0:0:0:
465,241,122159,2,0,L|386:248,1,62.5,0|8,0:0|0:0,0:0:0:0:
273,135,122289,2,0,L|351:141,1,62.5,2|8,0:0|0:0,0:0:0:0:
290,146,122420,2,0,L|368:152,1,62.5,0|8,0:0|0:0,0:0:0:0:
233,260,122550,5,0,0:0:0:0:
200,279,122615,1,8,0:0:0:0:
162,281,122680,1,0,0:0:0:0:
126,267,122746,1,8,0:0:0:0:
103,237,122811,1,2,0:0:0:0:
101,199,122876,1,8,0:0:0:0:
113,163,122941,2,0,L|33:169,1,62.5,0|8,0:0|0:0,0:0:0:0:
218,101,123072,2,0,L|297:107,1,62.5,2|8,0:0|0:0,0:0:0:0:
241,89,123202,2,0,L|320:95,1,62.5,0|8,0:0|0:0,0:0:0:0:
305,235,123333,6,0,B|311:273|311:273|298:326,3,62.5,0|8|0|8,0:0|0:0|0:0|0:0,0:0:0:0:
137,358,123593,2,0,B|131:320|131:320|144:267,1,62.5,2|8,0:0|0:0,0:0:0:0:
154,346,123724,2,0,B|148:308|148:308|161:255,1,62.5,0|8,0:0|0:0,0:0:0:0:
282,112,123854,5,4,0:0:0:0:
306,107,123920,1,0,0:0:0:0:
330,112,123985,1,0,0:0:0:0:
349,126,124050,1,0,0:0:0:0:
359,148,124115,1,0,0:0:0:0:
360,172,124180,1,0,0:0:0:0:
352,196,124246,2,0,L|359:279,1,62.5
310,360,124376,6,0,B|360:373|360:373|465:343,2,125,2|0|0,0:0|0:0|0:0,0:0:0:0:
206,270,124767,1,0,0:0:0:0:
349,126,124898,2,0,L|361:271,1,125,10|0,0:0|0:0,0:0:0:0:
206,270,125159,6,0,P|175:291|134:300,1,75.0000028610231
124,196,125420,2,0,P|59:191|-5:157,1,100,2|8,0:0|0:0,0:0:0:0:
107,89,125680,2,0,P|28:10|12:-44,1,125,0|8,0:0|0:0,0:0:0:0:
196,21,125941,5,8,0:0:0:0:
261,8,126028,1,8,0:0:0:0:
323,31,126115,1,8,0:0:0:0:
350,91,126202,1,8,0:0:0:0:
346,157,126289,1,8,0:0:0:0:
395,201,126376,1,8,0:0:0:0:
460,186,126463,2,0,L|469:77,1,83.3333333333333,8|0,0:0|0:0,0:0:0:0:
269,266,126637,5,8,0:0:0:0:
286,303,126724,2,0,L|391:312,2,83.3333333333333,0|8|0,0:0|0:0|0:0,0:0:0:0:
100,275,126985,5,0,0:0:0:0:
86,305,127072,1,0,0:0:0:0:
84,338,127159,1,0,0:0:0:0:
95,369,127246,2,0,L|8:361,2,83.3333333333333
269,266,127506,5,0,0:0:0:0:
290,230,127593,1,0,0:0:0:0:
290,188,127680,1,0,0:0:0:0:
270,151,127767,2,0,L|356:158,2,83.3333333333333
95,134,128028,5,4,0:0:0:0:
82,135,128093,1,0,0:0:0:0:
69,137,128159,1,0,0:0:0:0:
56,139,128224,1,0,0:0:0:0:
43,141,128289,1,2,0:0:0:0:
30,143,128354,1,0,0:0:0:0:
17,145,128420,2,0,B|7:189|7:189|34:261,2,100,8|2|0,0:0|0:0|0:0,0:0:0:0:
136,16,128811,5,12,0:0:0:0:
149,17,128876,1,0,0:0:0:0:
162,19,128942,1,0,0:0:0:0:
175,21,129007,1,0,0:0:0:0:
188,23,129072,1,2,0:0:0:0:
201,25,129137,1,0,0:0:0:0:
214,27,129203,2,0,B|224:71|224:71|197:143,2,100,8|2|0,0:0|0:0|0:0,0:0:0:0:
103,113,129593,5,12,0:0:0:0:
128,245,129724,1,0,0:0:0:0:
344,151,129854,5,12,0:0:0:0:
131,254,129985,1,0,0:0:0:0:
296,362,130115,5,12,0:0:0:0:
309,361,130180,1,0,0:0:0:0:
322,359,130246,1,0,0:0:0:0:
335,357,130311,1,0,0:0:0:0:
348,355,130376,1,2,0:0:0:0:
361,353,130441,1,0,0:0:0:0:
374,351,130507,2,0,B|384:307|384:307|357:235,2,100,8|2|0,0:0|0:0|0:0,0:0:0:0:
218,278,130898,5,8,0:0:0:0:
205,279,130963,1,0,0:0:0:0:
192,281,131029,1,0,0:0:0:0:
179,283,131094,1,0,0:0:0:0:
166,285,131159,1,2,0:0:0:0:
153,287,131224,1,0,0:0:0:0:
140,289,131289,2,0,B|130:333|130:333|157:405,2,100,8|2|0,0:0|0:0|0:0,0:0:0:0:
184,96,131680,6,0,L|66:113,1,100,12|0,0:0|0:0,0:0:0:0:
329,31,131941,2,0,L|336:97,1,50,4|0,0:0|0:0,0:0:0:0:
338,37,132072,2,0,L|345:103,1,50
496,136,132202,5,12,0:0:0:0:
496,140,132267,1,0,0:0:0:0:
496,145,132333,1,0,0:0:0:0:
496,149,132398,1,0,0:0:0:0:
496,153,132463,1,2,0:0:0:0:
496,157,132528,1,0,0:0:0:0:
496,161,132593,2,0,B|456:174|456:174|386:157,2,100,8|2|0,0:0|0:0|0:0,0:0:0:0:
305,273,132985,5,12,0:0:0:0:
305,269,133050,1,0,0:0:0:0:
305,264,133116,1,0,0:0:0:0:
305,260,133181,1,0,0:0:0:0:
305,256,133246,1,2,0:0:0:0:
305,252,133311,1,0,0:0:0:0:
305,247,133376,1,8,0:0:0:0:
99,89,133506,5,2,0:0:0:0:
78,90,133572,1,0,0:0:0:0:
58,91,133637,1,0,0:0:0:0:
38,93,133702,1,0,0:0:0:0:
18,94,133767,2,0,P|13:171|29:206,1,100,12|0,0:0|0:0,0:0:0:0:
125,325,134028,2,0,P|130:290|118:249,1,50,12|0,0:0|0:0,0:0:0:0:
135,334,134159,2,0,P|140:299|128:258,1,50
99,89,134289,5,12,0:0:0:0:
133,84,134354,1,0,0:0:0:0:
172,94,134420,1,0,0:0:0:0:
204,117,134485,1,0,0:0:0:0:
216,154,134550,1,0,0:0:0:0:
211,193,134615,1,0,0:0:0:0:
189,226,134680,5,8,0:0:0:0:
185,185,134746,1,0,0:0:0:0:
181,145,134811,1,0,0:0:0:0:
177,105,134876,1,0,0:0:0:0:
173,65,134941,2,0,L|120:60,1,50
246,7,135072,5,10,0:0:0:0:
270,38,135137,1,0,0:0:0:0:
305,56,135202,1,0,0:0:0:0:
344,63,135267,1,0,0:0:0:0:
384,61,135333,1,2,0:0:0:0:
420,45,135398,1,0,0:0:0:0:
442,11,135463,5,8,0:0:0:0:
405,27,135528,1,0,0:0:0:0:
384,61,135593,1,2,0:0:0:0:
392,100,135659,1,0,0:0:0:0:
419,127,135724,2,0,L|426:216,1,50
446,350,135854,5,8,0:0:0:0:
418,301,135920,1,8,0:0:0:0:
368,277,135985,1,8,0:0:0:0:
315,293,136050,1,8,0:0:0:0:
286,339,136115,5,0,0:0:0:0:
287,324,136180,1,0,0:0:0:0:
288,308,136246,2,0,L|293:249,1,50
419,127,136376,5,4,0:0:0:0:
408,116,136441,1,0,0:0:0:0:
394,108,136506,1,0,0:0:0:0:
379,103,136572,1,0,0:0:0:0:
364,103,136637,2,0,L|291:109,1,50,2|0,0:0|0:0,0:0:0:0:
206,13,136767,5,0,0:0:0:0:
190,25,136833,1,0,0:0:0:0:
181,43,136898,1,10,0:0:0:0:
179,62,136963,1,0,0:0:0:0:
182,82,137028,2,0,L|175:155,1,50
273,240,137159,5,0,0:0:0:0:
273,240,137224,1,0,0:0:0:0:
273,240,137289,2,0,L|266:167,1,50
90,250,137420,5,2,0:0:0:0:
91,264,137485,1,0,0:0:0:0:
92,278,137550,1,0,0:0:0:0:
93,292,137615,1,0,0:0:0:0:
94,306,137680,1,2,0:0:0:0:
95,321,137746,1,0,0:0:0:0:
96,335,137811,2,0,L|101:388,1,50
273,240,137941,6,0,B|245:237|245:237|220:246,3,50,10|0|0|0,0:0|0:0|0:0|0:0,0:0:0:0:
363,308,138202,2,0,B|379:285|379:285|384:259,3,50
260,345,138463,2,0,B|271:370|271:370|291:387,3,50,2|0|0|0,0:0|0:0|0:0|0:0,0:0:0:0:
141,201,138724,5,0,0:0:0:0:
126,202,138789,1,0,0:0:0:0:
111,203,138854,2,0,L|105:262,1,50
153,61,138985,5,10,0:0:0:0:
168,62,139050,1,0,0:0:0:0:
183,63,139115,2,0,L|188:122,1,50
288,179,139246,5,2,0:0:0:0:
283,154,139311,1,0,0:0:0:0:
279,129,139376,1,0,0:0:0:0:
276,104,139441,1,0,0:0:0:0:
272,81,139506,5,2,0:0:0:0:
284,91,139571,1,0,0:0:0:0:
299,99,139636,1,0,0:0:0:0:
315,103,139701,1,0,0:0:0:0:
332,104,139766,1,0,0:0:0:0:
348,100,139832,1,0,0:0:0:0:
364,93,139898,2,0,L|358:30,1,50
494,18,140028,5,10,0:0:0:0:
494,18,140093,1,0,0:0:0:0:
494,18,140159,2,0,L|488:76,1,50
427,185,140289,5,2,0:0:0:0:
427,185,140354,1,0,0:0:0:0:
427,185,140420,2,0,L|432:243,1,50
272,81,140550,5,4,0:0:0:0:
273,95,140615,1,0,0:0:0:0:
274,109,140680,1,0,0:0:0:0:
275,124,140746,1,0,0:0:0:0:
276,138,140811,1,0,0:0:0:0:
277,152,140876,1,0,0:0:0:0:
279,166,140941,2,0,L|338:172,1,50
170,200,141072,5,10,0:0:0:0:
169,214,141137,1,0,0:0:0:0:
169,230,141202,2,0,L|115:234,1,50
260,291,141333,5,0,0:0:0:0:
261,305,141398,1,0,0:0:0:0:
261,321,141463,2,0,L|314:325,1,50
90,353,141593,5,2,0:0:0:0:
70,348,141659,1,0,0:0:0:0:
55,334,141724,1,0,0:0:0:0:
45,316,141789,1,0,0:0:0:0:
41,296,141854,1,2,0:0:0:0:
42,275,141920,1,0,0:0:0:0:
53,258,141985,2,0,L|-30:270,1,50
193,220,142115,2,0,B|222:230|222:230|260:227,3,50,10|0|0|0,0:0|0:0|0:0|0:0,0:0:0:0:
99,118,142376,5,2,0:0:0:0:
102,73,142441,1,0,0:0:0:0:
107,28,142506,2,0,L|32:28,1,50
278,24,142637,5,4,0:0:0:0:
342,15,142702,1,0,0:0:0:0:
400,42,142767,2,0,L|436:100,1,50
327,144,142898,5,0,0:0:0:0:
363,185,142963,1,0,0:0:0:0:
353,238,143028,2,0,L|328:297,1,50
230,243,143159,5,8,0:0:0:0:
187,256,143224,1,0,0:0:0:0:
144,241,143289,2,0,L|71:231,1,50
191,137,143420,5,0,0:0:0:0:
173,106,143485,1,0,0:0:0:0:
185,73,143550,2,0,L|218:22,1,50
363,185,143680,5,2,0:0:0:0:
402,195,143746,1,0,0:0:0:0:
430,223,143811,1,0,0:0:0:0:
443,261,143876,1,0,0:0:0:0:
439,301,143941,1,2,0:0:0:0:
410,330,144006,1,0,0:0:0:0:
371,344,144072,2,0,L|322:348,1,50
174,384,144202,5,8,0:0:0:0:
132,337,144267,1,8,0:0:0:0:
125,278,144333,1,8,0:0:0:0:
154,227,144398,1,8,0:0:0:0:
210,208,144463,5,0,0:0:0:0:
190,206,144528,1,0,0:0:0:0:
170,205,144593,1,0,0:0:0:0:
149,203,144659,1,0,0:0:0:0:
121,171,144724,6,0,B|88:149|50:147|50:147|109:138|150:102|150:102|193:140|258:143|303:112|303:112|265:109|235:95,1,412.500015735627,4|0,0:0|0:0,0:0:0:0:
284,32,145506,2,0,P|347:40|398:34,1,112.500004291535
362,179,145767,6,0,B|395:197|432:180|432:180|447:216|447:216|416:266|364:253|364:253|323:243|289:264|289:264|282:189|237:153|173:147|114:167|87:233|81:325|180:349|223:322|223:322|201:294|199:260|199:260|142:311|105:316|52:314|52:314|33:261|47:211|47:211|62:151|121:113,1,1150,4|0,0:0|0:0,0:0:0:0:
180,93,147333,2,0,P|216:91|257:98,1,70
387,158,147854,2,0,B|400:192|400:192|387:262,2,98.999999697876
84,216,148898,6,0,B|86:170|86:170|75:153|75:153|80:74,1,137.5,2|0,0:0|0:0,0:0:0:0:
0,1,149680,2,0,P|-4:19|13:60,1,60
152,58,149941,2,0,B|181:27|223:25|252:47|252:47|272:59|308:68|354:42|354:42|361:49|361:49|400:25|457:28|496:63,1,356.249990487099
376,123,150985,2,0,B|418:85|460:123|460:123|480:178|423:201|423:201|468:229|462:291|431:318|431:318|451:319|482:280,1,387.5
383,262,153072,6,0,B|345:233|291:231|254:255|254:255|205:252|205:252|194:258|194:258|112:251|112:251|131:268|131:268|163:272,1,329.9999899292,2|0,0:0|0:0,0:0:0:0:
200,328,153854,2,0,L|196:368,1,37.5
212,160,154115,2,0,B|183:139|144:139|106:158|90:194|90:194|102:141|96:81|51:56|51:56|35:88|47:111,1,348.000008496094
166,231,156072,2,0,B|167:252|175:282|175:282|161:310|156:346,2,115.499999647522
164,137,157246,6,0,B|250:190|334:125|334:125|290:142|252:137|252:137|234:200|251:257|251:257|300:264|361:232,1,494.999984893799,2|0,0:0|0:0,0:0:0:0:
429,179,158028,2,0,P|466:213|505:221,1,75
500,137,158289,2,0,B|483:114|460:94|414:94|414:94|419:49|398:17|372:0,1,208.999997448731
227,62,159072,2,0,L|333:77,1,104.999996795654
237,174,159333,6,0,B|208:139|116:108|116:108|63:114|35:142|35:142|63:180|124:177|124:177|145:166|151:149|151:149|137:17|137:17|71:49|3:33,1,632.50001206398,2|0,0:0|0:0,0:0:0:0:
0,220,160115,2,0,P|48:245|124:255,1,104.999996795654
151,357,160376,2,0,B|191:287|273:305|273:305|290:198|360:180|360:180|401:232|354:332|354:332|423:375|423:375|453:310|472:227|444:163,1,759.999979705811
205,180,162463,6,0,L|146:189,3,50,2|0|0|0,0:0|0:0|0:0|0:0,0:0:0:0:
83,155,163506,2,0,L|33:162,1,50
179,81,164028,2,0,L|129:88,1,50
258,145,164550,5,2,0:0:0:0:
309,207,164811,1,0,0:0:0:0:
275,274,165072,1,0,0:0:0:0:
329,323,165333,1,0,0:0:0:0:
158,332,165593,6,0,L|162:279,3,50,2|0|0|0,0:0|0:0|0:0|0:0,0:0:0:0:
108,216,166637,2,0,L|104:163,1,50
272,126,167159,1,0,0:0:0:0:
169,127,167420,1,0,0:0:0:0:
110,37,167680,5,2,0:0:0:0:
116,45,167941,2,0,P|151:51|173:47,1,50
299,29,168463,2,0,P|274:27|249:33,1,50
218,143,168985,2,0,L|222:192,2,50
180,330,169767,6,0,L|236:335,1,50,2|0,0:0|0:0,0:0:0:0:
350,280,170289,2,0,L|294:285,1,50
190,344,170811,2,0,L|246:349,1,50
360,294,171333,2,0,L|304:299,1,50
146,191,171854,6,0,L|151:246,1,50,2|0,0:0|0:0,0:0:0:0:
200,324,172376,1,0,0:0:0:0:
106,319,172637,2,0,P|76:319|53:327,4,50
248,362,173941,6,0,L|252:306,1,50,2|0,0:0|0:0,0:0:0:0:
315,223,174463,1,0,0:0:0:0:
358,318,174724,1,0,0:0:0:0:
458,232,174985,6,0,L|461:176,1,50,2|0,0:0|0:0,0:0:0:0:
414,78,175506,1,0,0:0:0:0:
109,59,176028,5,2,0:0:0:0:
45,125,176289,1,0,0:0:0:0:
108,194,176550,1,0,0:0:0:0:
42,263,176811,1,0,0:0:0:0:
168,343,177072,5,2,0:0:0:0:
231,286,177333,1,0,0:0:0:0:
286,344,177593,1,0,0:0:0:0:
348,287,177854,1,0,0:0:0:0:
288,172,178115,5,2,0:0:0:0:
476,144,178376,1,2,0:0:0:0:
0,149,180724,5,4,0:0:0:0:
13,183,180789,1,8,0:0:0:0:
42,205,180854,1,0,0:0:0:0:
78,213,180919,1,8,0:0:0:0:
115,208,180984,1,2,0:0:0:0:
144,183,181050,1,8,0:0:0:0:
161,149,181115,1,0,0:0:0:0:
190,124,181180,1,8,0:0:0:0:
227,119,181245,1,2,0:0:0:0:
263,127,181310,1,8,0:0:0:0:
290,152,181376,2,0,L|283:231,1,62.5,0|8,0:0|0:0,0:0:0:0:
167,384,181506,5,2,0:0:0:0:
167,384,181571,1,8,0:0:0:0:
167,384,181637,2,0,L|174:305,1,62.5,0|8,0:0|0:0,0:0:0:0:
355,358,181767,5,4,0:0:0:0:
385,336,181832,1,8,0:0:0:0:
405,306,181897,1,0,0:0:0:0:
413,268,181963,1,8,0:0:0:0:
409,231,182028,1,2,0:0:0:0:
391,197,182093,1,8,0:0:0:0:
386,160,182158,1,0,0:0:0:0:
394,122,182224,1,8,0:0:0:0:
420,96,182289,1,2,0:0:0:0:
456,89,182354,1,8,0:0:0:0:
490,104,182419,2,0,L|491:175,1,62.5,0|8,0:0|0:0,0:0:0:0:
311,23,182550,5,4,0:0:0:0:
278,5,182615,1,8,0:0:0:0:
241,0,182680,1,0,0:0:0:0:
204,7,182745,1,8,0:0:0:0:
170,23,182810,1,2,0:0:0:0:
145,52,182876,1,8,0:0:0:0:
137,88,182941,2,0,L|130:164,1,62.5,0|8,0:0|0:0,0:0:0:0:
110,299,183071,5,4,0:0:0:0:
144,283,183136,1,8,0:0:0:0:
181,283,183202,1,0,0:0:0:0:
215,296,183267,1,8,0:0:0:0:
238,324,183332,1,2,0:0:0:0:
268,346,183398,1,8,0:0:0:0:
305,351,183463,1,0,0:0:0:0:
340,338,183528,1,8,0:0:0:0:
365,310,183593,1,0,0:0:0:0:
375,273,183658,1,8,0:0:0:0:
367,234,183724,2,0,L|298:228,1,62.5,0|8,0:0|0:0,0:0:0:0:
239,95,183854,5,4,0:0:0:0:
201,91,183919,1,8,0:0:0:0:
163,88,183984,2,0,L|88:83,1,62.5,0|8,0:0|0:0,0:0:0:0:
0,77,184115,5,4,0:0:0:0:
15,111,184180,1,8,0:0:0:0:
31,146,184245,2,0,L|64:213,1,62.5,0|8,0:0|0:0,0:0:0:0:
122,309,184376,5,4,0:0:0:0:
143,279,184441,1,8,0:0:0:0:
166,247,184506,2,0,L|207:184,1,62.5,0|8,0:0|0:0,0:0:0:0:
321,49,184637,5,4,0:0:0:0:
357,38,184702,1,8,0:0:0:0:
394,41,184767,1,0,0:0:0:0:
424,63,184832,1,8,0:0:0:0:
443,96,184897,1,0,0:0:0:0:
448,133,184963,1,8,0:0:0:0:
435,168,185028,2,0,L|369:162,1,62.5,0|8,0:0|0:0,0:0:0:0:
209,188,185158,5,4,0:0:0:0:
181,213,185223,1,8,0:0:0:0:
166,247,185288,1,0,0:0:0:0:
171,283,185353,1,8,0:0:0:0:
190,316,185418,1,0,0:0:0:0:
220,339,185484,1,8,0:0:0:0:
257,344,185549,2,0,L|251:279,1,62.5,0|8,0:0|0:0,0:0:0:0:
90,381,185680,5,2,0:0:0:0:
90,381,185745,1,8,0:0:0:0:
90,381,185810,2,0,L|84:318,1,62.5,0|8,0:0|0:0,0:0:0:0:
57,186,185941,5,4,0:0:0:0:
59,148,186006,1,8,0:0:0:0:
77,115,186071,1,0,0:0:0:0:
107,93,186137,1,8,0:0:0:0:
143,85,186202,1,0,0:0:0:0:
180,89,186267,1,8,0:0:0:0:
215,99,186332,1,0,0:0:0:0:
252,94,186397,1,8,0:0:0:0:
285,75,186463,1,2,0:0:0:0:
304,42,186528,1,8,0:0:0:0:
308,4,186593,2,0,L|231:10,1,62.5,0|8,0:0|0:0,0:0:0:0:
151,177,186724,5,4,0:0:0:0:
155,214,186789,1,8,0:0:0:0:
158,251,186854,2,0,L|164:319,1,62.5,0|8,0:0|0:0,0:0:0:0:
285,368,186984,6,0,B|326:362|326:362|346:364,3,62.5,0|8|0|8,0:0|0:0|0:0|0:0,0:0:0:0:
158,251,187245,2,0,B|142:289|142:289|129:306,3,62.5,4|8|0|8,0:0|0:0|0:0|0:0,0:0:0:0:
320,201,187506,1,0,0:0:0:0:
320,201,187571,1,8,0:0:0:0:
320,201,187637,1,0,0:0:0:0:
320,201,187702,1,8,0:0:0:0:
320,201,187767,2,0,B|294:168|294:168|286:149,3,62.5,2|8|0|8,0:0|0:0|0:0|0:0,0:0:0:0:
466,289,188028,5,2,0:0:0:0:
466,289,188093,1,8,0:0:0:0:
466,289,188158,2,0,L|470:204,1,62.5,0|8,0:0|0:0,0:0:0:0:
479,87,188289,5,8,0:0:0:0:
453,44,188354,1,8,0:0:0:0:
408,20,188419,1,8,0:0:0:0:
358,19,188484,1,8,0:0:0:0:
313,47,188550,5,0,0:0:0:0:
315,59,188615,1,0,0:0:0:0:
316,70,188680,1,0,0:0:0:0:
318,82,188745,1,0,0:0:0:0:
355,126,188810,5,0,0:0:0:0:
353,137,188875,1,0,0:0:0:0:
351,149,188941,2,0,L|362:242,1,62.5
370,370,189071,5,4,0:0:0:0:
365,358,189136,1,0,0:0:0:0:
359,347,189201,1,0,0:0:0:0:
351,337,189266,1,0,0:0:0:0:
342,329,189331,1,0,0:0:0:0:
331,322,189397,1,0,0:0:0:0:
320,317,189462,1,0,0:0:0:0:
307,314,189527,1,0,0:0:0:0:
295,313,189592,1,0,0:0:0:0:
283,314,189657,1,0,0:0:0:0:
270,317,189723,1,0,0:0:0:0:
259,321,189788,1,0,0:0:0:0:
248,328,189853,1,0,0:0:0:0:
239,336,189918,1,0,0:0:0:0:
230,345,189984,1,0,0:0:0:0:
224,356,190049,1,0,0:0:0:0:
273,367,190115,5,12,0:0:0:0:
272,354,190180,1,0,0:0:0:0:
271,342,190245,1,0,0:0:0:0:
270,329,190310,1,0,0:0:0:0:
270,317,190375,1,0,0:0:0:0:
269,304,190441,1,0,0:0:0:0:
268,292,190506,1,0,0:0:0:0:
267,279,190571,1,0,0:0:0:0:
267,267,190636,1,0,0:0:0:0:
266,254,190701,1,0,0:0:0:0:
265,242,190767,1,0,0:0:0:0:
265,229,190832,1,0,0:0:0:0:
264,217,190897,1,0,0:0:0:0:
263,204,190962,1,0,0:0:0:0:
262,192,191028,1,0,0:0:0:0:
262,179,191093,1,0,0:0:0:0:
295,144,191158,5,4,0:0:0:0:
281,132,191223,1,0,0:0:0:0:
265,123,191288,1,0,0:0:0:0:
248,117,191353,1,0,0:0:0:0:
231,114,191418,1,0,0:0:0:0:
213,114,191484,1,0,0:0:0:0:
195,116,191549,1,0,0:0:0:0:
178,122,191614,1,0,0:0:0:0:
157,162,191680,5,0,0:0:0:0:
155,149,191745,1,0,0:0:0:0:
153,136,191810,1,0,0:0:0:0:
151,123,191876,1,0,0:0:0:0:
114,96,191941,5,0,0:0:0:0:
116,83,192006,1,0,0:0:0:0:
118,70,192071,1,0,0:0:0:0:
120,57,192137,1,0,0:0:0:0:
160,35,192202,5,12,0:0:0:0:
167,31,192267,1,0,0:0:0:0:
175,30,192332,1,0,0:0:0:0:
183,28,192397,1,0,0:0:0:0:
191,27,192462,1,0,0:0:0:0:
200,26,192528,1,0,0:0:0:0:
209,27,192593,1,0,0:0:0:0:
217,26,192658,1,0,0:0:0:0:
225,27,192723,1,0,0:0:0:0:
233,29,192788,1,0,0:0:0:0:
241,30,192854,1,0,0:0:0:0:
249,32,192919,1,0,0:0:0:0:
257,34,192984,1,0,0:0:0:0:
265,37,193049,1,0,0:0:0:0:
273,39,193115,1,0,0:0:0:0:
280,43,193180,1,0,0:0:0:0:
301,78,193245,6,0,B|345:97|345:97|433:79,2,125,4|0|0,0:0|0:0|0:0,0:0:0:0:
354,0,193637,1,0,0:0:0:0:
375,187,193767,2,0,P|377:219|391:328,1,125,2|0,0:0|0:0,0:0:0:0:
259,384,194028,2,0,L|273:259,1,125
317,78,194289,5,10,0:0:0:0:
317,78,194354,1,0,0:0:0:0:
317,78,194419,1,0,0:0:0:0:
194,207,194550,1,0,0:0:0:0:
173,64,194680,1,0,0:0:0:0:
173,64,194745,1,0,0:0:0:0:
173,64,194810,2,0,L|44:75,1,125,2|0,0:0|0:0,0:0:0:0:
0,261,195071,1,0,0:0:0:0:
194,207,195202,1,0,0:0:0:0:
244,8,195332,5,2,0:0:0:0:
310,0,195419,1,0,0:0:0:0:
368,32,195506,1,0,0:0:0:0:
393,93,195593,1,0,0:0:0:0:
394,159,195680,1,0,0:0:0:0:
435,211,195767,1,0,0:0:0:0:
501,218,195854,5,2,0:0:0:0:
453,170,195941,1,0,0:0:0:0:
386,175,196028,1,0,0:0:0:0:
352,232,196115,1,0,0:0:0:0:
358,298,196202,1,0,0:0:0:0:
328,357,196289,1,0,0:0:0:0:
263,373,196376,6,0,P|195:363|151:315,2,125,10|0|0,0:0|0:0|0:0,0:0:0:0:
248,262,196767,1,0,0:0:0:0:
300,156,196897,2,0,L|312:28,2,125,2|0|0,0:0|0:0|0:0,0:0:0:0:
81,229,197289,1,0,0:0:0:0:
41,39,197419,5,4,0:0:0:0:
72,18,197484,1,8,0:0:0:0:
109,13,197550,1,0,0:0:0:0:
145,21,197615,1,8,0:0:0:0:
172,45,197680,1,2,0:0:0:0:
183,80,197745,1,8,0:0:0:0:
178,117,197810,1,0,0:0:0:0:
173,154,197875,1,8,0:0:0:0:
184,189,197940,1,2,0:0:0:0:
211,213,198005,1,8,0:0:0:0:
247,221,198070,1,0,0:0:0:0:
284,216,198136,1,8,0:0:0:0:
315,195,198201,1,2,0:0:0:0:
331,160,198267,1,8,0:0:0:0:
323,123,198332,2,0,L|394:116,1,62.5,0|8,0:0|0:0,0:0:0:0:
477,19,198463,5,4,0:0:0:0:
480,56,198528,1,8,0:0:0:0:
483,93,198593,1,0,0:0:0:0:
486,130,198658,1,8,0:0:0:0:
489,167,198723,1,2,0:0:0:0:
492,204,198789,1,8,0:0:0:0:
495,241,198854,1,0,0:0:0:0:
498,278,198919,1,8,0:0:0:0:
501,315,198984,2,0,L|504:378,3,62.5,2|8|0|8,0:0|0:0|0:0|0:0,0:0:0:0:
365,338,199245,5,4,0:0:0:0:
341,308,199310,1,8,0:0:0:0:
304,299,199376,1,0,0:0:0:0:
270,311,199441,1,8,0:0:0:0:
245,339,199506,1,2,0:0:0:0:
208,347,199571,1,8,0:0:0:0:
174,329,199637,2,0,L|95:322,1,62.5,0|8,0:0|0:0,0:0:0:0:
28,261,199767,5,4,0:0:0:0:
16,225,199832,1,8,0:0:0:0:
18,187,199897,1,0,0:0:0:0:
33,152,199963,1,8,0:0:0:0:
59,125,200028,1,2,0:0:0:0:
92,108,200093,1,8,0:0:0:0:
129,103,200158,1,0,0:0:0:0:
164,118,200223,1,8,0:0:0:0:
194,141,200289,5,2,0:0:0:0:
185,104,200354,1,8,0:0:0:0:
177,67,200419,2,0,L|164:-1,1,62.5,0|8,0:0|0:0,0:0:0:0:
121,210,200550,5,2,0:0:0:0:
121,210,200615,1,8,0:0:0:0:
121,210,200680,2,0,L|133:287,1,62.5,0|8,0:0|0:0,0:0:0:0:
207,354,200810,5,4,0:0:0:0:
244,359,200876,1,8,0:0:0:0:
281,362,200941,1,0,0:0:0:0:
317,367,201006,1,8,0:0:0:0:
354,371,201071,5,2,0:0:0:0:
323,348,201137,1,8,0:0:0:0:
303,316,201202,1,0,0:0:0:0:
304,278,201267,1,8,0:0:0:0:
321,244,201332,1,2,0:0:0:0:
351,222,201397,1,8,0:0:0:0:
388,216,201463,2,0,L|381:289,1,62.5,0|8,0:0|0:0,0:0:0:0:
510,147,201593,5,4,0:0:0:0:
509,109,201658,1,8,0:0:0:0:
495,74,201723,1,0,0:0:0:0:
465,50,201789,1,8,0:0:0:0:
428,40,201854,1,2,0:0:0:0:
390,44,201919,1,8,0:0:0:0:
359,64,201984,1,0,0:0:0:0:
322,75,202050,1,8,0:0:0:0:
284,76,202115,1,2,0:0:0:0:
248,63,202180,1,8,0:0:0:0:
219,38,202245,1,0,0:0:0:0:
183,26,202310,1,8,0:0:0:0:
145,29,202376,1,2,0:0:0:0:
113,49,202441,1,8,0:0:0:0:
97,83,202506,2,0,L|105:167,1,62.5,0|8,0:0|0:0,0:0:0:0:
50,284,202637,5,4,0:0:0:0:
64,318,202702,1,8,0:0:0:0:
94,339,202767,1,0,0:0:0:0:
130,347,202832,1,8,0:0:0:0:
167,342,202897,1,2,0:0:0:0:
197,320,202963,1,8,0:0:0:0:
218,289,203028,1,0,0:0:0:0:
244,262,203093,1,8,0:0:0:0:
276,242,203158,1,2,0:0:0:0:
313,244,203223,1,8,0:0:0:0:
344,265,203289,2,0,L|337:348,1,62.5,0|8,0:0|0:0,0:0:0:0:
494,81,203419,5,4,0:0:0:0:
492,112,203484,1,8,0:0:0:0:
489,143,203550,1,0,0:0:0:0:
486,174,203615,1,8,0:0:0:0:
482,204,203680,6,0,B|445:211|445:211|401:196,3,62.5,2|8|0|8,0:0|0:0|0:0|0:0,0:0:0:0:
303,149,203941,2,0,B|315:113|315:113|349:82,3,62.5,4|8|0|8,0:0|0:0|0:0|0:0,0:0:0:0:
464,28,204202,1,2,0:0:0:0:
464,28,204267,1,8,0:0:0:0:
464,28,204332,1,0,0:0:0:0:
464,28,204397,1,8,0:0:0:0:
464,28,204463,2,0,B|488:56|488:56|498:101,3,62.5,2|8|0|8,0:0|0:0|0:0|0:0,0:0:0:0:
262,37,204723,5,0,0:0:0:0:
262,37,204789,1,8,0:0:0:0:
262,37,204854,2,0,L|179:46,1,62.5,0|8,0:0|0:0,0:0:0:0:
68,74,204984,5,8,0:0:0:0:
27,104,205050,1,8,0:0:0:0:
26,153,205115,1,8,0:0:0:0:
63,185,205180,1,8,0:0:0:0:
112,179,205245,5,0,0:0:0:0:
107,197,205310,1,0,0:0:0:0:
108,215,205376,1,0,0:0:0:0:
112,233,205441,1,0,0:0:0:0:
151,262,205506,5,0,0:0:0:0:
152,274,205571,1,0,0:0:0:0:
152,286,205637,2,0,P|152:319|149:362,1,62.5
41,318,205767,5,4,0:0:0:0:
40,305,205832,1,0,0:0:0:0:
41,293,205897,1,0,0:0:0:0:
44,281,205962,1,0,0:0:0:0:
49,269,206027,1,0,0:0:0:0:
56,258,206093,1,0,0:0:0:0:
64,249,206158,1,0,0:0:0:0:
73,240,206223,1,0,0:0:0:0:
83,234,206288,1,0,0:0:0:0:
95,228,206353,1,0,0:0:0:0:
107,225,206419,1,0,0:0:0:0:
119,223,206484,1,0,0:0:0:0:
132,223,206549,1,0,0:0:0:0:
144,225,206614,1,0,0:0:0:0:
156,229,206680,1,0,0:0:0:0:
167,235,206745,1,0,0:0:0:0:
137,279,206810,5,12,0:0:0:0:
137,266,206875,1,0,0:0:0:0:
138,254,206940,1,0,0:0:0:0:
139,241,207005,1,0,0:0:0:0:
140,229,207070,1,0,0:0:0:0:
141,216,207136,1,0,0:0:0:0:
142,204,207201,1,0,0:0:0:0:
143,191,207266,1,0,0:0:0:0:
144,179,207331,1,0,0:0:0:0:
144,166,207396,1,0,0:0:0:0:
145,154,207462,1,0,0:0:0:0:
146,141,207527,1,0,0:0:0:0:
147,129,207592,1,0,0:0:0:0:
148,116,207657,1,0,0:0:0:0:
149,104,207723,1,0,0:0:0:0:
150,91,207788,1,0,0:0:0:0:
90,109,207854,5,4,0:0:0:0:
97,119,207919,1,0,0:0:0:0:
105,128,207984,1,0,0:0:0:0:
114,136,208049,1,0,0:0:0:0:
125,143,208114,1,0,0:0:0:0:
136,148,208180,1,0,0:0:0:0:
148,152,208245,1,0,0:0:0:0:
160,154,208310,1,0,0:0:0:0:
203,117,208376,5,0,0:0:0:0:
214,113,208441,1,0,0:0:0:0:
226,114,208506,1,0,0:0:0:0:
237,119,208571,1,0,0:0:0:0:
272,159,208637,5,0,0:0:0:0:
284,161,208702,1,0,0:0:0:0:
296,161,208767,1,0,0:0:0:0:
308,158,208832,1,0,0:0:0:0:
330,102,208897,5,12,0:0:0:0:
321,110,208962,1,0,0:0:0:0:
314,121,209027,1,0,0:0:0:0:
309,132,209092,1,0,0:0:0:0:
307,145,209157,1,0,0:0:0:0:
306,157,209223,1,0,0:0:0:0:
309,169,209288,1,0,0:0:0:0:
313,181,209353,1,0,0:0:0:0:
320,191,209418,1,0,0:0:0:0:
329,200,209483,1,0,0:0:0:0:
339,207,209549,1,0,0:0:0:0:
351,212,209614,1,0,0:0:0:0:
363,215,209679,1,0,0:0:0:0:
375,215,209744,1,0,0:0:0:0:
387,213,209810,1,0,0:0:0:0:
399,209,209875,1,0,0:0:0:0:
429,162,209941,6,0,B|452:214|452:214|429:313,2,125,4|0|0,0:0|0:0|0:0,0:0:0:0:
347,112,210332,1,0,0:0:0:0:
338,305,210463,2,0,L|213:315,1,125,2|0,0:0|0:0,0:0:0:0:
97,189,210723,2,0,L|222:199,1,125
347,112,210984,5,10,0:0:0:0:
347,112,211050,1,0,0:0:0:0:
347,112,211115,1,0,0:0:0:0:
207,46,211245,1,0,0:0:0:0:
36,105,211376,1,0,0:0:0:0:
36,105,211441,1,0,0:0:0:0:
36,105,211506,2,0,P|0:177|8:236,1,125,2|0,0:0|0:0,0:0:0:0:
221,198,211767,1,0,0:0:0:0:
46,304,211897,1,0,0:0:0:0:
189,349,212028,5,2,0:0:0:0:
250,374,212115,1,0,0:0:0:0:
311,348,212202,1,0,0:0:0:0:
346,291,212289,1,0,0:0:0:0:
410,272,212376,1,0,0:0:0:0:
473,293,212463,1,0,0:0:0:0:
502,352,212550,5,2,0:0:0:0:
440,325,212637,1,0,0:0:0:0:
422,261,212723,1,0,0:0:0:0:
442,197,212810,1,0,0:0:0:0:
438,130,212897,1,0,0:0:0:0:
387,85,212984,1,0,0:0:0:0:
325,60,213071,6,0,P|262:69|205:119,2,125,10|0|0,0:0|0:0|0:0,0:0:0:0:
313,186,213463,1,0,0:0:0:0:
110,240,213593,2,0,L|99:364,2,125
325,60,213984,1,8,0:0:0:0:
49,20,214115,6,0,L|-7:12,2,50,4|0|0,0:0|0:0|0:0,0:0:0:0:
195,75,214897,6,0,L|296:68,2,100
22,166,215680,6,0,P|13:246|52:314,1,150.000005722046
453,215,216202,6,0,B|470:263|470:263|453:364,1,125,4|0,0:0|0:0,0:0:0:0:
222,257,216463,1,0,0:0:0:0:
231,270,216593,2,0,L|375:278,2,125,0|2|0,0:0|0:0|0:0,0:0:0:0:
44,181,216984,2,0,P|105:145|179:178,1,125
298,369,217245,6,0,B|319:261|319:261|309:220|309:220|327:120,1,250,10|0,0:0|0:0,0:0:0:0:
340,99,217571,1,0,0:0:0:0:
355,109,217637,1,0,0:0:0:0:
362,126,217702,1,0,0:0:0:0:
362,144,217767,5,2,0:0:0:0:
57,96,217897,1,0,0:0:0:0:
377,153,218028,5,0,0:0:0:0:
114,157,218158,1,0,0:0:0:0:
453,79,218289,6,0,P|476:147|460:221,1,125,4|0,0:0|0:0,0:0:0:0:
218,322,218550,1,0,0:0:0:0:
234,342,218680,2,0,L|370:326,2,125,0|2|0,0:0|0:0|0:0,0:0:0:0:
48,211,219071,2,0,P|33:143|62:90,1,125
294,7,219332,6,0,B|315:115|315:115|305:156|305:156|323:256,1,250,10|0,0:0|0:0,0:0:0:0:
316,348,219658,1,0,0:0:0:0:
334,351,219723,1,0,0:0:0:0:
352,347,219789,1,0,0:0:0:0:
369,339,219854,2,0,P|434:324|514:326,1,125,2|0,0:0|0:0,0:0:0:0:
215,249,220115,2,0,P|151:234|69:236,1,125,2|0,0:0|0:0,0:0:0:0:
21,74,220376,6,0,P|102:49|165:85,1,125,2|0,0:0|0:0,0:0:0:0:
215,249,220637,2,0,P|155:240|102:185,1,100
274,71,220897,2,0,P|260:125|234:154,1,75.0000028610231,2|0,0:0|0:0,0:0:0:0:
90,77,221158,2,0,P|122:63|154:60,1,50,2|0,0:0|0:0,0:0:0:0:
431,17,221419,5,10,0:0:0:0:
434,41,221484,1,0,0:0:0:0:
436,66,221550,2,0,L|511:72,1,62.5
332,115,221680,5,2,0:0:0:0:
331,133,221745,1,0,0:0:0:0:
329,151,221811,2,0,L|262:156,1,50
423,177,221941,5,2,0:0:0:0:
424,189,222006,1,0,0:0:0:0:
426,201,222072,2,0,L|485:206,1,37.5000014305115
376,271,222202,5,2,0:0:0:0:
375,277,222267,1,0,0:0:0:0:
373,283,222333,2,0,L|330:286,1,25,8|0,0:0|0:0,0:0:0:0:
139,356,222463,6,0,B|107:298|139:243|139:243|91:260|45:242|45:242|61:199|45:158,1,300,4|0,0:0|0:0,0:0:0:0:
9,51,222984,6,0,P|74:58|121:90,1,100,2|0,0:0|0:0,0:0:0:0:
215,95,223245,2,0,P|176:147|125:172,1,100
46,159,223506,2,0,B|45:211|71:249|71:249|102:264|152:276|152:276|171:263|171:263|275:288,1,300,10|0,0:0|0:0,0:0:0:0:
387,263,224028,6,0,P|387:327|351:374,2,100,2|0|0,0:0|0:0|0:0,0:0:0:0:
298,176,224419,1,8,0:0:0:0:
39,154,224550,5,4,0:0:0:0:
15,194,224637,1,0,0:0:0:0:
16,240,224723,1,0,0:0:0:0:
42,278,224810,1,0,0:0:0:0:
86,290,224897,1,0,0:0:0:0:
131,280,224984,1,0,0:0:0:0:
162,245,225071,5,4,0:0:0:0:
230,219,225158,1,0,0:0:0:0:
292,257,225245,1,0,0:0:0:0:
286,330,225332,1,0,0:0:0:0:
219,361,225419,1,0,0:0:0:0:
160,317,225506,1,0,0:0:0:0:
162,245,225593,5,12,0:0:0:0:
168,219,225680,1,0,0:0:0:0:
169,192,225767,1,0,0:0:0:0:
129,165,225854,5,0,0:0:0:0:
123,132,225941,1,0,0:0:0:0:
131,99,226028,1,0,0:0:0:0:
179,79,226115,6,0,L|259:71,2,66.6666666666667,2|0|2,0:0|0:0|0:0,0:0:0:0:
67,28,226376,2,0,L|-13:20,2,66.6666666666667
329,0,226637,6,0,B|377:70|330:143|330:143|382:129|382:129|404:177|456:181,1,300,4|0,0:0|0:0,0:0:0:0:
348,226,227158,2,0,L|219:236,1,100,2|0,0:0|0:0,0:0:0:0:
393,326,227419,2,0,L|522:336,1,100
136,343,227680,5,10,0:0:0:0:
136,343,227941,5,0,0:0:0:0:
134,318,228006,1,0,0:0:0:0:
132,294,228071,1,0,0:0:0:0:
130,268,228137,1,0,0:0:0:0:
128,243,228202,2,0,B|87:235|87:235|27:257,2,100,2|0|0,0:0|0:0|0:0,0:0:0:0:
308,347,228593,1,8,0:0:0:0:
462,177,228723,5,2,0:0:0:0:
479,133,228810,1,0,0:0:0:0:
473,86,228897,1,0,0:0:0:0:
439,52,228984,1,0,0:0:0:0:
392,47,229071,1,0,0:0:0:0:
350,67,229158,1,0,0:0:0:0:
329,108,229245,6,0,L|407:102,2,66.6666666666667,2|0|0,0:0|0:0|0:0,0:0:0:0:
209,39,229506,2,0,L|131:33,2,66.6666666666667
223,175,229767,5,10,0:0:0:0:
223,175,229832,1,0,0:0:0:0:
223,175,229897,2,0,L|223:254,1,50
371,245,230028,5,2,0:0:0:0:
363,263,230093,1,0,0:0:0:0:
359,282,230158,1,0,0:0:0:0:
361,301,230223,1,0,0:0:0:0:
414,337,230289,5,2,0:0:0:0:
383,310,230354,1,0,0:0:0:0:
343,303,230419,1,0,0:0:0:0:
305,315,230484,1,0,0:0:0:0:
279,346,230550,2,0,L|216:351,1,50,2|0,0:0|0:0,0:0:0:0:
63,280,230680,2,0,L|125:285,1,50
314,138,230810,6,0,B|352:61|302:-6|302:-6|271:27|222:29|222:29|227:65|216:90|216:90|165:73|116:72|116:72|125:37|111:7,1,473.000007217407
22,60,232376,5,8,0:0:0:0:
22,109,232441,1,8,0:0:0:0:
22,158,232506,1,8,0:0:0:0:
22,207,232571,1,8,0:0:0:0:
22,257,232637,5,0,0:0:0:0:
25,242,232702,1,0,0:0:0:0:
28,227,232767,2,0,L|117:234,1,50
302,292,232897,5,4,0:0:0:0:
286,294,232963,1,0,0:0:0:0:
271,296,233028,1,0,0:0:0:0:
256,298,233093,1,0,0:0:0:0:
241,300,233158,1,0,0:0:0:0:
226,302,233223,1,0,0:0:0:0:
211,304,233289,1,0,0:0:0:0:
2,377,233680,5,12,0:0:0:0:
18,379,233746,1,0,0:0:0:0:
33,381,233811,1,0,0:0:0:0:
48,383,233876,1,0,0:0:0:0:
62,384,233941,6,0,L|67:319,3,50
139,209,234202,2,0,L|143:254,3,44.999998626709
226,330,234463,2,0,L|231:283,3,40
305,249,234723,2,0,L|309:292,3,34.9999989318848
409,293,234984,5,4,0:0:0:0:
418,275,235050,1,0,0:0:0:0:
425,256,235115,1,0,0:0:0:0:
427,236,235180,1,0,0:0:0:0:
426,216,235245,1,0,0:0:0:0:
424,196,235310,1,0,0:0:0:0:
416,177,235376,1,0,0:0:0:0:
337,36,235637,5,0,0:0:0:0:
289,105,235767,5,10,0:0:0:0:
306,114,235832,1,0,0:0:0:0:
324,120,235897,1,0,0:0:0:0:
344,121,235963,1,0,0:0:0:0:
363,119,236028,1,2,0:0:0:0:
381,112,236093,1,0,0:0:0:0:
397,100,236158,1,8,0:0:0:0:
247,28,236289,2,0,L|136:37,1,100,2|0,0:0|0:0,0:0:0:0:
5,87,236550,5,8,0:0:0:0:
7,106,236615,1,0,0:0:0:0:
9,125,236680,1,0,0:0:0:0:
11,144,236745,1,0,0:0:0:0:
37,177,236810,5,8,0:0:0:0:
35,196,236875,1,0,0:0:0:0:
33,215,236940,1,0,0:0:0:0:
31,234,237005,1,0,0:0:0:0:
12,271,237071,5,8,0:0:0:0:
25,255,237137,1,0,0:0:0:0:
42,245,237202,1,0,0:0:0:0:
61,240,237267,1,0,0:0:0:0:
80,243,237332,1,0,0:0:0:0:
98,251,237397,1,0,0:0:0:0:
112,265,237463,1,8,0:0:0:0:
338,343,237723,5,0,0:0:0:0:
264,379,237854,5,8,0:0:0:0:
256,360,237919,1,0,0:0:0:0:
254,340,237984,1,0,0:0:0:0:
258,320,238050,1,0,0:0:0:0:
266,301,238115,1,0,0:0:0:0:
279,286,238180,1,0,0:0:0:0:
296,276,238245,1,8,0:0:0:0:
475,225,238376,2,0,L|365:215,1,100,2|0,0:0|0:0,0:0:0:0:
135,138,238637,5,8,0:0:0:0:
154,136,238702,1,0,0:0:0:0:
173,134,238767,1,0,0:0:0:0:
192,132,238832,1,0,0:0:0:0:
219,116,238897,5,8,0:0:0:0:
238,118,238962,1,0,0:0:0:0:
257,120,239027,1,0,0:0:0:0:
276,122,239092,1,0,0:0:0:0:
304,151,239158,5,10,0:0:0:0:
291,135,239223,1,0,0:0:0:0:
285,115,239289,1,2,0:0:0:0:
287,95,239354,1,0,0:0:0:0:
296,77,239419,1,2,0:0:0:0:
309,62,239484,1,0,0:0:0:0:
328,56,239550,1,10,0:0:0:0:
439,87,239680,1,2,0:0:0:0:
439,87,239810,1,2,0:0:0:0:
480,209,239941,5,10,0:0:0:0:
485,228,240006,1,0,0:0:0:0:
483,247,240071,1,2,0:0:0:0:
473,264,240137,1,0,0:0:0:0:
459,278,240202,1,2,0:0:0:0:
441,288,240267,1,0,0:0:0:0:
421,290,240332,1,10,0:0:0:0:
323,214,240463,1,2,0:0:0:0:
323,214,240593,1,2,0:0:0:0:
319,375,240723,5,10,0:0:0:0:
298,373,240789,1,0,0:0:0:0:
278,369,240854,2,0,L|286:315,1,50,2|0,0:0|0:0,0:0:0:0:
323,214,240984,1,10,0:0:0:0:
421,290,241115,1,2,0:0:0:0:
139,368,241245,5,10,0:0:0:0:
119,362,241310,1,0,0:0:0:0:
102,350,241376,1,2,0:0:0:0:
90,333,241441,1,0,0:0:0:0:
83,314,241506,1,2,0:0:0:0:
84,294,241571,1,0,0:0:0:0:
89,274,241637,1,10,0:0:0:0:
137,172,241767,1,2,0:0:0:0:
137,172,241897,1,2,0:0:0:0:
192,78,242028,5,10,0:0:0:0:
183,60,242093,1,0,0:0:0:0:
169,45,242158,1,2,0:0:0:0:
152,33,242223,1,0,0:0:0:0:
132,29,242289,1,2,0:0:0:0:
112,31,242354,1,0,0:0:0:0:
93,37,242419,1,10,0:0:0:0:
21,118,242550,1,2,0:0:0:0:
21,118,242680,1,2,0:0:0:0:
137,172,242810,5,12,0:0:0:0:
163,186,242876,1,0,0:0:0:0:
192,190,242941,1,0,0:0:0:0:
220,180,243006,1,0,0:0:0:0:
263,203,243071,5,12,0:0:0:0:
289,189,243137,1,0,0:0:0:0:
318,185,243202,1,0,0:0:0:0:
346,195,243267,1,0,0:0:0:0:
391,167,243332,6,0,B|413:225|413:225|391:355,1,164.99999949646,4|0,0:0|0:0,0:0:0:0:
390,366,243723,1,0,0:0:0:0:
281,260,243853,1,0,0:0:0:0:
500,281,243984,1,0,0:0:0:0:
281,260,244114,1,0,0:0:0:0:
490,116,244506,5,0,0:0:0:0:
490,116,244571,1,0,0:0:0:0:
490,116,244636,2,0,L|495:185,1,62.5,10|0,0:0|0:0,0:0:0:0:
366,62,244766,2,0,L|371:-7,1,62.5,10|0,0:0|0:0,0:0:0:0:
385,219,244897,5,10,0:0:0:0:
136,143,245027,1,10,0:0:0:0:
385,219,245158,1,10,0:0:0:0:
385,219,245288,1,0,0:0:0:0:
239,329,245418,5,10,0:0:0:0:
213,332,245484,1,0,0:0:0:0:
188,335,245549,1,0,0:0:0:0:
163,338,245614,1,0,0:0:0:0:
138,341,245679,2,0,B|114:287|114:287|131:202,2,125,0|8|0,0:0|0:0|0:0,0:0:0:0:
246,235,246071,1,0,0:0:0:0:
314,139,246201,2,0,B|250:109|184:141|184:141|206:111|237:98,1,187.5,8|0,0:0|0:0,0:0:0:0:
294,44,246462,6,0,B|378:36|378:36|416:58,2,125,4|0|0,0:0|0:0|0:0,0:0:0:0:
134,213,246853,1,2,0:0:0:0:
174,0,246984,1,0,0:0:0:0:
134,213,247114,1,0,0:0:0:0:
329,251,247245,6,0,B|348:303|348:303|329:369,2,125,10|0|0,0:0|0:0|0:0,0:0:0:0:
220,140,247636,1,2,0:0:0:0:
476,167,247766,1,0,0:0:0:0:
220,140,247897,1,0,0:0:0:0:
427,242,248027,5,4,0:0:0:0:
409,259,248092,1,0,0:0:0:0:
386,270,248158,1,0,0:0:0:0:
362,277,248223,1,0,0:0:0:0:
337,278,248288,1,0,0:0:0:0:
312,274,248353,1,0,0:0:0:0:
288,266,248418,2,0,B|269:309|269:309|290:399,2,125,2|0|0,0:0|0:0|0:0,0:0:0:0:
387,52,248810,5,10,0:0:0:0:
465,187,248940,1,2,0:0:0:0:
315,185,249071,1,2,0:0:0:0:
457,191,249201,5,10,0:0:0:0:
394,56,249332,1,2,0:0:0:0:
315,176,249462,1,2,0:0:0:0:
445,354,249592,5,4,0:0:0:0:
419,334,249658,1,0,0:0:0:0:
389,323,249723,1,0,0:0:0:0:
357,321,249788,1,0,0:0:0:0:
325,322,249853,1,0,0:0:0:0:
296,334,249918,1,0,0:0:0:0:
273,356,249984,2,0,L|280:274,1,62.5,2|0,0:0|0:0,0:0:0:0:
183,310,250114,2,0,L|188:247,1,62.5
90,267,250245,2,0,L|97:185,1,62.5
13,80,250375,6,0,B|74:60|74:60|233:104,1,200,10|0,0:0|0:0,0:0:0:0:
293,251,250766,1,2,0:0:0:0:
273,30,250897,1,0,0:0:0:0:
293,251,251027,1,0,0:0:0:0:
481,96,251158,5,4,0:0:0:0:
461,80,251223,1,0,0:0:0:0:
437,71,251288,1,0,0:0:0:0:
412,69,251353,1,0,0:0:0:0:
387,72,251418,1,0,0:0:0:0:
364,84,251484,1,0,0:0:0:0:
352,105,251549,2,0,L|282:111,1,50,2|0,0:0|0:0,0:0:0:0:
444,184,251679,2,0,L|513:190,1,50
342,246,251810,2,0,L|272:252,1,50
50,192,251940,5,10,0:0:0:0:
208,120,252071,1,2,0:0:0:0:
186,297,252201,1,2,0:0:0:0:
209,131,252332,5,10,0:0:0:0:
58,184,252462,1,2,0:0:0:0:
175,291,252592,1,2,0:0:0:0:
97,71,252723,6,0,P|39:70|-12:88,2,100,4|0|0,0:0|0:0|0:0,0:0:0:0:
281,81,253114,1,2,0:0:0:0:
50,192,253245,1,0,0:0:0:0:
289,81,253375,1,0,0:0:0:0:
153,317,253505,6,0,B|212:354|212:354|358:340,1,200,10|0,0:0|0:0,0:0:0:0:
498,304,253897,1,2,0:0:0:0:
493,274,253962,1,0,0:0:0:0:
487,244,254027,1,0,0:0:0:0:
481,214,254092,1,0,0:0:0:0:
476,184,254158,1,0,0:0:0:0:
471,154,254223,1,0,0:0:0:0:
466,124,254288,5,2,0:0:0:0:
437,115,254353,1,0,0:0:0:0:
407,115,254418,1,0,0:0:0:0:
378,124,254484,1,0,0:0:0:0:
356,145,254549,1,0,0:0:0:0:
344,172,254614,1,0,0:0:0:0:
345,201,254679,2,0,L|413:194,1,50,2|0,0:0|0:0,0:0:0:0:
407,290,254810,2,0,L|456:285,1,50
306,369,254940,2,0,L|374:362,1,50
221,189,255071,6,0,B|210:143|210:143|229:72,2,100,10|0|0,0:0|0:0|0:0,0:0:0:0:
306,369,255462,1,8,0:0:0:0:
0,75,255853,5,12,0:0:0:0:
36,50,255918,1,0,0:0:0:0:
80,48,255984,1,0,0:0:0:0:
116,71,256049,1,0,0:0:0:0:
158,80,256114,1,2,0:0:0:0:
200,69,256179,1,0,0:0:0:0:
229,36,256245,5,8,0:0:0:0:
186,47,256310,1,0,0:0:0:0:
161,82,256375,1,2,0:0:0:0:
156,125,256440,1,0,0:0:0:0:
171,165,256505,1,0,0:0:0:0:
204,194,256571,1,0,0:0:0:0:
247,194,256636,5,12,0:0:0:0:
206,177,256701,1,0,0:0:0:0:
162,181,256766,1,0,0:0:0:0:
126,207,256832,1,0,0:0:0:0:
112,248,256897,2,0,L|118:316,1,62.5,2|0,0:0|0:0,0:0:0:0:
236,384,257027,5,8,0:0:0:0:
278,380,257092,1,0,0:0:0:0:
322,376,257158,1,2,0:0:0:0:
365,372,257223,1,0,0:0:0:0:
408,368,257288,2,0,L|402:300,1,62.5
271,270,257418,5,8,0:0:0:0:
112,248,257549,1,0,0:0:0:0:
271,270,257679,5,8,0:0:0:0:
59,200,257810,1,8,0:0:0:0:
271,270,257940,5,8,0:0:0:0:
28,134,258071,1,8,0:0:0:0:
198,17,258201,5,12,0:0:0:0:
222,21,258266,1,0,0:0:0:0:
246,25,258331,2,0,L|239:103,1,62.5
412,81,258462,5,12,0:0:0:0:
388,85,258527,1,0,0:0:0:0:
364,89,258592,2,0,L|370:167,1,62.5
228,199,258723,5,12,0:0:0:0:
252,203,258788,1,0,0:0:0:0:
276,207,258853,2,0,L|269:285,1,62.5
463,264,258984,6,0,B|480:314|480:314|463:385,2,125,12|0|2,0:0|0:0|0:0,0:0:0:0:
275,207,259375,5,8,0:0:0:0:
196,342,259506,1,2,0:0:0:0:
355,337,259636,1,0,0:0:0:0:
94,248,259766,5,12,0:0:0:0:
70,250,259831,1,0,0:0:0:0:
47,252,259897,1,0,0:0:0:0:
24,254,259962,1,0,0:0:0:0:
0,256,260027,2,0,L|7:341,1,62.5,2|0,0:0|0:0,0:0:0:0:
196,342,260158,5,8,0:0:0:0:
220,340,260223,1,0,0:0:0:0:
243,338,260288,1,2,0:0:0:0:
266,336,260354,1,0,0:0:0:0:
290,334,260419,2,0,L|282:248,1,62.5
430,259,260549,5,8,0:0:0:0:
275,195,260679,1,0,0:0:0:0:
430,259,260810,5,8,0:0:0:0:
234,132,260940,1,8,0:0:0:0:
430,259,261071,5,8,0:0:0:0:
229,57,261201,1,8,0:0:0:0:
434,17,261331,5,12,0:0:0:0:
435,35,261397,1,0,0:0:0:0:
436,53,261462,2,0,L|352:60,1,62.5
512,145,261592,5,8,0:0:0:0:
503,161,261658,1,0,0:0:0:0:
495,177,261723,2,0,L|418:141,1,62.5
496,291,261853,5,8,0:0:0:0:
480,300,261919,1,0,0:0:0:0:
465,310,261984,2,0,L|416:241,1,62.5
300,367,262114,5,12,0:0:0:0:
260,384,262179,1,0,0:0:0:0:
215,379,262245,1,0,0:0:0:0:
182,350,262310,1,0,0:0:0:0:
169,308,262375,1,2,0:0:0:0:
134,280,262440,1,0,0:0:0:0:
90,277,262505,5,8,0:0:0:0:
115,313,262571,1,0,0:0:0:0:
157,322,262636,1,2,0:0:0:0:
200,317,262701,1,0,0:0:0:0:
238,297,262766,1,0,0:0:0:0:
260,258,262832,1,0,0:0:0:0:
257,214,262897,5,10,0:0:0:0:
274,253,262962,1,0,0:0:0:0:
312,272,263027,1,0,0:0:0:0:
355,272,263092,1,0,0:0:0:0:
395,254,263158,2,0,L|388:322,1,62.5,2|0,0:0|0:0,0:0:0:0:
512,166,263288,5,8,0:0:0:0:
507,128,263353,1,0,0:0:0:0:
504,90,263418,1,2,0:0:0:0:
501,52,263484,1,0,0:0:0:0:
497,14,263549,2,0,L|426:20,1,62.5
389,173,263679,5,12,0:0:0:0:
251,113,263810,1,0,0:0:0:0:
389,173,263940,5,10,0:0:0:0:
185,68,264071,1,8,0:0:0:0:
389,173,264201,5,10,0:0:0:0:
151,1,264332,1,8,0:0:0:0:
249,206,264462,5,10,0:0:0:0:
254,223,264527,1,0,0:0:0:0:
259,240,264592,2,0,L|329:233,1,62.5
430,345,264723,5,12,0:0:0:0:
442,332,264788,1,0,0:0:0:0:
454,319,264853,2,0,L|413:260,1,62.5
450,123,264984,5,12,0:0:0:0:
432,119,265049,1,0,0:0:0:0:
415,116,265114,2,0,L|384:180,1,62.5
297,347,265245,6,0,B|248:368|248:368|158:342,2,125,12|0|2,0:0|0:0|0:0,0:0:0:0:
388,182,265636,5,8,0:0:0:0:
285,55,265766,1,2,0:0:0:0:
222,210,265897,1,0,0:0:0:0:
123,35,266027,5,10,0:0:0:0:
98,37,266092,1,0,0:0:0:0:
72,39,266158,1,0,0:0:0:0:
47,41,266223,1,0,0:0:0:0:
22,43,266288,2,0,L|28:113,1,62.5,2|0,0:0|0:0,0:0:0:0:
126,139,266418,5,8,0:0:0:0:
151,141,266483,1,0,0:0:0:0:
177,143,266549,1,2,0:0:0:0:
202,145,266614,1,0,0:0:0:0:
227,147,266679,2,0,L|220:217,1,62.5
0,317,266810,5,10,0:0:0:0:
0,317,266875,1,0,0:0:0:0:
0,317,266940,1,0,0:0:0:0:
0,317,267005,1,0,0:0:0:0:
0,317,267071,2,0,B|34:324|34:324|97:312,1,62.5
153,218,267201,2,0,B|119:211|119:211|56:223,1,62.5
9,323,267332,2,0,B|43:330|43:330|106:318,1,62.5
162,224,267462,2,0,B|128:217|128:217|65:229,1,62.5
250,343,267592,5,8,0:0:0:0:
290,372,267658,1,8,0:0:0:0:
339,369,267723,1,8,0:0:0:0:
376,336,267788,1,8,0:0:0:0:
379,286,267853,2,0,B|414:293|414:293|462:285,3,62.5,2|0|0|0,0:0|0:0|0:0|0:0,0:0:0:0:
289,199,268114,2,0,B|254:192|254:192|206:200,3,62.5,2|0|0|0,0:0|0:0|0:0|0:0,0:0:0:0:
464,110,268375,5,4,0:0:0:0:
454,118,268440,1,0,0:0:0:0:
442,122,268505,1,0,0:0:0:0:
429,124,268570,1,0,0:0:0:0:
416,122,268635,1,2,0:0:0:0:
404,117,268701,1,0,0:0:0:0:
394,109,268766,5,0,0:0:0:0:
418,112,268831,1,0,0:0:0:0:
436,128,268896,1,10,0:0:0:0:
446,150,268961,1,0,0:0:0:0:
445,175,269027,1,0,0:0:0:0:
432,196,269092,1,0,0:0:0:0:
413,212,269157,5,0,0:0:0:0:
369,216,269222,1,0,0:0:0:0:
331,239,269288,1,0,0:0:0:0:
310,277,269353,1,0,0:0:0:0:
310,320,269418,1,2,0:0:0:0:
332,357,269483,1,0,0:0:0:0:
371,376,269548,5,0,0:0:0:0:
340,353,269614,1,0,0:0:0:0:
305,338,269679,1,2,0:0:0:0:
268,331,269744,1,0,0:0:0:0:
231,337,269809,1,0,0:0:0:0:
197,355,269875,1,0,0:0:0:0:
171,382,269940,2,0,L|183:271,1,75.0000028610231,10|0,0:0|0:0,0:0:0:0:
61,217,270070,2,0,L|49:328,1,75.0000028610231
260,190,270201,6,0,B|292:200|292:200|363:202,1,75.0000028610231,4|0,0:0|0:0,0:0:0:0:
151,87,270331,2,0,B|118:76|118:76|47:74,1,75.0000028610231
251,172,270461,2,0,B|276:181|276:181|305:180,1,50,2|0,0:0|0:0,0:0:0:0:
150,109,270592,2,0,B|125:100|125:100|96:101,1,50,2|0,0:0|0:0,0:0:0:0:
306,81,270722,5,4,0:0:0:0:
329,63,270788,1,0,0:0:0:0:
357,55,270853,1,0,0:0:0:0:
386,59,270918,1,0,0:0:0:0:
410,76,270983,1,8,0:0:0:0:
439,81,271048,1,0,0:0:0:0:
468,74,271114,1,0,0:0:0:0:
491,56,271179,1,0,0:0:0:0:
501,28,271244,2,0,L|424:21,3,75.0000028610231,4|0|0|0,0:0|0:0|0:0|0:0,0:0:0:0:
209,13,271505,5,4,0:0:0:0:
195,19,271570,1,0,0:0:0:0:
185,30,271635,1,0,0:0:0:0:
179,44,271701,1,0,0:0:0:0:
178,58,271766,1,2,0:0:0:0:
182,72,271831,1,0,0:0:0:0:
191,83,271896,5,0,0:0:0:0:
219,74,271961,1,0,0:0:0:0:
248,82,272027,1,10,0:0:0:0:
266,105,272092,1,0,0:0:0:0:
267,134,272157,1,0,0:0:0:0:
253,160,272222,1,0,0:0:0:0:
225,173,272288,5,0,0:0:0:0:
248,131,272353,1,0,0:0:0:0:
287,119,272418,1,0,0:0:0:0:
330,130,272483,1,0,0:0:0:0:
362,161,272548,1,2,0:0:0:0:
406,168,272614,1,0,0:0:0:0:
446,152,272679,5,0,0:0:0:0:
442,174,272744,1,0,0:0:0:0:
440,197,272809,1,0,0:0:0:0:
437,220,272875,1,0,0:0:0:0:
433,243,272940,1,0,0:0:0:0:
430,265,273005,1,0,0:0:0:0:
427,287,273070,2,0,B|352:272,1,75.0000028610231,10|0,0:0|0:0,0:0:0:0:
228,366,273201,2,0,B|326:385,1,75.0000028610231
286,93,273331,6,0,B|295:125|295:125|285:205,1,75.0000028610231,2|0,0:0|0:0,0:0:0:0:
194,288,273461,2,0,B|185:256|185:256|195:176,1,75.0000028610231,2|0,0:0|0:0,0:0:0:0:
273,110,273592,2,0,B|281:132|281:132|275:160,1,50,4|0,0:0|0:0,0:0:0:0:
208,271,273722,2,0,B|200:249|200:249|206:221,1,50
72,226,273853,5,4,0:0:0:0:
75,211,273918,1,0,0:0:0:0:
78,196,273983,1,0,0:0:0:0:
81,181,274049,1,0,0:0:0:0:
44,153,274114,5,8,0:0:0:0:
41,138,274179,1,0,0:0:0:0:
38,123,274244,1,0,0:0:0:0:
35,108,274310,1,0,0:0:0:0:
75,81,274375,6,0,B|84:43|84:43|72:-11,3,75.0000028610231,4|0|0|0,0:0|0:0|0:0|0:0,0:0:0:0:
186,51,274635,5,4,0:0:0:0:
173,59,274701,1,0,0:0:0:0:
166,72,274766,1,0,0:0:0:0:
164,86,274831,1,0,0:0:0:0:
165,100,274896,1,2,0:0:0:0:
168,114,274961,1,0,0:0:0:0:
176,126,275027,5,0,0:0:0:0:
153,106,275092,1,0,0:0:0:0:
123,99,275157,1,10,0:0:0:0:
93,103,275222,1,0,0:0:0:0:
69,122,275288,1,0,0:0:0:0:
59,150,275353,1,0,0:0:0:0:
59,179,275418,5,0,0:0:0:0:
110,185,275483,1,0,0:0:0:0:
147,221,275548,1,0,0:0:0:0:
158,272,275614,1,0,0:0:0:0:
141,321,275679,1,2,0:0:0:0:
101,355,275744,1,0,0:0:0:0:
48,357,275809,5,0,0:0:0:0:
68,347,275875,1,0,0:0:0:0:
89,341,275940,1,0,0:0:0:0:
111,339,276005,1,0,0:0:0:0:
133,340,276070,1,0,0:0:0:0:
154,345,276135,1,0,0:0:0:0:
174,353,276201,2,0,L|258:345,1,75.0000028610231,10|0,0:0|0:0,0:0:0:0:
147,221,276331,2,0,L|63:213,1,75.0000028610231,2|0,0:0|0:0,0:0:0:0:
337,186,276461,6,0,B|346:221|346:221|342:275,1,75.0000028610231,2|0,0:0|0:0,0:0:0:0:
245,91,276592,2,0,B|236:56|236:56|240:2,1,75.0000028610231
326,199,276722,2,0,B|334:223|334:223|329:252,1,50,2|0,0:0|0:0,0:0:0:0:
258,80,276853,2,0,B|250:56|250:56|255:27,1,50,2|0,0:0|0:0,0:0:0:0:
485,58,276983,5,4,0:0:0:0:
471,39,277048,1,0,0:0:0:0:
451,27,277114,1,0,0:0:0:0:
428,23,277179,1,0,0:0:0:0:
405,24,277244,1,8,0:0:0:0:
384,33,277309,1,0,0:0:0:0:
369,50,277375,1,0,0:0:0:0:
349,60,277440,1,0,0:0:0:0:
326,61,277505,1,4,0:0:0:0:
304,53,277570,1,0,0:0:0:0:
288,36,277635,2,0,L|295:121,1,75.0000028610231
460,295,277766,5,4,0:0:0:0:
417,280,277831,1,8,0:0:0:0:
372,277,277896,1,0,0:0:0:0:
330,293,277961,1,8,0:0:0:0:
308,333,278027,2,0,L|314:247,1,75.0000028610231,2|8,0:0|0:0,0:0:0:0:
384,145,278157,5,0,0:0:0:0:
331,147,278222,1,8,0:0:0:0:
277,150,278288,1,2,0:0:0:0:
224,153,278353,1,8,0:0:0:0:
171,156,278418,2,0,L|81:164,1,75.0000028610231,0|8,0:0|0:0,0:0:0:0:
0,336,278548,5,2,0:0:0:0:
20,279,278614,1,8,0:0:0:0:
75,258,278679,1,0,0:0:0:0:
128,284,278744,1,8,0:0:0:0:
145,342,278809,2,0,L|222:348,1,75.0000028610231,2|8,0:0|0:0,0:0:0:0:
408,358,278940,5,0,0:0:0:0:
412,320,279005,1,8,0:0:0:0:
416,282,279070,1,2,0:0:0:0:
420,244,279135,1,8,0:0:0:0:
424,206,279201,2,0,L|432:115,1,75.0000028610231,0|8,0:0|0:0,0:0:0:0:
293,21,279331,5,2,0:0:0:0:
267,36,279396,1,8,0:0:0:0:
253,62,279461,1,0,0:0:0:0:
252,92,279527,1,8,0:0:0:0:
266,118,279592,2,0,B|228:123|228:123|185:110,1,75.0000028610231,2|8,0:0|0:0,0:0:0:0:
338,180,279722,2,0,B|361:210|361:210|371:254,1,75.0000028610231,0|8,0:0|0:0,0:0:0:0:
358,83,279853,2,0,B|372:47|372:47|405:16,1,75.0000028610231,2|8,0:0|0:0,0:0:0:0:
260,292,279983,5,0,0:0:0:0:
260,292,280048,1,8,0:0:0:0:
260,292,280114,5,2,0:0:0:0:
246,318,280179,1,8,0:0:0:0:
220,334,280244,1,0,0:0:0:0:
190,330,280309,1,8,0:0:0:0:
166,310,280375,2,0,L|83:302,3,75.0000028610231,2|8|0|8,0:0|0:0|0:0|0:0,0:0:0:0:
281,211,280635,2,0,L|363:204,3,75.0000028610231,2|8|0|8,0:0|0:0|0:0|0:0,0:0:0:0:
204,34,280896,5,2,0:0:0:0:
188,34,280961,1,8,0:0:0:0:
174,38,281027,1,0,0:0:0:0:
162,46,281092,1,8,0:0:0:0:
152,56,281157,1,2,0:0:0:0:
144,68,281222,1,8,0:0:0:0:
139,81,281288,1,0,0:0:0:0:
138,96,281353,1,8,0:0:0:0:
140,109,281418,1,2,0:0:0:0:
145,123,281483,1,8,0:0:0:0:
150,137,281548,1,0,0:0:0:0:
152,150,281613,1,8,0:0:0:0:
151,165,281678,1,2,0:0:0:0:
146,178,281744,1,8,0:0:0:0:
138,190,281809,1,0,0:0:0:0:
128,200,281874,1,8,0:0:0:0:
116,208,281939,1,2,0:0:0:0:
102,212,282005,1,8,0:0:0:0:
86,212,282070,1,0,0:0:0:0:
71,208,282135,1,8,0:0:0:0:
47,177,282201,5,2,0:0:0:0:
256,192,282461,12,0,285461,0:0:0:0:
256,192,285527,12,0,286896,0:0:0:0:
256,192,286961,12,0,288983,0:0:0:0:
74,106,289244,5,0,0:0:0:0:
48,124,289309,1,8,0:0:0:0:
35,152,289374,1,0,0:0:0:0:
34,183,289439,1,8,0:0:0:0:
46,211,289504,1,2,0:0:0:0:
70,231,289570,1,8,0:0:0:0:
100,237,289635,2,0,L|105:301,1,62.5,0|8,0:0|0:0,0:0:0:0:
234,384,289765,2,0,L|228:321,3,62.5,2|8|0|8,0:0|0:0|0:0|0:0,0:0:0:0:
372,192,290026,6,0,L|453:192,1,62.5,4|8,0:0|0:0,0:0:0:0:
280,192,290157,2,0,L|199:192,1,62.5,0|8,0:0|0:0,0:0:0:0:
399,160,290287,6,0,P|440:160|489:142,1,87.500000834465,2|8,0:0|0:0,0:0:0:0:
253,160,290418,2,0,P|211:160|163:142,1,87.500000834465,0|8,0:0|0:0,0:0:0:0:
410,117,290548,6,0,B|436:89|436:89|447:6,1,112.500004291535,2|8,0:0|0:0,0:0:0:0:
242,117,290679,2,0,B|216:89|216:89|205:6,1,112.500004291535,0|8,0:0|0:0,0:0:0:0:
326,39,290809,5,2,0:0:0:0:
326,70,290874,1,8,0:0:0:0:
326,101,290939,1,0,0:0:0:0:
326,132,291004,1,8,0:0:0:0:
326,163,291070,1,2,0:0:0:0:
326,194,291135,1,8,0:0:0:0:
326,225,291200,2,0,L|328:338,1,62.5,0|8,0:0|0:0,0:0:0:0:
439,384,291330,2,0,L|437:271,3,62.5,2|8|0|8,0:0|0:0|0:0|0:0,0:0:0:0:
153,225,291591,6,0,P|100:229|70:219,1,62.5,4|8,0:0|0:0,0:0:0:0:
242,318,291722,2,0,P|207:358|179:372,1,62.5,0|8,0:0|0:0,0:0:0:0:
122,207,291852,6,0,P|71:196|34:175,1,87.500000834465,2|8,0:0|0:0,0:0:0:0:
207,327,291983,2,0,P|163:355|122:366,1,87.500000834465,0|8,0:0|0:0,0:0:0:0:
108,171,292113,6,0,B|59:143|59:143|32:88,1,112.500004291535,2|8,0:0|0:0,0:0:0:0:
171,311,292244,2,0,B|116:325|116:325|58:306,1,112.500004291535,0|8,0:0|0:0,0:0:0:0:
243,120,292374,5,2,0:0:0:0:
265,141,292439,1,8,0:0:0:0:
295,148,292504,1,0,0:0:0:0:
326,147,292570,1,8,0:0:0:0:
354,135,292635,1,2,0:0:0:0:
372,109,292700,1,8,0:0:0:0:
377,78,292765,2,0,L|455:84,1,62.5,0|8,0:0|0:0,0:0:0:0:
286,11,292896,2,0,L|207:17,3,62.5,2|8|0|8,0:0|0:0|0:0|0:0,0:0:0:0:
431,211,293157,5,8,0:0:0:0:
369,218,293222,1,8,0:0:0:0:
329,266,293287,1,8,0:0:0:0:
332,328,293352,1,8,0:0:0:0:
378,369,293417,5,0,0:0:0:0:
372,337,293483,1,0,0:0:0:0:
366,306,293548,1,0,0:0:0:0:
360,275,293613,1,0,0:0:0:0:
354,244,293678,2,0,L|256:252,3,62.5
76,270,293939,5,4,0:0:0:0:
72,259,294004,1,0,0:0:0:0:
70,247,294069,1,0,0:0:0:0:
69,236,294134,1,0,0:0:0:0:
69,225,294199,1,0,0:0:0:0:
69,214,294265,1,0,0:0:0:0:
71,202,294330,1,0,0:0:0:0:
74,191,294395,1,0,0:0:0:0:
78,181,294460,1,0,0:0:0:0:
83,170,294525,1,0,0:0:0:0:
90,160,294591,2,0,L|12:166,1,62.5
347,22,294722,6,0,L|428:22,1,62.5,12|0,0:0|0:0,0:0:0:0:
255,22,294853,2,0,L|174:22,1,62.5
374,54,294983,6,0,P|415:54|464:72,1,87.500000834465
228,54,295114,2,0,P|186:54|138:72,1,87.500000834465
385,97,295244,6,0,B|411:125|411:125|422:208,1,112.500004291535
217,97,295375,2,0,B|191:125|191:125|180:208,1,112.500004291535
349,324,295504,5,4,0:0:0:0:
338,327,295569,1,0,0:0:0:0:
326,329,295634,1,0,0:0:0:0:
315,330,295699,1,0,0:0:0:0:
304,330,295764,1,0,0:0:0:0:
293,330,295830,1,0,0:0:0:0:
281,328,295895,1,0,0:0:0:0:
270,325,295960,1,0,0:0:0:0:
260,321,296025,1,0,0:0:0:0:
249,316,296090,1,0,0:0:0:0:
238,308,296157,2,0,L|243:372,1,62.5
174,197,296287,6,0,P|227:193|257:203,1,62.5,12|0,0:0|0:0,0:0:0:0:
85,104,296418,2,0,P|119:63|147:49,1,62.5
205,215,296548,6,0,P|256:226|293:247,1,87.500000834465
120,95,296679,2,0,P|163:66|204:55,1,87.500000834465
219,251,296809,6,0,B|268:279|268:279|295:334,1,112.500004291535
156,111,296940,2,0,B|210:96|210:96|268:115,1,112.500004291535
32,231,297070,5,4,0:0:0:0:
43,234,297135,1,0,0:0:0:0:
55,236,297200,1,0,0:0:0:0:
66,237,297265,1,0,0:0:0:0:
77,237,297330,1,0,0:0:0:0:
88,237,297396,1,0,0:0:0:0:
100,235,297461,1,0,0:0:0:0:
111,232,297526,1,0,0:0:0:0:
121,228,297591,1,0,0:0:0:0:
132,223,297656,1,0,0:0:0:0:
143,215,297723,2,0,L|137:279,1,62.5
271,133,297852,5,8,0:0:0:0:
325,103,297917,1,8,0:0:0:0:
381,131,297983,1,8,0:0:0:0:
388,192,298048,1,8,0:0:0:0:
336,226,298113,5,0,0:0:0:0:
348,224,298178,1,0,0:0:0:0:
360,222,298244,1,0,0:0:0:0:
372,220,298309,1,0,0:0:0:0:
384,218,298374,2,0,L|472:207,3,62.5
478,380,298635,5,4,0:0:0:0:
453,360,298700,1,8,0:0:0:0:
424,348,298765,1,0,0:0:0:0:
392,345,298830,1,8,0:0:0:0:
360,350,298896,1,2,0:0:0:0:
331,362,298961,1,8,0:0:0:0:
309,384,299026,2,0,L|315:308,1,62.5,0|8,0:0|0:0,0:0:0:0:
207,284,299157,2,0,L|213:359,3,62.5,2|8|0|8,0:0|0:0|0:0|0:0,0:0:0:0:
359,100,299417,6,0,L|450:100,1,62.5,2|8,0:0|0:0,0:0:0:0:
349,222,299548,2,0,L|258:222,1,62.5,0|8,0:0|0:0,0:0:0:0:
387,112,299678,6,0,P|437:120|480:156,1,87.500000834465,2|8,0:0|0:0,0:0:0:0:
321,210,299809,2,0,P|271:202|228:166,1,87.500000834465,0|8,0:0|0:0,0:0:0:0:
407,129,299939,6,0,B|451:147|451:147|493:206,1,112.500004291535,2|8,0:0|0:0,0:0:0:0:
301,193,300070,2,0,B|257:175|257:175|215:116,1,112.500004291535,0|8,0:0|0:0,0:0:0:0:
436,45,300200,5,2,0:0:0:0:
411,25,300265,1,8,0:0:0:0:
382,13,300330,1,0,0:0:0:0:
350,11,300396,1,8,0:0:0:0:
320,20,300461,1,2,0:0:0:0:
300,44,300526,1,8,0:0:0:0:
288,73,300591,2,0,L|365:79,1,62.5,0|8,0:0|0:0,0:0:0:0:
185,21,300722,2,0,L|107:27,3,62.5,2|8|0|8,0:0|0:0|0:0|0:0,0:0:0:0:
27,168,300983,6,0,L|27:259,1,62.5,2|8,0:0|0:0,0:0:0:0:
184,198,301113,2,0,L|262:243,1,62.5,0|8,0:0|0:0,0:0:0:0:
39,196,301244,6,0,P|47:246|83:289,1,87.500000834465,2|8,0:0|0:0,0:0:0:0:
214,201,301374,2,0,P|261:219|316:209,1,87.500000834465,0|8,0:0|0:0,0:0:0:0:
56,216,301504,6,0,B|74:260|74:260|133:302,1,112.500004291535,2|8,0:0|0:0,0:0:0:0:
240,196,301635,2,0,B|287:202|287:202|352:172,1,112.500004291535,0|8,0:0|0:0,0:0:0:0:
193,356,301765,5,2,0:0:0:0:
213,332,301830,1,8,0:0:0:0:
241,319,301896,1,0,0:0:0:0:
272,316,301961,1,8,0:0:0:0:
302,320,302026,1,2,0:0:0:0:
330,332,302091,1,8,0:0:0:0:
352,353,302157,2,0,L|358:274,1,62.5,0|8,0:0|0:0,0:0:0:0:
449,193,302287,2,0,L|454:255,3,62.5,2|8|0|8,0:0|0:0|0:0|0:0,0:0:0:0:
475,88,302548,5,8,0:0:0:0:
454,29,302613,1,8,0:0:0:0:
393,13,302678,1,8,0:0:0:0:
347,56,302744,1,8,0:0:0:0:
368,114,302809,5,0,0:0:0:0:
349,109,302874,1,0,0:0:0:0:
330,108,302939,1,0,0:0:0:0:
311,111,303004,1,0,0:0:0:0:
294,119,303070,2,0,L|301:206,3,62.5
177,18,303330,5,4,0:0:0:0:
176,30,303395,1,0,0:0:0:0:
173,42,303460,1,0,0:0:0:0:
167,53,303525,1,0,0:0:0:0:
159,62,303590,1,0,0:0:0:0:
149,70,303656,1,0,0:0:0:0:
137,74,303721,1,0,0:0:0:0:
125,76,303786,1,0,0:0:0:0:
113,74,303851,1,0,0:0:0:0:
101,70,303916,1,0,0:0:0:0:
91,62,303983,2,0,L|85:-5,1,62.5
7,133,304113,6,0,L|19:196,1,62.5,12|0,0:0|0:0,0:0:0:0:
8,360,304244,2,0,L|20:297,1,62.5
35,139,304374,6,0,P|75:178|130:186,1,87.500000834465
36,354,304505,2,0,P|76:315|131:307,1,87.500000834465
59,129,304635,6,0,B|108:147|108:147|176:135,1,112.500004291535
60,364,304766,2,0,B|109:346|109:346|177:358,1,112.500004291535
8,258,304896,5,6,0:0:0:0:
20,257,304961,1,0,0:0:0:0:
31,256,305026,1,0,0:0:0:0:
42,255,305091,1,0,0:0:0:0:
53,254,305156,1,0,0:0:0:0:
64,253,305222,1,0,0:0:0:0:
74,253,305287,2,0,L|169:244,1,62.5
231,314,305417,5,6,0:0:0:0:
238,303,305483,1,0,0:0:0:0:
241,291,305548,1,0,0:0:0:0:
243,278,305613,1,0,0:0:0:0:
243,265,305678,1,8,0:0:0:0:
241,252,305744,1,0,0:0:0:0:
240,239,305809,2,0,P|222:194|198:170,1,62.5
129,86,305939,5,6,0:0:0:0:
135,75,306004,1,0,0:0:0:0:
145,68,306070,1,0,0:0:0:0:
156,64,306135,1,0,0:0:0:0:
168,63,306200,1,0,0:0:0:0:
180,64,306265,1,0,0:0:0:0:
191,69,306330,2,0,L|272:61,1,62.5
364,46,306461,5,6,0:0:0:0:
366,58,306526,1,0,0:0:0:0:
368,70,306591,1,0,0:0:0:0:
370,82,306657,1,0,0:0:0:0:
372,94,306722,1,0,0:0:0:0:
374,106,306787,1,0,0:0:0:0:
376,118,306852,2,0,L|386:189,1,62.5
467,247,306983,5,6,0:0:0:0:
462,258,307048,1,0,0:0:0:0:
454,267,307113,1,0,0:0:0:0:
445,275,307178,1,0,0:0:0:0:
434,282,307244,1,8,0:0:0:0:
423,287,307309,1,0,0:0:0:0:
410,288,307374,2,0,L|416:356,1,62.5
283,314,307504,5,6,0:0:0:0:
264,316,307570,1,0,0:0:0:0:
245,318,307635,1,0,0:0:0:0:
226,320,307700,1,0,0:0:0:0:
207,322,307765,1,0,0:0:0:0:
188,324,307830,1,0,0:0:0:0:
169,326,307896,1,0,0:0:0:0:
150,328,307961,1,0,0:0:0:0:
122,352,308026,5,6,0:0:0:0:
