osu file format v14

[General]
AudioFilename: audio.mp3
AudioLeadIn: 0
PreviewTime: 153350
Countdown: 0
SampleSet: Normal
StackLeniency: 0.4
Mode: 0
LetterboxInBreaks: 0
WidescreenStoryboard: 0

[Editor]
Bookmarks: 15981,38134,45519,57673,60288,75057,89827,104596,115673,137827,173804,180370,212804,229440
DistanceSpacing: 0.2
BeatDivisor: 6
GridSize: 4
TimelineZoom: 3.099999

[Metadata]
Title:Cold Winds
TitleUnicode:Cold Winds
Artist:Irreversible Mechanism
ArtistUnicode:Irreversible Mechanism
Creator:Platnuu
Version:Sub-Zero Annihilation
Source:
Tags:symphonic death metal infinite fields davvy goldenwolf english
BeatmapID:2155550
BeatmapSetID:1030737

[Difficulty]
HPDrainRate:6
CircleSize:4.2
OverallDifficulty:8.5
ApproachRate:9.6
SliderMultiplier:1.89999990463257
SliderTickRate:1

[Events]
//Background and Video events
0,0,"widescreen-scary-widescreen-viewdark-evil-creepy-spooky-horror-backgrounds-backgrounds.jpg",0,0
//Break Periods
//Storyboard Layer 0 (Background)
//Storyboard Layer 1 (Fail)
//Storyboard Layer 2 (Pass)
//Storyboard Layer 3 (Foreground)
//Storyboard Layer 4 (Overlay)
//Storyboard Sound Samples

[TimingPoints]
279,461.538461538462,4,1,2,90,1,0
1202,461.538461538462,4,1,2,90,1,0
14125,-100,4,1,2,90,0,0
15971,-50,4,1,2,90,0,0
30740,-66.6666666666667,4,1,2,85,0,0
35355,-50,4,1,2,85,0,0
38125,-40,4,1,2,90,0,0
40740,-66.6666666666667,4,1,2,90,0,0
41817,-66.6666666666667,4,1,2,90,0,1
42278,-40,4,1,2,90,0,1
42740,-66.6666666666667,4,1,2,90,0,1
44586,-66.6666666666667,4,1,2,90,0,0
45509,-66.6666666666667,4,1,2,85,0,0
51047,-50,4,1,2,85,0,0
52893,-66.6666666666667,4,1,2,85,0,0
57663,-100,4,2,2,90,0,0
57817,-100,4,2,3,90,0,0
57971,-50,4,2,4,90,0,0
58124,-50,4,2,5,90,0,0
58278,-50,4,2,6,90,0,0
58355,-50,4,2,7,90,0,0
58432,-50,4,2,3,90,0,0
58586,-50,4,2,8,90,0,0
58740,-50,4,2,9,90,0,0
58894,-50,4,2,2,90,0,0
59047,-50,4,2,10,90,0,0
59201,-50,4,2,11,90,0,0
59355,-50,4,2,12,90,0,0
59509,-50,4,2,13,90,0,0
59663,-50,4,2,14,90,0,0
59816,-50,4,2,15,90,0,0
59817,-50,4,2,15,90,0,0
59971,-50,4,2,16,90,0,0
60124,-50,4,2,17,90,0,0
60278,-156.25,4,1,2,75,0,0
61663,-66.6666666666667,4,1,2,75,0,0
62124,-156.25,4,1,2,75,0,0
69047,-66.6666666666667,4,1,2,75,0,0
69509,-156.25,4,1,2,75,0,0
75047,-66.6666666666667,4,1,2,85,0,0
75980,458.015267175573,4,1,2,85,1,0
76191,461.538461538462,4,1,2,85,1,0
76442,461.538461538462,4,1,2,85,1,0
76442,-66.6666666666667,4,1,2,85,0,0
76903,461.538461538462,4,1,2,85,1,0
76903,-66.6666666666667,4,1,2,85,0,0
82903,-50,4,1,2,85,0,0
86133,-50,4,1,2,90,0,1
88903,-50,4,1,2,90,0,0
89339,461.538461538462,4,1,2,90,1,0
89339,-50,4,1,2,90,0,0
89711,461.538461538462,4,1,2,90,1,0
89826,461.538461538462,4,1,2,90,1,0
89826,-50,4,1,2,90,0,0
106441,-50,4,1,2,80,0,0
115672,-50,4,1,2,90,0,1
125826,-50,4,1,2,90,0,1
137826,545.454545454546,3,1,2,90,1,0
137826,-100,3,1,2,80,0,0
138644,609.756097560976,3,1,2,80,1,0
138644,-83.3333333333333,3,1,2,80,0,0
139025,-100,3,1,2,80,0,0
139162,609.756097560976,3,1,2,80,1,0
139462,545.454545454546,3,1,2,80,1,0
139462,-100,3,1,2,80,0,0
142426,545.454545454546,3,1,2,80,1,0
142562,-100,3,1,2,80,0,0
142698,545.454545454546,3,1,2,80,1,0
142698,-100,3,1,2,80,0,0
143285,545.454545454546,3,1,2,80,1,0
143285,-100,3,1,2,80,0,0
144370,545.454545454546,3,1,2,80,1,0
144370,-100,3,1,2,80,0,0
153370,-50,3,1,2,80,0,0
154188,-50,3,1,2,90,0,1
173824,-100,3,1,2,90,0,0
180460,-100,3,2,1,90,0,0
183607,609.756097560976,3,2,1,45,1,0
183607,-100,3,2,1,45,0,0
183913,512.820512820513,3,2,1,45,1,0
184425,576.923076923077,3,2,1,45,1,0
184425,-100,3,2,1,45,0,0
185001,571.428571428571,3,2,1,45,1,0
185287,489.795918367347,3,2,1,45,1,0
185531,545.454545454546,3,2,1,45,1,0
185805,524.017467248908,3,2,1,45,1,0
186067,533.333333333333,3,2,1,45,1,0
186588,655.737704918033,3,2,1,45,1,0
186915,530.973451327434,3,2,1,45,1,0
186915,-100,3,2,1,45,0,0
187731,550.45871559633,3,2,1,45,1,0
187731,-100,3,2,1,45,0,0
188556,542.986425339367,3,2,1,45,1,0
188556,-100,3,2,1,45,0,0
189097,485.82995951417,3,2,1,45,1,0
189361,540.540540540541,3,2,1,45,1,0
189877,618.556701030928,3,2,1,45,1,0
190186,533.333333333333,3,2,1,45,1,0
190452,571.428571428571,3,2,1,45,1,0
190737,489.795918367347,3,2,1,45,1,0
190983,550.45871559633,3,2,1,45,1,0
190983,-100,3,2,1,45,0,0
191808,563.380281690141,3,2,1,45,1,0
191808,-100,3,2,1,45,0,0
192645,493.827160493827,3,2,1,45,1,0
192891,515.021459227468,3,2,1,45,1,0
193148,524.017467248908,3,2,1,45,1,0
193410,597.014925373134,3,2,1,45,1,0
193410,-100,3,2,1,45,0,0
193993,550.45871559633,3,2,1,45,1,0
194268,-100,3,2,1,45,0,0
195095,542.986425339367,3,2,1,45,1,0
195095,-100,3,2,1,45,0,0
195909,528.63436123348,3,2,1,45,1,0
195909,-100,3,2,1,45,0,0
196173,579.710144927536,3,2,1,45,1,0
196470,535.714285714286,3,2,1,45,1,0
196740,535.714285714286,3,2,1,45,1,0
196740,-100,3,2,1,45,0,0
197520,582.52427184466,3,2,1,45,1,0
197520,-100,3,2,1,45,0,0
198342,558.139534883721,3,2,1,45,1,0
198342,-100,3,2,1,45,0,0
199179,521.739130434783,3,2,1,45,1,0
199700,585.365853658537,3,2,1,45,1,0
199992,552.995391705069,3,2,1,45,1,0
200268,560.747663551402,3,2,1,45,1,0
200548,560.747663551402,3,2,1,45,1,0
200828,542.986425339367,3,2,1,45,1,0
200828,-100,3,2,1,45,0,0
201366,547.945205479452,3,2,1,45,1,0
201640,530.973451327434,3,2,1,45,1,0
201905,558.139534883721,3,2,1,45,1,0
202184,547.945205479452,3,2,1,45,1,0
202992,566.037735849057,3,2,1,45,1,0
203280,540.540540540541,3,2,1,45,1,0
203280,-100,3,2,1,45,0,0
204071,552.995391705069,3,2,1,45,1,0
204071,-100,3,2,1,45,0,0
204900,519.480519480519,3,2,1,45,1,0
205159,603.015075376884,3,2,1,45,1,0
205461,491.803278688525,3,2,1,45,1,0
205707,502.092050209205,3,2,1,45,1,0
205978,612.244897959184,3,2,1,45,1,0
206264,533.333333333333,3,2,1,45,1,0
206530,540.540540540541,3,2,1,45,1,0
206530,-100,3,2,1,45,0,0
207070,600,3,2,1,45,1,0
207370,545.454545454546,3,2,1,45,1,0
207370,-100,3,2,1,45,0,0
208188,524.017467248908,3,2,1,45,1,0
208188,-100,3,2,1,45,0,0
208450,574.162679425837,3,2,1,45,1,0
208737,535.714285714286,3,2,1,45,1,0
209004,535.714285714286,3,2,1,45,1,0
209004,-100,3,2,1,45,0,0
209518,618.556701030928,3,2,1,45,1,0
209827,528.63436123348,3,2,1,45,1,0
210350,552.995391705069,3,2,1,45,1,0
211455,512.820512820513,3,2,1,45,1,0
211710,550.45871559633,3,2,1,45,1,0
212254,530.973451327434,3,2,1,45,1,0

[Colours]
Combo1 : 199,237,248
Combo2 : 196,203,255
Combo3 : 155,188,221

[HitObjects]
158,177,279,6,0,L|146:131,1,31.6666650772095,8|0,0:0|0:0,0:0:0:0:
66,158,432,2,0,L|79:118,1,31.6666650772095,0|0,0:0|0:0,0:0:0:0:
4,103,586,2,0,L|25:73,1,31.6666650772095,0|0,0:0|0:0,0:0:0:0:
0,281,740,5,8,0:0:0:0:
19,256,817,1,0,0:0:0:0:
46,239,894,1,0,0:0:0:0:
77,235,971,1,0,0:0:0:0:
107,243,1048,1,0,0:0:0:0:
134,258,1125,1,0,0:0:0:0:
151,283,1202,6,0,P|225:343|297:292,1,189.999990463257,4|0,0:0|0:0,0:0:0:0:
385,14,2125,1,8,0:0:0:0:
379,70,2240,1,0,0:0:0:0:
374,126,2355,1,0,0:0:0:0:
229,236,2586,1,0,0:0:0:0:
224,179,2702,1,0,0:0:0:0:
219,122,2817,1,0,0:0:0:0:
488,223,3048,6,0,B|502:292|502:292|484:367,1,142.499992847443,4|0,0:0|0:0,0:0:0:0:
400,356,3509,2,0,L|302:346,1,94.9999952316285,0|0,0:0|0:0,0:0:0:0:
219,122,3971,1,8,0:0:0:0:
313,206,4202,1,0,0:0:0:0:
136,288,4432,1,12,0:0:0:0:
37,95,4663,1,0,0:0:0:0:
37,95,4740,1,0,0:0:0:0:
37,95,4817,1,0,0:0:0:0:
37,95,4894,6,0,B|14:159|14:159|39:251,1,142.499992847443,4|0,0:0|0:0,0:0:0:0:
66,230,5355,1,0,0:0:0:0:
94,268,5471,1,0,0:0:0:0:
136,288,5586,1,0,0:0:0:0:
183,289,5702,1,0,0:0:0:0:
234,347,5817,5,8,0:0:0:0:
271,318,5932,1,0,0:0:0:0:
318,314,6048,1,0,0:0:0:0:
360,334,6163,1,0,0:0:0:0:
432,380,6279,5,0,0:0:0:0:
434,332,6394,1,0,0:0:0:0:
465,284,6509,1,0,0:0:0:0:
461,235,6625,1,0,0:0:0:0:
494,149,6740,6,0,B|475:76|475:76|500:13,1,142.499992847443,4|0,0:0|0:0,0:0:0:0:
416,11,7202,2,0,L|309:2,1,94.9999952316283,0|0,0:0|0:0,0:0:0:0:
195,12,7663,1,8,0:0:0:0:
213,144,7894,1,0,0:0:0:0:
222,200,8009,1,0,0:0:0:0:
230,256,8125,1,4,0:0:0:0:
195,12,8355,1,0,0:0:0:0:
19,15,8586,6,0,B|38:88|38:88|11:159,1,142.499992847443,4|0,0:0|0:0,0:0:0:0:
95,141,9048,1,0,0:0:0:0:
58,235,9279,1,0,0:0:0:0:
148,384,9509,1,8,0:0:0:0:
140,327,9625,1,0,0:0:0:0:
163,275,9740,1,0,0:0:0:0:
272,347,9971,2,0,L|198:338,1,47.4999976158142,0|0,0:0|0:0,0:0:0:0:
140,327,10202,1,0,0:0:0:0:
512,343,10432,6,0,B|439:324|439:324|371:349,1,142.499992847443,4|0,0:0|0:0,0:0:0:0:
353,278,10894,1,0,0:0:0:0:
322,188,11125,1,0,0:0:0:0:
502,75,11355,1,8,0:0:0:0:
471,165,11586,1,0,0:0:0:0:
322,18,11817,1,4,0:0:0:0:
215,70,12048,5,0,0:0:0:0:
215,70,12125,1,0,0:0:0:0:
215,70,12202,1,0,0:0:0:0:
215,70,12279,6,0,B|228:152|228:152|208:214,1,142.499992847443,4|0,0:0|0:0,0:0:0:0:
127,256,12740,2,2,B|144:275|144:275|172:287|172:287|186:301,2,63.333330154419,2|2|2,0:0|0:0|0:0,0:0:0:0:
324,358,13202,1,8,0:0:0:0:
370,369,13317,1,0,0:0:0:0:
414,377,13432,2,0,L|466:388,1,47.4999976158142,0|0,0:0|0:0,0:0:0:0:
329,219,13663,1,0,0:0:0:0:
282,227,13778,1,0,0:0:0:0:
238,235,13894,2,0,L|188:244,1,47.4999976158142,0|0,0:0|0:0,0:0:0:0:
468,187,14125,6,0,B|483:40,1,142.499992847443,4|0,0:0|0:0,0:0:0:0:
411,6,14586,1,0,0:0:0:0:
246,99,14817,2,0,L|241:154,1,47.4999976158143,0|0,0:0|0:0,0:0:0:0:
164,35,15048,2,0,L|160:8,3,23.7499988079071,0|0|0|0,0:0|0:0|0:0|0:0,0:0:0:0:
164,35,15279,1,0,0:0:0:0:
10,14,15509,1,4,0:0:0:0:
11,19,15567,1,0,0:0:0:0:
11,24,15625,1,0,0:0:0:0:
12,29,15682,1,0,0:0:0:0:
13,34,15740,1,0,0:0:0:0:
146,126,15971,6,0,B|122:146|122:146|106:184,2,63.3333333333333,4|0|0,0:0|0:0|0:0,0:0:0:0:
107,256,16202,2,0,B|110:287|110:287|133:320,2,63.3333333333333,0|0|0,0:0|0:0|0:0,0:0:0:0:
24,208,16432,1,0,0:0:0:0:
21,239,16509,1,0,0:0:0:0:
18,270,16586,1,0,0:0:0:0:
15,301,16663,2,0,L|10:371,2,63.3333333333333,0|0|0,0:0|0:0|0:0,0:0:0:0:
107,256,16894,5,8,0:0:0:0:
129,233,16971,1,0,0:0:0:0:
160,230,17048,1,0,0:0:0:0:
187,245,17125,2,0,B|203:273|203:273|207:314,2,63.3333333333333,0|0|0,0:0|0:0|0:0,0:0:0:0:
257,384,17355,2,0,B|291:387|291:387|329:367,2,63.3333333333333,0|0|0,0:0|0:0|0:0,0:0:0:0:
381,266,17586,2,0,B|346:262|346:262|308:282,2,63.3333333333333,8|0|0,0:0|0:0|0:0,0:0:0:0:
474,121,17817,5,4,0:0:0:0:
474,121,17894,1,0,0:0:0:0:
474,121,17971,1,0,0:0:0:0:
465,87,18048,1,0,0:0:0:0:
471,56,18125,1,0,0:0:0:0:
488,29,18202,1,0,0:0:0:0:
511,8,18279,1,0,0:0:0:0:
479,8,18355,1,0,0:0:0:0:
447,10,18432,1,0,0:0:0:0:
416,11,18509,2,0,L|346:16,2,63.3333333333333,8|0|0,0:0|0:0|0:0,0:0:0:0:
270,6,18740,5,0,0:0:0:0:
272,37,18817,1,0,0:0:0:0:
283,66,18894,1,0,0:0:0:0:
305,88,18971,2,0,B|331:103|331:103|363:105,2,63.3333333333333,0|0|0,0:0|0:0|0:0,0:0:0:0:
223,216,19202,5,8,0:0:0:0:
187,219,19279,1,0,0:0:0:0:
154,223,19355,1,0,0:0:0:0:
121,228,19432,5,8,0:0:0:0:
130,177,19509,1,8,0:0:0:0:
139,127,19586,1,8,0:0:0:0:
146,77,19663,6,0,B|152:45|152:45|175:17,2,63.333330154419,4|0|0,0:0|0:0|0:0,0:0:0:0:
242,86,19894,2,0,B|236:118|236:118|213:146,2,63.333330154419,0|0|0,0:0|0:0|0:0,0:0:0:0:
51,52,20125,1,0,0:0:0:0:
49,83,20202,1,0,0:0:0:0:
47,114,20279,1,0,0:0:0:0:
44,145,20355,2,0,L|38:233,2,63.3333333333333,0|0|0,0:0|0:0|0:0,0:0:0:0:
17,318,20586,5,8,0:0:0:0:
48,322,20663,1,0,0:0:0:0:
78,314,20740,1,0,0:0:0:0:
104,297,20817,2,0,B|126:276|126:276|136:238,2,63.3333333333333,0|0|0,0:0|0:0|0:0,0:0:0:0:
148,161,21048,2,0,B|210:152,2,63.3333333333333,0|0|0,0:0|0:0|0:0,0:0:0:0:
268,71,21279,2,0,B|205:80,2,63.3333333333333,0|0|0,0:0|0:0|0:0,0:0:0:0:
389,50,21509,5,4,0:0:0:0:
362,85,21586,1,0,0:0:0:0:
349,127,21663,1,0,0:0:0:0:
354,171,21740,1,0,0:0:0:0:
375,209,21817,2,0,B|398:231|398:231|432:243,1,63.3333333333333,0|0,0:0|0:0,0:0:0:0:
438,143,21971,5,4,0:0:0:0:
475,166,22048,1,0,0:0:0:0:
501,201,22125,1,0,0:0:0:0:
512,244,22202,1,0,0:0:0:0:
505,287,22279,2,0,B|490:316|490:316|462:338,1,63.3333333333333,0|0,0:0|0:0,0:0:0:0:
366,361,22432,5,12,0:0:0:0:
321,365,22509,1,0,0:0:0:0:
276,369,22586,1,0,0:0:0:0:
231,374,22663,1,0,0:0:0:0:
186,378,22740,2,0,L|116:384,1,63.3333333333333,0|0,0:0|0:0,0:0:0:0:
23,346,22894,5,12,0:0:0:0:
16,298,22971,1,8,0:0:0:0:
51,268,23048,1,8,0:0:0:0:
100,274,23125,1,0,0:0:0:0:
107,264,23202,1,0,0:0:0:0:
110,251,23279,1,0,0:0:0:0:
111,236,23355,6,0,B|110:203|110:203|95:172,2,63.333330154419,4|0|0,0:0|0:0|0:0,0:0:0:0:
117,42,23586,2,0,B|117:74|117:74|132:105,2,63.333330154419,0|0|0,0:0|0:0|0:0,0:0:0:0:
209,118,23817,1,0,0:0:0:0:
240,121,23894,1,0,0:0:0:0:
271,119,23971,1,0,0:0:0:0:
301,111,24048,2,0,B|333:99|333:99|361:79,2,63.3333333333333,0|0|0,0:0|0:0|0:0,0:0:0:0:
375,0,24279,5,8,0:0:0:0:
403,13,24355,1,0,0:0:0:0:
425,35,24432,1,0,0:0:0:0:
439,63,24509,2,0,B|443:96|443:96|427:140,2,63.3333333333333,0|0|0,0:0|0:0|0:0,0:0:0:0:
506,194,24740,2,0,B|502:227|502:227|518:271,2,63.3333333333333,0|0|0,0:0|0:0|0:0,0:0:0:0:
422,258,24971,2,0,B|411:229|411:229|415:196,2,63.3333333333333,8|0|0,0:0|0:0|0:0,0:0:0:0:
441,362,25202,5,4,0:0:0:0:
441,362,25279,1,0,0:0:0:0:
441,362,25355,1,0,0:0:0:0:
414,344,25432,1,0,0:0:0:0:
382,341,25509,1,0,0:0:0:0:
351,349,25586,1,0,0:0:0:0:
329,372,25663,1,0,0:0:0:0:
324,340,25740,1,0,0:0:0:0:
321,308,25817,1,0,0:0:0:0:
318,277,25894,2,0,L|311:207,2,63.3333333333333,8|0|0,0:0|0:0|0:0,0:0:0:0:
316,120,26125,5,0,0:0:0:0:
285,127,26202,1,0,0:0:0:0:
258,143,26279,1,0,0:0:0:0:
237,167,26355,2,0,B|224:197|224:197|224:251,2,63.3333333333333,0|0|0,0:0|0:0|0:0,0:0:0:0:
217,359,26586,5,8,0:0:0:0:
181,362,26663,1,0,0:0:0:0:
148,366,26740,1,0,0:0:0:0:
113,368,26817,5,8,0:0:0:0:
122,317,26894,1,8,0:0:0:0:
131,267,26971,1,8,0:0:0:0:
141,211,27048,6,0,B|107:210|107:210|71:195,2,63.333330154419,4|0|0,0:0|0:0|0:0,0:0:0:0:
114,117,27278,2,0,B|143:132|143:132|184:133,2,63.333330154419,0|0|0,0:0|0:0|0:0,0:0:0:0:
22,71,27509,1,0,0:0:0:0:
40,45,27586,1,0,0:0:0:0:
68,32,27663,1,0,0:0:0:0:
99,27,27740,2,0,B|130:30|130:30|162:50,2,63.3333333333333,0|0|0,0:0|0:0|0:0,0:0:0:0:
214,196,27971,5,8,0:0:0:0:
243,181,28048,1,0,0:0:0:0:
261,155,28125,1,0,0:0:0:0:
269,124,28202,6,0,B|288:99|288:99|319:89,2,63.3333333333333,0|0|0,0:0|0:0|0:0,0:0:0:0:
369,167,28432,2,0,B|391:191|391:191|396:226,2,63.3333333333333,0|0|0,0:0|0:0|0:0,0:0:0:0:
319,262,28663,2,0,B|314:293|314:293|290:319,2,63.3333333333333,4|0|0,0:0|0:0|0:0,0:0:0:0:
293,368,28894,5,4,0:0:0:0:
293,317,28971,1,0,0:0:0:0:
270,272,29048,1,0,0:0:0:0:
225,247,29125,1,0,0:0:0:0:
174,255,29202,1,0,0:0:0:0:
133,285,29279,1,0,0:0:0:0:
116,332,29355,5,4,0:0:0:0:
152,295,29432,1,0,0:0:0:0:
167,247,29509,1,0,0:0:0:0:
153,198,29586,1,0,0:0:0:0:
111,167,29663,1,0,0:0:0:0:
61,160,29740,1,0,0:0:0:0:
18,175,29817,5,12,0:0:0:0:
16,207,29894,1,0,0:0:0:0:
24,238,29971,1,0,0:0:0:0:
45,261,30048,1,0,0:0:0:0:
74,274,30125,1,0,0:0:0:0:
105,270,30202,1,0,0:0:0:0:
132,253,30279,5,4,0:0:0:0:
130,285,30355,1,0,0:0:0:0:
138,316,30432,1,0,0:0:0:0:
160,343,30509,1,0,0:0:0:0:
192,358,30586,2,0,B|224:368|224:368|270:358,1,63.3333333333333,0|0,0:0|0:0,0:0:0:0:
327,337,30740,5,4,0:0:0:0:
138,316,30971,1,0,0:0:0:0:
217,174,31202,2,0,L|207:64,2,95.0000036239625,0|0|0,0:0|0:0|0:0,0:0:0:0:
206,48,31663,1,8,0:0:0:0:
381,0,31894,1,0,0:0:0:0:
421,177,32125,2,0,L|410:290,2,95.0000036239625,0|0|0,0:0|0:0|0:0,0:0:0:0:
424,153,32586,5,4,0:0:0:0:
251,203,32817,1,0,0:0:0:0:
217,379,33048,1,0,0:0:0:0:
186,369,33125,1,0,0:0:0:0:
163,346,33202,1,0,0:0:0:0:
149,317,33279,1,0,0:0:0:0:
153,285,33355,1,0,0:0:0:0:
167,256,33432,1,0,0:0:0:0:
197,240,33509,1,8,0:0:0:0:
47,361,33740,1,0,0:0:0:0:
77,194,33971,2,0,L|60:83,1,71.2499991416931,0|0,0:0|0:0,0:0:0:0:
247,75,34202,2,0,L|230:186,1,71.2499991416931,0|0,0:0|0:0,0:0:0:0:
96,0,34432,5,4,0:0:0:0:
247,75,34663,1,0,0:0:0:0:
66,253,34894,2,0,L|79:148,2,95.0000036239625,0|0|0,0:0|0:0|0:0,0:0:0:0:
247,75,35355,2,0,B|308:16|308:16|411:0,1,190,8|0,0:0|0:0,0:0:0:0:
247,245,35817,2,0,B|264:161|264:161|340:91,1,190,0|0,0:0|0:0,0:0:0:0:
382,384,36279,2,0,B|348:305|348:305|370:203,1,190,4|0,0:0|0:0,0:0:0:0:
456,247,36740,5,0,0:0:0:0:
491,117,36971,1,0,0:0:0:0:
277,140,37202,1,8,0:0:0:0:
208,4,37432,1,0,0:0:0:0:
208,4,37509,1,0,0:0:0:0:
208,4,37586,1,0,0:0:0:0:
208,4,37663,5,8,0:0:0:0:
233,47,37740,1,8,0:0:0:0:
218,95,37817,1,8,0:0:0:0:
171,114,37894,1,8,0:0:0:0:
123,96,37971,1,8,0:0:0:0:
105,49,38048,1,8,0:0:0:0:
119,10,38125,5,4,0:0:0:0:
138,42,38202,1,0,0:0:0:0:
153,76,38279,1,0,0:0:0:0:
151,114,38355,1,0,0:0:0:0:
140,150,38432,1,0,0:0:0:0:
116,180,38509,1,0,0:0:0:0:
74,241,38586,6,0,B|81:206|81:206|115:180,1,79.1666666666667,0|0,0:0|0:0,0:0:0:0:
84,112,38740,2,0,B|110:135|110:135|115:178,1,79.1666666666667,0|0,0:0|0:0,0:0:0:0:
187,184,38894,2,0,B|153:195|153:195|114:178,1,79.1666666666667,0|0,0:0|0:0,0:0:0:0:
77,373,39048,5,8,0:0:0:0:
102,345,39125,1,0,0:0:0:0:
134,325,39202,1,0,0:0:0:0:
168,309,39279,1,0,0:0:0:0:
207,303,39355,1,0,0:0:0:0:
244,306,39432,1,0,0:0:0:0:
306,346,39509,6,0,B|271:340|271:340|245:307,1,79.1666666666667,0|0,0:0|0:0,0:0:0:0:
178,340,39663,2,0,B|201:312|201:312|243:306,1,79.1666666666667,0|0,0:0|0:0,0:0:0:0:
247,231,39817,2,0,B|259:265|259:265|244:304,1,79.1666666666667,0|0,0:0|0:0,0:0:0:0:
474,375,39971,5,4,0:0:0:0:
461,349,40048,1,0,0:0:0:0:
457,322,40125,1,0,0:0:0:0:
459,295,40202,1,0,0:0:0:0:
469,270,40279,1,0,0:0:0:0:
483,246,40355,1,0,0:0:0:0:
499,225,40432,1,0,0:0:0:0:
507,200,40509,1,0,0:0:0:0:
506,173,40586,1,0,0:0:0:0:
502,140,40663,1,0,0:0:0:0:
489,113,40740,2,0,P|476:96|431:72,1,47.4999994277954,0|0,0:0|0:0,0:0:0:0:
297,26,40894,6,0,L|256:-1,1,47.4999994277954,8|0,0:0|0:0,0:0:0:0:
396,32,41048,2,0,L|437:9,1,47.4999994277954,0|0,0:0|0:0,0:0:0:0:
343,109,41202,2,0,L|340:157,1,47.5000018119813,0|0,0:0|0:0,0:0:0:0:
125,217,41355,6,8,L|82:192,1,47.5000018119813,8|0,0:0|0:0,0:0:0:0:
171,337,41509,2,0,L|165:387,1,47.5000018119813,8|0,0:0|0:0,0:0:0:0:
257,233,41663,2,0,L|302:210,1,47.5000018119813,8|0,0:0|0:0,0:0:0:0:
28,103,41817,5,4,0:0:0:0:
53,92,41894,1,0,0:0:0:0:
81,87,41971,1,0,0:0:0:0:
109,85,42048,1,0,0:0:0:0:
137,89,42125,1,0,0:0:0:0:
164,97,42202,1,0,0:0:0:0:
209,155,42279,6,0,B|199:120|199:120|164:97,1,79.1666666666667,0|0,0:0|0:0,0:0:0:0:
89,107,42432,2,0,B|123:116|123:116|161:97,1,79.1666666666667,0|0,0:0|0:0,0:0:0:0:
190,27,42586,2,0,B|165:53|165:53|163:100,1,79.1666666666667,0|0,0:0|0:0,0:0:0:0:
101,280,42740,5,8,0:0:0:0:
99,298,42817,1,0,0:0:0:0:
92,316,42894,1,0,0:0:0:0:
80,335,42971,1,0,0:0:0:0:
66,347,43048,1,0,0:0:0:0:
50,354,43125,1,0,0:0:0:0:
37,345,43202,1,0,0:0:0:0:
63,331,43279,1,0,0:0:0:0:
98,333,43355,1,0,0:0:0:0:
127,354,43432,1,0,0:0:0:0:
156,377,43509,1,0,0:0:0:0:
193,384,43586,1,0,0:0:0:0:
229,372,43663,5,4,0:0:0:0:
219,335,43740,1,0,0:0:0:0:
227,297,43817,1,0,0:0:0:0:
256,273,43894,1,0,0:0:0:0:
293,268,43971,1,0,0:0:0:0:
328,279,44048,1,0,0:0:0:0:
345,311,44125,1,0,0:0:0:0:
368,328,44202,1,0,0:0:0:0:
396,332,44279,1,0,0:0:0:0:
423,324,44355,1,0,0:0:0:0:
445,306,44432,1,0,0:0:0:0:
456,280,44509,1,0,0:0:0:0:
459,251,44586,6,0,P|462:204|457:165,1,71.2500027179719,8|8,0:0|0:0,0:0:0:0:
360,53,44817,1,0,0:0:0:0:
438,96,44932,1,0,0:0:0:0:
339,195,45048,6,8,L|334:245,2,35.625001358986,8|8|8,0:0|0:0|0:0,0:0:0:0:
297,120,45279,1,8,0:0:0:0:
421,178,45394,1,8,0:0:0:0:
198,338,45509,6,0,P|151:346|106:332,2,95.0000036239625,4|0|0,0:0|0:0|0:0,0:0:0:0:
106,332,45971,1,0,0:0:0:0:
213,197,46125,1,0,0:0:0:0:
43,169,46279,1,0,0:0:0:0:
303,219,46432,2,0,P|258:200|203:197,2,95.0000036239625,8|0|0,0:0|0:0|0:0,0:0:0:0:
442,75,46894,1,0,0:0:0:0:
455,179,47048,1,0,0:0:0:0:
416,273,47202,1,0,0:0:0:0:
211,276,47355,5,0,0:0:0:0:
256,374,47509,1,0,0:0:0:0:
317,290,47663,1,0,0:0:0:0:
256,374,47817,1,0,0:0:0:0:
291,193,47971,1,0,0:0:0:0:
126,128,48125,1,0,0:0:0:0:
341,0,48279,2,0,L|351:110,2,95.0000036239625,8|0|0,0:0|0:0|0:0,0:0:0:0:
254,369,48740,2,0,B|233:319|233:319|239:270,1,94.9999988555908
291,193,49048,1,0,0:0:0:0:
400,348,49202,6,0,P|458:368|502:352,2,95.0000036239625,4|0|0,0:0|0:0|0:0,0:0:0:0:
400,348,49663,1,0,0:0:0:0:
221,208,49817,1,0,0:0:0:0:
407,142,49971,1,0,0:0:0:0:
221,208,50125,2,0,P|224:161|216:115,2,95.0000036239625,8|0|0,0:0|0:0|0:0,0:0:0:0:
216,115,50586,1,0,0:0:0:0:
107,284,50740,1,0,0:0:0:0:
22,126,50894,1,0,0:0:0:0:
27,360,51048,6,0,P|11:287|14:219,2,126.666666666667,4|0|0,0:0|0:0|0:0,0:0:0:0:
107,284,51509,2,0,P|100:212|120:143,2,126.666666666667,4|0|0,0:0|0:0|0:0,0:0:0:0:
223,132,51971,2,0,P|252:76|259:14,2,126.666666666667,12|0|0,0:0|0:0|0:0,0:0:0:0:
259,14,52432,1,0,0:0:0:0:
352,161,52586,1,0,0:0:0:0:
491,73,52740,1,0,0:0:0:0:
333,329,52894,6,0,B|288:347|288:347|228:329,2,95.0000036239625,4|0|0,0:0|0:0|0:0,0:0:0:0:
333,329,53355,1,0,0:0:0:0:
352,161,53509,1,0,0:0:0:0:
188,222,53663,1,0,0:0:0:0:
178,21,53817,6,0,B|131:10|131:10|71:28,2,95.0000036239625,8|0|0,0:0|0:0|0:0,0:0:0:0:
178,21,54279,1,0,0:0:0:0:
185,123,54432,1,0,0:0:0:0:
188,222,54586,1,0,0:0:0:0:
32,359,54740,6,0,B|79:348|79:348|146:362,1,95.0000036239625,0|0,0:0|0:0,0:0:0:0:
249,375,55048,1,0,0:0:0:0:
348,282,55202,2,0,P|376:323|378:379,2,95.0000036239625,0|0|0,0:0|0:0|0:0,0:0:0:0:
288,20,55663,5,8,0:0:0:0:
285,125,55817,1,0,0:0:0:0:
283,228,55971,1,0,0:0:0:0:
196,269,56125,5,0,0:0:0:0:
187,128,56279,1,0,0:0:0:0:
192,199,56432,1,0,0:0:0:0:
404,35,56586,6,0,B|399:83|399:83|361:136,2,95.0000036239625,4|0|0,0:0|0:0|0:0,0:0:0:0:
404,35,57048,1,0,0:0:0:0:
460,127,57202,1,0,0:0:0:0:
462,224,57355,1,0,0:0:0:0:
302,183,57509,1,8,0:0:0:0:
302,183,57663,5,2,1:2:0:0:
212,200,57817,1,2,1:2:0:0:
244,123,57971,1,2,1:2:0:0:
302,183,58125,1,2,1:2:0:0:
209,319,58279,1,2,1:2:0:0:
209,319,58355,1,2,1:2:0:0:
209,319,58432,5,6,1:2:0:0:
111,281,58586,1,2,1:2:0:0:
26,344,58740,1,2,1:2:0:0:
177,234,58894,5,6,1:2:0:0:
95,209,59048,1,2,1:2:0:0:
30,266,59202,1,2,1:2:0:0:
149,152,59355,5,14,1:2:0:0:
80,137,59509,1,2,1:2:0:0:
31,189,59663,1,2,1:2:0:0:
11,34,59817,6,2,L|1:97,1,63.333330154419,6|0,1:2|1:2,1:2:0:0:
34,30,59971,2,2,L|21:116,1,63.333330154419,2|0,1:2|1:2,1:2:0:0:
58,28,60125,1,2,1:2:0:0:
148,15,60279,6,0,L|196:10,2,40.5333333333333,0|0|0,0:0|0:0|0:0,0:0:0:0:
297,48,60740,6,0,L|291:3,1,40.5333333333333,0|0,0:0|0:0,0:0:0:0:
297,48,61048,1,0,0:0:0:0:
408,0,61202,6,0,L|416:58,2,40.5333333333333,8|0|0,0:0|0:0|0:0,0:0:0:0:
380,114,61663,2,0,P|425:121|476:94,2,95.0000036239625,0|0|0,0:0|0:0|0:0,0:0:0:0:
498,199,62125,5,0,0:0:0:0:
502,225,62279,1,0,0:0:0:0:
507,249,62432,1,0,0:0:0:0:
407,259,62586,5,0,0:0:0:0:
411,285,62740,1,0,0:0:0:0:
416,309,62894,1,0,0:0:0:0:
237,326,63048,5,8,0:0:0:0:
241,352,63202,1,0,0:0:0:0:
246,376,63355,1,0,0:0:0:0:
137,353,63509,5,0,0:0:0:0:
136,326,63663,1,0,0:0:0:0:
134,301,63817,1,0,0:0:0:0:
27,226,63971,5,0,0:0:0:0:
51,196,64125,1,0,0:0:0:0:
91,180,64279,1,0,0:0:0:0:
135,184,64432,2,0,L|185:195,2,40.5333333333333,0|0|0,0:0|0:0|0:0,0:0:0:0:
311,135,64894,5,8,0:0:0:0:
287,105,65048,1,0,0:0:0:0:
247,89,65202,1,0,0:0:0:0:
203,93,65355,2,0,L|153:104,2,40.5333333333333,0|0|0,0:0|0:0|0:0,0:0:0:0:
374,308,65817,6,0,L|379:267,1,40.5333333333333,0|0,0:0|0:0,0:0:0:0:
374,308,66125,1,0,0:0:0:0:
268,297,66279,2,0,L|273:256,1,40.5333333333333,0|0,0:0|0:0,0:0:0:0:
268,297,66586,1,0,0:0:0:0:
124,139,66740,2,0,L|68:146,2,40.5333333333333,8|0|0,0:0|0:0|0:0,0:0:0:0:
41,370,67202,1,0,0:0:0:0:
33,350,67279,1,0,0:0:0:0:
32,329,67355,1,0,0:0:0:0:
39,310,67432,1,0,0:0:0:0:
47,291,67509,1,0,0:0:0:0:
49,270,67586,1,0,0:0:0:0:
43,250,67663,6,0,L|37:205,2,40.5333333333333,0|0|0,0:0|0:0|0:0,0:0:0:0:
49,89,68125,6,0,L|43:129,1,40.5333333333333,0|0,0:0|0:0,0:0:0:0:
49,89,68432,1,0,0:0:0:0:
158,41,68586,6,0,L|152:1,2,40.5333333333333,8|0|0,0:0|0:0|0:0,0:0:0:0:
240,49,69048,2,0,P|281:29|329:38,2,95.0000036239625,0|0|0,0:0|0:0|0:0,0:0:0:0:
291,106,69509,5,0,0:0:0:0:
293,135,69663,1,0,0:0:0:0:
295,165,69817,1,0,0:0:0:0:
400,133,69971,5,0,0:0:0:0:
398,162,70125,1,0,0:0:0:0:
397,192,70279,1,0,0:0:0:0:
251,267,70432,5,8,0:0:0:0:
253,299,70586,1,0,0:0:0:0:
256,329,70740,1,0,0:0:0:0:
385,380,70894,5,0,0:0:0:0:
388,345,71048,1,0,0:0:0:0:
390,310,71202,1,0,0:0:0:0:
502,296,71355,5,0,0:0:0:0:
481,261,71509,1,0,0:0:0:0:
472,221,71663,1,0,0:0:0:0:
476,180,71817,2,0,L|485:131,2,40.5333333333333,0|0|0,0:0|0:0|0:0,0:0:0:0:
512,0,72279,5,8,0:0:0:0:
471,5,72432,1,0,0:0:0:0:
431,12,72586,1,0,0:0:0:0:
391,21,72740,2,0,L|335:29,2,40.5333333333333,0|0|0,0:0|0:0|0:0,0:0:0:0:
241,13,73202,5,0,0:0:0:0:
247,32,73355,1,0,0:0:0:0:
250,51,73509,1,0,0:0:0:0:
246,70,73663,2,0,P|241:97|226:118,2,40.5333333333333,0|0|0,0:0|0:0|0:0,0:0:0:0:
78,0,74125,5,8,0:0:0:0:
80,34,74202,1,8,0:0:0:0:
67,67,74279,1,8,0:0:0:0:
37,85,74355,1,8,0:0:0:0:
56,118,74432,5,0,0:0:0:0:
55,132,74509,1,0,0:0:0:0:
18,161,74586,5,0,0:0:0:0:
21,173,74663,1,0,0:0:0:0:
23,185,74740,1,0,0:0:0:0:
50,215,74817,5,8,0:0:0:0:
63,240,74894,1,8,0:0:0:0:
54,268,74971,1,8,0:0:0:0:
33,291,75048,6,0,P|26:330|57:385,2,95.0000036239625,4|0|0,0:0|0:0|0:0,0:0:0:0:
111,318,75509,1,0,0:0:0:0:
187,239,75663,1,0,0:0:0:0:
187,239,75740,1,0,0:0:0:0:
187,239,75817,1,0,0:0:0:0:
221,344,75981,1,8,0:0:0:0:
221,344,76191,1,8,0:0:0:0:
371,293,76442,5,0,0:0:0:0:
387,194,76595,1,0,0:0:0:0:
387,194,76672,1,0,0:0:0:0:
387,194,76749,1,0,0:0:0:0:
353,79,76903,6,0,B|399:71|399:71|447:92,2,95.0000036239625,0|0|0,0:0|0:0|0:0,0:0:0:0:
268,24,77365,1,0,0:0:0:0:
267,47,77442,1,0,0:0:0:0:
259,68,77518,1,0,0:0:0:0:
243,86,77595,1,0,0:0:0:0:
223,99,77672,1,0,0:0:0:0:
201,108,77749,1,0,0:0:0:0:
158,116,77826,5,8,0:0:0:0:
158,116,78057,1,0,0:0:0:0:
70,9,78288,2,0,L|-16:16,1,71.2500027179719,0|0,0:0|0:0,0:0:0:0:
86,110,78519,2,0,L|172:117,1,71.2500027179719,0|0,0:0|0:0,0:0:0:0:
252,125,78750,6,0,B|245:172|245:172|221:212,2,95.0000036239625,4|0|0,0:0|0:0|0:0,0:0:0:0:
297,238,79211,1,0,0:0:0:0:
250,320,79365,1,0,0:0:0:0:
344,324,79519,1,0,0:0:0:0:
169,158,79673,6,0,B|144:197|144:197|137:245,2,95.0000036239625,8|0|0,0:0|0:0|0:0,0:0:0:0:
164,78,80134,2,0,B|122:99|122:99|92:137,2,95.0000036239625,0|0|0,0:0|0:0|0:0,0:0:0:0:
24,328,80596,6,0,B|12:368|12:368|0:292|0:292|17:212,1,190.000007247925,12|0,0:0|0:0,0:0:0:0:
14,222,81057,1,0,0:0:0:0:
14,222,81288,1,0,0:0:0:0:
42,44,81519,6,0,B|54:4|54:4|66:80|66:80|51:149,1,190.000007247925,8|0,0:0|0:0,0:0:0:0:
23,255,81979,1,8,0:0:0:0:
60,219,82056,1,8,0:0:0:0:
112,219,82133,1,8,0:0:0:0:
146,224,82210,1,0,0:0:0:0:
179,216,82287,1,0,0:0:0:0:
202,194,82364,1,0,0:0:0:0:
219,161,82441,5,4,0:0:0:0:
245,192,82518,1,0,0:0:0:0:
255,228,82595,1,0,0:0:0:0:
253,265,82672,1,0,0:0:0:0:
233,297,82749,1,0,0:0:0:0:
202,320,82826,1,0,0:0:0:0:
168,327,82903,2,0,B|132:333|132:333|97:321,1,63.3333333333333,0|0,0:0|0:0,0:0:0:0:
277,356,83056,2,0,B|248:379|248:379|212:386,1,63.3333333333333,0|0,0:0|0:0,0:0:0:0:
381,326,83210,2,0,B|368:360|368:360|340:384,1,63.3333333333333,0|0,0:0|0:0,0:0:0:0:
440,232,83364,5,8,0:0:0:0:
411,206,83441,1,0,0:0:0:0:
396,170,83518,1,0,0:0:0:0:
393,132,83595,1,0,0:0:0:0:
402,95,83672,1,0,0:0:0:0:
423,63,83749,1,0,0:0:0:0:
451,47,83826,2,0,B|487:41|487:41|522:53,1,63.3333333333333,0|0,0:0|0:0,0:0:0:0:
341,28,83979,2,0,B|369:4|369:4|405:-2,1,63.3333333333333,0|0,0:0|0:0,0:0:0:0:
236,71,84134,2,0,B|248:36|248:36|276:12,1,63.3333333333333,0|0,0:0|0:0,0:0:0:0:
159,135,84287,5,4,0:0:0:0:
165,153,84364,1,0,0:0:0:0:
159,171,84441,1,0,0:0:0:0:
145,183,84518,1,0,0:0:0:0:
126,187,84595,1,0,0:0:0:0:
107,182,84672,1,0,0:0:0:0:
69,173,84749,1,0,0:0:0:0:
85,162,84826,1,0,0:0:0:0:
93,143,84903,1,0,0:0:0:0:
91,125,84979,1,0,0:0:0:0:
82,110,85056,2,0,P|68:81|72:46,1,63.3333333333333,0|0,0:0|0:0,0:0:0:0:
48,243,85210,6,0,B|51:272|51:272|73:297,1,63.3333333333333,8|0,0:0|0:0,0:0:0:0:
113,360,85364,2,0,B|136:342|136:342|147:310,1,63.3333333333333,0|0,0:0|0:0,0:0:0:0:
183,247,85518,2,0,B|156:235|156:235|121:242,1,63.3333333333333,0|0,0:0|0:0,0:0:0:0:
183,351,85672,6,0,B|188:314|188:314|171:285,1,63.3333333333333,8|0,0:0|0:0,0:0:0:0:
19,304,85826,2,0,B|47:327|47:327|76:328,1,63.3333333333333,0|0,0:0|0:0,0:0:0:0:
144,186,85980,2,0,B|108:198|108:198|91:226,1,63.3333333333333,8|8,0:0|0:0,0:0:0:0:
249,206,86133,5,4,0:0:0:0:
272,226,86210,1,0,0:0:0:0:
289,252,86287,1,0,0:0:0:0:
295,282,86364,1,0,0:0:0:0:
289,313,86442,1,0,0:0:0:0:
271,339,86519,1,0,0:0:0:0:
251,364,86596,2,0,B|272:335|272:335|302:322,1,63.3333333333333,0|0,0:0|0:0,0:0:0:0:
324,248,86750,2,0,B|359:251|359:251|385:271,1,63.3333333333333,0|0,0:0|0:0,0:0:0:0:
459,218,86904,2,0,B|473:250|473:250|469:283,1,63.3333333333333,0|0,0:0|0:0,0:0:0:0:
405,131,87057,5,8,0:0:0:0:
378,114,87134,1,0,0:0:0:0:
369,83,87211,1,0,0:0:0:0:
377,52,87288,1,0,0:0:0:0:
401,31,87365,1,0,0:0:0:0:
432,28,87442,1,0,0:0:0:0:
458,45,87519,1,0,0:0:0:0:
429,12,87596,1,0,0:0:0:0:
386,0,87673,1,0,0:0:0:0:
342,6,87750,1,0,0:0:0:0:
311,42,87827,1,0,0:0:0:0:
262,54,87904,1,0,0:0:0:0:
219,33,87980,5,4,0:0:0:0:
236,51,88057,1,0,0:0:0:0:
241,75,88134,1,0,0:0:0:0:
236,99,88211,1,0,0:0:0:0:
223,120,88288,1,0,0:0:0:0:
201,133,88365,1,0,0:0:0:0:
175,133,88442,5,0,0:0:0:0:
185,148,88519,1,0,0:0:0:0:
189,166,88596,1,0,0:0:0:0:
189,185,88673,1,0,0:0:0:0:
182,202,88750,1,0,0:0:0:0:
170,216,88826,1,0,0:0:0:0:
154,226,88903,5,8,0:0:0:0:
32,171,89134,5,0,0:0:0:0:
2,34,89339,1,8,0:0:0:0:
2,34,89396,1,8,0:0:0:0:
2,34,89454,2,8,L|49:48,2,47.5,8|0|0,0:0|0:0|0:0,0:0:0:0:
122,28,89711,1,0,0:0:0:0:
175,133,89826,6,0,P|216:134|249:117,2,63.3333333333333,4|0|0,0:0|0:0|0:0,0:0:0:0:
62,125,90056,2,0,P|21:126|-12:109,2,63.3333333333333,0|0|0,0:0|0:0|0:0,0:0:0:0:
91,228,90287,1,0,0:0:0:0:
86,259,90364,1,0,0:0:0:0:
80,290,90441,1,0,0:0:0:0:
76,321,90518,2,0,L|64:391,2,63.3333333333333,0|0|0,0:0|0:0|0:0,0:0:0:0:
161,306,90749,5,8,0:0:0:0:
182,282,90826,1,0,0:0:0:0:
212,273,90902,1,0,0:0:0:0:
243,278,90979,2,0,B|266:301|266:301|277:346,2,63.3333333333333,0|0|0,0:0|0:0|0:0,0:0:0:0:
333,384,91210,2,0,L|396:378,2,63.3333333333333,0|0|0,0:0|0:0|0:0,0:0:0:0:
482,304,91441,2,0,L|418:309,2,63.3333333333333,8|0|0,0:0|0:0|0:0,0:0:0:0:
333,227,91672,5,4,0:0:0:0:
333,227,91749,1,0,0:0:0:0:
333,227,91826,1,0,0:0:0:0:
351,201,91902,1,0,0:0:0:0:
381,191,91979,1,0,0:0:0:0:
412,194,92056,1,0,0:0:0:0:
438,210,92133,1,0,0:0:0:0:
453,182,92210,1,0,0:0:0:0:
458,150,92287,1,0,0:0:0:0:
456,118,92364,2,0,B|452:87|452:87|435:60,2,63.3333333333333,8|0|0,0:0|0:0|0:0,0:0:0:0:
361,17,92595,5,0,0:0:0:0:
329,17,92672,1,0,0:0:0:0:
297,17,92749,1,0,0:0:0:0:
265,18,92826,2,0,L|201:18,2,63.3333333333333,0|0|0,0:0|0:0|0:0,0:0:0:0:
227,100,93056,1,8,0:0:0:0:
217,116,93133,1,0,0:0:0:0:
213,134,93210,1,0,0:0:0:0:
228,158,93287,5,8,0:0:0:0:
223,194,93364,1,8,0:0:0:0:
216,225,93441,1,8,0:0:0:0:
200,264,93518,6,0,B|169:260|169:260|129:273,2,63.3333333333333,4|0|0,0:0|0:0|0:0,0:0:0:0:
0,313,93749,2,0,B|31:317|31:317|71:304,2,63.3333333333333,0|0|0,0:0|0:0|0:0,0:0:0:0:
49,217,93979,1,0,0:0:0:0:
79,207,94056,1,0,0:0:0:0:
104,188,94133,1,0,0:0:0:0:
119,160,94210,2,0,B|131:129|131:129|126:98,2,63.3333333333333,0|0|0,0:0|0:0|0:0,0:0:0:0:
53,69,94441,5,8,0:0:0:0:
72,43,94518,1,0,0:0:0:0:
99,26,94595,1,0,0:0:0:0:
130,22,94672,2,0,B|162:27|162:27|195:56,2,63.3333333333333,0|0|0,0:0|0:0|0:0,0:0:0:0:
265,22,94902,2,0,L|333:15,2,63.3333333333333,0|0|0,0:0|0:0|0:0,0:0:0:0:
436,74,95133,2,0,L|367:80,2,63.3333333333333,8|0|0,0:0|0:0|0:0,0:0:0:0:
298,145,95364,5,4,0:0:0:0:
257,161,95441,1,0,0:0:0:0:
249,204,95518,1,0,0:0:0:0:
281,234,95595,1,0,0:0:0:0:
324,222,95672,2,0,B|340:195|340:195|330:165,1,63.3333333333333,0|0,0:0|0:0,0:0:0:0:
481,201,95826,5,4,0:0:0:0:
440,185,95903,1,0,0:0:0:0:
432,142,95980,1,0,0:0:0:0:
464,112,96057,1,0,0:0:0:0:
507,124,96134,2,0,B|523:151|523:151|513:181,1,63.3333333333333,0|0,0:0|0:0,0:0:0:0:
364,344,96287,5,12,0:0:0:0:
319,348,96364,1,0,0:0:0:0:
274,353,96441,1,0,0:0:0:0:
229,358,96518,1,0,0:0:0:0:
184,362,96595,2,0,L|116:369,1,63.3333333333333,0|0,0:0|0:0,0:0:0:0:
27,322,96749,5,12,0:0:0:0:
73,303,96826,1,8,0:0:0:0:
88,254,96902,1,8,0:0:0:0:
81,243,96979,1,0,0:0:0:0:
78,230,97056,1,0,0:0:0:0:
79,217,97133,1,0,0:0:0:0:
106,196,97210,6,0,B|116:162|116:162|111:122,2,63.333330154419,4|0|0,0:0|0:0|0:0,0:0:0:0:
164,3,97441,2,0,B|160:30|160:30|170:64,2,63.333330154419
214,133,97672,1,0,0:0:0:0:
222,163,97749,1,0,0:0:0:0:
232,193,97826,1,0,0:0:0:0:
241,222,97902,2,0,L|258:288,2,63.3333333333333,0|0|0,0:0|0:0|0:0,0:0:0:0:
321,180,98133,5,8,0:0:0:0:
337,153,98210,1,0,0:0:0:0:
366,140,98287,1,0,0:0:0:0:
397,136,98364,2,0,B|429:141|429:141|455:169,2,63.3333333333333,0|0|0,0:0|0:0|0:0,0:0:0:0:
512,59,98595,2,0,L|443:65,2,63.3333333333333,0|0|0,0:0|0:0|0:0,0:0:0:0:
341,7,98826,2,0,L|409:0,2,63.3333333333333,8|0|0,0:0|0:0|0:0,0:0:0:0:
221,16,99056,5,4,0:0:0:0:
221,16,99133,1,0,0:0:0:0:
221,16,99210,1,0,0:0:0:0:
194,32,99287,1,0,0:0:0:0:
183,61,99364,1,0,0:0:0:0:
191,91,99441,1,0,0:0:0:0:
211,115,99518,1,0,0:0:0:0:
179,109,99595,1,0,0:0:0:0:
147,103,99672,1,0,0:0:0:0:
115,98,99749,2,0,L|46:85,2,63.3333333333333,8|0|0,0:0|0:0|0:0,0:0:0:0:
0,149,99979,5,0,0:0:0:0:
6,181,100056,1,0,0:0:0:0:
12,213,100133,1,0,0:0:0:0:
17,245,100210,2,0,L|30:314,2,63.3333333333333,0|0|0,0:0|0:0|0:0,0:0:0:0:
120,358,100441,5,8,0:0:0:0:
129,341,100518,1,0,0:0:0:0:
130,322,100595,1,0,0:0:0:0:
123,304,100672,1,8,0:0:0:0:
158,289,100749,1,8,0:0:0:0:
195,286,100826,1,8,0:0:0:0:
231,294,100902,6,0,B|261:306|261:306|302:301,2,63.333330154419,4|0|0,0:0|0:0|0:0,0:0:0:0:
408,209,101133,2,0,B|377:205|377:205|347:217,2,63.333330154419,0|0|0,0:0|0:0|0:0,0:0:0:0:
299,104,101364,1,0,0:0:0:0:
276,125,101441,1,0,0:0:0:0:
245,135,101518,1,0,0:0:0:0:
213,137,101595,2,0,B|181:132|181:132|154:107,2,63.3333333333333,0|0|0,0:0|0:0|0:0,0:0:0:0:
81,114,101826,5,0,0:0:0:0:
86,83,101902,1,0,0:0:0:0:
103,56,101979,1,0,0:0:0:0:
130,40,102056,2,0,B|163:32|163:32|202:46,2,63.3333333333333,0|0|0,0:0|0:0|0:0,0:0:0:0:
213,137,102287,2,0,L|217:218,2,63.3333333333333,0|0|0,0:0|0:0|0:0,0:0:0:0:
147,268,102518,2,0,L|143:187,2,63.3333333333333,0|0|0,0:0|0:0|0:0,0:0:0:0:
2,98,102749,5,4,0:0:0:0:
4,154,102826,1,0,0:0:0:0:
34,202,102903,1,0,0:0:0:0:
89,215,102980,1,0,0:0:0:0:
144,205,103056,1,0,0:0:0:0:
184,164,103133,1,0,0:0:0:0:
190,107,103210,5,4,0:0:0:0:
147,144,103287,1,0,0:0:0:0:
124,196,103364,1,0,0:0:0:0:
141,250,103441,1,0,0:0:0:0:
184,286,103518,1,0,0:0:0:0:
240,291,103595,1,0,0:0:0:0:
286,258,103672,5,8,0:0:0:0:
289,263,103749,1,0,0:0:0:0:
291,268,103826,1,0,0:0:0:0:
292,274,103903,1,0,0:0:0:0:
292,280,103980,1,0,0:0:0:0:
291,286,104056,1,0,0:0:0:0:
334,314,104133,5,0,0:0:0:0:
331,319,104210,1,0,0:0:0:0:
329,324,104287,1,0,0:0:0:0:
328,330,104364,1,0,0:0:0:0:
328,336,104441,1,0,0:0:0:0:
329,342,104517,1,0,0:0:0:0:
293,384,104595,5,4,0:0:0:0:
256,192,104673,12,0,106211,0:0:0:0:
181,213,106441,6,8,P|185:259|213:297,2,95,8|8|8,0:0|0:0|0:0,0:0:0:0:
261,232,106787,1,0,0:0:0:0:
261,232,106845,1,0,0:0:0:0:
261,232,106903,5,0,0:0:0:0:
422,186,107018,1,0,0:0:0:0:
244,151,107133,1,0,0:0:0:0:
378,252,107249,1,0,0:0:0:0:
350,59,107363,5,4,0:0:0:0:
355,30,108057,1,4,0:0:0:0:
360,0,108750,1,4,0:0:0:0:
202,137,109210,5,0,0:0:0:0:
203,149,109287,1,0,0:0:0:0:
205,161,109364,1,0,0:0:0:0:
174,201,109441,5,8,0:0:0:0:
155,226,109518,1,8,0:0:0:0:
123,230,109595,1,8,0:0:0:0:
63,254,109672,5,0,0:0:0:0:
62,266,109749,1,0,0:0:0:0:
60,278,109826,1,0,0:0:0:0:
83,300,109902,5,0,0:0:0:0:
84,312,109979,1,0,0:0:0:0:
86,324,110056,1,0,0:0:0:0:
55,363,110133,1,4,0:0:0:0:
451,352,111979,5,0,0:0:0:0:
379,328,112094,1,0,0:0:0:0:
379,252,112210,1,0,0:0:0:0:
451,229,112325,1,0,0:0:0:0:
495,290,112441,1,0,0:0:0:0:
464,197,112902,5,4,0:0:0:0:
468,181,113596,1,4,0:0:0:0:
474,168,114287,1,4,0:0:0:0:
474,168,114750,1,0,0:0:0:0:
476,155,114826,1,0,0:0:0:0:
479,142,114902,1,0,0:0:0:0:
482,129,114979,5,8,0:0:0:0:
436,135,115056,1,8,0:0:0:0:
395,105,115133,1,8,0:0:0:0:
400,62,115210,1,0,0:0:0:0:
394,50,115287,1,0,0:0:0:0:
389,38,115364,1,0,0:0:0:0:
380,28,115441,2,0,P|345:20|306:43,2,63.3333333333333,0|0|0,0:0|0:0|0:0,0:0:0:0:
195,50,115672,5,12,0:0:0:0:
230,85,115749,1,0,0:0:0:0:
228,135,115826,1,8,0:0:0:0:
195,173,115902,1,0,0:0:0:0:
145,183,115979,1,8,0:0:0:0:
104,152,116056,1,0,0:0:0:0:
99,103,116133,5,8,0:0:0:0:
79,150,116210,1,0,0:0:0:0:
80,200,116287,1,8,0:0:0:0:
95,247,116364,1,0,0:0:0:0:
105,262,116441,1,8,0:0:0:0:
119,274,116518,1,0,0:0:0:0:
136,281,116595,1,8,0:0:0:0:
154,285,116672,1,0,0:0:0:0:
173,285,116749,1,8,0:0:0:0:
191,282,116826,1,0,0:0:0:0:
208,276,116902,1,8,0:0:0:0:
224,267,116979,1,0,0:0:0:0:
239,255,117056,1,8,0:0:0:0:
252,241,117133,1,0,0:0:0:0:
261,224,117210,1,8,0:0:0:0:
267,206,117287,1,0,0:0:0:0:
267,186,117364,1,8,0:0:0:0:
264,167,117441,1,0,0:0:0:0:
254,150,117518,6,0,B|223:133|223:133|182:137,2,63.3333333333333,8|0|8,0:0|0:0|0:0,0:0:0:0:
376,247,117749,2,0,B|405:228|405:228|422:191,2,63.3333333333333,0|8|0,0:0|0:0|0:0,0:0:0:0:
342,172,117979,2,0,B|340:137|340:137|317:103,2,63.3333333333333,8|0|8,0:0|0:0|0:0,0:0:0:0:
337,313,118210,2,0,B|367:329|367:329|408:325,2,63.3333333333333,0|8|0,0:0|0:0|0:0,0:0:0:0:
470,357,118441,5,12,0:0:0:0:
434,329,118518,1,0,0:0:0:0:
414,288,118595,1,8,0:0:0:0:
417,243,118672,1,0,0:0:0:0:
431,201,118749,1,8,0:0:0:0:
463,171,118826,1,0,0:0:0:0:
501,157,118902,1,8,0:0:0:0:
485,114,118979,1,0,0:0:0:0:
467,75,119056,1,8,0:0:0:0:
444,37,119133,5,0,0:0:0:0:
418,40,119210,1,8,0:0:0:0:
394,49,119287,1,0,0:0:0:0:
372,61,119364,1,8,0:0:0:0:
352,77,119441,1,0,0:0:0:0:
338,98,119518,1,8,0:0:0:0:
328,121,119595,1,0,0:0:0:0:
326,146,119672,1,8,0:0:0:0:
325,171,119749,1,0,0:0:0:0:
319,195,119826,1,8,0:0:0:0:
306,216,119902,1,0,0:0:0:0:
286,232,119979,1,8,0:0:0:0:
263,244,120056,1,0,0:0:0:0:
238,250,120133,1,8,0:0:0:0:
212,247,120210,1,0,0:0:0:0:
190,238,120287,6,8,B|156:244|156:244|136:265,2,63.3333333333333,8|0|8,0:0|0:0|0:0,0:0:0:0:
274,350,120518,2,0,B|297:375|297:375|324:384,2,63.3333333333333,0|8|0,0:0|0:0|0:0,0:0:0:0:
200,313,120749,2,0,B|189:346|189:346|196:373,2,63.3333333333333,8|0|8,0:0|0:0|0:0,0:0:0:0:
357,311,120979,2,0,B|390:304|390:304|411:284,2,63.3333333333333,0|8|0,0:0|0:0|0:0,0:0:0:0:
488,195,121210,5,12,0:0:0:0:
512,239,121287,1,0,0:0:0:0:
508,289,121364,1,8,0:0:0:0:
488,335,121441,1,0,0:0:0:0:
444,361,121518,1,8,0:0:0:0:
393,365,121595,1,0,0:0:0:0:
349,334,121672,1,8,0:0:0:0:
364,286,121749,1,0,0:0:0:0:
340,244,121826,1,8,0:0:0:0:
299,224,121902,5,0,0:0:0:0:
294,210,121979,1,8,0:0:0:0:
292,193,122056,1,0,0:0:0:0:
293,176,122133,1,8,0:0:0:0:
298,160,122210,1,0,0:0:0:0:
305,145,122287,1,8,0:0:0:0:
316,131,122364,1,0,0:0:0:0:
328,120,122441,1,8,0:0:0:0:
343,112,122518,1,0,0:0:0:0:
359,106,122595,1,8,0:0:0:0:
375,104,122672,1,0,0:0:0:0:
392,105,122749,1,8,0:0:0:0:
409,109,122826,1,0,0:0:0:0:
424,116,122902,1,8,0:0:0:0:
437,126,122979,1,0,0:0:0:0:
462,133,123056,6,0,B|493:121|493:121|518:88,2,63.3333333333333,8|0|8,0:0|0:0|0:0,0:0:0:0:
361,35,123287,2,0,B|333:13|333:13|292:7,2,63.3333333333333,0|8|0,0:0|0:0|0:0,0:0:0:0:
439,60,123518,2,0,B|444:25|444:25|428:-11,2,63.3333333333333,8|0|8,0:0|0:0|0:0,0:0:0:0:
286,86,123749,2,0,B|252:97|252:97|228:130,2,63.3333333333333,0|8|0,0:0|0:0|0:0,0:0:0:0:
188,192,123979,5,12,0:0:0:0:
151,227,124056,1,0,0:0:0:0:
101,233,124133,1,8,0:0:0:0:
55,212,124210,1,0,0:0:0:0:
27,171,124287,1,8,0:0:0:0:
21,121,124364,1,0,0:0:0:0:
34,73,124441,1,8,0:0:0:0:
85,86,124518,1,0,0:0:0:0:
130,67,124595,1,8,0:0:0:0:
156,18,124672,5,0,0:0:0:0:
184,16,124749,1,8,0:0:0:0:
206,22,124826,1,0,0:0:0:0:
229,33,124902,1,8,0:0:0:0:
247,50,124979,1,0,0:0:0:0:
260,71,125056,1,8,0:0:0:0:
267,95,125133,1,0,0:0:0:0:
263,120,125210,1,8,0:0:0:0:
251,142,125287,1,0,0:0:0:0:
236,162,125364,1,8,0:0:0:0:
215,177,125441,1,0,0:0:0:0:
189,179,125518,1,8,0:0:0:0:
163,175,125595,1,0,0:0:0:0:
144,160,125672,2,0,L|76:169,1,63.333330154419,0|0,0:0|0:0,0:0:0:0:
14,255,125826,5,8,0:0:0:0:
28,296,125902,1,0,0:0:0:0:
61,324,125979,1,0,0:0:0:0:
103,337,126056,1,0,0:0:0:0:
171,326,126133,5,8,0:0:0:0:
215,329,126210,1,0,0:0:0:0:
260,370,126287,5,8,0:0:0:0:
277,365,126364,1,0,0:0:0:0:
295,355,126441,2,0,P|328:334|348:306,3,63.3333333333333,0|0|0|0,0:0|0:0|0:0|0:0,0:0:0:0:
509,225,126749,5,4,0:0:0:0:
505,212,126826,1,0,0:0:0:0:
504,199,126902,1,0,0:0:0:0:
504,186,126979,1,0,0:0:0:0:
507,173,127056,1,0,0:0:0:0:
512,161,127133,1,0,0:0:0:0:
501,126,127210,1,4,0:0:0:0:
506,114,127287,1,0,0:0:0:0:
506,101,127364,1,0,0:0:0:0:
508,59,127441,1,0,0:0:0:0:
498,68,127517,1,0,0:0:0:0:
487,76,127594,1,0,0:0:0:0:
475,83,127672,1,12,0:0:0:0:
462,88,127748,1,0,0:0:0:0:
449,92,127825,1,0,0:0:0:0:
436,94,127902,1,0,0:0:0:0:
422,94,127979,1,0,0:0:0:0:
409,93,128056,1,0,0:0:0:0:
396,90,128133,1,0,0:0:0:0:
383,86,128210,1,0,0:0:0:0:
371,80,128287,1,0,0:0:0:0:
359,72,128364,1,0,0:0:0:0:
349,64,128441,1,0,0:0:0:0:
340,54,128517,1,0,0:0:0:0:
306,13,128595,5,4,0:0:0:0:
307,25,128672,1,0,0:0:0:0:
308,37,128749,1,0,0:0:0:0:
279,54,128826,5,0,0:0:0:0:
278,66,128903,1,0,0:0:0:0:
277,78,128980,1,0,0:0:0:0:
290,109,129056,5,4,0:0:0:0:
291,121,129133,1,0,0:0:0:0:
292,133,129210,1,0,0:0:0:0:
266,154,129287,5,0,0:0:0:0:
265,166,129364,1,0,0:0:0:0:
264,178,129441,1,0,0:0:0:0:
233,215,129518,5,12,0:0:0:0:
208,218,129594,1,0,0:0:0:0:
183,211,129671,1,0,0:0:0:0:
164,194,129748,1,0,0:0:0:0:
152,172,129825,1,0,0:0:0:0:
151,147,129902,1,0,0:0:0:0:
129,121,129979,1,0,0:0:0:0:
131,102,130056,1,0,0:0:0:0:
130,83,130133,1,0,0:0:0:0:
150,56,130210,1,0,0:0:0:0:
138,40,130287,1,0,0:0:0:0:
120,31,130364,1,0,0:0:0:0:
101,27,130441,1,4,0:0:0:0:
82,30,130518,1,0,0:0:0:0:
64,37,130595,1,0,0:0:0:0:
51,51,130672,1,0,0:0:0:0:
42,68,130749,1,0,0:0:0:0:
40,86,130826,1,0,0:0:0:0:
47,103,130902,1,4,0:0:0:0:
58,117,130979,1,0,0:0:0:0:
68,133,131056,1,0,0:0:0:0:
68,152,131133,1,0,0:0:0:0:
63,170,131210,1,0,0:0:0:0:
51,185,131287,1,0,0:0:0:0:
19,206,131364,5,12,0:0:0:0:
19,218,131441,1,0,0:0:0:0:
19,230,131518,1,0,0:0:0:0:
62,246,131595,5,0,0:0:0:0:
62,258,131672,1,0,0:0:0:0:
62,270,131749,1,0,0:0:0:0:
107,306,131826,5,0,0:0:0:0:
107,294,131903,1,0,0:0:0:0:
107,282,131980,1,0,0:0:0:0:
154,338,132056,5,0,0:0:0:0:
154,326,132133,1,0,0:0:0:0:
154,314,132210,1,0,0:0:0:0:
185,365,132287,5,4,0:0:0:0:
191,354,132364,1,0,0:0:0:0:
200,345,132441,1,0,0:0:0:0:
210,338,132518,1,0,0:0:0:0:
221,333,132595,1,0,0:0:0:0:
233,330,132672,1,0,0:0:0:0:
269,330,132749,1,4,0:0:0:0:
274,318,132826,1,0,0:0:0:0:
281,307,132902,1,0,0:0:0:0:
303,285,132979,1,0,0:0:0:0:
315,285,133056,1,0,0:0:0:0:
327,287,133133,1,0,0:0:0:0:
338,292,133210,1,12,0:0:0:0:
348,299,133287,1,0,0:0:0:0:
356,308,133364,1,0,0:0:0:0:
362,318,133441,1,0,0:0:0:0:
365,330,133518,1,0,0:0:0:0:
371,340,133595,1,0,0:0:0:0:
380,348,133672,1,0,0:0:0:0:
390,355,133749,1,0,0:0:0:0:
401,359,133826,1,0,0:0:0:0:
413,361,133902,1,0,0:0:0:0:
425,362,133979,1,0,0:0:0:0:
437,361,134056,1,0,0:0:0:0:
454,334,134133,5,4,0:0:0:0:
451,321,134210,1,0,0:0:0:0:
452,308,134287,1,0,0:0:0:0:
476,291,134364,5,0,0:0:0:0:
479,278,134441,1,0,0:0:0:0:
478,265,134518,1,0,0:0:0:0:
460,236,134595,5,4,0:0:0:0:
457,223,134672,1,0,0:0:0:0:
458,210,134749,1,0,0:0:0:0:
481,181,134826,5,0,0:0:0:0:
484,168,134903,1,0,0:0:0:0:
483,155,134980,1,0,0:0:0:0:
470,125,135056,5,12,0:0:0:0:
445,128,135132,1,0,0:0:0:0:
420,121,135209,1,0,0:0:0:0:
401,104,135286,1,0,0:0:0:0:
389,82,135363,1,0,0:0:0:0:
388,57,135440,1,0,0:0:0:0:
346,76,135518,1,0,0:0:0:0:
335,82,135595,1,0,0:0:0:0:
322,84,135672,1,0,0:0:0:0:
275,79,135749,1,0,0:0:0:0:
282,88,135826,1,0,0:0:0:0:
289,97,135902,1,0,0:0:0:0:
294,108,135979,1,4,0:0:0:0:
297,120,136056,1,0,0:0:0:0:
298,132,136133,1,0,0:0:0:0:
298,144,136210,1,0,0:0:0:0:
296,156,136287,1,0,0:0:0:0:
290,167,136364,1,0,0:0:0:0:
283,177,136441,1,4,0:0:0:0:
278,188,136518,1,0,0:0:0:0:
275,200,136595,1,0,0:0:0:0:
275,212,136672,1,0,0:0:0:0:
276,222,136749,2,0,L|367:232,1,63.333330154419,0|0,0:0|0:0,0:0:0:0:
402,288,136902,5,8,0:0:0:0:
385,314,136979,1,0,0:0:0:0:
357,330,137056,1,0,0:0:0:0:
326,338,137133,1,0,0:0:0:0:
262,316,137210,5,8,0:0:0:0:
229,316,137287,1,0,0:0:0:0:
164,335,137364,5,8,0:0:0:0:
129,334,137441,1,8,0:0:0:0:
102,345,137518,2,0,P|68:359|45:389,3,63.3333333333333,8|0|0|0,0:0|0:0|0:0|0:0,0:0:0:0:
121,137,137826,6,0,B|144:82|144:82|139:-17,1,142.499995651245,4|0,0:0|0:0,0:0:0:0:
121,137,138371,1,8,0:0:0:0:
252,196,138644,6,0,B|228:141|228:141|233:41,1,142.499995651245,0|0,0:0|0:0,0:0:0:0:
255,201,139162,1,8,0:0:0:0:
377,94,139462,2,0,B|412:41|404:-7,1,95,0|0,0:0|0:0,0:0:0:0:
463,161,139871,1,0,0:0:0:0:
463,161,140007,6,0,L|470:229,1,47.5,4|8,0:0|0:0,0:0:0:0:
390,215,140280,2,0,L|397:283,1,47.5,8|8,0:0|0:0,0:0:0:0:
319,263,140552,2,0,L|326:331,1,47.5,0|0,0:0|0:0,0:0:0:0:
247,315,140825,2,0,L|254:383,1,47.5,0|0,0:0|0:0,0:0:0:0:
155,193,141098,6,0,P|126:228|112:279,1,95,4|0,0:0|0:0,0:0:0:0:
78,384,141507,1,0,0:0:0:0:
0,258,141643,2,0,L|34:319,1,47.5,0|0,0:0|0:0,0:0:0:0:
64,203,141916,6,0,B|40:148|40:148|47:52,1,126.666666666667,0|0,0:0|0:0,0:0:0:0:
64,203,142426,1,8,0:0:0:0:
141,102,142562,1,0,0:0:0:0:
258,31,142698,6,0,B|116:13,1,142.5,0|0,0:0|0:0,0:0:0:0:
103,12,143175,1,0,0:0:0:0:
90,11,143285,2,0,P|55:46|50:93,1,95,12|0,0:0|0:0,0:0:0:0:
399,14,143830,1,8,0:0:0:0:
261,126,143966,1,8,0:0:0:0:
356,142,144103,1,0,0:0:0:0:
293,214,144239,1,0,0:0:0:0:
473,220,144370,6,0,B|496:274|496:274|491:374,1,142.499995651245,4|0,0:0|0:0,0:0:0:0:
473,220,144915,1,8,0:0:0:0:
357,242,145188,2,0,B|333:296|333:296|338:396,1,142.499995651245,0|0,0:0|0:0,0:0:0:0:
357,242,145733,1,8,0:0:0:0:
201,213,146006,2,0,B|234:266|230:313,1,95,0|0,0:0|0:0,0:0:0:0:
77,372,146415,1,0,0:0:0:0:
77,372,146551,6,0,L|68:321,1,47.5,4|8,0:0|0:0,0:0:0:0:
88,136,146824,1,8,0:0:0:0:
163,246,146960,1,8,0:0:0:0:
22,287,147097,2,0,L|13:236,1,47.5,0|0,0:0|0:0,0:0:0:0:
88,136,147370,2,0,L|80:183,1,47.5,0|0,0:0|0:0,0:0:0:0:
95,20,147642,6,0,P|116:30|141:31,3,47.5,4|0|0|0,0:0|0:0|0:0|0:0,0:0:0:0:
231,19,148188,1,8,0:0:0:0:
231,19,148324,1,0,0:0:0:0:
141,108,148460,2,0,P|164:106|186:94,3,47.5,4|0|0|0,0:0|0:0|0:0|0:0,0:0:0:0:
231,19,149006,1,8,0:0:0:0:
231,19,149142,1,0,0:0:0:0:
294,177,149279,2,0,L|290:130,3,47.5,4|0|0|0,0:0|0:0|0:0|0:0,0:0:0:0:
231,19,149824,5,8,0:0:0:0:
369,0,149960,1,0,0:0:0:0:
231,19,150097,1,8,0:0:0:0:
369,0,150233,1,0,0:0:0:0:
289,129,150370,1,8,0:0:0:0:
284,138,150438,1,8,0:0:0:0:
282,148,150506,1,8,0:0:0:0:
280,157,150574,1,8,0:0:0:0:
280,168,150642,1,8,0:0:0:0:
423,137,150779,1,0,0:0:0:0:
488,255,150915,6,0,L|482:313,1,47.5,4|0,0:0|0:0,0:0:0:0:
410,368,151188,2,0,L|405:320,1,47.5,0|0,0:0|0:0,0:0:0:0:
346,151,151460,1,0,0:0:0:0:
344,179,151551,1,0,0:0:0:0:
341,207,151642,1,0,0:0:0:0:
338,235,151733,2,0,L|333:286,1,47.5,8|0,0:0|0:0,0:0:0:0:
236,376,152006,2,0,L|242:313|242:313,1,47.5,0|0,0:0|0:0,0:0:0:0:
154,208,152279,1,0,0:0:0:0:
156,237,152369,1,0,0:0:0:0:
159,265,152460,1,0,0:0:0:0:
161,293,152551,5,8,0:0:0:0:
83,362,152688,1,0,0:0:0:0:
156,237,152824,1,0,0:0:0:0:
0,279,152960,1,0,0:0:0:0:
83,150,153097,1,0,0:0:0:0:
40,137,153188,1,0,0:0:0:0:
17,98,153279,1,0,0:0:0:0:
26,58,153370,6,0,B|39:33|72:14|72:14|109:64|194:61,1,190,8|4,0:0|0:0,0:0:0:0:
251,23,153779,1,0,0:0:0:0:
271,100,153915,1,4,0:0:0:0:
334,45,154051,1,0,0:0:0:0:
51,113,154188,5,4,0:0:0:0:
100,193,154324,1,0,0:0:0:0:
54,276,154460,1,0,0:0:0:0:
4,194,154597,1,0,0:0:0:0:
203,384,154733,5,0,0:0:0:0:
200,288,154870,1,0,0:0:0:0:
381,363,155006,5,8,0:0:0:0:
400,271,155142,1,0,0:0:0:0:
473,382,155279,1,0,0:0:0:0:
494,289,155415,1,0,0:0:0:0:
484,98,155551,5,0,0:0:0:0:
466,191,155688,1,0,0:0:0:0:
362,16,155824,5,4,0:0:0:0:
283,68,155960,1,0,0:0:0:0:
187,74,156097,1,0,0:0:0:0:
106,23,156233,1,0,0:0:0:0:
35,220,156370,5,0,0:0:0:0:
44,125,156506,1,0,0:0:0:0:
170,357,156642,5,8,0:0:0:0:
223,277,156779,1,0,0:0:0:0:
169,198,156915,1,0,0:0:0:0:
118,277,157051,1,0,0:0:0:0:
416,191,157188,5,0,0:0:0:0:
322,202,157324,1,0,0:0:0:0:
214,66,157460,5,4,0:0:0:0:
293,13,157597,1,0,0:0:0:0:
377,54,157733,1,0,0:0:0:0:
300,111,157870,1,0,0:0:0:0:
497,250,158006,5,0,0:0:0:0:
508,156,158142,1,0,0:0:0:0:
225,318,158279,5,8,0:0:0:0:
359,298,158415,1,0,0:0:0:0:
302,373,158551,1,0,0:0:0:0:
282,242,158688,1,0,0:0:0:0:
98,361,158824,5,0,0:0:0:0:
92,266,158960,1,0,0:0:0:0:
84,151,159097,6,0,L|79:56,2,95,4|0|0,0:0|0:0|0:0,0:0:0:0:
77,42,159506,1,0,0:0:0:0:
172,96,159642,5,0,0:0:0:0:
201,193,159779,1,0,0:0:0:0:
383,6,159915,5,8,0:0:0:0:
265,26,160051,1,8,0:0:0:0:
337,118,160188,2,0,L|332:215,2,95,0|0|0,0:0|0:0|0:0,0:0:0:0:
338,104,160597,1,0,0:0:0:0:
257,247,160733,6,0,P|287:283|332:298,1,95,4|0,0:0|0:0,0:0:0:0:
412,271,161006,1,0,0:0:0:0:
471,197,161142,1,0,0:0:0:0:
469,101,161279,1,0,0:0:0:0:
415,23,161415,1,0,0:0:0:0:
342,141,161551,6,0,L|388:155,3,47.5,8|0|0|0,0:0|0:0|0:0|0:0,0:0:0:0:
329,136,161824,1,0,0:0:0:0:
319,133,161892,1,0,0:0:0:0:
309,130,161960,1,0,0:0:0:0:
299,128,162029,1,0,0:0:0:0:
289,125,162097,1,0,0:0:0:0:
279,122,162165,1,0,0:0:0:0:
269,120,162233,1,0,0:0:0:0:
259,118,162301,1,0,0:0:0:0:
249,116,162370,6,0,L|176:98,3,47.5,4|0|0|0,0:0|0:0|0:0|0:0,0:0:0:0:
231,43,162642,5,0,0:0:0:0:
217,40,162710,1,0,0:0:0:0:
202,41,162779,1,0,0:0:0:0:
189,47,162847,1,0,0:0:0:0:
177,55,162915,1,0,0:0:0:0:
170,67,162983,1,0,0:0:0:0:
167,81,163051,1,0,0:0:0:0:
168,95,163120,1,0,0:0:0:0:
131,143,163188,5,8,0:0:0:0:
140,127,163256,1,0,0:0:0:0:
157,109,163324,1,0,0:0:0:0:
179,102,163392,1,0,0:0:0:0:
202,104,163460,1,0,0:0:0:0:
224,112,163529,1,0,0:0:0:0:
236,131,163597,1,0,0:0:0:0:
239,154,163665,1,0,0:0:0:0:
226,181,163733,1,0,0:0:0:0:
189,198,163801,1,0,0:0:0:0:
154,223,163870,1,0,0:0:0:0:
139,272,163938,1,0,0:0:0:0:
153,319,164006,6,0,P|178:359|225:375,1,95,4|0,0:0|0:0,0:0:0:0:
308,354,164279,1,0,0:0:0:0:
308,354,164415,1,0,0:0:0:0:
392,324,164551,1,0,0:0:0:0:
392,324,164688,1,0,0:0:0:0:
512,177,164824,6,0,P|487:217|440:233,1,95,12|0,0:0|0:0,0:0:0:0:
352,242,165097,1,0,0:0:0:0:
261,216,165233,1,0,0:0:0:0:
261,216,165369,1,0,0:0:0:0:
352,242,165506,1,0,0:0:0:0:
239,300,165642,6,0,P|184:176|324:158,1,285,4|0,0:0|0:0,0:0:0:0:
352,242,166188,2,0,L|259:215,1,95,4|0,0:0|0:0,0:0:0:0:
63,156,166460,1,8,0:0:0:0:
63,156,166597,1,0,0:0:0:0:
63,156,166733,1,4,0:0:0:0:
232,7,166870,1,8,0:0:0:0:
162,101,167006,1,8,0:0:0:0:
291,111,167142,1,8,0:0:0:0:
182,303,167279,6,0,P|185:271|199:243,2,63.3333333333333,4|0|0,0:0|0:0|0:0,0:0:0:0:
280,268,167551,2,0,P|296:241|321:221,2,63.3333333333333,0|0|0,0:0|0:0|0:0,0:0:0:0:
380,284,167824,2,0,P|409:271|441:269,2,63.3333333333333,0|0|0,0:0|0:0|0:0,0:0:0:0:
279,307,168097,5,12,0:0:0:0:
247,306,168188,1,0,0:0:0:0:
215,304,168279,1,0,0:0:0:0:
183,304,168370,1,0,0:0:0:0:
151,302,168460,1,0,0:0:0:0:
119,301,168551,1,0,0:0:0:0:
87,300,168642,1,0,0:0:0:0:
62,320,168733,1,0,0:0:0:0:
65,351,168824,1,0,0:0:0:0:
93,363,168915,5,4,0:0:0:0:
80,333,169006,1,0,0:0:0:0:
87,300,169097,1,0,0:0:0:0:
91,271,169188,1,0,0:0:0:0:
105,243,169279,1,0,0:0:0:0:
130,223,169370,1,0,0:0:0:0:
159,213,169460,1,0,0:0:0:0:
190,213,169551,1,0,0:0:0:0:
219,223,169642,1,0,0:0:0:0:
243,243,169733,5,12,0:0:0:0:
235,212,169824,1,0,0:0:0:0:
217,185,169915,1,0,0:0:0:0:
190,167,170006,1,0,0:0:0:0:
158,162,170097,1,0,0:0:0:0:
126,166,170188,1,0,0:0:0:0:
98,181,170279,1,0,0:0:0:0:
76,204,170370,1,0,0:0:0:0:
63,232,170460,1,0,0:0:0:0:
59,263,170551,5,4,0:0:0:0:
39,223,170642,1,0,0:0:0:0:
31,179,170733,1,0,0:0:0:0:
45,136,170824,1,0,0:0:0:0:
73,101,170915,1,0,0:0:0:0:
114,85,171006,1,0,0:0:0:0:
158,88,171097,1,0,0:0:0:0:
199,102,171188,1,0,0:0:0:0:
229,134,171279,1,0,0:0:0:0:
240,176,171370,5,12,0:0:0:0:
203,151,171460,1,0,0:0:0:0:
195,107,171551,1,0,0:0:0:0:
212,66,171642,1,0,0:0:0:0:
253,49,171733,1,0,0:0:0:0:
297,53,171824,1,0,0:0:0:0:
331,80,171915,1,0,0:0:0:0:
351,119,172006,1,0,0:0:0:0:
393,133,172097,1,0,0:0:0:0:
432,111,172188,5,4,0:0:0:0:
463,165,172279,1,0,0:0:0:0:
471,227,172370,1,0,0:0:0:0:
446,284,172460,1,0,0:0:0:0:
392,318,172551,1,0,0:0:0:0:
330,332,172642,1,0,0:0:0:0:
271,307,172733,1,0,0:0:0:0:
232,256,172824,1,0,0:0:0:0:
223,193,172915,1,0,0:0:0:0:
257,142,173006,5,12,0:0:0:0:
288,210,173097,1,0,0:0:0:0:
269,283,173188,1,0,0:0:0:0:
212,334,173279,1,0,0:0:0:0:
137,342,173370,1,0,0:0:0:0:
70,307,173460,1,8,0:0:0:0:
43,235,173551,1,0,0:0:0:0:
60,160,173642,1,0,0:0:0:0:
112,104,173733,1,0,0:0:0:0:
188,92,173824,5,4,0:0:0:0:
188,92,174233,1,0,0:0:0:0:
246,15,174506,1,0,0:0:0:0:
313,222,174642,5,8,0:0:0:0:
260,143,174779,1,0,0:0:0:0:
359,139,174915,1,0,0:0:0:0:
409,225,175051,5,0,0:0:0:0:
462,304,175188,1,0,0:0:0:0:
363,308,175324,1,0,0:0:0:0:
456,131,175460,5,4,0:0:0:0:
456,131,175733,1,0,0:0:0:0:
442,45,175869,1,0,0:0:0:0:
442,45,176142,1,0,0:0:0:0:
296,33,176279,5,8,0:0:0:0:
210,73,176415,1,0,0:0:0:0:
125,31,176551,1,0,0:0:0:0:
39,75,176688,5,0,0:0:0:0:
125,115,176824,1,0,0:0:0:0:
210,73,176960,1,0,0:0:0:0:
125,115,177097,6,0,L|122:220,1,95,4|0,0:0|0:0,0:0:0:0:
121,231,177506,1,0,0:0:0:0:
121,231,177779,1,0,0:0:0:0:
47,295,177915,2,0,P|73:315|106:323,1,47.5,8|0,0:0|0:0,0:0:0:0:
176,328,178188,5,0,0:0:0:0:
186,322,178256,1,0,0:0:0:0:
197,319,178324,1,8,0:0:0:0:
208,319,178392,1,0,0:0:0:0:
219,321,178460,1,0,0:0:0:0:
230,325,178529,1,0,0:0:0:0:
240,330,178597,1,0,0:0:0:0:
249,337,178665,1,0,0:0:0:0:
258,343,178733,5,0,0:0:0:0:
247,308,178801,1,0,0:0:0:0:
263,275,178870,1,0,0:0:0:0:
293,256,178938,1,0,0:0:0:0:
326,274,179006,5,0,0:0:0:0:
359,262,179074,1,0,0:0:0:0:
380,233,179142,1,0,0:0:0:0:
387,198,179210,1,0,0:0:0:0:
372,164,179279,5,0,0:0:0:0:
400,143,179347,1,0,0:0:0:0:
435,142,179415,1,0,0:0:0:0:
467,156,179483,1,0,0:0:0:0:
490,129,179551,5,8,0:0:0:0:
476,95,179620,1,0,0:0:0:0:
447,74,179688,1,0,0:0:0:0:
411,70,179756,1,0,0:0:0:0:
354,97,179824,5,0,0:0:0:0:
293,98,179892,1,0,0:0:0:0:
234,90,179960,1,0,0:0:0:0:
178,64,180029,1,0,0:0:0:0:
137,17,180097,5,0,0:0:0:0:
132,88,180165,1,0,0:0:0:0:
126,158,180233,1,0,0:0:0:0:
120,229,180301,1,0,0:0:0:0:
110,309,180370,1,4,0:0:0:0:
256,192,180460,12,0,183370,0:0:0:0:
116,381,183607,5,2,0:0:0:0:
144,342,183913,1,0,0:0:0:0:
164,384,184169,1,0,0:0:0:0:
309,348,184425,5,2,0:0:0:0:
278,284,184713,1,0,0:0:0:0:
236,343,185001,1,0,0:0:0:0:
113,265,185287,5,2,0:0:0:0:
140,208,185531,1,0,0:0:0:0:
178,261,185805,1,0,0:0:0:0:
2,231,186067,5,2,0:0:0:0:
31,166,186333,1,2,0:0:0:0:
81,118,186588,1,2,0:0:0:0:
143,20,186915,5,2,0:0:0:0:
157,49,187180,1,0,0:0:0:0:
176,21,187445,1,0,0:0:0:0:
316,76,187731,5,2,0:0:0:0:
277,133,188006,1,0,0:0:0:0:
249,75,188281,1,0,0:0:0:0:
367,140,188556,5,2,0:0:0:0:
406,221,188827,1,0,0:0:0:0:
460,141,189097,1,0,0:0:0:0:
491,288,189361,5,2,0:0:0:0:
442,340,189631,1,2,0:0:0:0:
375,365,189877,1,2,0:0:0:0:
384,249,190186,5,2,0:0:0:0:
359,208,190452,1,0,0:0:0:0:
338,251,190737,1,0,0:0:0:0:
384,249,190981,5,2,0:0:0:0:
359,208,191258,1,0,0:0:0:0:
338,251,191533,1,0,0:0:0:0:
223,217,191808,5,2,0:0:0:0:
243,175,192089,1,0,0:0:0:0:
269,216,192371,1,0,0:0:0:0:
140,254,192645,5,2,0:0:0:0:
80,292,192891,1,2,0:0:0:0:
38,346,193148,1,2,0:0:0:0:
8,205,193410,6,0,B|6:158|6:158|24:102,1,95,2|0,0:0|0:0,0:0:0:0:
71,31,193993,1,0,0:0:0:0:
214,0,194268,6,0,B|216:47|216:47|198:103,1,95,2|0,0:0|0:0,0:0:0:0:
155,173,194818,2,0,L|101:189,1,31.6666650772095
282,168,195095,6,0,B|280:215|280:215|295:263,1,94.9999952316285,2|0,0:0|0:0,0:0:0:0:
345,342,195637,1,0,0:0:0:0:
488,373,195909,6,0,B|490:326|490:326|472:270,1,95,2|0,0:0|0:0,0:0:0:0:
425,199,196470,1,0,0:0:0:0:
477,26,196740,6,0,L|452:131,2,95,2|0|0,0:0|0:0|0:0,0:0:0:0:
380,67,197520,6,0,L|305:145,2,95,2|0|0,0:0|0:0|0:0,0:0:0:0:
272,53,198342,6,0,L|168:83,2,95,2|0|0,0:0|0:0|0:0,0:0:0:0:
272,53,199179,5,2,0:0:0:0:
282,147,199439,1,2,0:0:0:0:
292,241,199700,1,2,0:0:0:0:
97,178,199992,5,2,0:0:0:0:
107,272,200268,1,0,0:0:0:0:
117,366,200548,1,0,0:0:0:0:
97,178,200828,5,2,0:0:0:0:
95,169,200895,2,0,L|90:77,1,71.25,0|0,0:0|0:0,0:0:0:0:
82,11,201366,1,0,0:0:0:0:
205,33,201639,5,2,0:0:0:0:
229,85,201905,1,0,0:0:0:0:
260,37,202184,1,0,0:0:0:0:
405,19,202457,5,2,0:0:0:0:
450,102,202731,1,2,0:0:0:0:
449,197,202992,1,2,0:0:0:0:
269,307,203280,5,2,0:0:0:0:
188,251,203550,1,0,0:0:0:0:
266,197,203820,1,0,0:0:0:0:
0,303,204071,5,2,0:0:0:0:
5,305,204140,2,0,P|56:313|91:302,1,71.2499964237214,0|0,0:0|0:0,0:0:0:0:
3,199,204623,1,0,0:0:0:0:
186,115,204900,5,2,0:0:0:0:
132,193,205159,1,0,0:0:0:0:
82,112,205460,1,0,0:0:0:0:
137,303,205706,5,2,0:0:0:0:
191,381,205978,1,2,0:0:0:0:
285,379,206264,1,2,0:0:0:0:
446,338,206530,6,0,B|465:292|465:292|465:234,1,95,2|0,0:0|0:0,0:0:0:0:
455,151,207070,1,0,0:0:0:0:
363,18,207370,6,0,B|344:64|344:64|344:122,1,95,2|0,0:0|0:0,0:0:0:0:
354,205,207915,1,0,0:0:0:0:
143,82,208188,6,0,B|97:63|97:63|39:63,1,95,2|0,0:0|0:0,0:0:0:0:
114,171,208737,1,0,0:0:0:0:
204,211,209004,2,0,L|236:320,1,95,0|0,0:0|0:0,0:0:0:0:
203,211,209518,1,0,0:0:0:0:
85,347,209827,5,2,0:0:0:0:
93,365,210091,1,0,0:0:0:0:
99,384,210350,1,0,0:0:0:0:
177,256,210626,5,2,0:0:0:0:
183,294,210902,1,0,0:0:0:0:
191,332,211179,1,0,0:0:0:0:
270,99,211455,5,2,0:0:0:0:
276,175,211710,1,0,0:0:0:0:
278,251,211985,1,0,0:0:0:0:
427,1,212254,5,2,0:0:0:0:
407,108,212519,1,0,0:0:0:0:
394,217,212784,1,0,0:0:0:0:
