osu file format v14

[General]
AudioFilename: audio.mp3
AudioLeadIn: 0
PreviewTime: 153350
Countdown: 0
SampleSet: Soft
StackLeniency: 0.4
Mode: 0
LetterboxInBreaks: 0
WidescreenStoryboard: 1

[Editor]
Bookmarks: 180370
DistanceSpacing: 0.6
BeatDivisor: 6
GridSize: 4
TimelineZoom: 2.7

[Metadata]
Title:Cold Winds
TitleUnicode:Cold Winds
Artist:Irreversible Mechanism
ArtistUnicode:Irreversible Mechanism
Creator:Platnuu
Version:Insane
Source:
Tags:symphonic death metal infinite fields davvy goldenwolf english
BeatmapID:2200110
BeatmapSetID:1030737

[Difficulty]
HPDrainRate:5
CircleSize:4
OverallDifficulty:8
ApproachRate:9
SliderMultiplier:1.3
SliderTickRate:1

[Events]
//Background and Video events
0,0,"widescreen-scary-widescreen-viewdark-evil-creepy-spooky-horror-backgrounds-backgrounds.jpg",0,0
//Break Periods
//Storyboard Layer 0 (Background)
//Storyboard Layer 1 (Fail)
//Storyboard Layer 2 (Pass)
//Storyboard Layer 3 (Foreground)
//Storyboard Layer 4 (Overlay)
//Storyboard Sound Samples

[TimingPoints]
279,461.538461538462,4,1,2,90,1,0
1202,461.538461538462,4,1,2,90,1,0
14125,-100,4,1,2,90,0,0
15971,-50,4,1,2,90,0,0
30740,-66.6666666666667,4,1,2,85,0,0
35355,-50,4,1,2,85,0,0
38124,-40,4,1,2,90,0,0
40740,-66.6666666666667,4,1,2,90,0,0
40893,-50,4,1,2,90,0,0
41817,-66.6666666666667,4,1,2,90,0,1
42278,-40,4,1,2,90,0,1
42740,-66.6666666666667,4,1,2,90,0,1
44586,-66.6666666666667,4,1,2,85,0,0
51047,-50,4,1,2,85,0,0
52893,-66.6666666666667,4,1,2,85,0,0
57663,-100,4,2,2,90,0,0
57817,-100,4,2,3,90,0,0
57971,-50,4,2,4,90,0,0
58124,-50,4,2,5,90,0,0
58278,-50,4,2,6,90,0,0
58355,-50,4,2,7,90,0,0
58432,-50,4,2,3,90,0,0
58586,-50,4,2,8,90,0,0
58740,-50,4,2,9,90,0,0
58894,-50,4,2,2,90,0,0
59047,-50,4,2,10,90,0,0
59201,-50,4,2,11,90,0,0
59355,-50,4,2,12,90,0,0
59509,-50,4,2,13,90,0,0
59663,-50,4,2,14,90,0,0
59816,-50,4,2,15,90,0,0
59817,-50,4,2,15,90,0,0
59971,-50,4,2,16,90,0,0
60124,-50,4,2,17,90,0,0
60278,-156.25,4,1,2,75,0,0
61663,-50,4,1,2,75,0,0
62124,-156.25,4,1,2,75,0,0
69047,-66.6666666666667,4,1,2,75,0,0
69509,-156.25,4,1,2,75,0,0
75047,-66.6666666666667,4,1,2,85,0,0
75980,458.015267175573,4,1,2,85,1,0
76191,461.538461538462,4,1,2,85,1,0
76442,461.538461538462,4,1,2,85,1,0
76442,-66.6666666666667,4,1,2,85,0,0
76903,461.538461538462,4,1,2,85,1,0
76903,-66.6666666666667,4,1,2,85,0,0
82903,-50,4,1,2,85,0,0
86133,-50,4,1,2,90,0,1
88903,-50,4,1,2,90,0,0
89339,461.538461538462,4,1,2,90,1,0
89339,-50,4,1,2,90,0,0
89711,461.538461538462,4,1,2,90,1,0
89826,461.538461538462,4,1,2,90,1,0
89826,-50,4,1,2,85,0,0
115672,-50,4,1,2,90,0,1
125826,-50,4,1,2,90,0,1
137826,545.454545454546,3,1,2,90,1,0
137826,-100,3,1,2,80,0,0
138644,609.756097560976,3,1,2,80,1,0
138644,-83.3333333333333,3,1,2,80,0,0
139025,-100,3,1,2,80,0,0
139162,609.756097560976,3,1,2,80,1,0
139462,545.454545454546,3,1,2,80,1,0
139462,-100,3,1,2,80,0,0
142426,545.454545454546,3,1,2,80,1,0
142562,-100,3,1,2,80,0,0
142698,545.454545454546,3,1,2,80,1,0
142698,-100,3,1,2,80,0,0
143285,545.454545454546,3,1,2,80,1,0
143285,-100,3,1,2,80,0,0
144370,545.454545454546,3,1,2,80,1,0
144370,-100,3,1,2,80,0,0
153370,-50,3,1,2,80,0,0
154188,-50,3,1,2,90,0,1
173824,-100,3,1,2,90,0,0
180460,-100,3,2,0,90,0,0
183607,609.756097560976,3,2,0,45,1,0
183607,-100,3,2,0,45,0,0
183913,512.820512820513,3,2,0,45,1,0
184425,576.923076923077,3,2,0,45,1,0
184425,-100,3,2,0,45,0,0
185001,571.428571428571,3,2,0,45,1,0
185287,489.795918367347,3,2,0,45,1,0
185531,545.454545454546,3,2,0,45,1,0
185805,524.017467248908,3,2,0,45,1,0
186067,533.333333333333,3,2,0,45,1,0
186588,655.737704918033,3,2,0,45,1,0
186915,530.973451327434,3,2,0,45,1,0
186915,-100,3,2,0,45,0,0
187731,550.45871559633,3,2,0,45,1,0
187731,-100,3,2,0,45,0,0
188556,542.986425339367,3,2,0,45,1,0
188556,-100,3,2,0,45,0,0
189097,485.82995951417,3,2,0,45,1,0
189361,540.540540540541,3,2,0,45,1,0
189877,618.556701030928,3,2,0,45,1,0
190186,533.333333333333,3,2,0,45,1,0
190452,571.428571428571,3,2,0,45,1,0
190737,489.795918367347,3,2,0,45,1,0
190983,550.45871559633,3,2,0,45,1,0
190983,-100,3,2,0,45,0,0
191808,563.380281690141,3,2,0,45,1,0
191808,-100,3,2,0,45,0,0
192645,493.827160493827,3,2,0,45,1,0
192891,515.021459227468,3,2,0,45,1,0
193148,524.017467248908,3,2,0,45,1,0
193410,597.014925373134,3,2,0,45,1,0
193410,-100,3,2,0,45,0,0
193993,550.45871559633,3,2,0,45,1,0
194268,-100,3,2,0,45,0,0
195095,542.986425339367,3,2,0,45,1,0
195095,-100,3,2,0,45,0,0
195909,528.63436123348,3,2,0,45,1,0
195909,-100,3,2,0,45,0,0
196173,579.710144927536,3,2,0,45,1,0
196470,535.714285714286,3,2,0,45,1,0
196740,535.714285714286,3,2,0,45,1,0
196740,-100,3,2,0,45,0,0
197520,582.52427184466,3,2,0,45,1,0
197520,-100,3,2,0,45,0,0
198342,558.139534883721,3,2,0,45,1,0
198342,-100,3,2,0,45,0,0
199179,521.739130434783,3,2,0,45,1,0
199700,585.365853658537,3,2,0,45,1,0
199992,552.995391705069,3,2,0,45,1,0
200268,560.747663551402,3,2,0,45,1,0
200548,560.747663551402,3,2,0,45,1,0
200828,542.986425339367,3,2,0,45,1,0
200828,-100,3,2,0,45,0,0
201366,547.945205479452,3,2,0,45,1,0
201640,530.973451327434,3,2,0,45,1,0
201905,558.139534883721,3,2,0,45,1,0
202184,547.945205479452,3,2,0,45,1,0
202992,566.037735849057,3,2,0,45,1,0
203280,540.540540540541,3,2,0,45,1,0
203280,-100,3,2,0,45,0,0
204071,552.995391705069,3,2,0,45,1,0
204071,-100,3,2,0,45,0,0
204900,519.480519480519,3,2,0,45,1,0
205159,603.015075376884,3,2,0,45,1,0
205461,491.803278688525,3,2,0,45,1,0
205707,502.092050209205,3,2,0,45,1,0
205978,612.244897959184,3,2,0,45,1,0
206264,533.333333333333,3,2,0,45,1,0
206530,540.540540540541,3,2,0,45,1,0
206530,-100,3,2,0,45,0,0
207070,600,3,2,0,45,1,0
207370,545.454545454546,3,2,0,45,1,0
207370,-100,3,2,0,45,0,0
208188,524.017467248908,3,2,0,45,1,0
208188,-100,3,2,0,45,0,0
208450,574.162679425837,3,2,0,45,1,0
208737,535.714285714286,3,2,0,45,1,0
209004,535.714285714286,3,2,0,45,1,0
209004,-100,3,2,0,45,0,0
209518,618.556701030928,3,2,0,45,1,0
209827,528.63436123348,3,2,0,45,1,0
210350,552.995391705069,3,2,0,45,1,0
211455,512.820512820513,3,2,0,45,1,0
211710,550.45871559633,3,2,0,45,1,0
212254,530.973451327434,3,2,0,45,1,0

[Colours]
Combo1 : 199,237,248
Combo2 : 196,203,255
Combo3 : 155,188,221

[HitObjects]
501,209,279,5,8,0:0:0:0:
501,209,355,1,0,0:0:0:0:
501,209,432,1,0,0:0:0:0:
501,209,509,1,0,0:0:0:0:
501,209,586,2,0,L|506:241|506:241,1,21.6666666666667,0|0,0:0|0:0,0:0:0:0:
399,320,740,5,8,0:0:0:0:
399,320,817,1,0,0:0:0:0:
399,320,894,1,0,0:0:0:0:
399,320,971,1,0,0:0:0:0:
399,320,1048,2,0,L|394:353|394:353,1,21.6666666666667,0|0,0:0|0:0,0:0:0:0:
341,185,1202,6,0,B|323:139|323:139|330:56,1,130,4|0,0:0|0:0,0:0:0:0:
166,24,2125,1,8,0:0:0:0:
156,54,2240,1,0,0:0:0:0:
156,82,2355,1,0,0:0:0:0:
58,148,2586,1,0,0:0:0:0:
68,178,2702,1,0,0:0:0:0:
68,206,2817,1,0,0:0:0:0:
8,351,3048,6,0,P|58:362|104:354,1,97.5,4|0,0:0|0:0,0:0:0:0:
183,305,3509,2,0,L|181:217,1,65,0|0,0:0|0:0,0:0:0:0:
183,305,3971,1,8,0:0:0:0:
217,384,4202,1,0,0:0:0:0:
311,175,4432,1,12,0:0:0:0:
237,230,4663,1,0,0:0:0:0:
237,230,4740,1,0,0:0:0:0:
237,230,4817,1,0,0:0:0:0:
237,230,4894,6,0,B|219:178|219:178|231:123,1,97.5,4|0,0:0|0:0,0:0:0:0:
268,23,5355,1,0,0:0:0:0:
268,23,5471,1,0,0:0:0:0:
268,23,5586,2,0,L|208:30,1,32.5,0|0,0:0|0:0,0:0:0:0:
388,26,5817,1,8,0:0:0:0:
388,26,5932,1,0,0:0:0:0:
388,26,6048,2,0,L|328:33,1,32.5,0|0,0:0|0:0,0:0:0:0:
502,19,6279,1,0,0:0:0:0:
502,19,6394,1,0,0:0:0:0:
502,19,6509,2,0,L|442:26,1,32.5,0|0,0:0|0:0,0:0:0:0:
487,151,6740,6,0,B|464:192|464:192|473:293,1,130,4|0,0:0|0:0,0:0:0:0:
122,277,7663,1,8,0:0:0:0:
248,381,7894,1,0,0:0:0:0:
248,381,8009,1,0,0:0:0:0:
248,381,8125,1,4,0:0:0:0:
267,280,8355,1,0,0:0:0:0:
142,366,8586,6,0,B|108:383|108:383|23:374,1,97.5,4|0,0:0|0:0,0:0:0:0:
18,369,9048,2,0,P|32:325|35:282,1,65,0|0,0:0|0:0,0:0:0:0:
49,209,9509,1,8,0:0:0:0:
50,177,9625,1,0,0:0:0:0:
42,150,9740,1,0,0:0:0:0:
134,103,9971,1,0,0:0:0:0:
133,71,10086,1,0,0:0:0:0:
141,44,10202,1,0,0:0:0:0:
280,7,10432,6,0,B|273:41|273:41|291:126,1,97.5,4|0,0:0|0:0,0:0:0:0:
296,132,10894,2,0,P|329:115|367:118,1,65,0|0,0:0|0:0,0:0:0:0:
506,132,11355,1,8,0:0:0:0:
426,207,11586,1,0,0:0:0:0:
422,13,11817,1,4,0:0:0:0:
422,13,12048,2,0,L|437:27,2,21.6666666666667,0|0|0,0:0|0:0|0:0,0:0:0:0:
422,13,12279,6,0,B|396:29|396:29|349:37,1,65,4|0,0:0|0:0,0:0:0:0:
155,38,12740,6,0,B|151:59|151:59|164:84,2,43.3333333333333,2|2|2,0:0|0:0|0:0,0:0:0:0:
280,167,13202,1,8,0:0:0:0:
280,167,13317,1,0,0:0:0:0:
280,167,13432,2,0,L|274:225,1,32.5,0|0,0:0|0:0,0:0:0:0:
313,284,13663,1,0,0:0:0:0:
313,284,13779,1,0,0:0:0:0:
313,284,13894,2,0,L|307:342,1,32.5,0|0,0:0|0:0,0:0:0:0:
166,376,14125,6,0,B|179:332|179:332|174:275,2,97.5,4|0|0,0:0|0:0|0:0,0:0:0:0:
73,232,15048,2,0,L|75:261,4,16.25,0|0|0|0|0,0:0|0:0|0:0|0:0|0:0,0:0:0:0:
132,141,15509,2,0,L|133:169,4,16.25,4|0|0|0|0,0:0|0:0|0:0|0:0|0:0,0:0:0:0:
139,33,15971,6,0,B|61:45|61:45|15:25,2,130,4|0|0,0:0|0:0|0:0,0:0:0:0:
261,8,16663,1,0,0:0:0:0:
261,8,16894,2,0,L|232:145,1,130,8|0,0:0|0:0,0:0:0:0:
223,242,17355,1,0,0:0:0:0:
263,246,17432,1,0,0:0:0:0:
300,272,17509,1,0,0:0:0:0:
320,312,17586,2,0,L|330:368,2,43.3333333333333,8|0|0,0:0|0:0|0:0,0:0:0:0:
457,224,17817,6,0,B|431:292|431:292|454:370,2,130,4|0|0,0:0|0:0|0:0,0:0:0:0:
493,124,18509,1,8,0:0:0:0:
493,124,18740,2,0,L|344:99,1,130,0|0,0:0|0:0,0:0:0:0:
274,55,19202,1,8,0:0:0:0:
244,23,19279,1,0,0:0:0:0:
202,14,19355,1,0,0:0:0:0:
163,34,19432,2,0,L|161:96,2,43.3333333333333,8|8|8,0:0|0:0|0:0,0:0:0:0:
147,180,19663,6,0,B|98:199|98:199|25:174,2,130,4|0|0,0:0|0:0|0:0,0:0:0:0:
255,140,20355,1,0,0:0:0:0:
255,140,20586,2,0,L|235:279,1,130,8|0,0:0|0:0,0:0:0:0:
180,346,21048,1,0,0:0:0:0:
158,308,21125,1,0,0:0:0:0:
119,287,21202,1,0,0:0:0:0:
75,288,21279,2,0,L|66:336,2,43.3333333333333,0|0|0,0:0|0:0|0:0,0:0:0:0:
87,188,21509,2,0,P|112:153|153:141,2,86.6666666666667,4|0|0,0:0|0:0|0:0,0:0:0:0:
0,79,21971,2,0,P|16:118|6:159,2,86.6666666666667,4|0|0,0:0|0:0|0:0,0:0:0:0:
136,62,22432,2,0,P|93:56|62:27,2,86.6666666666667,12|0|0,0:0|0:0|0:0,0:0:0:0:
199,126,22894,1,12,0:0:0:0:
233,99,22971,1,8,0:0:0:0:
275,88,23048,1,8,0:0:0:0:
317,93,23125,2,0,L|386:110,2,43.3333333333333,0|0|0,0:0|0:0|0:0,0:0:0:0:
491,72,23355,5,4,0:0:0:0:
491,72,23586,2,0,B|476:124|476:124|485:213,1,130,0|0,0:0|0:0,0:0:0:0:
499,308,24048,1,0,0:0:0:0:
499,308,24279,2,0,L|343:338,1,130,8|0,0:0|0:0,0:0:0:0:
284,348,24740,1,0,0:0:0:0:
241,354,24817,1,0,0:0:0:0:
201,336,24894,1,0,0:0:0:0:
170,304,24971,2,0,L|114:297,2,43.3333333333333,8|0|0,0:0|0:0|0:0,0:0:0:0:
12,221,25202,5,4,0:0:0:0:
12,221,25432,2,0,B|64:206|64:206|153:215,1,130,0|0,0:0|0:0,0:0:0:0:
253,131,25894,5,8,0:0:0:0:
253,131,26125,2,0,B|201:116|201:116|112:125,1,130,0|0,0:0|0:0,0:0:0:0:
44,46,26586,1,8,0:0:0:0:
86,55,26663,1,0,0:0:0:0:
128,45,26740,1,0,0:0:0:0:
161,17,26817,2,0,L|217:10,2,43.3333333333333,8|8|8,0:0|0:0|0:0,0:0:0:0:
331,8,27048,5,4,0:0:0:0:
331,8,27279,2,0,B|315:65|315:65|330:166,1,130,0|0,0:0|0:0,0:0:0:0:
446,204,27740,1,0,0:0:0:0:
329,282,27971,1,8,0:0:0:0:
201,298,28202,6,0,L|191:346,2,43.3333333333333,0|0|0,0:0|0:0|0:0,0:0:0:0:
118,297,28432,2,0,L|81:264,2,43.3333333333333,0|0|0,0:0|0:0|0:0,0:0:0:0:
160,224,28663,2,0,L|206:208,2,43.3333333333333,4|0|0,0:0|0:0|0:0,0:0:0:0:
77,146,28894,5,4,0:0:0:0:
77,146,28971,1,0,0:0:0:0:
77,146,29048,2,0,L|61:93,3,43.3333333333333,0|0|0|0,0:0|0:0|0:0|0:0,0:0:0:0:
171,77,29355,5,4,0:0:0:0:
171,77,29432,1,0,0:0:0:0:
171,77,29509,2,0,L|167:21,3,43.3333333333333,0|0|0|0,0:0|0:0|0:0|0:0,0:0:0:0:
293,113,29817,5,12,0:0:0:0:
293,113,29894,1,0,0:0:0:0:
293,113,29971,2,0,L|296:168,3,43.3333333333333,0|0|0|0,0:0|0:0|0:0|0:0,0:0:0:0:
417,203,30279,5,4,0:0:0:0:
417,203,30355,1,0,0:0:0:0:
417,203,30432,2,0,L|431:256,3,43.3333333333333,0|0|0|0,0:0|0:0|0:0|0:0,0:0:0:0:
478,344,30740,6,0,P|431:366|371:343,1,97.50000371933,4|0,0:0|0:0,0:0:0:0:
302,311,31202,2,0,L|227:315,2,65.0000024795533,0|0|0,0:0|0:0|0:0,0:0:0:0:
328,313,31663,1,8,0:0:0:0:
348,201,31894,1,0,0:0:0:0:
326,88,32125,2,0,L|322:13,2,65.0000024795533,0|0|0,0:0|0:0|0:0,0:0:0:0:
169,15,32586,6,0,P|183:90|177:125,1,97.50000371933,4|0,0:0|0:0,0:0:0:0:
138,206,33048,1,0,0:0:0:0:
129,228,33125,1,0,0:0:0:0:
126,252,33202,1,0,0:0:0:0:
129,276,33279,1,0,0:0:0:0:
139,298,33355,2,0,P|154:318|180:339,1,32.5000012397767,0|0,0:0|0:0,0:0:0:0:
223,250,33509,2,0,L|326:243,1,97.50000371933,8|0,0:0|0:0,0:0:0:0:
436,202,33971,2,0,B|439:180|439:180|425:132,1,48.750001859665,0|0,0:0|0:0,0:0:0:0:
345,118,34202,2,0,B|343:142|343:142|351:176,1,48.750001859665,0|0,0:0|0:0,0:0:0:0:
271,58,34432,6,0,P|230:23|188:21,1,97.50000371933,4|0,0:0|0:0,0:0:0:0:
88,66,34894,2,0,L|24:73,2,65.0000024795533,0|0|0,0:0|0:0|0:0,0:0:0:0:
25,180,35355,2,0,B|5:218|5:218|0:307,1,130,8|0,0:0|0:0,0:0:0:0:
83,242,35817,2,0,B|80:284|80:284|114:367,1,130,0|0,0:0|0:0,0:0:0:0:
163,275,36279,2,0,B|179:314|179:314|244:375,1,130,4|0,0:0|0:0,0:0:0:0:
354,369,36740,1,0,0:0:0:0:
443,293,36971,1,0,0:0:0:0:
279,210,37202,5,8,0:0:0:0:
361,147,37432,1,0,0:0:0:0:
361,147,37509,1,0,0:0:0:0:
361,147,37586,1,0,0:0:0:0:
394,154,37663,1,8,0:0:0:0:
418,183,37740,1,8,0:0:0:0:
425,219,37817,1,8,0:0:0:0:
413,252,37894,2,0,B|400:276|400:276|370:300,2,43.3333333333333,8|8|8,0:0|0:0|0:0,0:0:0:0:
496,123,38125,5,4,0:0:0:0:
484,98,38202,1,0,0:0:0:0:
465,75,38279,2,0,P|433:58|402:52,3,54.1666666666667,0|0|0|0,0:0|0:0|0:0|0:0,0:0:0:0:
265,0,38586,6,0,L|273:66,1,54.1666666666667,0|0,0:0|0:0,0:0:0:0:
279,25,38740,2,0,L|287:91,1,54.1666666666667,0|0,0:0|0:0,0:0:0:0:
297,55,38894,2,0,L|305:121,1,54.1666666666667,0|0,0:0|0:0,0:0:0:0:
301,205,39048,5,8,0:0:0:0:
299,228,39125,1,0,0:0:0:0:
297,251,39202,1,0,0:0:0:0:
296,275,39279,1,0,0:0:0:0:
293,298,39355,2,0,L|288:351,1,54.1666666666667,0|0,0:0|0:0,0:0:0:0:
181,250,39509,6,0,L|173:316,1,54.1666666666667,0|0,0:0|0:0,0:0:0:0:
149,284,39663,2,0,L|141:350,1,54.1666666666667,0|0,0:0|0:0,0:0:0:0:
123,316,39817,2,0,L|115:382,1,54.1666666666667,0|0,0:0|0:0,0:0:0:0:
8,216,39971,5,4,0:0:0:0:
6,197,40048,1,0,0:0:0:0:
5,179,40125,1,0,0:0:0:0:
4,161,40202,1,0,0:0:0:0:
4,142,40279,1,0,0:0:0:0:
2,123,40355,1,0,0:0:0:0:
1,107,40432,2,0,L|0:53,3,54.1666666666667,0|0|0|0,0:0|0:0|0:0|0:0,0:0:0:0:
117,20,40740,2,0,L|125:68,1,32.5000012397767,0|0,0:0|0:0,0:0:0:0:
245,51,40894,6,0,L|234:9,1,43.3333333333333,8|0,0:0|0:0,0:0:0:0:
299,102,41048,2,0,L|340:113,1,43.3333333333333,0|0,0:0|0:0,0:0:0:0:
230,121,41202,2,0,L|198:151,1,43.3333333333333,0|0,0:0|0:0,0:0:0:0:
252,55,41355,6,0,L|244:7,1,43.3333333333333,8|0,0:0|0:0,0:0:0:0:
307,117,41509,2,0,L|352:134,1,43.3333333333333,0|0,0:0|0:0,0:0:0:0:
229,132,41663,2,0,L|191:162,1,43.3333333333333,0|0,0:0|0:0,0:0:0:0:
282,228,41817,5,4,0:0:0:0:
276,254,41894,1,0,0:0:0:0:
262,276,41971,1,0,0:0:0:0:
243,294,42048,1,0,0:0:0:0:
226,308,42125,2,0,L|169:326,1,32.5000012397767,0|0,0:0|0:0,0:0:0:0:
362,293,42279,6,0,L|370:359,1,54.1666666666667,0|0,0:0|0:0,0:0:0:0:
391,315,42432,2,0,L|399:381,1,54.1666666666667,0|0,0:0|0:0,0:0:0:0:
415,330,42586,2,0,L|423:396,1,54.1666666666667,0|0,0:0|0:0,0:0:0:0:
487,202,42740,5,8,0:0:0:0:
474,184,42817,1,0,0:0:0:0:
474,163,42894,1,0,0:0:0:0:
481,143,42971,1,0,0:0:0:0:
492,130,43048,1,0,0:0:0:0:
499,114,43125,1,0,0:0:0:0:
499,97,43202,2,0,P|497:80|489:63,5,32.5000012397767,0|0|0|0|0|0,0:0|0:0|0:0|0:0|0:0|0:0,0:0:0:0:
347,28,43663,5,4,0:0:0:0:
347,28,43740,1,0,0:0:0:0:
347,28,43817,2,0,P|353:48|368:68,3,32.5000012397767,0|0|0|0,0:0|0:0|0:0|0:0,0:0:0:0:
330,160,44125,5,0,0:0:0:0:
330,160,44202,1,0,0:0:0:0:
330,160,44279,2,0,P|324:140|309:120,3,32.5000012397767,0|0|0|0,0:0|0:0|0:0|0:0,0:0:0:0:
189,0,44586,6,0,B|191:32|191:32|181:63,3,48.750001859665,8|8|0|0,0:0|0:0|0:0|0:0,0:0:0:0:
189,149,45048,1,8,0:0:0:0:
189,149,45105,1,8,0:0:0:0:
189,149,45163,1,8,0:0:0:0:
95,106,45278,1,8,0:0:0:0:
11,157,45394,1,8,0:0:0:0:
19,252,45509,6,0,P|30:294|53:319,2,65.0000024795533,4|0|0,0:0|0:0|0:0,0:0:0:0:
67,323,45971,1,0,0:0:0:0:
145,335,46125,1,0,0:0:0:0:
214,300,46279,1,0,0:0:0:0:
269,227,46432,2,0,L|350:218,2,65.0000024795533,8|0|0,0:0|0:0|0:0,0:0:0:0:
250,222,46894,1,0,0:0:0:0:
222,147,47048,1,0,0:0:0:0:
266,81,47202,1,0,0:0:0:0:
354,19,47355,6,0,B|354:56|354:56|365:96,2,65.0000024795533,0|0|0,0:0|0:0|0:0,0:0:0:0:
368,106,47817,1,0,0:0:0:0:
384,181,47971,1,0,0:0:0:0:
396,257,48125,1,0,0:0:0:0:
416,349,48279,2,0,B|378:343|378:343|337:344,2,65.0000024795533,8|0|0,0:0|0:0|0:0,0:0:0:0:
279,384,48740,2,0,B|269:346|269:346|287:246,1,130.000004959107,0|0,0:0|0:0,0:0:0:0:
491,287,49202,6,0,P|490:319|475:347,2,65.0000024795533,4|0|0,0:0|0:0|0:0,0:0:0:0:
487,262,49663,1,0,0:0:0:0:
436,203,49817,1,0,0:0:0:0:
427,126,49971,1,0,0:0:0:0:
448,40,50125,2,0,L|522:46,2,65.0000024795533,8|0|0,0:0|0:0|0:0,0:0:0:0:
425,37,50586,1,0,0:0:0:0:
350,32,50740,1,0,0:0:0:0:
275,27,50894,1,0,0:0:0:0:
153,76,51048,6,0,B|108:93|108:93|70:131,2,86.6666666666667,4|0|0,0:0|0:0|0:0,0:0:0:0:
150,164,51509,2,0,B|116:198|116:198|98:248,2,86.6666666666667,4|0|0,0:0|0:0|0:0,0:0:0:0:
183,246,51971,2,0,B|167:291|167:291|171:344,2,86.6666666666667,12|0|0,0:0|0:0|0:0,0:0:0:0:
250,304,52432,1,0,0:0:0:0:
368,307,52586,1,0,0:0:0:0:
312,212,52740,1,0,0:0:0:0:
167,361,52894,6,0,B|134:369|134:369|94:361,2,65.0000024795533,4|0|0,0:0|0:0|0:0,0:0:0:0:
182,354,53355,1,0,0:0:0:0:
254,320,53509,1,0,0:0:0:0:
328,303,53663,1,0,0:0:0:0:
419,318,53817,2,0,L|414:383,2,65.0000024795533,8|0|0,0:0|0:0|0:0,0:0:0:0:
421,296,54279,1,0,0:0:0:0:
426,224,54432,1,0,0:0:0:0:
430,151,54586,1,0,0:0:0:0:
436,65,54740,6,0,P|433:27|414:-1,2,65.0000024795533,0|0|0,0:0|0:0|0:0,0:0:0:0:
426,93,55202,1,0,0:0:0:0:
357,125,55355,1,0,0:0:0:0:
282,113,55509,1,0,0:0:0:0:
204,66,55663,2,0,B|196:105|196:105|198:143,2,65.0000024795533,8|0|0,0:0|0:0|0:0,0:0:0:0:
131,168,56125,2,0,B|136:207|136:207|134:241,2,65.0000024795533,0|0|0,0:0|0:0|0:0,0:0:0:0:
53,296,56586,6,0,B|86:329|86:329|179:344,1,130.000004959107,4|0,0:0|0:0,0:0:0:0:
254,330,57048,1,0,0:0:0:0:
335,293,57202,2,0,P|345:336|334:370,1,65.0000024795533,0|0,0:0|0:0,0:0:0:0:
383,222,57509,1,8,0:0:0:0:
294,120,57663,5,2,3:2:0:0:
294,120,57817,1,2,3:2:0:0:
294,120,57971,2,0,B|330:131|330:131|378:131,2,86.6666666666667,2|2|2,3:2|3:2|3:2,0:0:0:0:
186,79,58432,6,0,L|175:170,2,86.6666666666667,6|2|2,3:2|3:2|3:2,0:0:0:0:
66,133,58894,2,0,L|77:224,2,86.6666666666667,6|2|2,3:2|3:2|3:2,0:0:0:0:
153,274,59355,2,0,L|142:365,2,86.6666666666667,14|2|2,3:2|3:2|3:2,0:0:0:0:
22,298,59817,2,0,L|33:389,2,86.6666666666667,6|2|2,3:2|3:2|3:2,0:0:0:0:
143,361,60279,6,0,L|181:361,2,27.7333333333333,0|0|0,0:0|0:0|0:0,0:0:0:0:
268,356,60740,2,0,L|295:356,1,27.7333333333333,0|0,0:0|0:0,0:0:0:0:
268,356,61048,1,0,0:0:0:0:
317,263,61202,2,0,L|355:263,2,27.7333333333333,8|0|0,0:0|0:0|0:0,0:0:0:0:
439,306,61663,2,0,P|449:258|439:212,2,86.6666666666667,0|0|0,0:0|0:0|0:0,0:0:0:0:
357,184,62125,6,0,L|319:184,2,27.7333333333333,0|0|0,0:0|0:0|0:0,0:0:0:0:
253,183,62586,2,0,L|225:183,1,27.7333333333333,0|0,0:0|0:0,0:0:0:0:
253,183,62894,1,0,0:0:0:0:
172,90,63048,2,0,L|134:90,2,27.7333333333333,8|0|0,0:0|0:0|0:0,0:0:0:0:
68,91,63509,2,0,L|40:91,1,27.7333333333333,0|0,0:0|0:0,0:0:0:0:
68,91,63817,1,0,0:0:0:0:
138,0,63971,6,0,L|176:0,2,27.7333333333333,0|0|0,0:0|0:0|0:0,0:0:0:0:
277,19,64432,2,0,L|249:19,1,27.7333333333333,0|0,0:0|0:0,0:0:0:0:
277,19,64740,1,0,0:0:0:0:
305,95,64894,2,0,L|343:95,2,27.7333333333333,8|0|0,0:0|0:0|0:0,0:0:0:0:
440,71,65355,2,0,L|412:71,1,27.7333333333333,0|0,0:0|0:0,0:0:0:0:
440,71,65663,1,0,0:0:0:0:
456,187,65817,6,0,L|458:219,1,27.7333333333333,0|0,0:0|0:0,0:0:0:0:
435,292,66125,1,0,0:0:0:0:
375,207,66279,2,0,L|377:239,1,27.7333333333333,0|0,0:0|0:0,0:0:0:0:
354,312,66586,1,0,0:0:0:0:
217,231,66740,2,0,L|219:263,1,27.7333333333333,8|0,0:0|0:0,0:0:0:0:
276,327,67048,1,0,0:0:0:0:
189,381,67202,1,0,0:0:0:0:
175,380,67279,1,0,0:0:0:0:
161,379,67355,1,0,0:0:0:0:
147,378,67432,1,0,0:0:0:0:
133,376,67509,2,0,L|108:375,1,13.8666666666667,0|0,0:0|0:0,0:0:0:0:
18,382,67663,6,0,L|18:344,2,27.7333333333333,0|0|0,0:0|0:0|0:0,0:0:0:0:
19,278,68125,6,0,L|19:240,1,27.7333333333333,0|0,0:0|0:0,0:0:0:0:
19,278,68432,1,0,0:0:0:0:
104,321,68586,2,0,L|104:283,2,27.7333333333333,8|0|0,0:0|0:0|0:0,0:0:0:0:
89,213,69048,2,0,P|143:218|169:243,2,65.0000024795533,0|0|0,0:0|0:0|0:0,0:0:0:0:
188,117,69509,6,0,L|191:78,2,27.7333333333333,0|0|0,0:0|0:0|0:0,0:0:0:0:
272,93,69971,2,0,L|275:54,2,27.7333333333333,0|0|0,0:0|0:0|0:0,0:0:0:0:
358,67,70432,2,0,L|361:28,2,27.7333333333333,8|0|0,0:0|0:0|0:0,0:0:0:0:
404,135,70894,2,0,L|401:174,2,27.7333333333333,0|0|0,0:0|0:0|0:0,0:0:0:0:
452,248,71355,5,0,0:0:0:0:
452,248,71509,1,0,0:0:0:0:
452,248,71663,1,0,0:0:0:0:
452,248,71817,2,0,L|456:288,2,27.7333333333333,0|0|0,0:0|0:0|0:0,0:0:0:0:
378,300,72279,5,8,0:0:0:0:
378,300,72432,1,0,0:0:0:0:
378,300,72586,1,0,0:0:0:0:
378,300,72740,2,0,L|381:336,2,27.7333333333333,0|0|0,0:0|0:0|0:0,0:0:0:0:
288,347,73202,5,0,0:0:0:0:
288,347,73355,1,0,0:0:0:0:
288,347,73509,1,0,0:0:0:0:
288,347,73663,2,0,L|291:383,2,27.7333333333333,0|0|0,0:0|0:0|0:0,0:0:0:0:
193,379,74125,5,8,0:0:0:0:
185,367,74202,1,8,0:0:0:0:
174,357,74279,1,8,0:0:0:0:
161,350,74355,1,8,0:0:0:0:
146,344,74432,2,0,L|120:341,1,13.8666666666667,0|0,0:0|0:0,0:0:0:0:
51,349,74586,2,0,P|41:351|30:359,5,13.8666666666667,0|0|0|8|8|8,0:0|0:0|0:0|0:0|0:0|0:0,0:0:0:0:
0,384,75048,6,0,B|25:349|25:349|38:253,1,130.000004959107,4|0,0:0|0:0,0:0:0:0:
47,162,75509,2,0,P|57:122|73:99,2,65.0000024795533,0|0|0,0:0|0:0|0:0,0:0:0:0:
129,42,75980,1,8,0:0:0:0:
165,215,76191,1,8,0:0:0:0:
265,213,76442,2,0,P|255:173|239:150,2,65.0000024795533,0|0|0,0:0|0:0|0:0,0:0:0:0:
215,384,76903,6,0,B|254:370|254:370|353:386,1,130.000004959107,0|0,0:0|0:0,0:0:0:0:
492,303,77365,1,0,0:0:0:0:
492,303,77442,1,0,0:0:0:0:
492,303,77518,2,0,L|498:253,3,32.5000012397767,0|0|0|0,0:0|0:0|0:0|0:0,0:0:0:0:
506,161,77826,1,8,0:0:0:0:
389,219,78057,1,0,0:0:0:0:
397,100,78288,2,0,L|400:32,1,48.750001859665,0|0,0:0|0:0,0:0:0:0:
301,0,78519,2,0,L|298:68,1,48.750001859665,0|0,0:0|0:0,0:0:0:0:
288,180,78750,6,0,B|240:187|240:187|135:151,1,130.000004959107,4|0,0:0|0:0,0:0:0:0:
88,84,79211,2,0,P|61:117|51:161,2,65.0000024795533,0|0|0,0:0|0:0|0:0,0:0:0:0:
28,260,79673,2,0,B|41:302|41:302|95:354,1,97.50000371933,8|0,0:0|0:0,0:0:0:0:
116,260,80134,2,0,B|148:289|148:289|221:307,1,97.50000371933,0|0,0:0|0:0,0:0:0:0:
232,219,80596,2,0,B|274:228|274:228|346:207,1,97.50000371933,12|0,0:0|0:0,0:0:0:0:
415,185,81057,1,0,0:0:0:0:
512,199,81288,1,0,0:0:0:0:
441,343,81519,5,8,0:0:0:0:
332,371,81750,1,0,0:0:0:0:
332,371,81826,1,0,0:0:0:0:
332,371,81903,1,0,0:0:0:0:
332,371,81980,1,8,0:0:0:0:
332,371,82057,2,0,L|381:375,4,32.5000012397767,8|8|0|0|0,0:0|0:0|0:0|0:0|0:0,0:0:0:0:
198,377,82442,5,4,0:0:0:0:
176,375,82519,1,0,0:0:0:0:
155,373,82596,1,0,0:0:0:0:
133,371,82673,1,0,0:0:0:0:
111,368,82750,2,0,L|78:365,1,32.5000012397767,0|0,0:0|0:0,0:0:0:0:
85,262,82903,6,0,L|128:253,1,43.3333333333333,0|0,0:0|0:0,0:0:0:0:
71,186,83057,2,0,L|42:155,1,43.3333333333333,0|0,0:0|0:0,0:0:0:0:
12,235,83211,2,0,L|0:277,1,43.3333333333333,0|0,0:0|0:0,0:0:0:0:
151,145,83365,5,8,0:0:0:0:
158,127,83442,1,0,0:0:0:0:
171,112,83519,1,0,0:0:0:0:
187,103,83596,1,0,0:0:0:0:
205,96,83673,2,0,P|229:87|248:89,1,43.3333333333333,0|0,0:0|0:0,0:0:0:0:
359,95,83826,6,0,L|324:120,1,43.3333333333333,0|0,0:0|0:0,0:0:0:0:
403,161,83980,2,0,L|443:180,1,43.3333333333333,0|0,0:0|0:0,0:0:0:0:
438,89,84134,2,0,L|435:46,1,43.3333333333333,0|0,0:0|0:0,0:0:0:0:
370,238,84288,1,4,0:0:0:0:
384,250,84365,1,0,0:0:0:0:
395,265,84442,1,0,0:0:0:0:
402,285,84519,1,0,0:0:0:0:
405,306,84596,1,0,0:0:0:0:
402,327,84673,1,0,0:0:0:0:
394,342,84750,2,0,P|369:378|349:394,3,43.3333333333333,0|0|0|0,0:0|0:0|0:0|0:0,0:0:0:0:
227,269,85057,2,0,P|257:263|291:270,1,43.3333333333333,0|0,0:0|0:0,0:0:0:0:
102,245,85211,6,0,L|113:203,1,43.3333333333333,8|0,0:0|0:0,0:0:0:0:
48,296,85365,2,0,L|7:307,1,43.3333333333333,0|0,0:0|0:0,0:0:0:0:
117,315,85519,2,0,L|149:345,1,43.3333333333333,0|0,0:0|0:0,0:0:0:0:
95,249,85673,6,0,L|103:201,1,43.3333333333333,8|0,0:0|0:0,0:0:0:0:
40,311,85826,2,0,L|-5:328,1,43.3333333333333,0|0,0:0|0:0,0:0:0:0:
118,326,85980,2,0,L|156:356,1,43.3333333333333,8|8,0:0|0:0,0:0:0:0:
3,180,86134,5,4,0:0:0:0:
12,160,86211,1,0,0:0:0:0:
18,139,86288,1,0,0:0:0:0:
20,117,86365,1,0,0:0:0:0:
17,96,86442,2,0,P|12:65|14:49,1,43.3333333333333,0|0,0:0|0:0,0:0:0:0:
110,46,86596,2,0,B|107:16|116:-2,1,43.3333333333333,0|0,0:0|0:0,0:0:0:0:
142,40,86750,2,0,B|147:11|161:-5,1,43.3333333333333,0|0,0:0|0:0,0:0:0:0:
179,42,86903,2,0,B|191:15|209:3,1,43.3333333333333,0|0,0:0|0:0,0:0:0:0:
227,135,87057,5,8,0:0:0:0:
227,135,87134,1,0,0:0:0:0:
227,135,87211,2,0,L|237:191,3,43.3333333333333,0|0|0|0,0:0|0:0|0:0|0:0,0:0:0:0:
305,73,87519,5,0,0:0:0:0:
305,73,87596,1,0,0:0:0:0:
305,73,87673,2,0,L|315:129,3,43.3333333333333,0|0|0|0,0:0|0:0|0:0|0:0,0:0:0:0:
422,54,87980,5,4,0:0:0:0:
422,54,88057,1,0,0:0:0:0:
422,54,88134,2,0,L|412:-2,3,43.3333333333333,0|0|0|0,0:0|0:0|0:0|0:0,0:0:0:0:
479,127,88442,5,0,0:0:0:0:
479,127,88519,1,0,0:0:0:0:
479,127,88596,2,0,L|489:183,3,43.3333333333333,0|0|0|0,0:0|0:0|0:0|0:0,0:0:0:0:
512,325,88903,5,8,0:0:0:0:
430,262,89134,1,0,0:0:0:0:
354,356,89339,2,0,L|302:368,4,32.5,8|8|8|0|0,0:0|0:0|0:0|0:0|0:0,0:0:0:0:
252,359,89711,1,0,0:0:0:0:
248,256,89826,5,4,0:0:0:0:
247,254,90056,2,0,B|200:238|200:238|115:254,1,130,0|0,0:0|0:0,0:0:0:0:
15,370,90518,1,0,0:0:0:0:
15,370,90749,2,0,L|33:224,1,130,8|0,0:0|0:0,0:0:0:0:
114,169,91210,1,0,0:0:0:0:
121,126,91287,1,0,0:0:0:0:
107,84,91364,1,0,0:0:0:0:
74,55,91441,2,0,L|65:-6,2,43.3333333333333,8|0|0,0:0|0:0|0:0,0:0:0:0:
206,22,91672,5,4,0:0:0:0:
206,22,91903,2,0,B|255:40|255:40|351:26,1,130,0|0,0:0|0:0,0:0:0:0:
452,4,92364,1,8,0:0:0:0:
452,4,92595,2,0,L|444:161,1,130,0|0,0:0|0:0,0:0:0:0:
430,216,93056,1,8,0:0:0:0:
414,256,93133,1,0,0:0:0:0:
423,298,93210,1,0,0:0:0:0:
452,329,93287,2,8,L|456:389,2,43.3333333333333,8|8|8,0:0|0:0|0:0,0:0:0:0:
283,375,93518,5,4,0:0:0:0:
283,375,93749,2,0,B|303:328|303:328|293:227,1,130,0|0,0:0|0:0,0:0:0:0:
284,134,94210,1,0,0:0:0:0:
284,134,94441,2,0,L|144:165,1,130,8|0,0:0|0:0,0:0:0:0:
46,117,94902,1,0,0:0:0:0:
23,153,94979,1,0,0:0:0:0:
17,196,95056,1,0,0:0:0:0:
40,232,95133,2,0,L|36:292,2,43.3333333333333,8|0|0,0:0|0:0|0:0,0:0:0:0:
148,334,95364,6,0,P|190:348|233:348,2,86.6666666666667,4|0|0,0:0|0:0|0:0,0:0:0:0:
331,361,95826,2,0,P|321:318|300:281,2,86.6666666666667,4|0|0,0:0|0:0|0:0,0:0:0:0:
263,192,96287,2,0,P|230:221|209:259,2,86.6666666666667,12|0|0,0:0|0:0|0:0,0:0:0:0:
381,155,96749,5,8,0:0:0:0:
381,155,96826,1,8,0:0:0:0:
381,155,96902,2,0,L|389:220,3,43.3333333333333,8|0|0|0,0:0|0:0|0:0|0:0,0:0:0:0:
482,22,97210,5,4,0:0:0:0:
482,22,97441,2,0,B|425:39|425:39|338:25,1,130,0|0,0:0|0:0,0:0:0:0:
257,27,97902,1,0,0:0:0:0:
257,27,98133,2,0,L|121:54,1,130,8|0,0:0|0:0,0:0:0:0:
128,132,98595,1,0,0:0:0:0:
126,175,98672,1,0,0:0:0:0:
149,211,98749,1,0,0:0:0:0:
188,228,98826,2,0,L|180:293,2,43.3333333333333,8|0|0,0:0|0:0|0:0,0:0:0:0:
28,149,99056,5,4,0:0:0:0:
28,149,99287,2,0,B|11:206|11:206|25:293,1,130,0|0,0:0|0:0,0:0:0:0:
112,330,99749,1,8,0:0:0:0:
112,330,99979,2,0,L|239:355,1,130,0|0,0:0|0:0,0:0:0:0:
295,191,100441,1,8,0:0:0:0:
278,231,100518,1,0,0:0:0:0:
288,273,100595,1,0,0:0:0:0:
322,299,100672,2,0,L|387:291,2,43.3333333333333,8|8|8,0:0|0:0|0:0,0:0:0:0:
502,368,100902,5,4,0:0:0:0:
502,368,101133,2,0,B|481:320|481:320|494:229,1,130,0|0,0:0|0:0,0:0:0:0:
501,143,101595,1,0,0:0:0:0:
501,143,101826,2,0,L|487:13,1,130,0|0,0:0|0:0,0:0:0:0:
331,29,102287,1,0,0:0:0:0:
344,70,102364,1,0,0:0:0:0:
333,112,102441,1,0,0:0:0:0:
302,142,102518,2,0,L|294:207,2,43.3333333333333,0|0|0,0:0|0:0|0:0,0:0:0:0:
219,27,102749,5,4,0:0:0:0:
219,27,102826,1,0,0:0:0:0:
219,27,102902,2,0,B|233:49|233:49|261:75,3,43.3333333333333,0|0|0|0,0:0|0:0|0:0|0:0,0:0:0:0:
183,132,103210,5,4,0:0:0:0:
183,132,103287,1,0,0:0:0:0:
183,132,103364,2,0,B|203:147|203:147|238:162,3,43.3333333333333,0|0|0|0,0:0|0:0|0:0|0:0,0:0:0:0:
123,254,103672,5,8,0:0:0:0:
123,254,103749,1,0,0:0:0:0:
123,254,103826,2,0,L|115:304,3,43.3333333333333,0|0|0|0,0:0|0:0|0:0|0:0,0:0:0:0:
214,333,104133,5,0,0:0:0:0:
214,333,104210,1,0,0:0:0:0:
214,333,104287,2,0,L|206:383,3,43.3333333333333,0|0|0|0,0:0|0:0|0:0|0:0,0:0:0:0:
294,201,104595,1,4,0:0:0:0:
256,192,104672,12,0,106210,0:0:0:0:
141,34,106441,6,0,P|173:33|204:21,2,65,8|8|8,0:0|0:0|0:0,0:0:0:0:
58,8,106787,2,0,L|-4:14,2,32.5,0|0|0,0:0|0:0|0:0,0:0:0:0:
0,99,107018,2,0,P|12:133|6:185,2,65,0|0|0,0:0|0:0|0:0,0:0:0:0:
0,240,107364,5,4,0:0:0:0:
0,240,108056,1,4,0:0:0:0:
0,240,108749,1,4,0:0:0:0:
10,325,109210,2,0,L|14:376,2,43.3333333333333,0|0|0,0:0|0:0|0:0,0:0:0:0:
138,342,109441,6,0,L|134:291,2,43.3333333333333,8|8|8,0:0|0:0|0:0,0:0:0:0:
212,305,109672,2,0,L|208:254,2,43.3333333333333,0|0|0,0:0|0:0|0:0,0:0:0:0:
284,333,109902,1,0,0:0:0:0:
314,359,109979,1,0,0:0:0:0:
356,344,110056,1,0,0:0:0:0:
396,367,110133,1,4,0:0:0:0:
490,277,111979,6,0,P|451:282|411:270,1,65,0|0,0:0|0:0,0:0:0:0:
382,195,112210,2,0,P|421:190|461:202,1,65,0|0,0:0|0:0,0:0:0:0:
490,277,112441,1,0,0:0:0:0:
453,82,112902,5,4,0:0:0:0:
453,82,113595,1,4,0:0:0:0:
453,82,114287,1,4,0:0:0:0:
320,85,114749,1,0,0:0:0:0:
320,85,114826,1,0,0:0:0:0:
320,85,114902,1,0,0:0:0:0:
320,85,114979,6,0,P|306:102|289:115,2,43.3333333333333,8|8|8,0:0|0:0|0:0,0:0:0:0:
323,0,115210,2,0,P|345:4|365:13,2,43.3333333333333,0|0|0,0:0|0:0|0:0,0:0:0:0:
248,41,115441,2,0,P|241:21|239:0,2,43.3333333333333,0|0|0,0:0|0:0|0:0,0:0:0:0:
21,11,115672,6,0,L|24:94,5,43.3333333333333,12|0|8|0|8|0,0:0|0:0|0:0|0:0|0:0|0:0,0:0:0:0:
61,171,116133,2,0,B|31:167|31:167|-3:180,2,43.3333333333333,8|0|8,0:0|0:0|0:0,0:0:0:0:
48,264,116364,1,0,0:0:0:0:
48,264,116441,1,8,0:0:0:0:
48,264,116518,1,0,0:0:0:0:
48,264,116595,2,0,L|56:337,2,43.3333333333333,8|0|8,0:0|0:0|0:0,0:0:0:0:
149,301,116825,1,0,0:0:0:0:
149,301,116902,1,8,0:0:0:0:
149,301,116979,1,0,0:0:0:0:
149,301,117056,2,0,L|157:374,5,43.3333333333333,8|0|8|0|8|0,0:0|0:0|0:0|0:0|0:0|0:0,0:0:0:0:
288,365,117518,6,0,B|288:337|288:337|278:314,2,43.3333333333333,8|0|8,0:0|0:0|0:0,0:0:0:0:
364,310,117749,2,0,B|357:287|357:287|360:261,2,43.3333333333333,0|8|0,0:0|0:0|0:0,0:0:0:0:
437,222,117979,2,0,B|436:198|436:198|447:171,2,43.3333333333333,8|0|8,0:0|0:0|0:0,0:0:0:0:
366,166,118210,2,0,B|373:142|373:142|370:117,2,43.3333333333333,0|8|0,0:0|0:0|0:0,0:0:0:0:
489,29,118441,6,0,L|429:37,5,43.3333333333333,12|0|8|0|8|0,0:0|0:0|0:0|0:0|0:0|0:0,0:0:0:0:
350,42,118902,2,0,B|343:18|343:18|346:-7,2,43.3333333333333,8|0|8,0:0|0:0|0:0,0:0:0:0:
239,41,119133,1,0,0:0:0:0:
239,41,119210,1,8,0:0:0:0:
239,41,119287,1,0,0:0:0:0:
239,41,119364,2,0,L|231:114,2,43.3333333333333,8|0|8,0:0|0:0|0:0,0:0:0:0:
142,15,119594,1,0,0:0:0:0:
142,15,119671,1,8,0:0:0:0:
142,15,119748,1,0,0:0:0:0:
142,15,119826,2,0,L|134:88,5,43.3333333333333,8|0|8|0|8|0,0:0|0:0|0:0|0:0|0:0|0:0,0:0:0:0:
6,12,120287,6,0,B|7:36|7:36|-4:63,2,43.3333333333333,8|0|8,0:0|0:0|0:0,0:0:0:0:
66,99,120518,2,0,B|59:123|59:123|62:148,2,43.3333333333333,0|8|0,0:0|0:0|0:0,0:0:0:0:
97,262,120749,2,0,B|98:238|98:238|87:211,2,43.3333333333333,8|0|8,0:0|0:0|0:0,0:0:0:0:
170,189,120980,2,0,B|163:165|163:165|166:140,2,43.3333333333333,0|8|0,0:0|0:0|0:0,0:0:0:0:
178,316,121210,6,0,L|171:372,5,43.3333333333333,12|0|8|0|8|0,0:0|0:0|0:0|0:0|0:0|0:0,0:0:0:0:
81,356,121672,2,0,B|57:363|57:363|32:360,2,43.3333333333333,8|0|8,0:0|0:0|0:0,0:0:0:0:
51,216,121902,1,0,0:0:0:0:
51,216,121979,1,8,0:0:0:0:
51,216,122056,1,0,0:0:0:0:
51,216,122133,2,0,B|52:246|52:246|43:289,2,43.3333333333333,8|0|8,0:0|0:0|0:0,0:0:0:0:
166,169,122363,1,0,0:0:0:0:
166,169,122440,1,8,0:0:0:0:
166,169,122517,1,0,0:0:0:0:
166,169,122595,2,0,L|158:242,5,43.3333333333333,8|0|8|0|8|0,0:0|0:0|0:0|0:0|0:0|0:0,0:0:0:0:
207,25,123056,6,0,B|235:25|235:25|258:15,2,43.3333333333333,8|0|8,0:0|0:0|0:0,0:0:0:0:
262,101,123287,2,0,B|285:94|285:94|311:97,2,43.3333333333333,0|8|0,0:0|0:0|0:0,0:0:0:0:
350,174,123518,2,0,B|374:173|374:173|401:184,2,43.3333333333333,8|0|8,0:0|0:0|0:0,0:0:0:0:
414,101,123749,2,0,B|438:108|438:108|463:105,2,43.3333333333333,0|8|0,0:0|0:0|0:0,0:0:0:0:
510,233,123979,6,0,L|503:289,5,43.3333333333333,12|0|8|0|8|0,0:0|0:0|0:0|0:0|0:0|0:0,0:0:0:0:
470,371,124441,2,0,B|494:378|494:378|519:375,2,43.3333333333333,8|0|8,0:0|0:0|0:0,0:0:0:0:
345,339,124672,1,0,0:0:0:0:
345,339,124749,1,8,0:0:0:0:
345,339,124826,1,0,0:0:0:0:
345,339,124903,2,0,L|337:266,2,43.3333333333333,8|0|8,0:0|0:0|0:0,0:0:0:0:
248,365,125133,1,0,0:0:0:0:
248,365,125210,1,8,0:0:0:0:
248,365,125287,1,0,0:0:0:0:
248,365,125364,2,0,L|240:292,5,43.3333333333333,8|0|8|0|8|0,0:0|0:0|0:0|0:0|0:0|0:0,0:0:0:0:
130,235,125826,5,8,0:0:0:0:
130,235,125902,1,0,0:0:0:0:
130,235,125979,2,0,B|127:206|127:206|136:174,1,43.3333333333333,0|0,0:0|0:0,0:0:0:0:
198,127,126133,2,0,B|199:103|199:103|188:76,1,43.3333333333333,8|0,0:0|0:0,0:0:0:0:
142,11,126287,5,8,0:0:0:0:
142,11,126364,1,0,0:0:0:0:
142,11,126441,2,0,B|122:25|122:25|84:31,3,43.3333333333333,0|0|0|0,0:0|0:0|0:0|0:0,0:0:0:0:
281,29,126749,6,0,P|290:53|311:75,5,43.3333333333333,4|0|0|0|0|0,0:0|0:0|0:0|0:0|0:0|0:0,0:0:0:0:
402,11,127210,2,0,P|376:6|347:13,5,43.3333333333333,4|0|0|0|0|0,0:0|0:0|0:0|0:0|0:0|0:0,0:0:0:0:
357,125,127672,2,0,P|373:105|381:76,5,43.3333333333333,12|0|0|0|0|0,0:0|0:0|0:0|0:0|0:0|0:0,0:0:0:0:
484,175,128133,1,0,0:0:0:0:
484,175,128210,1,0,0:0:0:0:
484,175,128287,2,0,L|486:229,3,43.3333333333333,0|0|0|0,0:0|0:0|0:0|0:0,0:0:0:0:
411,296,128595,6,0,L|413:351,2,43.3333333333333,4|0|0,0:0|0:0|0:0,0:0:0:0:
321,290,128826,2,0,L|323:345,2,43.3333333333333,0|0|0,0:0|0:0|0:0,0:0:0:0:
240,327,129056,2,0,L|242:382,2,43.3333333333333,4|0|0,0:0|0:0|0:0,0:0:0:0:
157,309,129287,2,0,L|159:364,2,43.3333333333333,0|0|0,0:0|0:0|0:0,0:0:0:0:
121,212,129518,6,0,P|112:188|91:166,5,43.3333333333333,12|0|0|0|0|0,0:0|0:0|0:0|0:0|0:0|0:0,0:0:0:0:
0,230,129979,2,0,P|25:234|54:227,5,43.3333333333333,0|0|0|0|0|0,0:0|0:0|0:0|0:0|0:0|0:0,0:0:0:0:
45,116,130441,2,0,P|28:135|20:164,5,43.3333333333333,4|0|0|0|0|0,0:0|0:0|0:0|0:0|0:0|0:0,0:0:0:0:
105,2,130902,1,4,0:0:0:0:
105,2,130979,1,0,0:0:0:0:
105,2,131056,2,0,L|173:8,3,43.3333333333333,0|0|0|0,0:0|0:0|0:0|0:0,0:0:0:0:
268,15,131364,6,0,L|274:81,2,43.3333333333333,12|0|0,0:0|0:0|0:0,0:0:0:0:
349,26,131595,2,0,L|355:92,2,43.3333333333333,0|0|0,0:0|0:0|0:0,0:0:0:0:
430,35,131826,2,0,L|436:101,2,43.3333333333333,0|0|0,0:0|0:0|0:0,0:0:0:0:
509,16,132056,2,0,L|515:82,2,43.3333333333333,0|0|0,0:0|0:0|0:0,0:0:0:0:
512,183,132287,6,0,P|503:207|482:229,5,43.3333333333333,4|0|0|0|0|0,0:0|0:0|0:0|0:0|0:0|0:0,0:0:0:0:
391,165,132749,2,0,P|416:160|445:167,5,43.3333333333333,4|0|0|0|0|0,0:0|0:0|0:0|0:0|0:0|0:0,0:0:0:0:
436,279,133210,2,0,P|419:259|411:230,5,43.3333333333333,12|0|0|0|0|0,0:0|0:0|0:0|0:0|0:0|0:0,0:0:0:0:
343,365,133672,1,0,0:0:0:0:
343,365,133749,1,0,0:0:0:0:
343,365,133826,2,0,L|269:358,3,43.3333333333333,0|0|0|0,0:0|0:0|0:0|0:0,0:0:0:0:
175,358,134133,6,0,L|123:361,2,43.3333333333333,4|0|0,0:0|0:0|0:0,0:0:0:0:
153,277,134364,2,0,L|101:280,2,43.3333333333333,0|0|0,0:0|0:0|0:0,0:0:0:0:
175,192,134595,2,0,L|123:195,2,43.3333333333333,4|0|0,0:0|0:0|0:0,0:0:0:0:
153,111,134826,2,0,L|101:114,2,43.3333333333333,0|0|0,0:0|0:0|0:0,0:0:0:0:
223,19,135056,6,0,P|232:43|253:65,5,43.3333333333333,12|0|0|0|0|0,0:0|0:0|0:0|0:0|0:0|0:0,0:0:0:0:
344,1,135518,2,0,P|318:-3|289:3,5,43.3333333333333,0|0|0|0|0|0,0:0|0:0|0:0|0:0|0:0|0:0,0:0:0:0:
299,115,135979,2,0,P|315:95|323:66,5,43.3333333333333,4|0|0|0|0|0,0:0|0:0|0:0|0:0|0:0|0:0,0:0:0:0:
383,212,136441,1,4,0:0:0:0:
383,212,136518,1,0,0:0:0:0:
383,212,136595,2,0,L|375:263,3,43.3333333333333,0|0|0|0,0:0|0:0|0:0|0:0,0:0:0:0:
303,382,136902,5,8,0:0:0:0:
303,382,136979,1,0,0:0:0:0:
303,382,137056,2,0,L|249:372,1,43.3333333333333,0|0,0:0|0:0,0:0:0:0:
164,372,137210,2,0,L|105:390,1,43.3333333333333,8|0,0:0|0:0,0:0:0:0:
68,300,137364,1,8,0:0:0:0:
62,279,137441,1,8,0:0:0:0:
61,257,137518,1,8,0:0:0:0:
63,235,137595,1,0,0:0:0:0:
71,214,137672,2,0,P|90:184|110:168,1,43.3333333333333,0|0,0:0|0:0,0:0:0:0:
154,108,137826,6,0,B|134:68|134:68|145:5,1,97.5,4|0,0:0|0:0,0:0:0:0:
158,112,138371,1,8,0:0:0:0:
24,106,138644,2,0,B|44:146|44:146|38:210,1,97.4999970245362,0|0,0:0|0:0,0:0:0:0:
24,106,139162,1,8,0:0:0:0:
31,292,139462,2,0,P|72:285|100:266,1,65,0|0,0:0|0:0,0:0:0:0:
161,203,139871,1,0,0:0:0:0:
247,72,140007,6,0,L|244:108,1,32.5,4|8,0:0|0:0,0:0:0:0:
329,77,140280,2,0,L|326:113,1,32.5,8|8,0:0|0:0,0:0:0:0:
411,84,140552,2,0,L|408:120,1,32.5,0|0,0:0|0:0,0:0:0:0:
493,89,140825,2,0,L|490:125,1,32.5,0|0,0:0|0:0,0:0:0:0:
480,249,141098,6,0,P|482:293|499:321,1,65,4|0,0:0|0:0,0:0:0:0:
416,371,141507,1,0,0:0:0:0:
416,371,141643,2,0,L|371:358,1,32.5,0|0,0:0|0:0,0:0:0:0:
250,315,141916,2,0,P|269:268|270:228,1,86.6666666666667,0|0,0:0|0:0,0:0:0:0:
241,136,142426,1,8,0:0:0:0:
167,206,142562,1,0,0:0:0:0:
147,111,142698,2,0,B|146:79|146:79|121:12,1,97.5,0|0,0:0|0:0,0:0:0:0:
42,47,143175,1,0,0:0:0:0:
42,54,143285,6,0,L|29:122,1,65,12|0,0:0|0:0,0:0:0:0:
70,350,143830,5,8,0:0:0:0:
167,206,143966,1,8,0:0:0:0:
250,365,144103,1,0,0:0:0:0:
160,360,144239,1,0,0:0:0:0:
351,376,144370,6,0,B|331:336|331:336|341:272,1,97.5,4|0,0:0|0:0,0:0:0:0:
351,376,144915,1,8,0:0:0:0:
501,217,145188,2,0,B|521:257|521:257|510:320,1,97.5,0|0,0:0|0:0,0:0:0:0:
501,217,145733,1,8,0:0:0:0:
494,61,146006,2,0,P|457:68|419:58,1,65,0|0,0:0|0:0,0:0:0:0:
354,2,146415,1,0,0:0:0:0:
240,3,146551,6,0,L|243:38,1,32.5,4|8,0:0|0:0,0:0:0:0:
159,2,146824,2,0,L|162:37,1,32.5,8|8,0:0|0:0,0:0:0:0:
80,2,147097,2,0,L|83:37,1,32.5,0|0,0:0|0:0,0:0:0:0:
0,0,147370,2,0,L|3:35,1,32.5,0|0,0:0|0:0,0:0:0:0:
16,179,147642,6,0,P|13:162|12:146,2,32.5,4|0|0,0:0|0:0|0:0,0:0:0:0:
27,258,148051,1,0,0:0:0:0:
39,335,148188,2,0,L|44:381,1,32.5,8|0,0:0|0:0,0:0:0:0:
145,262,148460,6,0,P|142:278|141:294,2,32.5,4|0|0,0:0|0:0|0:0,0:0:0:0:
156,183,148870,1,0,0:0:0:0:
168,106,149006,2,0,L|173:60,1,32.5,8|0,0:0|0:0,0:0:0:0:
264,218,149279,6,0,P|261:201|260:185,2,32.5,4|0|0,0:0|0:0|0:0,0:0:0:0:
275,297,149688,1,0,0:0:0:0:
345,245,149824,2,0,L|388:234,1,32.5,8|0,0:0|0:0,0:0:0:0:
480,185,150097,2,0,L|437:174,1,32.5,8|0,0:0|0:0,0:0:0:0:
395,41,150370,2,0,L|405:21,3,16.25,8|8|8|8,0:0|0:0|0:0|0:0,0:0:0:0:
387,58,150642,2,0,L|370:96,1,32.5,8|0,0:0|0:0,0:0:0:0:
228,106,150915,6,0,L|235:60,1,32.5,4|0,0:0|0:0,0:0:0:0:
146,44,151188,2,0,L|139:-2,1,32.5,0|0,0:0|0:0,0:0:0:0:
45,118,151460,2,0,L|46:82,2,21.6666666666667,0|0|0,0:0|0:0|0:0,0:0:0:0:
45,137,151733,2,0,L|43:210,1,65,8|0,0:0|0:0,0:0:0:0:
138,244,152279,2,0,L|137:209,2,21.6666666666667,0|0|0,0:0|0:0|0:0,0:0:0:0:
141,264,152551,2,0,L|144:300,1,32.5,8|0,0:0|0:0,0:0:0:0:
260,329,152824,2,0,L|258:297,1,32.5,0|0,0:0|0:0,0:0:0:0:
330,178,153097,1,0,0:0:0:0:
366,163,153188,1,0,0:0:0:0:
407,167,153279,1,0,0:0:0:0:
445,192,153370,6,0,B|459:237|459:237|448:323,1,130,8|4,0:0|0:0,0:0:0:0:
445,192,153779,1,0,0:0:0:0:
398,98,153915,2,0,P|398:57|414:32,1,65,4|0,0:0|0:0,0:0:0:0:
259,12,154188,5,4,0:0:0:0:
258,30,154324,1,0,0:0:0:0:
256,48,154460,2,0,L|251:123,1,65,0|0,0:0|0:0,0:0:0:0:
159,122,154733,5,0,0:0:0:0:
159,147,154870,1,0,0:0:0:0:
70,100,155006,5,8,0:0:0:0:
69,82,155142,1,0,0:0:0:0:
67,64,155279,2,0,L|62:-11,1,65,0|0,0:0|0:0,0:0:0:0:
0,144,155551,5,0,0:0:0:0:
0,169,155688,1,0,0:0:0:0:
66,251,155824,5,4,0:0:0:0:
65,269,155960,1,0,0:0:0:0:
63,287,156097,2,0,L|58:362,1,65,0|0,0:0|0:0,0:0:0:0:
171,371,156370,5,0,0:0:0:0:
173,342,156506,1,0,0:0:0:0:
295,332,156642,5,8,0:0:0:0:
294,314,156779,1,0,0:0:0:0:
292,296,156915,2,0,L|287:221,1,65,0|0,0:0|0:0,0:0:0:0:
411,306,157188,5,0,0:0:0:0:
416,339,157324,1,0,0:0:0:0:
504,234,157460,5,4,0:0:0:0:
505,216,157597,1,0,0:0:0:0:
507,198,157733,2,0,L|512:123,1,65,0|0,0:0|0:0,0:0:0:0:
411,63,158006,5,0,0:0:0:0:
408,90,158142,1,0,0:0:0:0:
300,182,158279,5,8,0:0:0:0:
299,164,158415,1,0,0:0:0:0:
297,146,158551,2,0,L|292:71,1,65,0|0,0:0|0:0,0:0:0:0:
203,0,158824,5,0,0:0:0:0:
173,108,158960,1,0,0:0:0:0:
70,85,159097,6,0,L|76:21,2,65,4|0|0,0:0|0:0|0:0,0:0:0:0:
58,169,159506,1,0,0:0:0:0:
46,250,159642,2,0,L|37:318,1,65,0|0,0:0|0:0,0:0:0:0:
159,371,159915,5,8,0:0:0:0:
225,283,160051,1,8,0:0:0:0:
271,378,160188,2,0,L|346:384,2,65,0|0|0,0:0|0:0|0:0,0:0:0:0:
225,283,160597,1,0,0:0:0:0:
249,175,160733,6,0,P|267:138|270:102,1,65,4|0,0:0|0:0,0:0:0:0:
150,15,161006,2,0,P|158:55|178:85,1,65,0|0,0:0|0:0,0:0:0:0:
255,20,161279,1,0,0:0:0:0:
255,20,161415,1,0,0:0:0:0:
400,26,161551,5,8,0:0:0:0:
400,26,161620,1,0,0:0:0:0:
400,26,161688,2,0,L|406:73,5,32.5,0|0|0|0|0|0,0:0|0:0|0:0|0:0|0:0|0:0,0:0:0:0:
418,152,162097,2,0,L|413:184,3,32.5,0|0|0|0,0:0|0:0|0:0|0:0,0:0:0:0:
501,151,162370,5,4,0:0:0:0:
505,165,162438,1,0,0:0:0:0:
506,183,162506,2,0,L|500:230,9,32.5,0|0|0|0|0|0|0|0|0|0,0:0|0:0|0:0|0:0|0:0|0:0|0:0|0:0|0:0|0:0,0:0:0:0:
413,273,163188,5,8,0:0:0:0:
418,297,163256,1,0,0:0:0:0:
422,319,163324,2,0,L|428:366,9,32.5,0|0|0|0|0|0|0|0|0|0,0:0|0:0|0:0|0:0|0:0|0:0|0:0|0:0|0:0|0:0,0:0:0:0:
320,379,164006,6,0,B|285:358|234:358,1,65,4|0,0:0|0:0,0:0:0:0:
159,350,164279,1,0,0:0:0:0:
159,350,164415,1,0,0:0:0:0:
65,368,164551,1,0,0:0:0:0:
65,368,164688,1,0,0:0:0:0:
0,269,164824,6,0,B|35:248|86:248,1,65,12|0,0:0|0:0,0:0:0:0:
156,243,165097,1,0,0:0:0:0:
156,243,165233,1,0,0:0:0:0:
252,221,165370,1,0,0:0:0:0:
156,243,165506,1,0,0:0:0:0:
132,137,165642,6,0,B|97:127|61:143|61:143|96:91|173:111|173:111|228:124|308:93,1,325,4|0,0:0|0:0,0:0:0:0:
397,80,166460,6,0,P|387:50|367:25,2,65,8|0|4,0:0|0:0|0:0,0:0:0:0:
435,189,166870,1,8,0:0:0:0:
462,289,167006,1,8,0:0:0:0:
366,263,167142,1,8,0:0:0:0:
251,165,167279,6,0,P|263:182|271:202,2,43.3333333333333,4|0|0,0:0|0:0|0:0,0:0:0:0:
258,82,167551,2,0,P|236:83|215:80,2,43.3333333333333,0|0|0,0:0|0:0|0:0,0:0:0:0:
329,129,167824,2,0,P|338:109|351:92,2,43.3333333333333,0|0|0,0:0|0:0|0:0,0:0:0:0:
366,263,168097,2,0,L|370:333,2,43.3333333333333,12|0|0,0:0|0:0|0:0,0:0:0:0:
339,281,168370,2,0,L|343:351,2,43.3333333333333,0|0|0,0:0|0:0|0:0,0:0:0:0:
218,304,168642,1,0,0:0:0:0:
218,304,168733,1,0,0:0:0:0:
218,304,168824,1,0,0:0:0:0:
218,304,168915,6,0,P|205:321|197:341,2,43.3333333333333,4|0|0,0:0|0:0|0:0,0:0:0:0:
211,221,169188,2,0,P|232:222|253:219,2,43.3333333333333,0|0|0,0:0|0:0|0:0,0:0:0:0:
140,268,169460,2,0,P|130:248|117:231,2,43.3333333333333,0|0|0,0:0|0:0|0:0,0:0:0:0:
230,336,169733,6,0,P|212:357|200:381,2,43.3333333333333,12|0|0,0:0|0:0|0:0,0:0:0:0:
230,230,170006,2,0,P|257:234|284:232,2,43.3333333333333,0|0|0,0:0|0:0|0:0,0:0:0:0:
135,281,170279,2,0,P|125:255|110:232,2,43.3333333333333,0|0|0,0:0|0:0|0:0,0:0:0:0:
21,173,170551,5,4,0:0:0:0:
14,147,170642,1,0,0:0:0:0:
18,121,170733,1,0,0:0:0:0:
32,99,170824,1,0,0:0:0:0:
50,81,170915,2,0,P|86:70|112:74,4,43.3333333333333,0|0|0|0|0,0:0|0:0|0:0|0:0|0:0,0:0:0:0:
176,18,171370,5,12,0:0:0:0:
200,26,171460,1,0,0:0:0:0:
224,33,171551,1,0,0:0:0:0:
248,41,171642,1,0,0:0:0:0:
272,50,171733,1,0,0:0:0:0:
296,59,171824,1,0,0:0:0:0:
320,68,171915,2,0,L|383:90,2,43.3333333333333,0|0|0,0:0|0:0|0:0,0:0:0:0:
454,48,172188,5,4,0:0:0:0:
462,81,172279,1,0,0:0:0:0:
457,115,172370,1,0,0:0:0:0:
441,145,172460,1,0,0:0:0:0:
416,169,172551,1,0,0:0:0:0:
396,197,172642,1,0,0:0:0:0:
384,229,172733,2,0,P|385:273|393:295,2,43.3333333333333,0|0|0,0:0|0:0|0:0,0:0:0:0:
493,314,173006,5,12,0:0:0:0:
477,345,173097,1,0,0:0:0:0:
454,371,173188,1,0,0:0:0:0:
421,381,173279,1,0,0:0:0:0:
386,384,173370,1,0,0:0:0:0:
353,372,173460,1,8,0:0:0:0:
325,350,173551,1,0,0:0:0:0:
291,342,173642,1,0,0:0:0:0:
256,348,173733,1,0,0:0:0:0:
229,374,173824,5,4,0:0:0:0:
60,344,174233,1,0,0:0:0:0:
30,259,174506,1,0,0:0:0:0:
30,259,174642,2,0,L|28:214,1,32.5,8|0,0:0|0:0,0:0:0:0:
107,150,174915,2,0,L|105:182,1,32.5,0|0,0:0|0:0,0:0:0:0:
184,86,175188,1,0,0:0:0:0:
184,86,175324,1,0,0:0:0:0:
184,86,175460,2,0,P|232:117|275:124,1,97.5,4|0,0:0|0:0,0:0:0:0:
447,102,176142,1,0,0:0:0:0:
447,102,176279,6,0,L|403:104,1,32.5,8|0,0:0|0:0,0:0:0:0:
291,163,176551,2,0,L|335:165,1,32.5,0|0,0:0|0:0,0:0:0:0:
421,203,176824,1,0,0:0:0:0:
421,203,177097,5,4,0:0:0:0:
421,203,177370,1,0,0:0:0:0:
355,298,177506,2,0,L|280:306,1,65,0|0,0:0|0:0,0:0:0:0:
187,352,177915,2,0,L|190:384,1,32.5,8|0,0:0|0:0,0:0:0:0:
75,278,178188,6,0,L|100:283,3,16.25,0|0|8|0,0:0|0:0|0:0|0:0,0:0:0:0:
189,245,178460,2,0,L|164:250,3,16.25,0|0|0|0,0:0|0:0|0:0|0:0,0:0:0:0:
105,171,178733,6,0,L|124:154,3,16.25,0|0|0|0,0:0|0:0|0:0|0:0,0:0:0:0:
131,68,179006,2,0,L|136:92,3,16.25,0|0|0|0,0:0|0:0|0:0|0:0,0:0:0:0:
207,141,179279,2,0,L|182:132,3,16.25,0|0|0|0,0:0|0:0|0:0|0:0,0:0:0:0:
275,68,179551,2,0,L|265:41,3,16.25,8|0|0|0,0:0|0:0|0:0|0:0,0:0:0:0:
381,56,179824,2,0,L|386:29,3,16.25,0|0|0|0,0:0|0:0|0:0|0:0,0:0:0:0:
466,111,180097,5,0,0:0:0:0:
470,126,180165,1,0,0:0:0:0:
472,142,180233,1,0,0:0:0:0:
471,158,180301,1,0,0:0:0:0:
468,174,180370,1,4,0:0:0:0:
256,192,180460,12,0,183370,0:0:0:0:
414,195,183607,5,0,0:0:0:0:
417,203,183913,1,0,0:0:0:0:
423,214,184169,1,0,0:0:0:0:
371,338,184425,2,0,L|363:257,1,65,0|0,0:0|0:0,0:0:0:0:
312,203,185001,1,0,0:0:0:0:
281,372,185287,1,0,0:0:0:0:
281,372,185531,1,0,0:0:0:0:
281,372,185803,1,0,0:0:0:0:
159,262,186067,5,0,0:0:0:0:
172,351,186333,1,0,0:0:0:0:
92,316,186588,1,0,0:0:0:0:
0,190,186915,6,0,L|8:109,2,65,0|0|0,0:0|0:0|0:0,0:0:0:0:
81,201,187731,2,0,L|89:120,2,65,0|0|0,0:0|0:0|0:0,0:0:0:0:
164,210,188556,2,0,L|172:129,1,65,0|0,0:0|0:0,0:0:0:0:
129,66,189097,1,0,0:0:0:0:
293,125,189361,5,0,0:0:0:0:
280,214,189631,1,0,0:0:0:0:
360,179,189877,1,0,0:0:0:0:
497,141,190186,5,0,0:0:0:0:
499,148,190452,1,0,0:0:0:0:
503,158,190737,1,0,0:0:0:0:
408,63,190983,2,0,L|400:144,2,65,0|0|0,0:0|0:0|0:0,0:0:0:0:
326,54,191808,2,0,L|318:135,2,65,0|0|0,0:0|0:0|0:0,0:0:0:0:
197,139,192645,5,0,0:0:0:0:
210,50,192891,1,0,0:0:0:0:
130,85,193148,1,0,0:0:0:0:
21,164,193410,6,0,L|18:238,1,65,0|0,0:0|0:0,0:0:0:0:
12,329,193993,1,0,0:0:0:0:
115,219,194268,6,0,L|112:293,1,65,0|0,0:0|0:0,0:0:0:0:
106,384,194818,1,0,0:0:0:0:
238,384,195095,1,0,0:0:0:0:
303,318,195366,1,0,0:0:0:0:
218,297,195637,1,0,0:0:0:0:
299,156,195909,5,0,0:0:0:0:
300,168,196173,1,0,0:0:0:0:
301,181,196470,1,0,0:0:0:0:
453,57,196740,6,0,L|445:138,2,65,0|0|0,0:0|0:0|0:0,0:0:0:0:
372,46,197520,2,0,L|364:127,2,65,0|0|0,0:0|0:0|0:0,0:0:0:0:
289,37,198342,2,0,L|281:118,2,65,0|0|0,0:0|0:0|0:0,0:0:0:0:
160,122,199179,5,0,0:0:0:0:
173,33,199439,1,0,0:0:0:0:
93,68,199700,1,0,0:0:0:0:
36,196,199992,5,0,0:0:0:0:
38,206,200268,1,0,0:0:0:0:
43,219,200548,1,0,0:0:0:0:
147,203,200828,1,0,0:0:0:0:
147,203,200895,2,0,L|194:215,1,48.75,0|0,0:0|0:0,0:0:0:0:
262,268,201366,1,0,0:0:0:0:
358,157,201639,1,0,0:0:0:0:
359,171,201905,1,0,0:0:0:0:
360,186,202184,1,0,0:0:0:0:
266,365,202457,5,0,0:0:0:0:
261,277,202731,1,0,0:0:0:0:
341,312,202992,1,0,0:0:0:0:
491,310,203280,6,0,L|483:229,2,65,0|0|0,0:0|0:0|0:0,0:0:0:0:
410,321,204071,2,0,L|402:240,2,65,0|0|0,0:0|0:0|0:0,0:0:0:0:
346,147,204900,1,0,0:0:0:0:
346,160,205159,1,0,0:0:0:0:
345,172,205460,1,0,0:0:0:0:
198,245,205706,5,0,0:0:0:0:
211,334,205978,1,0,0:0:0:0:
131,299,206264,1,0,0:0:0:0:
22,220,206530,6,0,L|19:146,1,65,0|0,0:0|0:0,0:0:0:0:
13,55,207070,1,0,0:0:0:0:
116,165,207370,6,0,L|113:91,1,65,0|0,0:0|0:0,0:0:0:0:
107,0,207915,1,0,0:0:0:0:
239,0,208188,5,0,0:0:0:0:
304,66,208450,1,0,0:0:0:0:
219,87,208737,1,0,0:0:0:0:
280,152,209004,2,0,L|297:226,1,65,0|0,0:0|0:0,0:0:0:0:
277,352,209518,1,0,0:0:0:0:
414,288,209827,5,0,0:0:0:0:
417,303,210091,1,0,0:0:0:0:
419,318,210350,1,0,0:0:0:0:
316,230,210626,5,0,0:0:0:0:
321,252,210902,1,0,0:0:0:0:
323,273,211179,1,0,0:0:0:0:
218,162,211455,5,0,0:0:0:0:
226,195,211710,1,0,0:0:0:0:
228,225,211985,1,0,0:0:0:0:
120,96,212254,5,0,0:0:0:0:
131,139,212519,1,0,0:0:0:0:
133,177,212784,1,0,0:0:0:0:
