osu file format v14

[General]
AudioFilename: audio.mp3
AudioLeadIn: 0
PreviewTime: 153350
Countdown: 0
SampleSet: Soft
StackLeniency: 0.4
Mode: 0
LetterboxInBreaks: 0
WidescreenStoryboard: 1

[Editor]
Bookmarks: 5817,165097
DistanceSpacing: 0.2
BeatDivisor: 6
GridSize: 4
TimelineZoom: 2.7

[Metadata]
Title:Cold Winds
TitleUnicode:Cold Winds
Artist:Irreversible Mechanism
ArtistUnicode:Irreversible Mechanism
Creator:Platnuu
Version:Hard
Source:
Tags:symphonic death metal infinite fields davvy goldenwolf english
BeatmapID:2549932
BeatmapSetID:1030737

[Difficulty]
HPDrainRate:4
CircleSize:3
OverallDifficulty:6
ApproachRate:8
SliderMultiplier:1.3
SliderTickRate:1

[Events]
//Background and Video events
0,0,"widescreen-scary-widescreen-viewdark-evil-creepy-spooky-horror-backgrounds-backgrounds.jpg",0,0
//Break Periods
//Storyboard Layer 0 (Background)
//Storyboard Layer 1 (Fail)
//Storyboard Layer 2 (Pass)
//Storyboard Layer 3 (Foreground)
//Storyboard Layer 4 (Overlay)
//Storyboard Sound Samples

[TimingPoints]
279,461.538461538462,4,1,2,90,1,0
1202,461.538461538462,4,1,2,90,1,0
14125,-100,4,1,2,90,0,0
15971,-76.9230769230769,4,1,2,90,0,0
30740,-66.6666666666667,4,1,2,85,0,0
36971,-50,4,1,2,85,0,0
38124,-66.6666666666667,4,1,2,90,0,0
40740,-100,4,1,2,90,0,0
40893,-50,4,1,2,90,0,0
41817,-66.6666666666667,4,1,2,90,0,1
44586,-66.6666666666667,4,1,2,85,0,0
45509,-80,4,1,2,85,0,0
51047,-57.1428571428571,4,1,2,85,0,0
52893,-66.6666666666667,4,1,2,85,0,0
57663,-66.6666666666667,4,2,2,90,0,0
57817,-100,4,2,3,90,0,0
57971,-66.6666666666667,4,2,4,90,0,0
58124,-66.6666666666667,4,2,5,90,0,0
58278,-66.6666666666667,4,2,6,90,0,0
58355,-66.6666666666667,4,2,7,90,0,0
58432,-66.6666666666667,4,2,3,90,0,0
58586,-66.6666666666667,4,2,8,90,0,0
58740,-66.6666666666667,4,2,9,90,0,0
58894,-66.6666666666667,4,2,2,90,0,0
59047,-66.6666666666667,4,2,10,90,0,0
59201,-66.6666666666667,4,2,11,90,0,0
59355,-66.6666666666667,4,2,12,90,0,0
59509,-66.6666666666667,4,2,13,90,0,0
59663,-66.6666666666667,4,2,14,90,0,0
59816,-66.6666666666667,4,2,15,90,0,0
59817,-66.6666666666667,4,2,15,90,0,0
59971,-66.6666666666667,4,2,16,90,0,0
60124,-66.6666666666667,4,2,17,90,0,0
60278,-156.25,4,1,2,75,0,0
69047,-133.333333333333,4,1,2,75,0,0
69509,-156.25,4,1,2,75,0,0
75047,-66.6666666666667,4,1,2,85,0,0
75980,458.015267175573,4,1,2,85,1,0
76191,461.538461538462,4,1,2,90,1,0
76442,461.538461538462,4,1,2,90,1,0
76442,-66.6666666666667,4,1,2,90,0,0
76903,461.538461538462,4,1,2,90,1,0
76903,-66.6666666666667,4,1,2,85,0,0
85210,-50,4,1,2,90,0,0
86133,-66.6666666666667,4,1,2,90,0,1
88903,-50,4,1,2,90,0,0
89339,461.538461538462,4,1,2,90,1,0
89339,-50,4,1,2,90,0,0
89711,461.538461538462,4,1,2,90,1,0
89826,461.538461538462,4,1,2,90,1,0
89826,-76.9230769230769,4,1,2,85,0,0
115672,-50,4,1,2,90,0,1
125826,-50,4,1,2,90,0,1
126749,-66.6666666666667,4,1,2,90,0,1
137826,545.454545454546,3,1,2,90,1,0
137826,-100,3,1,2,80,0,0
138644,609.756097560976,3,1,2,80,1,0
138644,-83.3333333333333,3,1,2,80,0,0
139025,-100,3,1,2,80,0,0
139162,609.756097560976,3,1,2,80,1,0
139462,545.454545454546,3,1,2,80,1,0
139462,-100,3,1,2,80,0,0
142426,545.454545454546,3,1,2,80,1,0
142562,-100,3,1,2,80,0,0
142698,545.454545454546,3,1,2,80,1,0
142698,-80,3,1,2,80,0,0
143285,545.454545454546,3,1,2,80,1,0
143285,-100,3,1,2,80,0,0
144370,545.454545454546,3,1,2,80,1,0
144370,-100,3,1,2,80,0,0
153370,-66.6666666666667,3,1,2,80,0,0
154188,-50,3,1,2,90,0,1
165642,-80,3,1,2,90,0,1
167279,-57.1428571428571,3,1,2,90,0,1
173006,-50,3,1,2,90,0,1
173824,-100,3,1,2,90,0,0
180460,-100,3,2,0,90,0,0
183607,609.756097560976,3,2,0,45,1,0
183607,-100,3,2,0,45,0,0
183913,512.820512820513,3,2,0,45,1,0
184425,576.923076923077,3,2,0,45,1,0
184425,-100,3,2,0,45,0,0
185001,571.428571428571,3,2,0,45,1,0
185287,489.795918367347,3,2,0,45,1,0
185531,545.454545454546,3,2,0,45,1,0
185805,524.017467248908,3,2,0,45,1,0
186067,533.333333333333,3,2,0,45,1,0
186588,655.737704918033,3,2,0,45,1,0
186915,530.973451327434,3,2,0,45,1,0
186915,-100,3,2,0,45,0,0
187731,550.45871559633,3,2,0,45,1,0
187731,-100,3,2,0,45,0,0
188556,542.986425339367,3,2,0,45,1,0
188556,-100,3,2,0,45,0,0
189097,485.82995951417,3,2,0,45,1,0
189361,540.540540540541,3,2,0,45,1,0
189877,618.556701030928,3,2,0,45,1,0
190186,533.333333333333,3,2,0,45,1,0
190452,571.428571428571,3,2,0,45,1,0
190737,489.795918367347,3,2,0,45,1,0
190983,550.45871559633,3,2,0,45,1,0
190983,-100,3,2,0,45,0,0
191808,563.380281690141,3,2,0,45,1,0
191808,-100,3,2,0,45,0,0
192645,493.827160493827,3,2,0,45,1,0
192891,515.021459227468,3,2,0,45,1,0
193148,524.017467248908,3,2,0,45,1,0
193410,597.014925373134,3,2,0,45,1,0
193410,-100,3,2,0,45,0,0
193993,550.45871559633,3,2,0,45,1,0
194268,-100,3,2,0,45,0,0
195095,542.986425339367,3,2,0,45,1,0
195095,-100,3,2,0,45,0,0
195909,528.63436123348,3,2,0,45,1,0
195909,-100,3,2,0,45,0,0
196173,579.710144927536,3,2,0,45,1,0
196470,535.714285714286,3,2,0,45,1,0
196740,535.714285714286,3,2,0,45,1,0
196740,-100,3,2,0,45,0,0
197520,582.52427184466,3,2,0,45,1,0
197520,-100,3,2,0,45,0,0
198342,558.139534883721,3,2,0,45,1,0
198342,-100,3,2,0,45,0,0
199179,521.739130434783,3,2,0,45,1,0
199700,585.365853658537,3,2,0,45,1,0
199992,552.995391705069,3,2,0,45,1,0
200268,560.747663551402,3,2,0,45,1,0
200548,560.747663551402,3,2,0,45,1,0
200828,542.986425339367,3,2,0,45,1,0
200828,-100,3,2,0,45,0,0
201366,547.945205479452,3,2,0,45,1,0
201640,530.973451327434,3,2,0,45,1,0
201905,558.139534883721,3,2,0,45,1,0
202184,547.945205479452,3,2,0,45,1,0
202992,566.037735849057,3,2,0,45,1,0
203280,540.540540540541,3,2,0,45,1,0
203280,-100,3,2,0,45,0,0
204071,552.995391705069,3,2,0,45,1,0
204071,-100,3,2,0,45,0,0
204900,519.480519480519,3,2,0,45,1,0
205159,603.015075376884,3,2,0,45,1,0
205461,491.803278688525,3,2,0,45,1,0
205707,502.092050209205,3,2,0,45,1,0
205978,612.244897959184,3,2,0,45,1,0
206264,533.333333333333,3,2,0,45,1,0
206530,540.540540540541,3,2,0,45,1,0
206530,-100,3,2,0,45,0,0
207070,600,3,2,0,45,1,0
207370,545.454545454546,3,2,0,45,1,0
207370,-100,3,2,0,45,0,0
208188,524.017467248908,3,2,0,45,1,0
208188,-100,3,2,0,45,0,0
208450,574.162679425837,3,2,0,45,1,0
208737,535.714285714286,3,2,0,45,1,0
209004,535.714285714286,3,2,0,45,1,0
209004,-100,3,2,0,45,0,0
209518,618.556701030928,3,2,0,45,1,0
209827,528.63436123348,3,2,0,45,1,0
210350,552.995391705069,3,2,0,45,1,0
211455,512.820512820513,3,2,0,45,1,0
211710,550.45871559633,3,2,0,45,1,0
212254,530.973451327434,3,2,0,45,1,0

[Colours]
Combo1 : 199,237,248
Combo2 : 196,203,255
Combo3 : 155,188,221

[HitObjects]
33,241,279,6,0,B|29:230|29:199,2,43.3333333333333,8|0|0,0:0|0:0|0:0,0:0:0:0:
97,315,740,2,0,B|97:346|86:380,2,43.3333333333333,8|0|0,0:0|0:0|0:0,0:0:0:0:
201,242,1202,6,0,P|268:244|330:273,1,130,4|0,0:0|0:0,0:0:0:0:
508,168,2125,1,8,0:0:0:0:
511,142,2240,1,0,0:0:0:0:
505,118,2355,1,0,0:0:0:0:
398,79,2586,1,0,0:0:0:0:
395,53,2701,1,0,0:0:0:0:
401,29,2816,1,0,0:0:0:0:
266,31,3048,6,0,P|215:37|155:14,1,97.5,4|0,0:0|0:0,0:0:0:0:
131,34,3509,2,0,P|146:85|140:113,1,65,0|0,0:0|0:0,0:0:0:0:
37,135,3971,1,8,0:0:0:0:
23,235,4202,1,0,0:0:0:0:
57,331,4432,1,12,0:0:0:0:
168,283,4663,1,0,0:0:0:0:
168,283,4740,1,0,0:0:0:0:
168,283,4817,1,0,0:0:0:0:
168,283,4894,6,0,P|224:297|264:330,1,97.5,4|0,0:0|0:0,0:0:0:0:
281,339,5355,1,0,0:0:0:0:
313,345,5471,1,0,0:0:0:0:
345,343,5586,2,0,P|365:334|385:318,1,32.5,0|0,0:0|0:0,0:0:0:0:
472,282,5817,1,8,0:0:0:0:
460,250,5933,1,0,0:0:0:0:
443,224,6048,2,0,P|425:211|401:201,1,32.5,0|0,0:0|0:0,0:0:0:0:
311,140,6278,1,0,0:0:0:0:
299,172,6394,1,0,0:0:0:0:
295,203,6509,2,0,P|300:224|312:246,1,32.5,0|0,0:0|0:0,0:0:0:0:
373,328,6740,6,0,P|316:356|243:340,1,130,4|0,0:0|0:0,0:0:0:0:
14,268,7663,1,8,0:0:0:0:
86,183,7894,1,0,0:0:0:0:
93,151,8009,1,0,0:0:0:0:
87,118,8125,1,4,0:0:0:0:
146,19,8355,1,0,0:0:0:0:
146,19,8586,6,0,P|203:43|288:22,1,130,4|0,0:0|0:0,0:0:0:0:
378,10,9278,1,0,0:0:0:0:
474,60,9509,1,8,0:0:0:0:
477,86,9625,1,0,0:0:0:0:
479,111,9740,1,0,0:0:0:0:
411,201,9971,1,0,0:0:0:0:
408,226,10087,1,0,0:0:0:0:
406,252,10202,1,0,0:0:0:0:
474,347,10432,6,0,P|417:365|322:343,1,130,4|0,0:0|0:0,0:0:0:0:
241,328,11125,1,0,0:0:0:0:
121,320,11355,2,0,P|80:328|41:351,1,65,8|0,0:0|0:0,0:0:0:0:
0,250,11817,1,4,0:0:0:0:
59,164,12048,1,0,0:0:0:0:
59,164,12125,1,0,0:0:0:0:
59,164,12202,1,0,0:0:0:0:
59,164,12278,6,0,P|81:104|67:50,1,97.5,4|0,0:0|0:0,0:0:0:0:
63,42,12740,2,0,B|66:42|20:32,2,43.3333333333333,2|2|2,0:0|0:0|0:0,0:0:0:0:
167,26,13202,1,8,0:0:0:0:
198,19,13317,1,0,0:0:0:0:
229,12,13432,2,0,L|276:3,1,32.5,0|0,0:0|0:0,0:0:0:0:
341,64,13663,1,0,0:0:0:0:
372,71,13778,1,0,0:0:0:0:
403,78,13893,2,0,L|450:87,1,32.5,0|0,0:0|0:0,0:0:0:0:
492,175,14125,6,0,P|467:226|387:273,1,130,4|0,0:0|0:0,0:0:0:0:
297,276,14817,1,0,0:0:0:0:
207,334,15048,2,0,L|208:363,4,16.25,0|0|0|0|0,0:0|0:0|0:0|0:0|0:0,0:0:0:0:
70,334,15509,2,0,L|67:362,4,16.25,4|0|0|0|0,0:0|0:0|0:0|0:0|0:0,0:0:0:0:
29,202,15971,6,0,P|36:160|24:111,1,84.4999961318971,4|0,0:0|0:0,0:0:0:0:
76,17,16432,1,0,0:0:0:0:
189,53,16663,2,0,L|277:62,1,84.4999961318971,0|8,0:0|0:0,0:0:0:0:
374,28,17125,1,0,0:0:0:0:
471,76,17355,1,0,0:0:0:0:
467,98,17432,1,0,0:0:0:0:
471,120,17509,2,0,L|482:162,1,28.1666653772991,0|8,0:0|0:0,0:0:0:0:
509,258,17817,6,0,L|413:271,1,84.4999961318971,4|0,0:0|0:0,0:0:0:0:
347,343,18278,1,0,0:0:0:0:
255,284,18509,2,0,P|273:246|266:192,1,84.4999961318971,8|0,0:0|0:0,0:0:0:0:
229,106,18971,1,0,0:0:0:0:
324,44,19202,1,8,0:0:0:0:
345,49,19278,1,0,0:0:0:0:
366,54,19355,2,0,L|415:65,1,28.1666653772991,0|8,0:0|0:0,0:0:0:0:
512,144,19663,6,0,L|411:156,1,84.4999961318971,4|0,0:0|0:0,0:0:0:0:
341,221,20125,1,0,0:0:0:0:
323,334,20355,2,0,P|281:324|229:341,1,84.4999961318971,0|8,0:0|0:0,0:0:0:0:
142,365,20817,1,0,0:0:0:0:
44,305,21048,1,0,0:0:0:0:
48,282,21125,1,0,0:0:0:0:
51,260,21202,2,0,L|58:213,1,28.1666653772991,0|0,0:0|0:0,0:0:0:0:
36,115,21509,6,0,L|111:126,2,56.3333307545981,4|0|0,0:0|0:0|0:0,0:0:0:0:
127,40,21971,2,0,L|183:32,2,56.3333307545981,4|0|0,0:0|0:0|0:0,0:0:0:0:
195,145,22432,2,0,L|270:156,2,56.3333307545981,12|0|0,0:0|0:0|0:0,0:0:0:0:
293,58,22894,2,0,L|352:51,2,56.3333307545981,12|8|0,0:0|0:0|0:0,0:0:0:0:
195,144,23355,6,0,L|185:255,1,84.4999961318971,4|0,0:0|0:0,0:0:0:0:
108,323,23817,1,0,0:0:0:0:
218,372,24048,2,0,P|259:362|305:370,1,84.4999961318971,0|8,0:0|0:0,0:0:0:0:
419,384,24509,1,0,0:0:0:0:
494,291,24740,1,0,0:0:0:0:
496,268,24817,1,0,0:0:0:0:
497,245,24894,2,0,L|501:199,1,28.1666653772991,0|8,0:0|0:0,0:0:0:0:
423,148,25202,6,0,P|406:105|408:63,1,84.4999961318971,4|0,0:0|0:0,0:0:0:0:
314,0,25663,1,0,0:0:0:0:
219,52,25894,2,0,L|128:62,1,84.4999961318971,8|0,0:0|0:0,0:0:0:0:
38,137,26355,1,0,0:0:0:0:
143,189,26586,1,8,0:0:0:0:
146,211,26663,1,0,0:0:0:0:
149,233,26740,2,0,L|155:281,1,28.1666653772991,0|8,0:0|0:0,0:0:0:0:
92,356,27048,6,0,P|140:375|189:366,1,84.4999961318971,4|0,0:0|0:0,0:0:0:0:
264,314,27509,1,0,0:0:0:0:
353,372,27740,2,0,L|451:361,1,84.4999961318971,0|8,0:0|0:0,0:0:0:0:
490,261,28202,1,0,0:0:0:0:
404,162,28432,1,0,0:0:0:0:
488,63,28663,1,4,0:0:0:0:
339,17,28894,6,0,L|320:94,2,56.3333307545981,4|0|0,0:0|0:0|0:0,0:0:0:0:
220,79,29355,2,0,L|239:156,2,56.3333307545981,4|0|0,0:0|0:0|0:0,0:0:0:0:
325,177,29817,6,0,L|314:255,2,56.3333307545981,12|0|0,0:0|0:0|0:0,0:0:0:0:
229,247,30278,2,0,L|238:323,2,56.3333307545981,4|0|0,0:0|0:0|0:0,0:0:0:0:
349,371,30740,6,0,L|457:359,1,97.50000371933,4|0,0:0|0:0,0:0:0:0:
484,260,31202,2,0,B|473:222|473:222|481:164,2,65.0000024795533,0|0|0,0:0|0:0|0:0,0:0:0:0:
496,107,31663,2,0,L|383:90,1,97.50000371933,8|0,0:0|0:0,0:0:0:0:
294,19,32125,2,0,B|255:27|255:27|207:61,2,65.0000024795533,0|0|0,0:0|0:0|0:0,0:0:0:0:
305,114,32586,6,0,L|282:232,1,97.50000371933,4|0,0:0|0:0,0:0:0:0:
176,293,33048,1,0,0:0:0:0:
178,317,33125,1,0,0:0:0:0:
180,344,33202,2,0,L|185:394,2,32.5000012397767,0|0|0,0:0|0:0|0:0,0:0:0:0:
67,351,33509,2,0,P|39:319|45:248,1,97.50000371933,8|0,0:0|0:0,0:0:0:0:
72,181,33971,2,0,L|159:192,1,48.750001859665,0|0,0:0|0:0,0:0:0:0:
210,121,34202,2,0,L|123:110,1,48.750001859665,0|0,0:0|0:0,0:0:0:0:
156,31,34432,6,0,L|261:21,1,97.50000371933,4|0,0:0|0:0,0:0:0:0:
356,30,34894,2,0,B|350:65|350:65|361:107,2,65.0000024795533,0|0|0,0:0|0:0|0:0,0:0:0:0:
453,67,35355,2,0,P|449:129|414:177,1,97.50000371933,8|0,0:0|0:0,0:0:0:0:
497,226,35817,2,0,P|446:262|387:266,1,97.50000371933,0|0,0:0|0:0,0:0:0:0:
386,364,36278,2,0,P|325:349|284:306,1,97.50000371933,4|0,0:0|0:0,0:0:0:0:
222,286,36740,1,0,0:0:0:0:
137,297,36971,1,0,0:0:0:0:
66,351,37202,2,0,P|44:305|60:217,1,130,8|0,0:0|0:0,0:0:0:0:
114,149,37663,1,8,0:0:0:0:
118,132,37740,1,8,0:0:0:0:
123,115,37817,2,0,L|135:67,1,43.3333333333333,8|8,0:0|0:0,0:0:0:0:
232,30,38125,6,0,P|278:44|366:34,1,97.50000371933,4|0,0:0|0:0,0:0:0:0:
431,34,38586,2,0,P|452:88|446:122,1,65.0000024795533,0|0,0:0|0:0,0:0:0:0:
442,176,38894,1,0,0:0:0:0:
482,252,39048,2,0,L|472:367,1,97.50000371933,8|0,0:0|0:0,0:0:0:0:
371,366,39509,2,0,L|284:355,1,65.0000024795533,0|0,0:0|0:0,0:0:0:0:
222,304,39817,1,0,0:0:0:0:
112,353,39971,6,0,P|126:297|113:249,1,97.50000371933,4|0,0:0|0:0,0:0:0:0:
61,187,40432,2,0,L|54:113,1,65.0000024795533,0|0,0:0|0:0,0:0:0:0:
88,29,40740,1,0,0:0:0:0:
196,35,40894,6,0,B|235:52|235:52|283:50,2,86.6666666666667,8|0|0,0:0|0:0|0:0,0:0:0:0:
277,143,41355,2,0,B|319:138|319:138|359:112,2,86.6666666666667,8|0|0,0:0|0:0|0:0,0:0:0:0:
146,143,41817,6,0,L|165:280,1,130.000004959107,4|0,0:0|0:0,0:0:0:0:
237,341,42278,2,0,L|330:351,1,65.0000024795533,0|0,0:0|0:0,0:0:0:0:
393,317,42586,1,0,0:0:0:0:
472,253,42740,2,0,P|475:188|516:140,1,97.50000371933,8|0,0:0|0:0,0:0:0:0:
405,114,43202,2,0,P|449:66|511:55,1,97.50000371933,0|0,0:0|0:0,0:0:0:0:
332,34,43663,6,0,L|226:45,1,97.50000371933,4|0,0:0|0:0,0:0:0:0:
132,93,44125,1,0,0:0:0:0:
42,29,44355,1,0,0:0:0:0:
23,142,44586,6,0,L|29:215,1,48.750001859665,8|8,0:0|0:0,0:0:0:0:
74,258,44817,2,0,L|68:331,1,48.750001859665,0|0,0:0|0:0,0:0:0:0:
162,377,45048,2,0,L|158:328,1,48.750001859665,8|8,0:0|0:0,0:0:0:0:
249,321,45278,2,0,L|252:272,1,48.750001859665,8|8,0:0|0:0,0:0:0:0:
211,180,45509,6,0,P|224:101|283:33,1,162.5,4|0,0:0|0:0,0:0:0:0:
361,12,46125,1,0,0:0:0:0:
454,31,46278,1,0,0:0:0:0:
511,108,46432,2,0,L|500:271,1,162.5,8|0,0:0|0:0,0:0:0:0:
438,345,47048,1,0,0:0:0:0:
345,363,47202,1,0,0:0:0:0:
251,323,47355,2,0,L|187:334,2,54.1666666666667,0|0|0,0:0|0:0|0:0,0:0:0:0:
178,250,47817,2,0,L|113:244,2,54.1666666666667,0|0|0,0:0|0:0|0:0,0:0:0:0:
250,191,48278,2,0,P|261:153|261:119,1,54.1666666666667,8|0,0:0|0:0,0:0:0:0:
254,55,48586,1,0,0:0:0:0:
178,9,48740,2,0,P|137:33|62:34,1,108.333333333333,0|0,0:0|0:0,0:0:0:0:
15,117,49202,6,0,P|18:213|52:298,1,162.5,4|0,0:0|0:0,0:0:0:0:
100,346,49817,1,0,0:0:0:0:
192,362,49971,1,0,0:0:0:0:
283,338,50125,2,0,L|361:351,2,54.1666666666667,8|0|0,0:0|0:0|0:0,0:0:0:0:
220,275,50586,2,0,P|222:243|236:212,1,54.1666666666667,0|0,0:0|0:0,0:0:0:0:
283,152,50894,1,0,0:0:0:0:
354,93,51048,6,0,P|373:129|380:169,2,75.8333340565364,4|0|0,0:0|0:0|0:0,0:0:0:0:
283,152,51509,2,0,P|242:150|204:136,2,75.8333340565364,4|0|0,0:0|0:0|0:0,0:0:0:0:
266,67,51971,2,0,P|287:32|318:6,2,75.8333340565364,12|0|0,0:0|0:0|0:0,0:0:0:0:
283,152,52432,1,0,0:0:0:0:
334,219,52586,2,0,L|324:307,1,75.8333340565364,0|0,0:0|0:0,0:0:0:0:
252,362,52894,6,0,P|155:371|55:316,1,195.00000743866,4|0,0:0|0:0,0:0:0:0:
26,258,53509,1,0,0:0:0:0:
22,171,53663,1,0,0:0:0:0:
61,91,53817,2,0,L|50:20,2,65.0000024795533,8|0|0,0:0|0:0|0:0,0:0:0:0:
111,161,54278,2,0,P|148:172|191:170,1,65.0000024795533,0|0,0:0|0:0,0:0:0:0:
256,141,54586,1,0,0:0:0:0:
312,71,54740,6,0,P|419:92|460:176,1,195.00000743866,0|0,0:0|0:0,0:0:0:0:
464,251,55355,1,0,0:0:0:0:
430,333,55509,1,0,0:0:0:0:
346,372,55663,2,0,L|270:380,2,65.0000024795533,8|0|0,0:0|0:0|0:0,0:0:0:0:
260,296,56125,2,0,L|195:289,2,65.0000024795533,0|0|0,0:0|0:0|0:0,0:0:0:0:
137,366,56586,6,0,P|102:276|157:199,1,195.00000743866,4|0,0:0|0:0,0:0:0:0:
208,132,57202,2,0,P|214:90|204:57,1,65.0000024795533,0|0,0:0|0:0,0:0:0:0:
124,6,57509,1,8,0:0:0:0:
25,42,57663,2,0,L|4:132,1,65.0000024795533,2|2,3:2|3:2,0:0:0:0:
0,204,57971,2,0,L|4:290,1,65.0000024795533,2|2,3:2|3:2,0:0:0:0:
71,354,58278,2,0,L|118:364,1,32.5000012397767,2|2,3:2|3:2,0:0:0:0:
137,364,58432,6,0,P|186:349|210:324,2,65.0000024795533,6|2|2,3:2|3:2|3:2,0:0:0:0:
274,374,58894,2,0,P|294:326|290:292,2,65.0000024795533,6|2|2,3:2|3:2|3:2,0:0:0:0:
375,270,59355,2,0,P|351:224|322:205,2,65.0000024795533,14|2|2,3:2|3:2|3:2,0:0:0:0:
362,125,59817,2,0,P|312:113|278:123,2,65.0000024795533,6|2|2,3:2|3:2|3:2,0:0:0:0:
472,22,60278,6,0,L|480:107,1,83.2,0|0,0:0|0:0,0:0:0:0:
436,174,60894,2,0,L|431:223,1,27.7333333333333,0|0,0:0|0:0,0:0:0:0:
476,282,61202,2,0,L|386:299,1,83.2,8|0,0:0|0:0,0:0:0:0:
337,358,61817,2,0,L|295:349,1,27.7333333333333,0|0,0:0|0:0,0:0:0:0:
198,381,62125,6,0,P|215:336|208:294,1,83.2,0|0,0:0|0:0,0:0:0:0:
134,263,62740,2,0,P|130:245|133:228,1,27.7333333333333,0|0,0:0|0:0,0:0:0:0:
191,161,63048,2,0,P|147:142|95:147,1,83.2,8|0,0:0|0:0,0:0:0:0:
28,103,63663,2,0,P|24:85|27:68,1,27.7333333333333,0|0,0:0|0:0,0:0:0:0:
106,27,63971,6,0,L|188:17,1,83.2,0|0,0:0|0:0,0:0:0:0:
259,71,64586,2,0,L|306:78,1,27.7333333333333,0|0,0:0|0:0,0:0:0:0:
376,47,64894,2,0,L|385:129,1,83.2,8|0,0:0|0:0,0:0:0:0:
316,191,65509,2,0,L|309:238,1,27.7333333333333,0|0,0:0|0:0,0:0:0:0:
353,306,65817,2,0,L|358:354,2,27.7333333333333,0|0|0,0:0|0:0|0:0,0:0:0:0:
267,333,66278,2,0,L|272:381,2,27.7333333333333,0|0|0,0:0|0:0|0:0,0:0:0:0:
179,317,66740,2,0,L|184:365,2,27.7333333333333,8|0|0,0:0|0:0|0:0,0:0:0:0:
91,343,67202,2,0,L|96:391,2,27.7333333333333,0|0|0,0:0|0:0|0:0,0:0:0:0:
26,278,67663,6,0,P|36:236|27:182,1,83.2,0|0,0:0|0:0,0:0:0:0:
13,113,68278,2,0,P|11:94|15:76,1,27.7333333333333,0|0,0:0|0:0,0:0:0:0:
36,9,68586,2,0,L|109:27,1,55.4666666666667,8|0,0:0|0:0,0:0:0:0:
177,32,69048,2,0,L|182:88,1,32.5000012397767,0|0,0:0|0:0,0:0:0:0:
184,114,69355,1,0,0:0:0:0:
160,195,69509,6,0,L|164:235,2,27.7333333333333,0|0|0,0:0|0:0|0:0,0:0:0:0:
248,218,69971,2,0,L|252:258,2,27.7333333333333,0|0|0,0:0|0:0|0:0,0:0:0:0:
324,171,70432,2,0,L|328:211,2,27.7333333333333,8|0|0,0:0|0:0|0:0,0:0:0:0:
412,197,70894,2,0,L|416:237,2,27.7333333333333,0|0|0,0:0|0:0|0:0,0:0:0:0:
491,125,71355,5,0,0:0:0:0:
491,125,71509,1,0,0:0:0:0:
491,125,71663,1,0,0:0:0:0:
491,125,71817,2,0,L|487:48,1,55.4666666666667,0|0,0:0|0:0,0:0:0:0:
381,101,72278,5,8,0:0:0:0:
381,101,72432,1,0,0:0:0:0:
381,101,72586,1,0,0:0:0:0:
381,101,72740,2,0,L|377:24,1,55.4666666666667,0|0,0:0|0:0,0:0:0:0:
278,80,73202,5,0,0:0:0:0:
278,80,73356,1,0,0:0:0:0:
278,80,73510,1,0,0:0:0:0:
278,80,73664,2,0,L|274:3,1,55.4666666666667,0|0,0:0|0:0,0:0:0:0:
150,47,74125,2,0,L|104:52,2,27.7333333333333,8|8|0,0:0|0:0|0:0,0:0:0:0:
70,119,74586,2,0,L|24:124,2,27.7333333333333,0|0|8,0:0|0:0|0:0,0:0:0:0:
14,230,75048,6,0,P|28:299|137:352,1,195.00000743866,4|0,0:0|0:0,0:0:0:0:
220,330,75663,2,0,P|267:328|295:338,1,65.0000024795533,0|0,0:0|0:0,0:0:0:0:
409,369,75980,1,8,0:0:0:0:
317,231,76191,1,8,0:0:0:0:
481,243,76442,2,0,P|478:196|488:161,1,65.0000024795533,0|0,0:0|0:0,0:0:0:0:
503,95,76749,1,0,0:0:0:0:
452,21,76903,6,0,P|349:53|267:22,1,195.00000743866,0|0,0:0|0:0,0:0:0:0:
186,61,77518,2,0,L|119:67,1,65.0000024795533,0|0,0:0|0:0,0:0:0:0:
9,123,77826,1,8,0:0:0:0:
82,228,78056,1,0,0:0:0:0:
42,345,78287,2,0,L|120:359,1,48.750001859665,0|0,0:0|0:0,0:0:0:0:
179,316,78518,2,0,L|262:302,1,48.750001859665,0|0,0:0|0:0,0:0:0:0:
306,359,78749,6,0,P|377:351|428:246,1,195.00000743866,4|0,0:0|0:0,0:0:0:0:
401,169,79364,2,0,P|398:121|409:90,1,65.0000024795533,0|0,0:0|0:0,0:0:0:0:
402,19,79672,2,0,P|323:67|312:91,1,97.50000371933,8|0,0:0|0:0,0:0:0:0:
229,22,80133,2,0,P|223:113|236:137,1,97.50000371933,0|0,0:0|0:0,0:0:0:0:
134,166,80595,2,0,P|211:216|237:216,1,97.50000371933,12|0,0:0|0:0,0:0:0:0:
348,215,81056,1,0,0:0:0:0:
286,333,81287,1,0,0:0:0:0:
426,347,81518,6,0,P|456:274|459:232,1,97.50000371933,8|0,0:0|0:0,0:0:0:0:
451,116,81979,1,8,0:0:0:0:
453,103,82056,1,8,0:0:0:0:
455,90,82133,2,0,L|464:49,1,32.5000012397767,8|0,0:0|0:0,0:0:0:0:
379,16,82441,6,0,L|242:25,1,130.000004959107,4|0,0:0|0:0,0:0:0:0:
176,78,82903,2,0,P|138:80|98:70,1,65.0000024795533,0|0,0:0|0:0,0:0:0:0:
38,17,83210,1,0,0:0:0:0:
17,108,83364,2,0,P|16:167|40:241,1,130.000004959107,8|0,0:0|0:0,0:0:0:0:
111,287,83826,2,0,L|121:358,1,65.0000024795533,0|0,0:0|0:0,0:0:0:0:
215,361,84133,1,0,0:0:0:0:
305,326,84287,6,0,P|372:311|441:345,1,130.000004959107,4|0,0:0|0:0,0:0:0:0:
491,270,84749,2,0,L|482:197,1,65.0000024795533,0|0,0:0|0:0,0:0:0:0:
426,126,85056,1,0,0:0:0:0:
344,65,85210,2,0,B|322:102|322:102|318:162,2,86.6666666666667,8|0|0,0:0|0:0|0:0,0:0:0:0:
232,133,85672,2,0,B|235:175|235:175|266:227,2,86.6666666666667,8|0|8,0:0|0:0|0:0,0:0:0:0:
183,40,86133,6,0,P|93:46|31:22,1,130.000004959107,4|0,0:0|0:0,0:0:0:0:
26,127,86595,2,0,L|31:212,1,65.0000024795533,0|0,0:0|0:0,0:0:0:0:
80,267,86903,1,0,0:0:0:0:
29,351,87056,2,0,P|82:362|148:346,1,97.50000371933,8|0,0:0|0:0,0:0:0:0:
80,267,87518,2,0,P|129:245|174:194,1,97.50000371933,0|0,0:0|0:0,0:0:0:0:
79,162,87979,2,0,P|107:115|115:48,1,97.50000371933,4|0,0:0|0:0,0:0:0:0:
237,19,88441,1,0,0:0:0:0:
355,71,88672,1,0,0:0:0:0:
488,45,88903,6,0,P|470:132|490:205,1,130,8|0,0:0|0:0,0:0:0:0:
505,256,89339,1,8,0:0:0:0:
504,276,89396,1,8,0:0:0:0:
503,291,89454,2,0,L|501:330,2,32.5,8|0|0,0:0|0:0|0:0,0:0:0:0:
428,382,89711,1,0,0:0:0:0:
344,342,89826,6,0,P|306:334|248:347,1,84.4999961318971,4|0,0:0|0:0,0:0:0:0:
143,371,90287,1,0,0:0:0:0:
24,348,90518,2,0,P|40:309|36:263,1,84.4999961318971,0|8,0:0|0:0,0:0:0:0:
6,155,90979,1,0,0:0:0:0:
63,50,91210,1,0,0:0:0:0:
74,47,91287,1,0,0:0:0:0:
84,44,91364,2,0,L|130:34,1,28.1666653772991,0|8,0:0|0:0,0:0:0:0:
214,12,91672,6,0,P|215:49|237:102,1,84.4999961318971,4|0,0:0|0:0,0:0:0:0:
345,125,92133,1,0,0:0:0:0:
379,241,92364,2,0,L|370:335,1,84.4999961318971,8|0,0:0|0:0,0:0:0:0:
265,374,92826,1,0,0:0:0:0:
169,314,93056,1,8,0:0:0:0:
167,302,93133,1,0,0:0:0:0:
165,290,93210,2,0,L|160:242,1,28.1666653772991,0|8,0:0|0:0,0:0:0:0:
76,179,93518,6,0,P|110:153|165:144,1,84.4999961318971,4|0,0:0|0:0,0:0:0:0:
237,69,93979,1,0,0:0:0:0:
338,27,94210,2,0,L|444:42,1,84.4999961318971,0|8,0:0|0:0,0:0:0:0:
502,137,94672,1,0,0:0:0:0:
440,242,94902,1,0,0:0:0:0:
442,252,94979,1,0,0:0:0:0:
444,263,95056,2,0,L|451:311,1,28.1666653772991,0|8,0:0|0:0,0:0:0:0:
328,360,95364,6,0,L|261:370,2,56.3333307545981,4|0|0,0:0|0:0|0:0,0:0:0:0:
257,275,95826,2,0,L|201:266,2,56.3333307545981,4|0|0,0:0|0:0|0:0,0:0:0:0:
158,356,96287,2,0,L|91:366,2,56.3333307545981,12|0|0,0:0|0:0|0:0,0:0:0:0:
87,271,96749,2,0,L|31:262,2,56.3333307545981,8|8|0,0:0|0:0|0:0,0:0:0:0:
51,150,97210,6,0,P|59:110|53:58,1,84.4999961318971,4|0,0:0|0:0,0:0:0:0:
156,3,97672,1,0,0:0:0:0:
253,63,97902,2,0,P|301:73|356:62,1,84.4999961318971,0|8,0:0|0:0,0:0:0:0:
448,26,98364,1,0,0:0:0:0:
502,138,98595,1,0,0:0:0:0:
500,149,98672,1,0,0:0:0:0:
499,160,98749,2,0,L|494:209,1,28.1666653772991,0|8,0:0|0:0,0:0:0:0:
496,299,99056,6,0,L|392:313,1,84.4999961318971,4|0,0:0|0:0,0:0:0:0:
307,366,99518,1,0,0:0:0:0:
216,300,99749,2,0,P|208:255|227:212,1,84.4999961318971,8|0,0:0|0:0,0:0:0:0:
298,128,100210,1,0,0:0:0:0:
236,19,100441,1,8,0:0:0:0:
225,22,100518,1,0,0:0:0:0:
214,26,100595,2,0,L|165:39,1,28.1666653772991,0|8,0:0|0:0,0:0:0:0:
68,72,100902,6,0,L|86:176,1,84.4999961318971,4|0,0:0|0:0,0:0:0:0:
41,266,101364,1,0,0:0:0:0:
128,348,101595,2,0,P|172:335|224:342,1,84.4999961318971,0|0,0:0|0:0,0:0:0:0:
330,374,102056,1,0,0:0:0:0:
446,309,102287,1,0,0:0:0:0:
448,297,102364,1,0,0:0:0:0:
449,285,102441,2,0,L|456:243,1,28.1666653772991,0|0,0:0|0:0,0:0:0:0:
478,132,102749,6,0,L|418:146,2,56.3333307545981,4|0|0,0:0|0:0|0:0,0:0:0:0:
415,55,103210,2,0,L|355:41,2,56.3333307545981,4|0|0,0:0|0:0|0:0,0:0:0:0:
318,133,103672,2,0,L|258:147,2,56.3333307545981,8|0|0,0:0|0:0|0:0,0:0:0:0:
255,56,104133,2,0,L|195:42,2,56.3333307545981,0|0|0,0:0|0:0|0:0,0:0:0:0:
96,113,104595,1,4,0:0:0:0:
256,192,104672,12,0,105979,0:0:0:0:
69,188,106441,6,8,P|69:166|71:145,2,42.2499980659486,8|8|8,0:0|0:0|0:0,0:0:0:0:
86,274,106787,2,0,P|92:291|148:334,1,84.4999961318971,0|0,0:0|0:0,0:0:0:0:
228,319,107133,2,0,L|310:331,1,42.2499980659486,0|0,0:0|0:0,0:0:0:0:
401,343,107364,5,4,0:0:0:0:
428,290,108056,1,4,0:0:0:0:
432,229,108749,1,4,0:0:0:0:
142,34,110133,1,4,0:0:0:0:
142,34,111979,6,0,L|153:104,1,42.2499980659486,0|0,0:0|0:0,0:0:0:0:
103,144,112210,2,0,L|92:214,1,42.2499980659486,0|0,0:0|0:0,0:0:0:0:
142,256,112441,1,0,0:0:0:0:
340,320,112902,5,4,0:0:0:0:
322,270,113595,1,4,0:0:0:0:
336,215,114287,1,4,0:0:0:0:
41,99,115672,6,0,P|36:164|56:203,2,86.6666666666667,12|8|8,0:0|0:0|0:0,0:0:0:0:
113,34,116133,1,8,0:0:0:0:
113,34,116210,1,0,0:0:0:0:
113,34,116287,2,0,L|215:51,1,86.6666666666667,8|8,0:0|0:0,0:0:0:0:
271,108,116595,2,0,P|281:159|257:231,2,86.6666666666667,8|8|8,0:0|0:0|0:0,0:0:0:0:
309,20,117056,2,0,P|346:56|368:128,2,86.6666666666667,8|8|8,0:0|0:0|0:0,0:0:0:0:
198,48,117518,2,0,L|96:62,1,86.6666666666667,8|8,0:0|0:0,0:0:0:0:
23,91,117826,1,0,0:0:0:0:
92,156,117979,2,0,L|177:144,2,86.6666666666667,8|8|8,0:0|0:0|0:0,0:0:0:0:
102,256,118441,6,0,P|92:307|116:379,2,86.6666666666667,12|8|8,0:0|0:0|0:0,0:0:0:0:
221,237,118902,1,8,0:0:0:0:
221,237,118979,1,0,0:0:0:0:
221,237,119056,2,0,L|316:251,1,86.6666666666667,8|8,0:0|0:0,0:0:0:0:
395,292,119364,2,0,P|405:343|381:415,2,86.6666666666667,8|8|8,0:0|0:0|0:0,0:0:0:0:
435,198,119826,2,0,P|472:234|494:306,2,86.6666666666667,8|8|8,0:0|0:0|0:0,0:0:0:0:
306,249,120287,2,0,L|213:241,1,86.6666666666667,8|8,0:0|0:0,0:0:0:0:
120,226,120595,1,8,0:0:0:0:
176,147,120749,2,0,L|263:155,2,86.6666666666667,8|8|8,0:0|0:0|0:0,0:0:0:0:
388,203,121210,6,0,P|398:254|374:326,2,86.6666666666667,12|8|8,0:0|0:0|0:0,0:0:0:0:
306,249,121672,1,8,0:0:0:0:
306,249,121749,1,0,0:0:0:0:
306,249,121826,2,0,L|207:264,1,86.6666666666667,8|8,0:0|0:0,0:0:0:0:
131,291,122133,2,0,P|120:342|145:414,2,86.6666666666667,8|8|8,0:0|0:0|0:0,0:0:0:0:
90,200,122595,2,0,P|52:236|30:308,2,86.6666666666667,8|8|8,0:0|0:0|0:0,0:0:0:0:
220,261,123056,2,0,L|313:269,1,86.6666666666667,8|8,0:0|0:0,0:0:0:0:
399,268,123364,1,8,0:0:0:0:
358,183,123518,2,0,L|272:176,2,86.6666666666667,8|8|8,0:0|0:0|0:0,0:0:0:0:
446,132,123979,6,0,P|456:183|432:255,2,86.6666666666667,12|8|8,0:0|0:0|0:0,0:0:0:0:
367,59,124441,1,8,0:0:0:0:
367,59,124518,1,0,0:0:0:0:
367,59,124595,2,0,L|268:74,1,86.6666666666667,8|8,0:0|0:0,0:0:0:0:
196,115,124902,2,0,P|185:166|210:238,2,86.6666666666667,8|8|8,0:0|0:0|0:0,0:0:0:0:
155,24,125364,2,0,P|117:60|95:132,2,86.6666666666667,8|8|8,0:0|0:0|0:0,0:0:0:0:
281,71,125826,1,8,0:0:0:0:
281,71,125902,1,8,0:0:0:0:
281,71,125979,2,0,L|391:82,1,86.6666666666667,8|0,0:0|0:0,0:0:0:0:
429,149,126287,1,8,0:0:0:0:
429,149,126364,1,8,0:0:0:0:
429,149,126441,2,0,L|421:242,1,86.6666666666667,8|0,0:0|0:0,0:0:0:0:
443,337,126749,6,0,P|473:325|499:306,2,65.0000024795533,4|0|0,0:0|0:0|0:0,0:0:0:0:
343,309,127210,2,0,L|267:329,1,65.0000024795533,4|0,0:0|0:0,0:0:0:0:
180,291,127518,1,0,0:0:0:0:
66,292,127672,2,0,P|40:345|39:365,2,65.0000024795533,12|0|0,0:0|0:0|0:0,0:0:0:0:
48,184,128133,2,0,P|2:221|-7:238,2,65.0000024795533,0|0|0,0:0|0:0|0:0,0:0:0:0:
76,83,128595,6,0,L|152:70,1,65.0000024795533,4|0,0:0|0:0,0:0:0:0:
233,23,128902,1,0,0:0:0:0:
318,98,129056,2,0,L|308:181,1,65.0000024795533,4|0,0:0|0:0,0:0:0:0:
263,251,129364,1,0,0:0:0:0:
168,295,129518,6,0,P|160:353|166:372,2,65.0000024795533,12|0|0,0:0|0:0|0:0,0:0:0:0:
263,251,129979,2,0,L|354:264,1,65.0000024795533,0|0,0:0|0:0,0:0:0:0:
407,318,130287,1,0,0:0:0:0:
493,249,130441,2,0,P|491:216|482:185,2,65.0000024795533,4|0|0,0:0|0:0|0:0,0:0:0:0:
407,318,130902,2,0,P|382:296|354:280,2,65.0000024795533,4|0|0,0:0|0:0|0:0,0:0:0:0:
313,374,131364,6,0,L|229:359,1,65.0000024795533,12|0,0:0|0:0,0:0:0:0:
160,320,131672,1,0,0:0:0:0:
63,344,131826,2,0,L|48:264,1,65.0000024795533,0|0,0:0|0:0,0:0:0:0:
28,184,132133,1,0,0:0:0:0:
74,88,132287,6,0,P|71:48|57:23,2,65.0000024795533,4|0|0,0:0|0:0|0:0,0:0:0:0:
139,171,132749,2,0,L|210:181,1,65.0000024795533,4|0,0:0|0:0,0:0:0:0:
292,136,133056,1,0,0:0:0:0:
379,185,133210,2,0,P|362:243|344:257,2,65.0000024795533,12|0|0,0:0|0:0|0:0,0:0:0:0:
425,305,133672,2,0,P|385:350|362:355,2,65.0000024795533
496,232,134133,6,0,L|504:161,1,65.0000024795533,4|0,0:0|0:0,0:0:0:0:
462,72,134441,1,0,0:0:0:0:
370,27,134595,2,0,L|285:29,1,65.0000024795533,4|0,0:0|0:0,0:0:0:0:
217,74,134902,1,0,0:0:0:0:
103,61,135056,6,0,P|105:28|118:0,2,65.0000024795533,12|0|0,0:0|0:0|0:0,0:0:0:0:
134,147,135518,2,0,L|123:222,1,65.0000024795533,0|0,0:0|0:0,0:0:0:0:
177,288,135826,1,0,0:0:0:0:
255,221,135979,2,0,L|264:156,1,65.0000024795533,4|0,0:0|0:0,0:0:0:0:
325,77,136287,1,0,0:0:0:0:
413,118,136441,2,0,L|422:182,1,65.0000024795533,4|0,0:0|0:0,0:0:0:0:
438,273,136749,1,0,0:0:0:0:
335,309,136902,5,8,0:0:0:0:
335,309,136979,1,8,0:0:0:0:
335,309,137056,2,0,L|329:373,1,65.0000024795533,0|8,0:0|0:0,0:0:0:0:
220,320,137364,1,8,0:0:0:0:
220,320,137441,1,8,0:0:0:0:
220,320,137518,2,0,L|193:394,1,65.0000024795533,8|0,0:0|0:0,0:0:0:0:
81,358,137826,6,0,B|94:301|94:301|84:220,1,130,4|8,0:0|0:0,0:0:0:0:
26,107,138644,2,0,P|40:62|88:18,1,97.4999970245362,0|0,0:0|0:0,0:0:0:0:
108,11,139162,1,8,0:0:0:0:
233,42,139462,2,0,P|266:47|323:38,1,65,0|0,0:0|0:0,0:0:0:0:
387,22,139871,1,0,0:0:0:0:
458,77,140007,2,0,L|464:125,1,32.5,4|8,0:0|0:0,0:0:0:0:
388,132,140280,2,0,L|381:179,1,32.5,8|8,0:0|0:0,0:0:0:0:
447,213,140552,2,0,L|453:261,1,32.5,0|0,0:0|0:0,0:0:0:0:
377,268,140825,2,0,L|370:315,1,32.5,0|0,0:0|0:0,0:0:0:0:
282,350,141098,6,0,B|222:337|222:337|145:353,1,130,4|0,0:0|0:0,0:0:0:0:
20,323,141916,2,0,P|44:287|51:235,1,86.6666666666667,0|0,0:0|0:0,0:0:0:0:
42,157,142426,2,0,L|36:114,1,32.5,8|0,0:0|0:0,0:0:0:0:
25,34,142698,2,0,P|74:47|159:27,1,121.875,0|0,0:0|0:0,0:0:0:0:
179,22,143175,1,0,0:0:0:0:
220,6,143285,6,0,P|261:-1|301:5,1,65,12|0,0:0|0:0,0:0:0:0:
430,71,143830,2,0,L|434:116,1,32.5,8|8,0:0|0:0,0:0:0:0:
483,184,144103,2,0,L|479:229,1,32.5,0|0,0:0|0:0,0:0:0:0:
390,308,144370,2,0,P|374:257|378:211,1,97.5,4|0,0:0|0:0,0:0:0:0:
336,139,144915,1,8,0:0:0:0:
246,34,145188,6,0,B|188:41|188:41|118:28,1,130,4|8,0:0|0:0,0:0:0:0:
17,128,146006,2,0,L|23:198,1,65,0|0,0:0|0:0,0:0:0:0:
30,284,146415,1,0,0:0:0:0:
90,351,146551,2,0,L|138:357,1,32.5,4|8,0:0|0:0,0:0:0:0:
145,281,146824,2,0,L|192:274,1,32.5,8|8,0:0|0:0,0:0:0:0:
226,340,147096,2,0,L|274:346,1,32.5,0|0,0:0|0:0,0:0:0:0:
281,270,147369,2,0,L|328:263,1,32.5,0|0,0:0|0:0,0:0:0:0:
416,353,147642,6,0,P|426:319|429:285,1,65,4|0,0:0|0:0,0:0:0:0:
400,209,148051,1,0,0:0:0:0:
446,136,148188,2,0,L|451:91,1,32.5,8|0,0:0|0:0,0:0:0:0:
412,29,148460,2,0,P|374:42|309:36,1,97.5,4|0,0:0|0:0,0:0:0:0:
228,73,149006,2,0,L|186:82,1,32.5,8|0,0:0|0:0,0:0:0:0:
101,32,149279,6,0,P|102:78|89:103,1,65,4|0,0:0|0:0,0:0:0:0:
33,161,149688,1,0,0:0:0:0:
49,251,149824,2,0,L|53:293,1,32.5,8|0,0:0|0:0,0:0:0:0:
128,328,150097,2,0,L|132:370,1,32.5,8|0,0:0|0:0,0:0:0:0:
210,271,150370,1,8,0:0:0:0:
210,271,150438,1,8,0:0:0:0:
210,271,150506,2,0,L|216:230,1,32.5,8|8,0:0|0:0,0:0:0:0:
271,179,150779,1,0,0:0:0:0:
344,210,150915,6,0,L|413:200,2,65,4|0|0,0:0|0:0|0:0,0:0:0:0:
427,288,151733,2,0,L|496:278,2,65,8|0|0,0:0|0:0|0:0,0:0:0:0:
317,355,152551,2,0,P|300:345|286:334,1,32.5,8|0,0:0|0:0,0:0:0:0:
208,351,152824,2,0,P|198:333|191:317,1,32.5,0|0,0:0|0:0,0:0:0:0:
109,309,153097,2,0,P|109:289|111:271,1,32.5,0|0,0:0|0:0,0:0:0:0:
38,211,153370,2,0,P|48:194|49:102,1,97.50000371933,8|4,0:0|0:0,0:0:0:0:
17,6,153915,1,4,0:0:0:0:
147,12,154188,6,0,P|183:28|275:17,1,130,4|0,0:0|0:0,0:0:0:0:
363,22,154597,1,0,0:0:0:0:
422,95,154733,2,0,P|415:131|424:163,1,65,0|0,0:0|0:0,0:0:0:0:
333,248,155006,2,0,P|340:212|331:180,1,65,8|0,0:0|0:0,0:0:0:0:
271,118,155279,1,0,0:0:0:0:
182,114,155415,1,0,0:0:0:0:
114,173,155551,2,0,L|125:248,1,65,0|0,0:0|0:0,0:0:0:0:
56,334,155824,6,0,P|85:347|191:336,1,130,4|0,0:0|0:0,0:0:0:0:
254,288,156233,1,0,0:0:0:0:
323,350,156370,2,0,P|356:346|390:354,1,65,0|0,0:0|0:0,0:0:0:0:
465,268,156642,2,0,P|430:273|398:264,1,65,8|0,0:0|0:0,0:0:0:0:
340,207,156915,1,0,0:0:0:0:
330,122,157051,1,0,0:0:0:0:
360,42,157188,2,0,L|433:53,1,65,0|0,0:0|0:0,0:0:0:0:
472,138,157460,6,0,L|465:267,1,130,4|0,0:0|0:0,0:0:0:0:
394,336,157870,1,0,0:0:0:0:
308,366,158006,2,0,P|279:372|244:366,1,65,0|0,0:0|0:0,0:0:0:0:
179,307,158279,1,8,0:0:0:0:
164,227,158415,1,0,0:0:0:0:
190,147,158551,2,0,P|204:114|204:86,1,65,0|0,0:0|0:0,0:0:0:0:
118,93,158824,2,0,P|116:57|104:31,1,65,0|0,0:0|0:0,0:0:0:0:
14,121,159097,6,0,P|29:186|10:263,1,130,4|0,0:0|0:0,0:0:0:0:
141,352,159642,2,0,L|275:370,1,130,0|8,0:0|0:0,0:0:0:0:
362,329,160051,1,8,0:0:0:0:
468,348,160188,2,0,P|457:300|494:220,1,130,0|0,0:0|0:0,0:0:0:0:
443,140,160597,1,0,0:0:0:0:
496,55,160733,6,0,L|363:38,1,130,4|0,0:0|0:0,0:0:0:0:
282,73,161142,2,0,L|213:85,1,65,0|0,0:0|0:0,0:0:0:0:
130,41,161415,1,0,0:0:0:0:
43,97,161551,1,8,0:0:0:0:
43,97,161620,1,0,0:0:0:0:
43,97,161688,2,0,P|43:169|65:244,1,130,0|0,0:0|0:0,0:0:0:0:
116,300,162097,2,0,L|103:379,1,65,0|0,0:0|0:0,0:0:0:0:
213,282,162370,5,4,0:0:0:0:
213,282,162438,1,0,0:0:0:0:
213,282,162506,2,0,P|271:247|349:269,1,130,0|0,0:0|0:0,0:0:0:0:
423,233,162915,2,0,L|410:154,1,65,0|0,0:0|0:0,0:0:0:0:
482,103,163188,5,8,0:0:0:0:
482,103,163256,1,0,0:0:0:0:
482,103,163324,2,0,P|424:68|346:90,1,130,0|0,0:0|0:0,0:0:0:0:
266,102,163733,2,0,L|193:84,1,65,0|0,0:0|0:0,0:0:0:0:
72,35,164006,6,0,P|81:72|56:165,1,130,4|0,0:0|0:0,0:0:0:0:
304,159,164551,2,0,P|267:148|199:80,1,130,0|12,0:0|0:0,0:0:0:0:
62,311,165097,2,0,P|89:284|182:259,1,130,0|0,0:0|0:0,0:0:0:0:
304,159,165642,2,0,B|400:101|412:190|500:137,1,203.125,4|0,0:0|0:0,0:0:0:0:
445,68,166460,2,0,L|391:52,1,40.625,8|0,0:0|0:0,0:0:0:0:
326,28,166733,2,0,L|271:40,1,40.625,4|8,0:0|0:0,0:0:0:0:
207,63,167006,1,8,0:0:0:0:
121,46,167142,1,8,0:0:0:0:
45,81,167279,6,0,P|54:121|46:199,2,113.750001084805,4|0|0,0:0|0:0|0:0,0:0:0:0:
0,274,168097,2,0,P|40:283|118:275,1,113.750001084805,12|0,0:0|0:0,0:0:0:0:
231,216,168642,1,0,0:0:0:0:
359,276,168915,2,0,P|368:236|360:158,2,113.750001084805,4|0|0,0:0|0:0|0:0,0:0:0:0:
424,73,169733,2,0,P|384:64|306:72,1,113.750001084805,12|0,0:0|0:0,0:0:0:0:
205,129,170279,1,0,0:0:0:0:
70,36,170551,6,0,P|49:103|13:138,1,113.750001084805,4|0,0:0|0:0,0:0:0:0:
13,272,171097,1,0,0:0:0:0:
131,348,171370,2,0,P|187:329|274:346,1,113.750001084805,12|0,0:0|0:0,0:0:0:0:
384,367,171915,1,0,0:0:0:0:
476,246,172188,2,0,P|496:198|496:181,1,56.8750005424023,4|0,0:0|0:0,0:0:0:0:
424,148,172460,2,0,P|417:96|408:81,1,56.8750005424023,0|0,0:0|0:0,0:0:0:0:
334,85,172733,2,0,P|302:43|287:35,1,56.8750005424023,0|0,0:0|0:0,0:0:0:0:
150,106,173006,6,0,L|157:41,1,65,12|0,0:0|0:0,0:0:0:0:
59,218,173279,2,0,L|0:244,1,65,0|0,0:0|0:0,0:0:0:0:
184,252,173551,2,0,L|236:290,1,65,0|0,0:0|0:0,0:0:0:0:
135,187,173824,1,4,0:0:0:0:
135,187,174233,5,0,0:0:0:0:
261,235,174506,1,0,0:0:0:0:
261,235,174642,2,0,P|291:259|318:359,1,130,8|0,0:0|0:0,0:0:0:0:
481,318,175460,2,0,L|491:245,1,65,0|0,0:0|0:0,0:0:0:0:
408,215,175870,2,0,L|403:146,1,65,0|0,0:0|0:0,0:0:0:0:
318,103,176279,1,0,0:0:0:0:
224,117,176415,2,0,L|142:133,1,65,0|0,0:0|0:0,0:0:0:0:
79,149,176824,1,0,0:0:0:0:
3,187,176960,1,0,0:0:0:0:
0,267,177097,6,0,P|38:286|82:288,1,65,4|0,0:0|0:0,0:0:0:0:
107,356,177506,2,0,L|164:347,1,32.5,0|0,0:0|0:0,0:0:0:0:
228,337,177779,1,0,0:0:0:0:
334,372,177915,2,0,P|317:338|339:265,1,97.5,8|0,0:0|0:0,0:0:0:0:
344,177,178460,2,0,L|350:147,2,16.25,0|0|0,0:0|0:0|0:0,0:0:0:0:
319,57,178733,6,0,L|325:27,2,16.25,0|0|0,0:0|0:0|0:0,0:0:0:0:
208,29,179006,2,0,L|214:-1,2,16.25,0|0|0,0:0|0:0|0:0,0:0:0:0:
100,72,179279,2,0,L|106:42,2,16.25,0|0|0,0:0|0:0|0:0,0:0:0:0:
23,166,179551,2,0,L|29:136,2,16.25,8|0|0,0:0|0:0|0:0,0:0:0:0:
22,285,179824,2,0,L|28:255,2,16.25,0|0|0,0:0|0:0|0:0,0:0:0:0:
149,347,180097,1,0,0:0:0:0:
160,348,180165,1,0,0:0:0:0:
171,347,180233,1,0,0:0:0:0:
290,294,180370,1,4,0:0:0:0:
256,192,180460,12,0,183097,0:0:0:0:
247,222,183607,6,0,L|256:288,1,65,0|0,0:0|0:0,0:0:0:0:
261,333,184169,1,0,0:0:0:0:
118,362,184425,6,0,L|127:296,1,65,0|0,0:0|0:0,0:0:0:0:
132,251,185001,1,0,0:0:0:0:
29,251,185287,1,0,0:0:0:0:
28,234,185531,1,0,0:0:0:0:
28,218,185805,1,0,0:0:0:0:
60,123,186067,5,0,0:0:0:0:
91,78,186333,1,0,0:0:0:0:
142,53,186588,1,0,0:0:0:0:
278,28,186915,6,0,L|286:112,1,65,0|0,0:0|0:0,0:0:0:0:
291,139,187445,1,0,0:0:0:0:
382,207,187731,6,0,L|390:123,1,65,0|0,0:0|0:0,0:0:0:0:
395,96,188281,1,0,0:0:0:0:
488,76,188556,1,0,0:0:0:0:
489,59,188827,1,0,0:0:0:0:
489,43,189098,1,0,0:0:0:0:
459,162,189361,5,0,0:0:0:0:
429,199,189631,1,0,0:0:0:0:
415,247,189877,1,0,0:0:0:0:
362,342,190186,6,0,L|284:358,1,65,0|0,0:0|0:0,0:0:0:0:
257,364,190737,1,0,0:0:0:0:
115,301,190983,6,0,L|193:285,1,65,0|0,0:0|0:0,0:0:0:0:
220,279,191534,1,0,0:0:0:0:
284,209,191808,1,0,0:0:0:0:
283,192,192089,1,0,0:0:0:0:
283,176,192371,1,0,0:0:0:0:
197,144,192645,5,0,0:0:0:0:
160,114,192891,1,0,0:0:0:0:
112,100,193148,1,0,0:0:0:0:
217,26,193410,6,0,P|245:32|292:35,1,65,0|0,0:0|0:0,0:0:0:0:
360,23,193993,1,0,0:0:0:0:
442,38,194268,6,0,P|448:71|443:105,1,65,0|0,0:0|0:0,0:0:0:0:
391,165,194818,1,0,0:0:0:0:
432,236,195095,2,0,L|437:306,1,65,0|0,0:0|0:0,0:0:0:0:
380,368,195637,1,0,0:0:0:0:
299,333,195909,2,0,L|219:329,1,65,0|0,0:0|0:0,0:0:0:0:
153,358,196470,1,0,0:0:0:0:
162,232,196740,6,0,P|129:243|83:236,1,65,0|0,0:0|0:0,0:0:0:0:
22,212,197275,1,0,0:0:0:0:
39,125,197520,6,0,P|72:114|118:121,1,65,0|0,0:0|0:0,0:0:0:0:
150,125,198102,1,0,0:0:0:0:
251,113,198342,1,0,0:0:0:0:
267,113,198621,1,0,0:0:0:0:
284,114,198900,1,0,0:0:0:0:
376,154,199179,5,0,0:0:0:0:
413,184,199439,1,0,0:0:0:0:
461,198,199700,1,0,0:0:0:0:
495,300,199992,6,0,P|469:318|420:325,1,65,0|0,0:0|0:0,0:0:0:0:
386,335,200548,1,0,0:0:0:0:
290,355,200828,6,0,P|285:323|300:276,1,65,0|0,0:0|0:0,0:0:0:0:
313,237,201366,1,0,0:0:0:0:
414,248,201639,1,0,0:0:0:0:
431,249,201905,1,0,0:0:0:0:
447,249,202184,1,0,0:0:0:0:
371,162,202457,5,0,0:0:0:0:
334,132,202731,1,0,0:0:0:0:
286,118,202992,1,0,0:0:0:0:
195,30,203280,6,0,P|160:39|127:63,1,65,0|0,0:0|0:0,0:0:0:0:
95,86,203820,1,0,0:0:0:0:
161,164,204071,6,0,P|137:191|124:230,1,65,0|0,0:0|0:0,0:0:0:0:
111,267,204623,1,0,0:0:0:0:
33,340,204900,1,0,0:0:0:0:
16,339,205159,1,0,0:0:0:0:
0,339,205460,1,0,0:0:0:0:
52,186,205706,5,0,0:0:0:0:
83,223,205978,1,0,0:0:0:0:
96,271,206264,1,0,0:0:0:0:
157,353,206530,6,0,P|194:350|223:331,1,65,0|0,0:0|0:0,0:0:0:0:
281,279,207070,1,0,0:0:0:0:
245,199,207370,2,0,L|242:129,1,65,0|0,0:0|0:0,0:0:0:0:
274,56,207915,1,0,0:0:0:0:
197,21,208188,2,0,L|119:31,1,65,0|0,0:0|0:0,0:0:0:0:
58,74,208737,1,0,0:0:0:0:
116,147,209004,2,0,L|106:221,1,65,0|0,0:0|0:0,0:0:0:0:
53,276,209518,1,0,0:0:0:0:
169,330,209827,5,0,0:0:0:0:
169,330,210091,1,0,0:0:0:0:
169,330,210350,1,0,0:0:0:0:
259,257,210626,5,0,0:0:0:0:
260,270,210902,1,0,0:0:0:0:
260,284,211179,1,0,0:0:0:0:
359,204,211455,5,0,0:0:0:0:
360,218,211710,1,0,0:0:0:0:
360,233,211985,1,0,0:0:0:0:
473,132,212254,5,0,0:0:0:0:
474,158,212519,1,0,0:0:0:0:
474,188,212784,1,0,0:0:0:0:
