osu file format v14

[General]
AudioFilename: audio.mp3
AudioLeadIn: 0
PreviewTime: -1
Countdown: 1
SampleSet: Soft
StackLeniency: 0.7
Mode: 0
LetterboxInBreaks: 0
WidescreenStoryboard: 0

[Editor]
DistanceSpacing: 1.4
BeatDivisor: 8
GridSize: 16
TimelineZoom: 2.1

[Metadata]
Title:Sunset Day
TitleUnicode:Sunset Day
Artist:Irotori
ArtistUnicode:Irotori
Creator:Sophia
Version:Dusk
Source:
Tags:
BeatmapID:1164400
BeatmapSetID:549939

[Difficulty]
HPDrainRate:6
CircleSize:5
OverallDifficulty:7
ApproachRate:8
SliderMultiplier:1.4
SliderTickRate:1

[Events]
//Background and Video events
0,0,"background.jpg",0,0
//Break Periods
//Storyboard Layer 0 (Background)
//Storyboard Layer 1 (Fail)
//Storyboard Layer 2 (Pass)
//Storyboard Layer 3 (Foreground)
//Storyboard Sound Samples

[TimingPoints]
1228,769.230769230769,4,2,0,30,1,0
1612,-100,4,2,0,10,0,0
50843,-66.6666666666667,4,2,0,31,0,0
74785,-66.6666666666667,4,2,0,23,0,0
74881,-66.6666666666667,4,2,0,15,0,0
74977,-66.6666666666667,4,2,0,5,0,0
75266,-66.6666666666667,4,2,0,15,0,0
75362,-66.6666666666667,4,2,0,23,0,0
75458,-66.6666666666667,4,2,0,31,0,0

[HitObjects]
160,108,1228,6,0,L|236:108,1,70
164,180,1997,1,0,0:0:0:0:
164,276,2381,2,0,L|240:276,1,70
332,276,3151,2,0,L|332:196,1,70
332,156,3727,1,0,0:0:0:0:
332,156,4112,1,0,0:0:0:0:
328,108,4304,2,0,B|292:108|292:108|252:92,1,70
164,88,5074,1,0,0:0:0:0:
164,184,5458,1,0,0:0:0:0:
64,184,5843,1,0,0:0:0:0:
64,88,6227,1,0,0:0:0:0:
64,184,6612,2,0,L|64:256,1,70
64,352,7381,1,0,0:0:0:0:
164,348,7766,6,0,L|244:348,1,70
236,248,8535,2,0,L|312:248,1,70
308,148,9304,2,0,L|380:148,1,70
428,148,9881,1,0,0:0:0:0:
428,148,10266,1,0,0:0:0:0:
380,148,10458,2,0,L|304:148,1,70
212,148,11227,1,0,0:0:0:0:
112,148,11612,1,0,0:0:0:0:
112,248,11997,1,0,0:0:0:0:
16,248,12381,1,0,0:0:0:0:
112,248,12766,1,0,0:0:0:0:
112,148,13151,1,0,0:0:0:0:
212,148,13535,1,0,0:0:0:0:
312,148,13920,6,0,L|312:220,1,70
312,316,14689,2,0,L|240:316,1,70
144,312,15458,2,0,L|64:312,1,70
24,312,16035,1,0,0:0:0:0:
24,312,16420,1,0,0:0:0:0:
24,264,16612,2,0,B|24:228|24:228|48:200,1,70
144,204,17381,1,0,0:0:0:0:
144,104,17766,1,0,0:0:0:0:
244,104,18151,1,0,0:0:0:0:
340,104,18535,1,0,0:0:0:0:
340,204,18920,1,0,0:0:0:0:
244,204,19304,1,0,0:0:0:0:
244,104,19689,1,0,0:0:0:0:
244,4,20074,6,0,L|164:4,1,70
76,4,20843,2,0,L|76:80,1,70
76,172,21612,2,0,L|76:248,1,70
76,292,22189,1,0,0:0:0:0:
76,292,22574,1,0,0:0:0:0:
124,292,22766,2,0,L|208:292,1,70
292,292,23535,1,0,0:0:0:0:
392,292,23920,2,0,L|392:208,1,70
392,124,24689,1,0,0:0:0:0:
492,124,25074,1,0,0:0:0:0:
496,220,25458,1,0,0:0:0:0:
396,220,25843,1,0,0:0:0:0:
300,220,26227,6,0,L|300:296,1,70
200,292,26997,2,0,L|200:216,1,70
200,124,27766,2,0,L|276:124,1,70
320,124,28343,1,0,0:0:0:0:
320,124,28727,1,0,0:0:0:0:
272,124,28920,2,0,L|200:124,1,70
108,124,29689,1,0,0:0:0:0:
8,124,30074,1,0,0:0:0:0:
8,28,30458,1,0,0:0:0:0:
108,28,30843,1,0,0:0:0:0:
204,28,31227,1,0,0:0:0:0:
204,128,31612,1,0,0:0:0:0:
304,128,31997,1,0,0:0:0:0:
304,224,32381,6,0,L|304:296,1,70
404,292,33151,2,0,L|404:216,1,70
404,124,33920,2,0,L|404:48,1,70
404,8,34497,1,0,0:0:0:0:
308,8,34881,1,0,0:0:0:0:
308,56,35074,2,0,L|308:132,1,70
308,224,35843,1,0,0:0:0:0:
212,224,36227,1,0,0:0:0:0:
212,124,36612,1,0,0:0:0:0:
112,124,36997,1,0,0:0:0:0:
112,220,37381,1,0,0:0:0:0:
112,124,37766,1,0,0:0:0:0:
212,124,38151,1,0,0:0:0:0:
216,224,38535,6,0,L|288:224,1,70
384,224,39304,2,0,L|384:296,1,70
284,296,40074,2,0,L|208:296,1,70
164,296,40651,1,0,0:0:0:0:
68,296,41035,1,0,0:0:0:0:
68,248,41227,2,0,L|68:176,1,70
68,80,41997,1,0,0:0:0:0:
164,80,42381,1,0,0:0:0:0:
264,80,42766,1,0,0:0:0:0:
164,80,43151,1,0,0:0:0:0:
164,176,43535,1,0,0:0:0:0:
264,176,43920,1,0,0:0:0:0:
164,176,44304,1,0,0:0:0:0:
164,276,44689,6,0,L|236:276,1,70
332,276,45458,2,0,L|408:276,1,70
500,276,46227,2,0,L|500:204,1,70
500,156,46804,1,0,0:0:0:0:
400,156,47189,1,0,0:0:0:0:
356,156,47381,2,0,L|284:156,1,70
72,64,50843,6,0,L|72:120,1,52.5000020027161
72,188,51227,2,0,L|72:248,1,52.5000020027161
144,240,51612,2,0,L|144:188,1,52.5000020027161
144,112,51997,2,0,L|144:56,1,52.5000020027161
216,56,52381,1,0,0:0:0:0:
288,56,52574,1,0,0:0:0:0:
288,128,52766,1,0,0:0:0:0:
216,128,52958,1,0,0:0:0:0:
220,200,53151,1,0,0:0:0:0:
220,236,53247,1,0,0:0:0:0:
220,272,53343,1,0,0:0:0:0:
220,308,53439,1,0,0:0:0:0:
220,344,53535,1,0,0:0:0:0:
292,344,53727,5,0,0:0:0:0:
328,344,53824,1,0,0:0:0:0:
364,344,53920,1,0,0:0:0:0:
368,264,54112,1,0,0:0:0:0:
332,264,54208,1,0,0:0:0:0:
296,264,54304,1,0,0:0:0:0:
296,188,54497,1,0,0:0:0:0:
296,116,54689,1,0,0:0:0:0:
368,116,54881,1,0,0:0:0:0:
372,188,55074,1,0,0:0:0:0:
296,188,55266,1,0,0:0:0:0:
224,188,55458,5,0,0:0:0:0:
188,188,55554,1,0,0:0:0:0:
152,188,55651,2,0,L|120:188,1,26.2500010013581
88,188,55843,1,0,0:0:0:0:
88,224,55939,1,0,0:0:0:0:
88,260,56035,2,0,L|88:300,2,26.2500010013581
88,324,56324,1,0,0:0:0:0:
124,324,56420,1,0,0:0:0:0:
160,324,56516,2,0,L|204:324,1,26.2500010013581
224,324,56708,1,0,0:0:0:0:
260,324,56804,1,0,0:0:0:0:
332,324,56997,5,0,0:0:0:0:
404,324,57189,1,0,0:0:0:0:
404,288,57285,1,0,0:0:0:0:
404,252,57381,1,0,0:0:0:0:
404,180,57574,1,0,0:0:0:0:
404,108,57766,1,0,0:0:0:0:
332,108,57958,1,0,0:0:0:0:
332,180,58151,1,0,0:0:0:0:
332,108,58343,1,0,0:0:0:0:
260,108,58535,1,0,0:0:0:0:
188,108,58727,1,0,0:0:0:0:
192,180,58920,1,0,0:0:0:0:
264,180,59112,5,0,0:0:0:0:
264,216,59208,1,0,0:0:0:0:
264,288,59401,2,0,L|264:320,1,26.2500010013581
192,312,59689,1,0,0:0:0:0:
120,316,59881,1,0,0:0:0:0:
120,280,59977,1,0,0:0:0:0:
120,244,60074,1,0,0:0:0:0:
120,172,60266,1,0,0:0:0:0:
120,136,60362,1,0,0:0:0:0:
120,100,60458,1,0,0:0:0:0:
192,100,60651,1,0,0:0:0:0:
264,100,60843,1,0,0:0:0:0:
264,172,61035,1,0,0:0:0:0:
192,172,61227,1,0,0:0:0:0:
196,244,61420,1,0,0:0:0:0:
200,316,61612,5,0,0:0:0:0:
236,316,61708,2,0,L|280:316,1,26.2500010013581
300,316,61901,1,0,0:0:0:0:
336,316,61997,2,0,L|368:316,1,26.2500010013581
400,316,62189,1,0,0:0:0:0:
400,280,62285,2,0,L|400:240,1,26.2500010013581
400,216,62477,1,0,0:0:0:0:
400,180,62574,1,0,0:0:0:0:
400,144,62670,1,0,0:0:0:0:
400,108,62766,1,0,0:0:0:0:
400,72,62862,1,0,0:0:0:0:
400,36,62958,1,0,0:0:0:0:
328,36,63151,5,0,0:0:0:0:
256,36,63343,1,0,0:0:0:0:
260,108,63535,1,0,0:0:0:0:
332,108,63727,1,0,0:0:0:0:
336,180,63920,2,0,L|336:232,1,52.5000020027161
340,304,64304,2,0,L|288:304,1,52.5000020027161
212,304,64689,2,0,L|212:252,1,52.5000020027161
212,176,65074,2,0,L|160:176,1,52.5000020027161
88,176,65458,5,0,0:0:0:0:
88,212,65554,2,0,L|88:240,1,26.2500010013581
88,276,65747,1,0,0:0:0:0:
88,312,65843,1,0,0:0:0:0:
160,312,66035,1,0,0:0:0:0:
160,276,66131,1,0,0:0:0:0:
160,240,66227,1,0,0:0:0:0:
160,168,66420,1,0,0:0:0:0:
160,132,66516,1,0,0:0:0:0:
160,96,66612,1,0,0:0:0:0:
232,96,66804,6,0,L|284:96,1,52.5000020027161
292,168,67189,2,0,L|240:168,1,52.5000020027161
240,240,67574,1,0,0:0:0:0:
312,240,67766,1,0,0:0:0:0:
352,240,67862,2,0,L|388:240,1,26.2500010013581
416,240,68054,1,0,0:0:0:0:
452,240,68151,1,0,0:0:0:0:
488,240,68247,2,0,L|488:272,1,26.2500010013581
488,304,68439,2,0,L|488:332,1,26.2500010013581
488,368,68631,2,0,L|460:368,1,26.2500010013581
424,368,68824,1,0,0:0:0:0:
388,368,68920,1,0,0:0:0:0:
352,368,69016,2,0,L|320:368,1,26.2500010013581
252,368,69304,5,0,0:0:0:0:
180,368,69497,1,0,0:0:0:0:
180,332,69593,1,0,0:0:0:0:
180,296,69689,1,0,0:0:0:0:
180,224,69881,1,0,0:0:0:0:
252,224,70074,1,0,0:0:0:0:
252,152,70266,1,0,0:0:0:0:
180,152,70458,1,0,0:0:0:0:
180,224,70651,1,0,0:0:0:0:
252,224,70843,1,0,0:0:0:0:
252,296,71035,1,0,0:0:0:0:
180,296,71227,1,0,0:0:0:0:
108,296,71420,1,0,0:0:0:0:
72,296,71516,1,0,0:0:0:0:
72,224,71708,1,0,0:0:0:0:
108,224,71804,1,0,0:0:0:0:
108,152,71997,5,0,0:0:0:0:
108,80,72189,1,0,0:0:0:0:
144,80,72285,1,0,0:0:0:0:
180,80,72381,1,0,0:0:0:0:
252,80,72574,1,0,0:0:0:0:
252,44,72670,1,0,0:0:0:0:
252,8,72766,1,0,0:0:0:0:
324,8,72958,1,0,0:0:0:0:
396,8,73151,1,0,0:0:0:0:
396,80,73343,1,0,0:0:0:0:
324,80,73535,1,0,0:0:0:0:
328,152,73727,2,0,L|328:208,1,52.5000020027161
328,280,74112,2,0,L|388:280,1,52.5000020027161
456,280,74497,1,0,0:0:0:0:
456,208,74689,2,0,L|456:176,8,26.2500010013581
384,208,75651,5,0,0:0:0:0:
384,128,75843,1,0,0:0:0:0:
304,128,76035,1,0,0:0:0:0:
304,48,76227,1,0,0:0:0:0:
224,48,76420,1,8,0:0:0:0:
224,128,76612,1,0,0:0:0:0:
144,128,76804,1,0,0:0:0:0:
144,48,76997,1,0,0:0:0:0:
64,48,77189,5,0,0:0:0:0:
64,128,77381,1,0,0:0:0:0:
64,208,77574,1,0,0:0:0:0:
144,208,77766,1,0,0:0:0:0:
176,208,77862,1,0,0:0:0:0:
208,208,77958,2,0,L|240:208,1,26.2500010013581
240,240,78151,1,0,0:0:0:0:
240,320,78343,5,0,0:0:0:0:
208,320,78439,1,0,0:0:0:0:
176,320,78535,1,0,0:0:0:0:
96,320,78727,1,0,0:0:0:0:
64,320,78824,1,0,0:0:0:0:
64,288,78920,1,0,0:0:0:0:
64,208,79112,1,0,0:0:0:0:
144,208,79304,1,0,0:0:0:0:
144,128,79497,1,0,0:0:0:0:
224,128,79689,1,0,0:0:0:0:
224,48,79881,1,0,0:0:0:0:
304,48,80074,5,0,0:0:0:0:
336,48,80170,1,0,0:0:0:0:
368,48,80266,1,0,0:0:0:0:
400,48,80362,2,0,L|432:48,2,26.2500010013581
400,80,80651,1,0,0:0:0:0:
400,112,80747,1,0,0:0:0:0:
400,144,80843,1,0,0:0:0:0:
400,176,80939,2,0,L|432:176,1,26.2500010013581
400,208,81131,1,0,0:0:0:0:
400,240,81227,2,0,L|432:240,1,26.2500010013581
400,272,81420,1,0,0:0:0:0:
400,352,81612,5,0,0:0:0:0:
320,352,81804,1,0,0:0:0:0:
288,352,81901,1,0,0:0:0:0:
256,352,81997,1,0,0:0:0:0:
176,352,82189,1,0,0:0:0:0:
176,272,82381,1,0,0:0:0:0:
96,272,82574,1,0,0:0:0:0:
96,192,82766,1,0,0:0:0:0:
176,192,82958,1,0,0:0:0:0:
176,112,83151,1,0,0:0:0:0:
96,112,83343,1,0,0:0:0:0:
96,32,83535,1,0,0:0:0:0:
176,32,83727,5,0,0:0:0:0:
208,32,83824,1,0,0:0:0:0:
288,32,84016,1,0,0:0:0:0:
288,64,84112,1,0,0:0:0:0:
288,144,84304,1,0,0:0:0:0:
368,144,84497,5,0,0:0:0:0:
368,176,84593,1,0,0:0:0:0:
368,208,84689,1,0,0:0:0:0:
368,288,84881,1,0,0:0:0:0:
448,288,85074,1,0,0:0:0:0:
448,208,85266,1,0,0:0:0:0:
448,128,85458,1,0,0:0:0:0:
448,48,85651,1,0,0:0:0:0:
368,48,85843,1,0,0:0:0:0:
288,48,86035,1,0,0:0:0:0:
208,48,86227,6,0,L|176:48,6,17.500000667572
192,128,86804,5,0,0:0:0:0:
160,128,86901,1,0,0:0:0:0:
128,128,86997,1,0,0:0:0:0:
96,128,87093,2,0,L|64:128,1,26.2500010013581
64,160,87285,1,0,0:0:0:0:
32,160,87381,1,0,0:0:0:0:
32,192,87477,2,0,L|0:192,1,26.2500010013581
0,272,87766,5,0,0:0:0:0:
80,272,87958,1,0,0:0:0:0:
160,272,88151,1,0,0:0:0:0:
160,192,88343,1,0,0:0:0:0:
160,160,88439,1,0,0:0:0:0:
240,160,88631,1,0,0:0:0:0:
240,192,88727,1,0,0:0:0:0:
240,272,88920,1,0,0:0:0:0:
320,272,89112,6,0,L|352:272,3,17.500000667572
320,192,89497,1,0,0:0:0:0:
400,192,89689,1,0,0:0:0:0:
480,192,89881,1,0,0:0:0:0:
480,160,89977,1,0,0:0:0:0:
480,80,90170,1,0,0:0:0:0:
480,48,90266,1,0,0:0:0:0:
400,48,90458,1,0,0:0:0:0:
320,48,90651,6,0,L|256:48,1,52.5000020027161
192,48,91035,1,0,0:0:0:0:
160,48,91131,1,0,0:0:0:0:
128,48,91227,1,0,0:0:0:0:
128,128,91420,1,0,0:0:0:0:
128,160,91516,1,0,0:0:0:0:
96,160,91612,1,0,0:0:0:0:
96,192,91708,1,0,0:0:0:0:
64,192,91804,1,0,0:0:0:0:
64,272,91997,1,0,0:0:0:0:
144,272,92189,6,0,L|160:272,4,13.125000500679
144,352,92574,1,0,0:0:0:0:
224,352,92766,1,0,0:0:0:0:
304,352,92958,1,0,0:0:0:0:
304,320,93054,1,0,0:0:0:0:
224,320,93247,1,0,0:0:0:0:
224,288,93343,1,0,0:0:0:0:
224,208,93535,1,0,0:0:0:0:
224,128,93727,2,0,L|224:64,1,52.5000020027161
224,0,94112,5,0,0:0:0:0:
304,0,94304,1,0,0:0:0:0:
384,0,94497,1,0,0:0:0:0:
416,0,94593,1,0,0:0:0:0:
416,80,94785,1,0,0:0:0:0:
448,80,94881,1,0,0:0:0:0:
448,160,95074,1,0,0:0:0:0:
448,240,95266,5,0,0:0:0:0:
368,240,95458,1,0,0:0:0:0:
368,160,95651,1,0,0:0:0:0:
288,160,95843,1,0,0:0:0:0:
288,240,96035,1,0,0:0:0:0:
288,272,96131,1,0,0:0:0:0:
208,272,96324,1,0,0:0:0:0:
208,240,96420,1,0,0:0:0:0:
128,240,96612,1,0,0:0:0:0:
48,240,96804,6,0,L|48:176,1,52.5000020027161
48,112,97189,1,0,0:0:0:0:
48,80,97285,1,0,0:0:0:0:
48,48,97381,1,0,0:0:0:0:
128,48,97574,1,0,0:0:0:0:
160,48,97670,1,0,0:0:0:0:
192,48,97766,1,0,0:0:0:0:
224,48,97862,1,0,0:0:0:0:
256,48,97958,1,0,0:0:0:0:
336,48,98151,1,0,0:0:0:0:
416,48,98343,6,0,L|416:112,1,52.5000020027161
416,176,98727,1,0,0:0:0:0:
416,208,98824,1,0,0:0:0:0:
416,240,98920,1,0,0:0:0:0:
336,240,99112,1,0,0:0:0:0:
304,240,99208,1,0,0:0:0:0:
272,240,99304,1,0,0:0:0:0:
240,240,99401,1,0,0:0:0:0:
208,240,99497,1,0,0:0:0:0:
144,240,99689,5,0,0:0:0:0:
80,208,99817,1,0,0:0:0:0:
80,144,99945,1,0,0:0:0:0:
144,112,100074,6,0,L|208:112,1,52.5000020027161
272,112,100458,1,0,0:0:0:0:
272,192,100651,1,0,0:0:0:0:
352,192,100843,2,0,L|416:192,1,52.5000020027161
480,192,101227,1,0,0:0:0:0:
480,112,101420,1,0,0:0:0:0:
480,32,101612,1,0,0:0:0:0:
400,32,101804,1,0,0:0:0:0:
320,32,101997,1,0,0:0:0:0:
240,32,102189,1,0,0:0:0:0:
160,32,102381,5,0,0:0:0:0:
128,32,102477,1,0,0:0:0:0:
96,32,102574,2,0,L|48:32,1,26.2500010013581
64,64,102766,1,0,0:0:0:0:
64,144,102958,1,0,0:0:0:0:
64,176,103054,1,0,0:0:0:0:
64,208,103151,1,0,0:0:0:0:
64,288,103343,1,0,0:0:0:0:
96,288,103439,1,0,0:0:0:0:
128,288,103535,1,0,0:0:0:0:
208,288,103727,5,0,0:0:0:0:
208,208,103920,1,0,0:0:0:0:
288,208,104112,1,0,0:0:0:0:
288,288,104304,1,0,0:0:0:0:
368,288,104497,1,0,0:0:0:0:
448,288,104689,1,0,0:0:0:0:
448,256,104785,1,0,0:0:0:0:
448,224,104881,1,0,0:0:0:0:
448,192,104977,2,0,L|480:192,1,26.2500010013581
448,160,105170,1,0,0:0:0:0:
448,128,105266,2,0,L|480:128,1,26.2500010013581
448,96,105458,1,0,0:0:0:0:
448,64,105554,1,0,0:0:0:0:
448,32,105651,1,0,0:0:0:0:
416,32,105747,1,0,0:0:0:0:
384,32,105843,2,0,L|384:80,1,26.2500010013581
352,32,106035,1,0,0:0:0:0:
