osu file format v14

[General]
AudioFilename: audio.mp3
AudioLeadIn: 0
PreviewTime: 24089
Countdown: 0
SampleSet: Soft
StackLeniency: 0.7
Mode: 3
LetterboxInBreaks: 0
SpecialStyle: 0
WidescreenStoryboard: 1

[Editor]
Bookmarks: 11745,17169,45643
DistanceSpacing: 1.6
BeatDivisor: 4
GridSize: 8
TimelineZoom: 2.599999

[Metadata]
Title:Melty Sweets
TitleUnicode:Melty Sweets
Artist:Ironami
ArtistUnicode:Ironami
Creator:_Kobii
Version:NOVICE
Source:SOUND VOLTEX IV HEAVENLY HAVEN
Tags:The 7th KACオリジナル楽曲コンテスト Original Song Contest Amiichii Expew Critical_Star
BeatmapID:2027284
BeatmapSetID:968909

[Difficulty]
HPDrainRate:7
CircleSize:7
OverallDifficulty:7
ApproachRate:5
SliderMultiplier:1.4
SliderTickRate:1

[Events]
//Background and Video events
0,0,"melty.jpg",0,0
//Break Periods
//Storyboard Layer 0 (Background)
//Storyboard Layer 1 (Fail)
//Storyboard Layer 2 (Pass)
//Storyboard Layer 3 (Foreground)
//Storyboard Layer 4 (Overlay)
//Storyboard Sound Samples

[TimingPoints]
1378,338.983050847458,4,2,1,30,1,0
24428,-100,4,2,1,30,0,1
35276,-100,4,2,1,30,0,0
38327,-100,4,2,1,30,0,1
67818,-100,4,2,1,30,0,0
92225,-100,4,2,1,30,0,1
113920,-100,4,2,1,30,0,0

[HitObjects]
256,192,1039,128,0,1378:0:0:0:0:
36,192,1378,1,0,0:0:0:50:cymbal.wav
329,192,1378,1,0,0:0:0:0:
475,192,1378,128,0,1716:0:0:0:0:
182,192,1716,1,0,0:0:0:0:
36,192,1886,128,0,2225:0:0:0:0:
256,192,2225,1,0,0:0:0:0:
475,192,2394,128,0,2733:0:0:0:0:
256,192,2733,1,0,0:0:0:50:LR_Chm Fast.wav
109,192,2903,1,0,0:0:0:0:
402,192,3072,1,0,0:0:0:0:
109,192,3242,1,0,0:0:0:0:
329,192,3411,1,0,0:0:0:0:
475,192,3581,128,0,3920:0:0:0:0:
182,192,3750,1,0,0:0:0:0:
329,192,3920,1,0,0:0:0:0:
36,192,4089,128,0,4428:0:0:0:0:
256,192,4428,1,0,0:0:0:0:
475,192,4598,128,0,4937:0:0:0:0:
182,192,4937,1,0,0:0:0:0:
36,192,5106,128,0,5445:0:0:0:0:
182,192,5276,128,0,5445:0:0:0:0:
402,192,5445,128,0,6123:0:0:0:50:LR_Chm Fast.wav
475,192,5445,1,0,0:0:0:0:
329,192,5615,1,0,0:0:0:0:
182,192,5784,1,0,0:0:0:0:
256,192,5954,1,0,0:0:0:0:
36,192,6123,1,0,0:0:0:0:
109,192,6123,128,0,6801:0:0:0:0:
329,192,6293,1,0,0:0:0:0:
475,192,6462,1,0,0:0:0:0:
182,192,6632,1,0,0:0:0:0:
329,192,6801,1,0,0:0:0:50:LR_Chm Fast.wav
475,192,6801,1,0,0:0:0:0:
36,192,7140,1,0,0:0:0:0:
329,192,7310,1,0,0:0:0:0:
109,192,7479,1,0,0:0:0:0:
182,192,7649,1,0,0:0:0:0:
475,192,7818,1,0,0:0:0:0:
329,192,7988,1,0,0:0:0:0:
36,192,8157,1,0,0:0:0:50:LR_Chm Fast.wav
182,192,8157,1,0,0:0:0:0:
402,192,8327,1,0,0:0:0:0:
36,192,8666,1,0,0:0:0:0:
36,192,9005,1,0,0:0:0:0:
182,192,9174,1,0,0:0:0:0:
256,192,9344,1,0,0:0:0:0:
329,192,9513,1,0,0:0:0:0:
402,192,9852,1,0,0:0:0:0:
475,192,10022,1,0,0:0:0:0:
182,192,10361,1,0,0:0:0:0:
256,192,10700,1,0,0:0:0:0:
36,192,10869,1,0,0:0:0:50:LR_Chm Fast.wav
475,192,10869,1,0,0:0:0:0:
329,192,11039,1,0,0:0:0:0:
182,192,11208,1,0,0:0:0:0:
36,192,11547,128,0,12225:0:0:0:0:
256,192,11886,128,0,12225:0:0:0:0:
329,192,12225,1,0,0:0:0:50:cymbal.wav
402,192,12225,1,0,0:0:0:0:
475,192,12225,1,0,0:0:0:0:
36,192,12564,1,0,0:0:0:0:
182,192,12564,1,0,0:0:0:0:
329,192,12903,1,0,0:0:0:0:
402,192,13072,1,0,0:0:0:0:
36,192,13242,1,0,0:0:0:0:
182,192,13242,1,0,0:0:0:0:
402,192,13411,1,0,0:0:0:0:
36,192,13581,1,0,0:0:0:0:
109,192,13581,1,0,0:0:0:0:
182,192,13750,1,0,0:0:0:0:
329,192,13920,1,0,0:0:0:0:
475,192,13920,1,0,0:0:0:0:
36,192,14089,1,0,0:0:0:0:
256,192,14259,1,0,0:0:0:0:
109,192,14428,1,0,0:0:0:0:
329,192,14598,1,0,0:0:0:0:
475,192,14598,1,0,0:0:0:0:
182,192,14767,1,0,0:0:0:0:
256,192,14937,1,0,0:0:0:0:
36,192,15276,1,0,0:0:0:0:
109,192,15276,1,0,0:0:0:0:
256,192,15615,1,0,0:0:0:0:
475,192,15784,1,0,0:0:0:0:
36,192,15954,1,0,0:0:0:0:
109,192,15954,1,0,0:0:0:0:
475,192,16123,1,0,0:0:0:0:
182,192,16293,1,0,0:0:0:0:
329,192,16293,1,0,0:0:0:0:
36,192,16462,1,0,0:0:0:0:
402,192,16632,1,0,0:0:0:0:
475,192,16632,1,0,0:0:0:0:
109,192,16801,1,0,0:0:0:0:
256,192,16971,1,0,0:0:0:0:
36,192,17140,1,0,0:0:0:0:
402,192,17310,1,0,0:0:0:0:
475,192,17310,1,0,0:0:0:0:
329,192,17479,1,0,0:0:0:0:
36,192,17649,1,0,0:0:0:50:snare.wav
182,192,17649,1,0,0:0:0:0:
402,192,17988,1,0,0:0:0:50:snare.wav
475,192,17988,1,0,0:0:0:0:
36,192,18327,1,0,0:0:0:50:snare.wav
182,192,18327,1,0,0:0:0:0:
36,192,18581,1,0,0:0:0:50:snare.wav
182,192,18581,1,0,0:0:0:0:
329,192,18666,1,0,0:0:0:50:kick.wav
475,192,18666,1,0,0:0:0:0:
36,192,18835,1,0,0:0:0:50:snare.wav
182,192,18835,1,0,0:0:0:0:
329,192,19005,1,0,0:0:0:50:snare.wav
402,192,19005,1,0,0:0:0:0:
109,192,19344,1,0,0:0:0:50:snare.wav
182,192,19344,1,0,0:0:0:0:
329,192,19683,1,0,0:0:0:50:snare.wav
402,192,19683,1,0,0:0:0:0:
329,192,19937,1,0,0:0:0:50:snare.wav
402,192,19937,1,0,0:0:0:0:
109,192,20022,1,0,0:0:0:50:kick.wav
182,192,20022,1,0,0:0:0:0:
329,192,20191,1,0,0:0:0:50:snare.wav
402,192,20191,1,0,0:0:0:0:
36,192,20361,1,0,0:0:0:50:snare.wav
109,192,20361,1,0,0:0:0:0:
402,192,20530,1,0,0:0:0:50:snare.wav
475,192,20530,1,0,0:0:0:0:
36,192,20700,1,0,0:0:0:50:snare.wav
109,192,20700,1,0,0:0:0:0:
402,192,20869,1,0,0:0:0:50:snare.wav
475,192,20869,1,0,0:0:0:0:
109,192,21039,1,0,0:0:0:50:snare.wav
182,192,21039,1,0,0:0:0:0:
329,192,21208,1,0,0:0:0:50:snare.wav
402,192,21208,1,0,0:0:0:0:
109,192,21378,1,0,0:0:0:50:snare.wav
182,192,21378,1,0,0:0:0:0:
329,192,21547,1,0,0:0:0:50:snare.wav
402,192,21547,1,0,0:0:0:0:
36,192,21716,1,0,0:0:0:50:snare.wav
109,192,21716,1,0,0:0:0:0:
475,192,21716,128,0,23072:0:0:0:0:
36,192,23072,1,0,0:0:0:0:
256,192,23072,1,0,0:0:0:0:
109,192,23750,128,0,24089:0:0:0:0:
402,192,23920,128,0,24089:0:0:0:0:
256,192,24089,1,0,0:0:0:0:
36,192,24428,1,0,0:0:0:50:kick.wav
256,192,24428,1,0,0:0:0:50:cymbal.wav
475,192,24428,1,0,0:0:0:0:
329,192,24767,1,0,0:0:0:50:kick.wav
402,192,24767,1,0,0:0:0:0:
36,192,25106,1,0,0:0:0:50:snare.wav
256,192,25106,1,0,0:0:0:0:
329,192,25276,1,0,0:0:0:50:kick.wav
402,192,25276,1,0,0:0:0:0:
109,192,25615,1,0,0:0:0:50:kick.wav
182,192,25615,1,0,0:0:0:0:
329,192,25954,1,0,0:0:0:50:kick.wav
402,192,25954,1,0,0:0:0:0:
109,192,26293,1,0,0:0:0:50:kick.wav
182,192,26293,1,0,0:0:0:0:
256,192,26462,1,0,0:0:0:50:snare.wav
475,192,26462,1,0,0:0:0:0:
402,192,26632,128,0,27140:0:0:0:50:kick.wav
109,192,26801,128,0,27140:0:0:0:50:kick.wav
256,192,27140,1,0,0:0:0:50:kick.wav
36,192,27479,1,0,0:0:0:50:kick.wav
182,192,27479,1,0,0:0:0:50:cymbal.wav
475,192,27479,1,0,0:0:0:0:
256,192,27818,1,0,0:0:0:50:snare.wav
402,192,27818,1,0,0:0:0:0:
109,192,27988,1,0,0:0:0:0:
256,192,28327,1,0,0:0:0:0:
402,192,28496,1,0,0:0:0:50:kick.wav
475,192,28496,1,0,0:0:0:0:
36,192,28750,1,0,0:0:0:50:kick.wav
109,192,28750,1,0,0:0:0:0:
402,192,29005,1,0,0:0:0:50:kick.wav
475,192,29005,1,0,0:0:0:0:
36,192,29174,1,0,0:0:0:50:snare.wav
256,192,29174,1,0,0:0:0:0:
402,192,29344,1,0,0:0:0:50:kick.wav
475,192,29344,1,0,0:0:0:0:
256,192,29683,128,0,29852:0:0:0:50:kick.wav
109,192,29852,128,0,30191:0:0:0:0:
402,192,30022,128,0,30191:0:0:0:0:
256,192,30191,1,0,0:0:0:0:
36,192,30361,1,0,0:0:0:50:kick.wav
182,192,30361,1,0,0:0:0:50:cymbal.wav
329,192,30361,1,0,0:0:0:0:
402,192,30530,1,0,0:0:0:50:snare.wav
475,192,30530,1,0,0:0:0:0:
36,192,30700,1,0,0:0:0:50:kick.wav
182,192,30700,1,0,0:0:0:0:
329,192,31039,1,0,0:0:0:50:kick.wav
475,192,31039,1,0,0:0:0:0:
36,192,31547,1,0,0:0:0:50:kick.wav
182,192,31547,1,0,0:0:0:0:
402,192,31886,1,0,0:0:0:50:snare.wav
475,192,31886,1,0,0:0:0:0:
36,192,32055,1,0,0:0:0:50:kick.wav
182,192,32055,1,0,0:0:0:0:
329,192,32564,1,0,0:0:0:50:kick.wav
402,192,32564,1,0,0:0:0:0:
329,192,33072,1,0,0:0:0:50:kick.wav
402,192,33072,1,0,0:0:0:0:
36,192,33242,1,0,0:0:0:50:snare.wav
182,192,33242,1,0,0:0:0:0:
329,192,33581,1,0,0:0:0:50:kick.wav
402,192,33581,1,0,0:0:0:0:
402,192,34089,1,0,0:0:0:50:kick.wav
475,192,34089,1,0,0:0:0:0:
36,192,34598,1,0,0:0:0:50:snare.wav
182,192,34598,1,0,0:0:0:0:
402,192,34767,1,0,0:0:0:50:kick.wav
475,192,34767,1,0,0:0:0:0:
109,192,35276,1,0,0:0:0:50:kick.wav
256,192,35276,1,0,0:0:0:50:cymbal.wav
402,192,35276,1,0,0:0:0:0:
256,192,36462,128,0,36632:0:0:0:0:
475,192,36801,1,0,0:0:0:0:
329,192,36886,1,0,0:0:0:0:
36,192,36971,1,0,0:0:0:0:
182,192,37055,1,0,0:0:0:0:
475,192,37140,1,0,0:0:0:0:
329,192,37225,1,0,0:0:0:0:
109,192,37310,128,0,37479:0:0:0:0:
402,192,37564,128,0,37733:0:0:0:0:
109,192,37818,128,0,37988:0:0:0:0:
329,192,37988,1,0,0:0:0:50:kick.wav
475,192,37988,1,0,0:0:0:0:
36,192,38327,1,0,0:0:0:50:snare.wav
256,192,38327,1,0,0:0:0:50:cymbal.wav
475,192,38327,1,0,0:0:0:0:
36,192,38835,1,0,0:0:0:50:kick.wav
109,192,38835,1,0,0:0:0:0:
256,192,39005,1,0,0:0:0:50:snare.wav
475,192,39005,1,0,0:0:0:0:
36,192,39344,1,0,0:0:0:50:kick.wav
182,192,39344,1,0,0:0:0:0:
36,192,39683,1,0,0:0:0:50:snare.wav
256,192,39683,1,0,0:0:0:0:
402,192,40191,1,0,0:0:0:50:kick.wav
475,192,40191,1,0,0:0:0:0:
36,192,40361,1,0,0:0:0:50:snare.wav
256,192,40361,1,0,0:0:0:0:
109,192,40700,1,0,0:0:0:50:kick.wav
182,192,40700,1,0,0:0:0:0:
329,192,41039,1,0,0:0:0:50:snare.wav
475,192,41039,1,0,0:0:0:0:
109,192,41547,1,0,0:0:0:50:kick.wav
182,192,41547,1,0,0:0:0:0:
329,192,41716,1,0,0:0:0:50:snare.wav
475,192,41716,1,0,0:0:0:0:
402,192,42055,1,0,0:0:0:50:kick.wav
475,192,42055,1,0,0:0:0:0:
36,192,42394,1,0,0:0:0:50:snare.wav
329,192,42394,1,0,0:0:0:0:
402,192,42903,1,0,0:0:0:50:kick.wav
475,192,42903,1,0,0:0:0:0:
36,192,43072,1,0,0:0:0:50:snare.wav
329,192,43072,1,0,0:0:0:0:
36,192,43411,1,0,0:0:0:50:kick.wav
109,192,43411,1,0,0:0:0:0:
182,192,43750,1,0,0:0:0:50:snare.wav
475,192,43750,1,0,0:0:0:0:
36,192,44259,1,0,0:0:0:50:kick.wav
109,192,44259,1,0,0:0:0:0:
182,192,44428,1,0,0:0:0:50:snare.wav
475,192,44428,1,0,0:0:0:0:
329,192,44767,1,0,0:0:0:50:kick.wav
402,192,44767,1,0,0:0:0:0:
36,192,44937,1,0,0:0:0:50:snare.wav
182,192,44937,1,0,0:0:0:0:
329,192,45106,1,0,0:0:0:50:kick.wav
402,192,45106,1,0,0:0:0:0:
36,192,45445,1,0,0:0:0:50:snare.wav
182,192,45445,1,0,0:0:0:0:
329,192,45615,1,0,0:0:0:50:snare.wav
475,192,45615,1,0,0:0:0:0:
109,192,45784,1,0,0:0:0:50:snare.wav
256,192,45784,128,0,46123:0:0:0:0:
36,192,46123,1,0,0:0:0:50:cymbal.wav
402,192,46123,1,0,0:0:0:0:
475,192,46123,1,0,0:0:0:0:
256,192,46462,1,0,0:0:0:50:kick.wav
475,192,46462,1,0,0:0:0:50:snare.wav
36,192,46801,1,0,0:0:0:50:kick.wav
109,192,46801,1,0,0:0:0:0:
182,192,46971,1,0,0:0:0:100:hihat1.wav
256,192,47140,1,0,0:0:0:50:kick.wav
475,192,47140,1,0,0:0:0:50:snare.wav
329,192,47310,1,0,0:0:0:100:hihat1.wav
36,192,47479,1,0,0:0:0:50:kick.wav
109,192,47479,1,0,0:0:0:0:
329,192,47649,1,0,0:0:0:100:hihat1.wav
36,192,47818,1,0,0:0:0:50:kick.wav
256,192,47818,1,0,0:0:0:50:snare.wav
402,192,47988,1,0,0:0:0:100:hihat1.wav
36,192,48157,1,0,0:0:0:50:kick.wav
109,192,48157,1,0,0:0:0:0:
329,192,48327,1,0,0:0:0:100:hihat1.wav
36,192,48496,1,0,0:0:0:50:kick.wav
256,192,48496,1,0,0:0:0:50:snare.wav
182,192,48666,1,0,0:0:0:100:hihat1.wav
402,192,48835,1,0,0:0:0:50:kick.wav
475,192,48835,1,0,0:0:0:0:
36,192,49174,1,0,0:0:0:50:kick.wav
475,192,49174,1,0,0:0:0:50:snare.wav
256,192,49344,1,0,0:0:0:100:hihat1.wav
402,192,49513,1,0,0:0:0:50:kick.wav
475,192,49513,1,0,0:0:0:0:
256,192,49683,1,0,0:0:0:100:hihat1.wav
36,192,49852,1,0,0:0:0:50:kick.wav
475,192,49852,1,0,0:0:0:50:snare.wav
329,192,50022,1,0,0:0:0:100:hihat1.wav
36,192,50191,1,0,0:0:0:50:kick.wav
109,192,50191,1,0,0:0:0:0:
402,192,50361,1,0,0:0:0:100:hihat1.wav
256,192,50530,1,0,0:0:0:50:kick.wav
475,192,50530,1,0,0:0:0:50:snare.wav
182,192,50700,1,0,0:0:0:100:hihat1.wav
36,192,50869,1,0,0:0:0:50:kick.wav
109,192,50869,1,0,0:0:0:0:
329,192,51039,1,0,0:0:0:100:hihat1.wav
256,192,51208,1,0,0:0:0:50:kick.wav
475,192,51208,1,0,0:0:0:50:snare.wav
36,192,51547,1,0,0:0:0:50:kick.wav
109,192,51547,1,0,0:0:0:0:
329,192,51886,1,0,0:0:0:50:kick.wav
475,192,51886,1,0,0:0:0:50:snare.wav
36,192,52225,1,0,0:0:0:50:kick.wav
109,192,52225,1,0,0:0:0:0:
256,192,52394,1,0,0:0:0:100:hihat1.wav
329,192,52564,1,0,0:0:0:50:kick.wav
475,192,52564,1,0,0:0:0:50:snare.wav
182,192,52733,1,0,0:0:0:100:hihat1.wav
402,192,52903,1,0,0:0:0:50:kick.wav
475,192,52903,1,0,0:0:0:0:
182,192,53072,1,0,0:0:0:100:hihat1.wav
36,192,53242,1,0,0:0:0:50:kick.wav
256,192,53242,1,0,0:0:0:50:snare.wav
329,192,53411,1,0,0:0:0:100:hihat1.wav
402,192,53581,1,0,0:0:0:50:kick.wav
475,192,53581,1,0,0:0:0:0:
182,192,53750,1,0,0:0:0:100:hihat1.wav
36,192,53920,1,0,0:0:0:50:kick.wav
256,192,53920,1,0,0:0:0:50:snare.wav
402,192,54089,1,0,0:0:0:100:hihat1.wav
36,192,54259,1,0,0:0:0:50:kick.wav
109,192,54259,1,0,0:0:0:0:
329,192,54598,1,0,0:0:0:50:kick.wav
475,192,54598,1,0,0:0:0:50:snare.wav
256,192,54767,1,0,0:0:0:100:hihat1.wav
36,192,54937,1,0,0:0:0:50:kick.wav
109,192,54937,1,0,0:0:0:0:
256,192,55106,1,0,0:0:0:100:hihat1.wav
329,192,55276,1,0,0:0:0:50:kick.wav
475,192,55276,1,0,0:0:0:50:snare.wav
109,192,55445,1,0,0:0:0:100:hihat1.wav
402,192,55615,1,0,0:0:0:50:kick.wav
475,192,55615,1,0,0:0:0:0:
182,192,55784,1,0,0:0:0:100:hihat1.wav
36,192,55954,1,0,0:0:0:50:kick.wav
256,192,55954,1,0,0:0:0:50:snare.wav
329,192,56123,1,0,0:0:0:100:hihat1.wav
402,192,56293,1,0,0:0:0:50:kick.wav
475,192,56293,1,0,0:0:0:0:
182,192,56462,1,0,0:0:0:100:hihat1.wav
36,192,56632,1,0,0:0:0:50:kick.wav
256,192,56632,1,0,0:0:0:50:snare.wav
182,192,56971,128,0,57310:0:0:0:0:
36,192,57310,1,0,0:0:0:50:snare.wav
256,192,57310,1,0,0:0:0:50:cymbal.wav
475,192,57310,1,0,0:0:0:0:
182,192,57649,1,0,0:0:0:50:kick.wav
256,192,57818,1,0,0:0:0:100:hihat1.wav
329,192,57988,1,0,0:0:0:50:kick.wav
475,192,57988,1,0,0:0:0:50:snare.wav
109,192,58157,1,0,0:0:0:100:hihat1.wav
182,192,58327,1,0,0:0:0:50:kick.wav
329,192,58327,1,0,0:0:0:0:
402,192,58496,1,0,0:0:0:100:hihat1.wav
36,192,58666,1,0,0:0:0:50:kick.wav
182,192,58666,1,0,0:0:0:50:snare.wav
256,192,58835,1,0,0:0:0:100:hihat1.wav
402,192,59005,1,0,0:0:0:50:kick.wav
475,192,59005,1,0,0:0:0:0:
329,192,59174,1,0,0:0:0:100:hihat1.wav
36,192,59344,1,0,0:0:0:50:kick.wav
182,192,59344,1,0,0:0:0:50:snare.wav
256,192,59513,1,0,0:0:0:100:hihat1.wav
36,192,59683,1,0,0:0:0:50:kick.wav
109,192,59683,1,0,0:0:0:0:
329,192,60022,1,0,0:0:0:50:kick.wav
475,192,60022,1,0,0:0:0:50:snare.wav
329,192,60191,1,0,0:0:0:100:hihat1.wav
36,192,60361,1,0,0:0:0:50:kick.wav
109,192,60361,1,0,0:0:0:0:
256,192,60530,1,0,0:0:0:100:hihat1.wav
329,192,60700,1,0,0:0:0:50:kick.wav
475,192,60700,1,0,0:0:0:50:snare.wav
109,192,60869,1,0,0:0:0:100:hihat1.wav
402,192,61039,1,0,0:0:0:50:kick.wav
475,192,61039,1,0,0:0:0:0:
329,192,61208,1,0,0:0:0:100:hihat1.wav
36,192,61378,1,0,0:0:0:50:kick.wav
256,192,61378,1,0,0:0:0:50:snare.wav
182,192,61547,1,0,0:0:0:100:hihat1.wav
402,192,61716,1,0,0:0:0:50:kick.wav
475,192,61716,1,0,0:0:0:0:
329,192,61886,1,0,0:0:0:100:hihat1.wav
36,192,62055,1,0,0:0:0:50:kick.wav
256,192,62055,1,0,0:0:0:50:snare.wav
36,192,62394,1,0,0:0:0:50:kick.wav
256,192,62394,1,0,0:0:0:50:cymbal.wav
475,192,62394,1,0,0:0:0:0:
329,192,62733,1,0,0:0:0:0:
36,192,62903,1,0,0:0:0:50:kick.wav
109,192,62903,1,0,0:0:0:0:
329,192,63072,1,0,0:0:0:50:snare.wav
475,192,63072,1,0,0:0:0:0:
109,192,63242,1,0,0:0:0:0:
182,192,63411,1,0,0:0:0:0:
256,192,63581,1,0,0:0:0:0:
329,192,63750,1,0,0:0:0:50:kick.wav
402,192,63750,1,0,0:0:0:0:
109,192,64005,1,0,0:0:0:50:kick.wav
182,192,64005,1,0,0:0:0:0:
329,192,64259,1,0,0:0:0:50:kick.wav
402,192,64259,1,0,0:0:0:0:
36,192,64428,1,0,0:0:0:50:snare.wav
256,192,64428,1,0,0:0:0:0:
475,192,64598,1,0,0:0:0:0:
402,192,64767,1,0,0:0:0:0:
329,192,64937,1,0,0:0:0:0:
36,192,65106,1,0,0:0:0:50:kick.wav
182,192,65106,1,0,0:0:0:0:
475,192,65106,1,0,0:0:0:0:
256,192,65445,1,0,0:0:0:50:kick.wav
475,192,65445,1,0,0:0:0:50:snare.wav
109,192,65784,1,0,0:0:0:50:kick.wav
182,192,65784,1,0,0:0:0:0:
36,192,66123,1,0,0:0:0:50:kick.wav
256,192,66123,1,0,0:0:0:50:snare.wav
329,192,66462,1,0,0:0:0:50:kick.wav
475,192,66462,128,0,67818:0:0:0:50:LR_Chm Fast.wav
256,192,67818,1,0,0:0:0:50:kick.wav
402,192,67818,1,0,0:0:0:50:cymbal.wav
36,192,67988,1,0,0:0:0:0:
109,192,68157,1,0,0:0:0:0:
182,192,68327,1,0,0:0:0:0:
329,192,68496,1,0,0:0:0:0:
475,192,68666,1,0,0:0:0:0:
402,192,68835,1,0,0:0:0:0:
109,192,69005,1,0,0:0:0:0:
256,192,69174,1,0,0:0:0:50:LR_Chm Fast.wav
402,192,69344,1,0,0:0:0:0:
109,192,69513,1,0,0:0:0:0:
402,192,69683,1,0,0:0:0:0:
256,192,69852,1,0,0:0:0:0:
182,192,70022,1,0,0:0:0:0:
36,192,70191,1,0,0:0:0:0:
256,192,70361,1,0,0:0:0:0:
475,192,70530,1,0,0:0:0:0:
36,192,70700,1,0,0:0:0:0:
109,192,70869,1,0,0:0:0:0:
182,192,71039,1,0,0:0:0:0:
329,192,71208,1,0,0:0:0:0:
475,192,71378,1,0,0:0:0:0:
402,192,71547,1,0,0:0:0:0:
36,192,71716,1,0,0:0:0:0:
182,192,71801,1,0,0:0:0:0:
329,192,71886,1,0,0:0:0:50:LR_Chm Fast.wav
182,192,72055,1,0,0:0:0:0:
36,192,72225,1,0,0:0:0:0:
182,192,72394,1,0,0:0:0:0:
475,192,72564,1,0,0:0:0:0:
402,192,72733,1,0,0:0:0:0:
256,192,72903,1,0,0:0:0:0:
109,192,73072,1,0,0:0:0:0:
475,192,73242,1,0,0:0:0:50:LR_Chm Fast.wav
182,192,73581,1,0,0:0:0:0:
402,192,73750,1,0,0:0:0:0:
329,192,73920,1,0,0:0:0:0:
256,192,74089,1,0,0:0:0:0:
109,192,74259,1,0,0:0:0:0:
182,192,74428,1,0,0:0:0:0:
475,192,74598,1,0,0:0:0:50:LR_Chm Fast.wav
329,192,74767,1,0,0:0:0:0:
109,192,75106,1,0,0:0:0:0:
109,192,75445,1,0,0:0:0:0:
182,192,75615,1,0,0:0:0:0:
329,192,75784,1,0,0:0:0:0:
402,192,75954,1,0,0:0:0:0:
182,192,76293,1,0,0:0:0:0:
475,192,76462,1,0,0:0:0:0:
109,192,76801,1,0,0:0:0:0:
256,192,77140,1,0,0:0:0:0:
475,192,77310,128,0,78666:0:0:0:0:
36,192,77649,128,0,78666:0:0:0:0:
256,192,77988,128,0,78666:0:0:0:0:
109,192,78666,1,0,0:0:0:50:kick.wav
329,192,78666,1,0,0:0:0:50:cymbal.wav
402,192,78666,1,0,0:0:0:0:
256,192,79005,1,0,0:0:0:0:
109,192,79174,1,0,0:0:0:50:kick.wav
182,192,79174,1,0,0:0:0:50:cymbal.wav
402,192,79174,1,0,0:0:0:0:
256,192,79513,1,0,0:0:0:0:
256,192,79852,1,0,0:0:0:0:
402,192,80022,1,0,0:0:0:0:
475,192,80022,1,0,0:0:0:0:
182,192,80191,1,0,0:0:0:0:
329,192,80361,1,0,0:0:0:0:
475,192,80530,1,0,0:0:0:0:
329,192,80700,1,0,0:0:0:0:
182,192,80869,1,0,0:0:0:0:
36,192,81039,1,0,0:0:0:0:
109,192,81378,1,0,0:0:0:50:kick.wav
402,192,81378,1,0,0:0:0:50:cymbal.wav
475,192,81378,1,0,0:0:0:0:
256,192,81716,1,0,0:0:0:0:
36,192,81886,1,0,0:0:0:50:kick.wav
109,192,81886,1,0,0:0:0:50:cymbal.wav
402,192,81886,1,0,0:0:0:0:
256,192,82225,1,0,0:0:0:0:
256,192,82564,1,0,0:0:0:0:
402,192,82903,1,0,0:0:0:0:
256,192,83072,1,0,0:0:0:0:
109,192,83242,1,0,0:0:0:0:
329,192,83411,1,0,0:0:0:0:
475,192,83581,1,0,0:0:0:0:
256,192,83750,1,0,0:0:0:0:
36,192,83920,1,0,0:0:0:0:
256,192,84089,1,0,0:0:0:50:kick.wav
402,192,84089,1,0,0:0:0:50:cymbal.wav
475,192,84089,1,0,0:0:0:0:
109,192,84428,1,0,0:0:0:50:snare.wav
182,192,84428,1,0,0:0:0:0:
329,192,84767,1,0,0:0:0:50:snare.wav
402,192,84767,1,0,0:0:0:0:
109,192,85022,1,0,0:0:0:50:snare.wav
182,192,85022,1,0,0:0:0:0:
329,192,85276,1,0,0:0:0:50:snare.wav
402,192,85276,1,0,0:0:0:0:
36,192,85445,1,0,0:0:0:50:snare.wav
109,192,85445,1,0,0:0:0:0:
402,192,85784,1,0,0:0:0:50:snare.wav
475,192,85784,1,0,0:0:0:0:
36,192,86123,1,0,0:0:0:50:snare.wav
109,192,86123,1,0,0:0:0:0:
402,192,86378,1,0,0:0:0:50:snare.wav
475,192,86378,1,0,0:0:0:0:
36,192,86632,1,0,0:0:0:50:snare.wav
109,192,86632,1,0,0:0:0:0:
402,192,86801,1,0,0:0:0:50:snare.wav
475,192,86801,1,0,0:0:0:0:
182,192,86971,1,0,0:0:0:50:snare.wav
256,192,86971,1,0,0:0:0:0:
36,192,87140,1,0,0:0:0:50:snare.wav
109,192,87140,1,0,0:0:0:0:
256,192,87310,1,0,0:0:0:50:snare.wav
329,192,87310,1,0,0:0:0:0:
36,192,87479,1,0,0:0:0:50:snare.wav
109,192,87479,1,0,0:0:0:0:
256,192,87649,1,0,0:0:0:50:snare.wav
329,192,87649,1,0,0:0:0:0:
402,192,87818,1,0,0:0:0:50:snare.wav
475,192,87818,1,0,0:0:0:0:
182,192,87988,1,0,0:0:0:50:snare.wav
256,192,87988,1,0,0:0:0:0:
36,192,88157,128,0,89513:0:0:0:50:snare.wav
475,192,88157,1,0,0:0:0:0:
256,192,89513,1,0,0:0:0:0:
402,192,89852,1,0,0:0:0:0:
256,192,90191,1,0,0:0:0:0:
109,192,90445,1,0,0:0:0:0:
329,192,90700,1,0,0:0:0:0:
36,192,90869,1,0,0:0:0:50:kick.wav
109,192,90869,1,0,0:0:0:0:
256,192,91039,1,0,0:0:0:0:
475,192,91208,1,0,0:0:0:0:
256,192,91378,1,0,0:0:0:0:
36,192,91547,128,0,92225:0:0:0:0:
329,192,91886,128,0,92225:0:0:0:0:
256,192,92225,1,0,0:0:0:50:kick.wav
402,192,92225,1,0,0:0:0:0:
475,192,92225,1,0,0:0:0:0:
109,192,92394,1,0,0:0:0:0:
329,192,92564,1,0,0:0:0:50:kick.wav
475,192,92564,1,0,0:0:0:50:snare.wav
182,192,92733,1,0,0:0:0:0:
36,192,92903,1,0,0:0:0:50:kick.wav
109,192,92903,1,0,0:0:0:0:
256,192,93072,1,0,0:0:0:0:
329,192,93242,1,0,0:0:0:50:kick.wav
475,192,93242,1,0,0:0:0:50:snare.wav
182,192,93411,1,0,0:0:0:0:
36,192,93581,1,0,0:0:0:50:kick.wav
109,192,93581,1,0,0:0:0:0:
329,192,93750,1,0,0:0:0:0:
36,192,93920,1,0,0:0:0:50:kick.wav
182,192,93920,1,0,0:0:0:50:snare.wav
402,192,94089,1,0,0:0:0:0:
256,192,94259,1,0,0:0:0:50:kick.wav
329,192,94259,1,0,0:0:0:0:
475,192,94428,1,0,0:0:0:0:
36,192,94598,1,0,0:0:0:50:kick.wav
182,192,94598,1,0,0:0:0:50:snare.wav
329,192,94767,1,0,0:0:0:0:
36,192,94937,1,0,0:0:0:50:kick.wav
256,192,94937,1,0,0:0:0:0:
182,192,95106,1,0,0:0:0:0:
402,192,95276,1,0,0:0:0:50:snare.wav
475,192,95276,1,0,0:0:0:50:cymbal.wav
109,192,95445,1,0,0:0:0:0:
256,192,95615,1,0,0:0:0:50:kick.wav
329,192,95615,1,0,0:0:0:0:
36,192,95784,1,0,0:0:0:0:
402,192,95954,1,0,0:0:0:50:kick.wav
475,192,95954,1,0,0:0:0:50:snare.wav
182,192,96123,1,0,0:0:0:0:
329,192,96293,1,0,0:0:0:50:kick.wav
475,192,96293,1,0,0:0:0:0:
256,192,96462,1,0,0:0:0:0:
36,192,96632,1,0,0:0:0:50:kick.wav
109,192,96632,1,0,0:0:0:50:snare.wav
402,192,96801,1,0,0:0:0:0:
182,192,96971,1,0,0:0:0:50:kick.wav
329,192,96971,1,0,0:0:0:0:
475,192,97140,1,0,0:0:0:0:
36,192,97310,1,0,0:0:0:50:kick.wav
109,192,97310,1,0,0:0:0:50:snare.wav
256,192,97479,1,0,0:0:0:0:
36,192,97649,1,0,0:0:0:50:kick.wav
329,192,97649,1,0,0:0:0:0:
109,192,97818,1,0,0:0:0:0:
256,192,97988,1,0,0:0:0:50:kick.wav
475,192,97988,1,0,0:0:0:50:snare.wav
329,192,98157,1,0,0:0:0:0:
109,192,98327,1,0,0:0:0:50:kick.wav
402,192,98327,1,0,0:0:0:0:
182,192,98496,1,0,0:0:0:0:
256,192,98666,1,0,0:0:0:50:kick.wav
475,192,98666,1,0,0:0:0:50:snare.wav
36,192,98835,1,0,0:0:0:0:
402,192,99005,1,0,0:0:0:50:kick.wav
475,192,99005,1,0,0:0:0:0:
329,192,99174,1,0,0:0:0:0:
36,192,99344,1,0,0:0:0:50:kick.wav
256,192,99344,1,0,0:0:0:50:snare.wav
109,192,99513,1,0,0:0:0:0:
182,192,99683,1,0,0:0:0:50:kick.wav
329,192,99683,1,0,0:0:0:0:
475,192,99852,1,0,0:0:0:0:
36,192,100022,1,0,0:0:0:50:kick.wav
256,192,100022,1,0,0:0:0:50:snare.wav
402,192,100191,1,0,0:0:0:0:
109,192,100361,1,0,0:0:0:50:kick.wav
182,192,100361,1,0,0:0:0:0:
329,192,100530,1,0,0:0:0:0:
36,192,100700,1,0,0:0:0:50:kick.wav
475,192,100700,1,0,0:0:0:50:snare.wav
109,192,100869,1,0,0:0:0:0:
256,192,101039,1,0,0:0:0:50:kick.wav
329,192,101039,1,0,0:0:0:0:
402,192,101208,1,0,0:0:0:0:
36,192,101378,1,0,0:0:0:50:kick.wav
475,192,101378,1,0,0:0:0:50:snare.wav
256,192,101547,1,0,0:0:0:0:
402,192,101716,1,0,0:0:0:50:kick.wav
475,192,101716,1,0,0:0:0:0:
182,192,101886,1,0,0:0:0:0:
36,192,102055,1,0,0:0:0:50:kick.wav
329,192,102055,1,0,0:0:0:50:snare.wav
475,192,102225,1,0,0:0:0:0:
36,192,102394,1,0,0:0:0:50:kick.wav
109,192,102394,1,0,0:0:0:0:
256,192,102564,1,0,0:0:0:0:
402,192,102733,1,0,0:0:0:50:kick.wav
475,192,102733,1,0,0:0:0:0:
182,192,102903,1,0,0:0:0:0:
36,192,103072,1,0,0:0:0:50:kick.wav
256,192,103072,1,0,0:0:0:50:cymbal.wav
475,192,103072,1,0,0:0:0:0:
182,192,103242,1,0,0:0:0:0:
329,192,103411,1,0,0:0:0:50:kick.wav
402,192,103411,1,0,0:0:0:50:snare.wav
36,192,103581,1,0,0:0:0:0:
182,192,103750,1,0,0:0:0:50:kick.wav
256,192,103750,1,0,0:0:0:0:
109,192,103920,1,0,0:0:0:0:
329,192,104089,1,0,0:0:0:50:kick.wav
402,192,104089,1,0,0:0:0:50:snare.wav
36,192,104259,1,0,0:0:0:0:
256,192,104428,1,0,0:0:0:50:kick.wav
475,192,104428,1,0,0:0:0:0:
329,192,104598,1,0,0:0:0:0:
109,192,104767,1,0,0:0:0:50:kick.wav
182,192,104767,1,0,0:0:0:50:snare.wav
475,192,104937,1,0,0:0:0:0:
36,192,105106,1,0,0:0:0:50:kick.wav
256,192,105106,1,0,0:0:0:0:
402,192,105276,1,0,0:0:0:0:
109,192,105445,1,0,0:0:0:50:kick.wav
182,192,105445,1,0,0:0:0:50:snare.wav
329,192,105615,1,0,0:0:0:0:
36,192,105784,1,0,0:0:0:50:kick.wav
182,192,105784,1,0,0:0:0:0:
329,192,105954,1,0,0:0:0:0:
36,192,106123,1,0,0:0:0:50:kick.wav
402,192,106123,1,0,0:0:0:50:cymbal.wav
475,192,106123,1,0,0:0:0:50:snare.wav
109,192,106293,1,0,0:0:0:0:
182,192,106462,1,0,0:0:0:50:kick.wav
329,192,106462,1,0,0:0:0:0:
402,192,106632,1,0,0:0:0:0:
36,192,106801,1,0,0:0:0:50:kick.wav
109,192,106801,1,0,0:0:0:50:snare.wav
475,192,106971,1,0,0:0:0:0:
36,192,107140,1,0,0:0:0:50:kick.wav
256,192,107140,1,0,0:0:0:0:
182,192,107310,1,0,0:0:0:0:
329,192,107479,1,0,0:0:0:50:kick.wav
475,192,107479,1,0,0:0:0:50:snare.wav
36,192,107649,1,0,0:0:0:0:
256,192,107818,1,0,0:0:0:50:kick.wav
402,192,107818,1,0,0:0:0:0:
475,192,107988,1,0,0:0:0:0:
36,192,108157,1,0,0:0:0:50:kick.wav
182,192,108157,1,0,0:0:0:50:snare.wav
402,192,108327,1,0,0:0:0:0:
182,192,108496,1,0,0:0:0:50:kick.wav
329,192,108496,1,0,0:0:0:0:
475,192,108666,1,0,0:0:0:0:
36,192,108835,1,0,0:0:0:50:kick.wav
256,192,108835,1,0,0:0:0:50:snare.wav
109,192,109005,1,0,0:0:0:0:
329,192,109174,1,0,0:0:0:50:kick.wav
402,192,109174,1,0,0:0:0:0:
36,192,109344,1,0,0:0:0:0:
256,192,109513,1,0,0:0:0:50:kick.wav
475,192,109513,1,0,0:0:0:50:snare.wav
182,192,109683,1,0,0:0:0:0:
402,192,109852,1,0,0:0:0:50:kick.wav
475,192,109852,1,0,0:0:0:0:
256,192,110022,1,0,0:0:0:0:
36,192,110191,1,0,0:0:0:50:kick.wav
182,192,110191,1,0,0:0:0:50:snare.wav
329,192,110361,1,0,0:0:0:0:
256,192,110530,1,0,0:0:0:50:kick.wav
475,192,110530,1,0,0:0:0:0:
109,192,110700,1,0,0:0:0:0:
329,192,110869,1,0,0:0:0:50:kick.wav
475,192,110869,1,0,0:0:0:50:snare.wav
182,192,111039,1,0,0:0:0:0:
36,192,111208,1,0,0:0:0:50:kick.wav
256,192,111208,1,0,0:0:0:0:
402,192,111378,1,0,0:0:0:0:
36,192,111547,1,0,0:0:0:50:kick.wav
182,192,111547,1,0,0:0:0:50:snare.wav
329,192,111716,1,0,0:0:0:0:
402,192,111886,1,0,0:0:0:50:kick.wav
475,192,111886,1,0,0:0:0:0:
256,192,112055,1,0,0:0:0:0:
36,192,112225,1,0,0:0:0:50:kick.wav
182,192,112225,1,0,0:0:0:50:snare.wav
329,192,112394,1,0,0:0:0:0:
402,192,112564,1,0,0:0:0:50:kick.wav
475,192,112564,1,0,0:0:0:0:
182,192,112733,1,0,0:0:0:0:
329,192,112903,1,0,0:0:0:50:kick.wav
475,192,112903,1,0,0:0:0:50:snare.wav
109,192,113072,1,0,0:0:0:0:
182,192,113242,1,0,0:0:0:50:kick.wav
256,192,113242,1,0,0:0:0:0:
36,192,113411,1,0,0:0:0:0:
329,192,113581,1,0,0:0:0:50:kick.wav
475,192,113581,1,0,0:0:0:50:snare.wav
182,192,113750,1,0,0:0:0:0:
109,192,113920,1,0,0:0:0:50:kick.wav
256,192,113920,1,0,0:0:0:50:cymbal.wav
402,192,113920,1,0,0:0:0:0:
36,192,114259,1,0,0:0:0:50:snare.wav
475,192,114259,1,0,0:0:0:0:
109,192,114428,1,0,0:0:0:50:kick.wav
256,192,114428,1,0,0:0:0:50:cymbal.wav
402,192,114428,1,0,0:0:0:0:
36,192,114767,1,0,0:0:0:50:snare.wav
475,192,114767,1,0,0:0:0:0:
182,192,114937,128,0,116293:0:0:0:50:kick.wav
256,192,114937,1,0,0:0:0:50:cymbal.wav
329,192,114937,128,0,116293:0:0:0:0:
256,192,115445,128,0,116293:0:0:0:0:
36,192,116293,1,0,0:0:0:50:snare.wav
109,192,116293,1,0,0:0:0:0:
402,192,116462,1,0,0:0:0:50:snare.wav
475,192,116462,1,0,0:0:0:0:
182,192,116632,1,0,0:0:0:50:kick.wav
256,192,116632,1,0,0:0:0:50:cymbal.wav
329,192,116632,1,0,0:0:0:0:
182,192,116971,1,0,0:0:0:50:snare.wav
329,192,116971,1,0,0:0:0:0:
36,192,117140,1,0,0:0:0:50:kick.wav
256,192,117140,1,0,0:0:0:50:cymbal.wav
475,192,117140,1,0,0:0:0:0:
109,192,117479,1,0,0:0:0:50:snare.wav
402,192,117479,1,0,0:0:0:0:
182,192,117649,128,0,119344:0:0:0:50:kick.wav
256,192,117649,1,0,0:0:0:50:cymbal.wav
329,192,117649,128,0,119344:0:0:0:0:
