osu file format v14

[General]
AudioFilename: audio.mp3
AudioLeadIn: 0
PreviewTime: 24428
Countdown: 0
SampleSet: Soft
StackLeniency: 0.5
Mode: 0
LetterboxInBreaks: 0
WidescreenStoryboard: 1

[Editor]
Bookmarks: 12225,24428,35276,46123,56971,67818,78666,89513,92225,103072,113920
DistanceSpacing: 0.8
BeatDivisor: 12
GridSize: 32
TimelineZoom: 2.3

[Metadata]
Title:Melty Sweets
TitleUnicode:Melty Sweets
Artist:Ironami
ArtistUnicode:Ironami
Creator:My Angel Jeremy
Version:iRedi's MAXIMIUM
Source:SOUND VOLTEX IV HEAVENLY HAVEN
Tags:The 7th KACオリジナル楽曲コンテスト Original Song Contest iRedi Aurorance future bass electronic instrumental
BeatmapID:3755915
BeatmapSetID:1829975

[Difficulty]
HPDrainRate:5.5
CircleSize:3.7
OverallDifficulty:8.7
ApproachRate:9.3
SliderMultiplier:1.9
SliderTickRate:1

[Events]
//Background and Video events
0,0,"wallhaven-o3eqg9 (1).jpg",0,0
//Break Periods
//Storyboard Layer 0 (Background)
//Storyboard Layer 1 (Fail)
//Storyboard Layer 2 (Pass)
//Storyboard Layer 3 (Foreground)
//Storyboard Layer 4 (Overlay)
//Storyboard Sound Samples

[TimingPoints]
22,338.983050847458,4,2,2,60,1,0
1378,-133.333333333333,4,2,2,60,0,0
11547,-133.333333333333,4,2,2,70,0,0
11886,-86.9565217391304,4,2,2,70,0,0
12225,-117.647058823529,4,2,2,70,0,0
17649,-117.647058823529,4,2,2,80,0,0
20361,-117.647058823529,4,2,2,80,0,0
23750,-200,4,2,2,50,0,0
24428,-57.1428571428571,4,2,2,80,0,1
24767,-80,4,2,2,80,0,1
25615,-57.1428571428571,4,2,2,80,0,1
25954,-80,4,2,2,80,0,1
27479,-57.1428571428571,4,2,2,80,0,1
27818,-80,4,2,2,80,0,1
28496,-50,4,2,2,80,0,1
28750,-80,4,2,2,80,0,1
29344,-57.1428571428571,4,2,2,80,0,1
29598,-80,4,2,2,80,0,1
29852,-133.333333333333,4,2,2,80,0,1
30361,-57.1428571428571,4,2,2,80,0,1
31293,-80,4,2,2,80,0,1
32055,-57.1428571428571,4,2,2,80,0,1
34767,-80,4,2,2,80,0,1
35276,-57.1428571428571,4,2,2,60,0,0
36462,-57.1428571428571,4,2,2,70,0,0
37818,-57.1428571428571,4,2,2,70,0,0
37988,-66.6666666666667,4,2,2,75,0,0
38327,-80,4,2,2,75,0,1
39344,-57.1428571428571,4,2,2,75,0,1
39683,-80,4,2,2,75,0,1
42055,-100,4,2,2,75,0,1
42394,-57.1428571428571,4,2,2,75,0,1
46123,-80,4,2,2,75,0,0
56971,-200,4,2,2,75,0,0
57310,-66.6666666666667,4,2,2,75,0,0
62394,-57.1428571428571,4,2,2,75,0,0
65106,-66.6666666666667,4,2,2,75,0,0
67818,-100,4,2,2,60,0,0
69174,-80,4,2,2,60,0,0
69344,-100,4,2,2,60,0,0
71886,-80,4,2,2,60,0,0
72055,-100,4,2,2,60,0,0
73242,-133.333333333333,4,2,2,60,0,0
73581,-100,4,2,2,60,0,0
74598,-80,4,2,2,60,0,0
74767,-100,4,2,2,60,0,0
77310,-100,4,2,2,70,0,0
84089,-100,4,2,2,80,0,0
86801,-117.647058823529,4,2,2,80,0,0
89513,-117.647058823529,4,2,2,60,0,0
91547,-117.647058823529,4,2,2,75,0,0
91674,-117.647058823529,4,2,2,5,0,0
91716,-117.647058823529,4,2,2,75,0,0
92013,-117.647058823529,4,2,2,5,0,0
92055,-117.647058823529,4,2,2,75,0,0
92225,-57.1428571428571,4,2,2,85,0,1
92564,-80,4,2,2,85,0,1
93411,-57.1428571428571,4,2,2,85,0,1
93750,-80,4,2,2,85,0,1
94937,-200,4,2,2,85,0,1
95276,-57.1428571428571,4,2,2,85,0,1
95615,-80,4,2,2,85,0,1
97649,-100,4,2,2,85,0,1
98835,-57.1428571428571,4,2,2,85,0,1
99089,-80,4,2,2,85,0,1
99852,-57.1428571428571,4,2,2,85,0,1
101716,-80,4,2,2,85,0,1
101886,-44.4444444444445,4,2,2,85,0,1
102055,-80,4,2,2,85,0,1
102225,-44.4444444444445,4,2,2,85,0,1
102394,-80,4,2,2,85,0,1
102564,-44.4444444444445,4,2,2,85,0,1
102733,-44.4444444444445,4,2,2,85,0,0
103072,-57.1428571428571,4,2,2,85,0,1
103411,-80,4,2,2,85,0,1
104259,-57.1428571428571,4,2,2,85,0,1
104598,-80,4,2,2,85,0,1
105784,-200,4,2,2,85,0,1
106123,-57.1428571428571,4,2,2,85,0,1
106462,-80,4,2,2,85,0,1
107140,-50,4,2,2,85,0,1
107310,-80,4,2,2,85,0,1
108496,-100,4,2,2,85,0,1
109683,-57.1428571428571,4,2,2,85,0,1
109937,-80,4,2,2,85,0,1
110700,-57.1428571428571,4,2,2,85,0,1
113920,-57.1428571428571,4,2,2,85,0,1
114259,-57.1428571428571,4,2,2,85,0,0
114428,-50,4,2,2,85,0,1
114767,-57.1428571428571,4,2,2,85,0,0
114937,-66.6666666666667,4,2,2,85,0,0
115445,-66.6666666666667,4,2,2,85,0,1
115473,-66.6666666666667,4,2,2,85,0,0
115502,-66.6666666666667,4,2,2,85,0,1
115530,-66.6666666666667,4,2,2,85,0,0
115558,-66.6666666666667,4,2,2,85,0,1
115586,-66.6666666666667,4,2,2,85,0,0
115615,-40,4,2,2,85,0,1
115657,-40,4,2,2,85,0,0
115699,-40,4,2,2,85,0,1
115742,-40,4,2,2,85,0,0
115784,-40,4,2,2,85,0,1
115827,-40,4,2,2,85,0,0
115869,-40,4,2,2,85,0,1
115911,-40,4,2,2,85,0,0
115954,-40,4,2,2,85,0,1
115996,-40,4,2,2,85,0,0
116038,-40,4,2,2,85,0,1
116081,-40,4,2,2,85,0,0
116123,-40,4,2,2,85,0,1
116166,-40,4,2,2,85,0,0
116208,-40,4,2,2,85,0,1
116250,-40,4,2,2,85,0,0
116293,-80,4,2,2,85,0,0
116632,-57.1428571428571,4,2,2,85,0,1
116971,-57.1428571428571,4,2,2,85,0,0
117140,-50,4,2,2,85,0,1
117479,-105.263157894737,4,2,2,85,0,0
117649,-105.263157894737,4,2,2,65,0,0
119174,-105.263157894737,4,2,2,25,0,0
119344,-105.263157894737,4,2,2,25,0,0

[Colours]
Combo1 : 255,6,6
Combo2 : 251,251,0
Combo3 : 255,79,167
Combo4 : 0,169,251

[HitObjects]
53,85,1038,5,2,2:3:0:0:
53,85,1123,5,2,2:3:0:0:
53,85,1208,5,2,2:3:0:0:
53,85,1293,5,2,2:3:0:0:
53,85,1378,6,0,P|19:114|7:151,2,71.2500027179719,4|0|2,0:0|0:0|0:0,0:0:0:0:
153,169,1886,5,0,0:0:0:0:
153,169,2055,2,0,P|117:171|84:157,1,71.2500027179719,2|2,0:0|0:0,0:0:0:0:
109,29,2394,2,0,P|128:58|133:93,1,71.2500027179719,2|2,0:0|0:0,0:0:0:0:
9,138,2733,5,2,0:0:0:0:
27,220,2903,1,2,0:0:0:0:
27,220,3072,2,0,P|14:260|2:312,1,71.2500027179719,2|2,0:0|0:0,0:0:0:0:
116,370,3411,2,0,P|103:329|91:277,1,71.2500027179719
139,208,3750,1,2,0:0:0:0:
220,224,3920,1,2,0:0:0:0:
270,159,4089,6,0,P|301:142|336:144,2,71.2500027179719,2|0|2,0:0|0:0|0:0,0:0:0:0:
303,234,4598,1,0,0:0:0:0:
258,304,4767,6,0,P|270:344|282:396,1,71.2500027179719,2|2,0:0|0:0,0:0:0:0:
403,288,5106,2,0,P|390:247|378:195,1,71.2500027179719,2|0,0:0|0:0,0:0:0:0:
433,163,5361,1,2,0:0:0:0:
437,159,5445,5,2,0:0:0:0:
459,79,5615,1,0,0:0:0:0:
401,17,5784,1,2,0:0:0:0:
320,34,5954,1,0,0:0:0:0:
332,124,6123,6,0,P|291:111|239:99,1,71.2500027179719,2|2,0:0|0:0,0:0:0:0:
215,0,6462,2,0,P|180:9|146:19,1,71.2500027179719,2|2,0:0|0:0,0:0:0:0:
13,141,6801,6,0,P|-4:145|14:140,1,106.875004076958,2|0,0:0|0:0,0:0:0:0:
0,128,7140,1,2,0:0:0:0:
67,20,7310,5,2,0:0:0:0:
87,97,7479,1,2,0:0:0:0:
108,174,7649,1,0,0:0:0:0:
197,212,7818,5,2,0:0:0:0:
197,212,7988,2,0,P|184:252|172:304,1,71.2500027179719,2|0,0:0|0:0,0:0:0:0:
164,383,8327,2,0,P|139:356|114:331,1,71.2500027179719,2|0,0:0|0:0,0:0:0:0:
31,270,8666,2,0,P|66:261|101:252,1,71.2500027179719,2|0,0:0|0:0,0:0:0:0:
177,280,9005,5,2,0:0:0:0:
232,217,9174,1,2,0:0:0:0:
314,228,9344,1,2,0:0:0:0:
343,306,9513,6,0,P|332:340|323:374,1,71.2500027179719,2|0,0:0|0:0,0:0:0:0:
438,301,9852,1,2,0:0:0:0:
438,301,10022,2,0,P|427:266|418:232,1,71.2500027179719,2|0,0:0|0:0,0:0:0:0:
367,164,10361,5,2,0:0:0:0:
367,164,10530,1,2,0:0:0:0:
430,107,10700,1,2,0:0:0:0:
384,34,10869,6,0,P|351:47|315:45,2,71.2500027179719,2|2|2,0:0|0:0|0:0,0:0:0:0:
238,195,11547,5,2,0:3:0:0:
233,177,11631,1,2,0:3:0:0:
228,160,11716,1,8,0:3:0:0:
224,143,11801,1,8,0:3:0:0:
221,126,11886,2,0,B|197:107|197:107|121:136|74:83,1,163.875003125668,2|0,0:0|0:0,0:0:0:0:
66,44,12225,5,14,0:3:0:0:
100,157,12564,1,10,0:3:0:0:
18,256,12903,1,10,0:3:0:0:
36,335,13072,1,2,0:0:0:0:
110,360,13242,1,8,0:3:0:0:
173,304,13411,2,0,B|145:287|145:287|205:301,1,80.7500015401841,2|8,0:0|0:3,0:0:0:0:
325,320,13750,6,0,P|335:293|330:268,1,40.375000770092,2|0,0:0|0:0,0:0:0:0:
292,338,13920,2,0,P|263:342|244:359,1,40.375000770092,10|0,0:3|0:0,0:0:0:0:
324,357,14089,2,0,P|342:379|366:387,1,40.375000770092,2|0,0:0|0:0,0:0:0:0:
334,281,14259,6,0,P|354:279|373:273,1,40.375000770092,10|0,0:3|0:0,0:0:0:0:
449,375,14428,2,0,P|437:358|422:344,1,40.375000770092,2|0,0:0|0:0,0:0:0:0:
472,228,14598,2,0,P|460:256|459:290,1,40.375000770092,10|0,0:3|0:0,0:0:0:0:
449,375,14767,2,0,P|430:351|401:333,1,40.375000770092,2|0,0:0|0:0,0:0:0:0:
334,281,14937,5,10,0:3:0:0:
405,174,15276,1,10,0:3:0:0:
366,57,15615,1,10,0:3:0:0:
300,106,15784,1,2,0:0:0:0:
225,84,15954,1,8,0:3:0:0:
199,11,16123,2,0,B|144:23|144:23|109:0,1,80.7500015401841,2|8,0:0|0:3,0:0:0:0:
18,175,16462,6,0,P|25:147|43:126,1,40.375000770092,2|2,0:0|0:0,0:0:0:0:
147,111,16632,2,0,P|120:117|92:111,1,40.375000770092,10|0,0:3|0:0,0:0:0:0:
29,30,16801,2,0,P|47:49|57:75,1,40.375000770092,2|0,0:0|0:0,0:0:0:0:
116,192,16971,6,0,P|102:206|95:225,1,40.375000770092,10|8,0:3|0:3,0:0:0:0:
3,224,17140,2,0,P|8:243|21:258,1,40.375000770092,2|0,0:0|0:0,0:0:0:0:
0,298,17310,2,0,P|19:302|39:298,1,40.375000770092,10|0,0:3|0:0,0:0:0:0:
41,336,17479,2,0,P|54:321|61:302,1,40.375000770092,2|0,0:0|0:0,0:0:0:0:
161,266,17649,6,0,L|252:249,1,80.7500015401841,10|0,0:0|0:0,0:0:0:0:
135,365,17988,2,0,L|226:348,1,80.7500015401841,10|0,0:0|0:0,0:0:0:0:
380,381,18327,6,0,L|363:289,1,80.7500015401841,10|2,0:0|0:0,0:0:0:0:
408,235,18581,1,8,0:0:0:0:
408,235,18666,2,0,L|393:155,1,80.7500015401841,2|10,3:0|0:0,0:0:0:0:
462,55,19005,5,8,0:0:0:0:
378,69,19174,1,0,0:0:0:0:
400,190,19344,1,10,0:0:0:0:
248,217,19513,1,2,0:0:0:0:
226,96,19683,5,10,0:0:0:0:
312,138,19852,1,2,0:0:0:0:
316,142,19937,1,8,0:0:0:0:
320,146,20022,1,2,3:0:0:0:
378,69,20191,1,10,0:0:0:0:
275,1,20361,6,0,P|244:13|213:17,1,40.375000770092,10|0,0:0|0:0,0:0:0:0:
144,87,20530,2,0,P|174:74|205:70,1,40.375000770092,8|0,0:0|0:0,0:0:0:0:
289,81,20700,6,0,P|266:108|240:128,1,40.375000770092,10|0,0:0|0:0,0:0:0:0:
215,227,20869,2,0,P|235:198|262:178,1,40.375000770092,8|0,0:0|0:0,0:0:0:0:
340,143,21039,6,0,P|334:178|321:210,1,40.375000770092,10|0,0:0|0:0,0:0:0:0:
349,314,21208,2,0,P|353:277|366:245,1,40.375000770092,10|0,0:0|0:0,0:0:0:0:
414,176,21378,6,0,P|427:210|432:246,1,40.375000770092,10|0,0:0|0:0,0:0:0:0:
512,326,21547,2,0,P|497:290|492:254,1,40.375000770092,10|0,0:0|0:0,0:0:0:0:
507,170,21716,5,10,0:0:0:0:
480,183,21800,1,8,0:0:0:0:
454,198,21885,1,10,0:0:0:0:
429,214,21970,1,8,0:0:0:0:
404,232,22054,1,10,0:0:0:0:
380,250,22139,1,8,0:0:0:0:
357,270,22224,1,10,0:0:0:0:
335,291,22309,1,8,0:0:0:0:
318,316,22394,5,10,0:0:0:0:
283,294,22478,1,10,0:0:0:0:
247,276,22563,1,10,0:0:0:0:
209,264,22648,1,10,0:0:0:0:
169,255,22732,1,10,0:0:0:0:
129,252,22817,1,10,0:0:0:0:
89,253,22902,1,10,0:0:0:0:
49,259,22987,1,10,0:0:0:0:
42,271,23071,5,14,0:0:0:0:
42,271,23750,6,0,L|53:207,1,47.5,2|2,0:3|0:3,0:0:0:0:
0,113,24089,1,4,0:3:0:0:
0,113,24428,6,0,B|45:89|81:127|59:127|102:167|151:146,1,166.250001585484,6|0,3:2|0:0,0:0:0:0:
207,14,24683,1,2,0:0:0:0:
211,18,24767,2,0,P|202:46|196:75,1,59.375,2|0,3:0|0:0,0:0:0:0:
240,218,24937,1,2,0:0:0:0:
470,275,25106,6,0,P|492:294|512:316,1,59.375,10|0,0:0|0:0,0:0:0:0:
365,240,25276,2,0,P|336:249|307:255,1,59.375,2|0,3:0|0:0,0:0:0:0:
447,165,25445,2,0,P|452:135|462:107,1,59.375,2|0,0:0|0:0,0:0:0:0:
380,364,25615,6,0,P|260:327|139:300,1,249.375002378225,2|0,3:0|0:0,0:0:0:0:
81,360,25954,1,2,3:0:0:0:
40,355,26038,1,2,0:0:0:0:
10,331,26123,1,2,0:0:0:0:
0,294,26208,1,0,0:0:0:0:
38,228,26293,6,0,P|29:200|21:171,1,59.375,2|2,3:0|0:0,0:0:0:0:
105,266,26462,1,10,0:0:0:0:
195,135,26632,1,0,3:0:0:0:
232,142,26716,1,2,3:0:0:0:
268,148,26801,5,10,0:0:0:0:
276,119,26885,1,2,0:3:0:0:
284,90,26970,1,2,0:3:0:0:
292,61,27055,1,2,0:3:0:0:
300,32,27140,1,2,3:0:0:0:
300,32,27479,6,0,B|338:-2|390:18|390:18|391:95|442:126|442:126|435:107|445:77,1,249.375002378225,6|0,3:2|0:0,0:0:0:0:
473,13,27818,2,0,B|493:-2|493:-2|473:16|471:35,1,59.375,10|0,0:0|0:0,0:0:0:0:
512,185,27988,1,2,0:0:0:0:
322,120,28157,2,0,B|322:113|322:113|329:113|329:120|329:120|329:128|322:128|322:128|314:128|314:120|314:120|314:113|322:113|322:113|322:120,1,59.375,2|0,0:0|0:0,0:0:0:0:
249,185,28327,1,2,0:0:0:0:
416,377,28496,6,0,B|386:356|391:318|391:318|396:282|361:268|334:282|322:317|341:341|370:349|386:330|392:316,1,190,0|2,3:0|0:0,0:0:0:0:
368,311,28750,1,2,3:0:0:0:
317,295,28834,1,0,0:0:0:0:
267,313,28919,1,2,0:0:0:0:
244,358,29005,6,0,P|215:365|187:374,1,59.375,2|0,3:0|0:0,0:0:0:0:
322,380,29174,1,10,0:0:0:0:
119,311,29344,6,0,B|135:252|83:219|87:244|31:203|46:140|46:140|57:166|80:179,1,249.375002378225,2|0,3:0|0:0,0:0:0:0:
221,164,29683,5,2,3:0:0:0:
217,160,29767,1,0,3:0:0:0:
196,123,29852,2,0,L|101:106,1,71.2500027179719,2|2,0:3|0:3,0:0:0:0:
281,103,30191,1,2,0:0:0:0:
54,367,30361,6,0,P|132:339|213:324,1,166.250001585484,6|10,3:2|0:0,0:0:0:0:
355,204,30700,1,2,3:0:0:0:
195,246,30869,1,2,0:0:0:0:
34,101,31039,6,0,B|0:76|0:76|43:170|58:300,1,249.375002378225,2|0,3:0|0:0,0:0:0:0:
5,375,31378,5,2,0:0:0:0:
64,326,31462,1,2,0:0:0:0:
110,356,31547,1,2,3:0:0:0:
146,328,31632,1,0,0:0:0:0:
186,337,31716,1,2,0:0:0:0:
296,384,31886,1,10,0:0:0:0:
224,180,32055,6,0,P|247:250|338:262,1,166.250001585484,2|2,3:0|0:0,0:0:0:0:
419,130,32394,1,2,0:0:0:0:
461,381,32564,6,0,P|423:299|408:205,1,166.250001585484,2|0,3:0|0:0,0:0:0:0:
506,100,32903,1,2,0:0:0:0:
308,179,33072,6,0,B|299:138|348:101|344:124|386:91|382:35,1,166.250001585484,2|10,3:0|0:0,0:0:0:0:
231,0,33411,1,0,0:0:0:0:
189,76,33496,1,2,0:0:0:0:
112,34,33581,6,0,B|120:13|120:13|74:55|12:79|12:79|51:89,1,166.250001585484,2|2,3:0|0:0,0:0:0:0:
191,160,33920,1,2,0:0:0:0:
119,371,34089,2,0,B|102:307|159:261|159:261|133:219,1,166.250001585484,2|2,3:0|0:0,0:0:0:0:
16,163,34428,1,2,0:0:0:0:
210,345,34598,6,0,P|249:331|290:324,1,83.1250007927418,10|0,0:0|0:0,0:0:0:0:
373,374,34767,2,0,B|392:284|392:284|428:253,2,118.75,2|2|2,3:0|0:0|0:0,0:0:0:0:
152,264,35276,5,6,3:2:0:0:
256,192,35318,12,2,37818,0:3:0:0:
151,106,37988,6,0,P|176:40|159:113,1,213.750008153916,2|0,3:2|0:0,0:0:0:0:
25,218,38327,5,4,3:2:0:0:
96,174,38411,1,0,0:0:0:0:
150,240,38496,2,0,P|178:248|207:254,1,59.375,2|0,0:0|0:0,0:0:0:0:
356,259,38666,6,0,P|347:287|341:316,1,59.375,2|0,0:0|0:0,0:0:0:0:
198,168,38835,2,0,P|206:139|212:110,1,59.375,2|0,3:0|0:0,0:0:0:0:
55,296,39005,1,10,0:0:0:0:
257,345,39174,1,2,0:0:0:0:
446,261,39344,6,0,B|455:175|398:103|316:98|316:98|369:116|384:165,1,332.500003170967,2|8,3:0|0:0,0:0:0:0:
425,0,39852,1,2,0:0:0:0:
375,26,39937,1,2,0:0:0:0:
322,8,40022,6,0,P|294:17|264:23,1,59.375,2|0,0:0|0:0,0:0:0:0:
94,169,40191,2,0,P|122:160|151:154,1,59.375,2|0,3:0|0:0,0:0:0:0:
179,21,40361,6,0,P|184:50|194:78,1,59.375,10|0,0:0|0:0,0:0:0:0:
238,151,40530,2,0,P|232:121|222:93,1,59.375,2|0,0:0|0:0,0:0:0:0:
103,75,40700,5,2,3:0:0:0:
203,228,40869,1,2,0:0:0:0:
11,283,41039,2,0,L|-5:344,2,39.5833333333333,10|2|2,0:0|0:0|0:0,0:0:0:0:
25,230,41208,1,2,0:0:0:0:
161,380,41378,5,2,0:0:0:0:
104,167,41547,1,2,3:0:0:0:
316,110,41716,1,10,0:0:0:0:
373,323,41886,1,2,0:0:0:0:
432,256,42055,6,0,B|386:259|357:222|377:225|344:182|305:188,1,142.5,0|2,3:0|0:0,0:0:0:0:
484,194,42394,2,0,P|359:219|236:253,1,249.375002378225,10|2,0:0|0:0,0:0:0:0:
130,326,42733,1,2,0:0:0:0:
14,120,42903,6,0,P|54:128|94:141,1,83.1250007927418,2|0,3:0|0:0,0:0:0:0:
240,348,43072,1,10,0:0:0:0:
190,171,43242,1,2,0:0:0:0:
400,128,43411,6,0,P|316:56|318:-37,1,166.250001585484,2|2,3:0|0:0,0:0:0:0:
431,9,43750,1,10,0:0:0:0:
268,148,43920,6,0,B|220:154|187:195|210:191|174:238|132:240,1,166.250001585484,2|2,0:0|0:0,0:0:0:0:
0,210,44259,1,0,3:0:0:0:
48,151,44344,1,2,0:0:0:0:
8,85,44428,6,0,P|95:89|105:200,1,166.250001585484,10|2,0:0|0:0,0:0:0:0:
59,285,44767,1,2,3:0:0:0:
275,235,44937,6,0,P|315:243|355:256,1,83.1250007927418,10|2,0:0|0:0,0:0:0:0:
222,307,45106,1,2,3:0:0:0:
462,378,45276,5,2,0:0:0:0:
466,374,45361,1,8,0:0:0:0:
470,370,45445,2,0,P|459:329|450:289,1,83.1250007927418,2|0,3:0|0:0,0:0:0:0:
491,216,45615,2,0,P|480:175|471:135,1,83.1250007927418,10|0,0:0|0:0,0:0:0:0:
487,54,45784,5,10,0:0:0:0:
451,32,45868,1,8,0:0:0:0:
410,29,45953,1,10,0:0:0:0:
372,43,46038,1,8,0:0:0:0:
344,72,46123,6,0,P|284:85|225:101,1,118.75,6|0,3:2|0:0,0:0:0:0:
302,0,46462,2,0,P|242:12|183:28,1,118.75,10|0,0:0|0:0,0:0:0:0:
92,181,46801,6,0,P|83:140|72:100,1,59.375,2|0,3:0|0:0,0:0:0:0:
12,77,46971,2,0,P|4:48|0:19,1,59.375,2|0,0:0|0:0,0:0:0:0:
180,174,47140,2,0,P|175:204|167:231,1,59.375,10|0,0:0|0:0,0:0:0:0:
49,384,47310,6,0,P|7:356|9:275,1,118.75,2|2,0:0|3:2,0:0:0:0:
248,257,47649,2,0,P|244:306|173:345,1,118.75,2|10,0:0|0:0,0:0:0:0:
39,149,47988,2,0,P|83:126|152:169,1,118.75,2|0,0:0|3:0,0:0:0:0:
315,378,48327,5,2,0:0:0:0:
319,374,48411,1,0,0:0:0:0:
323,370,48496,2,0,P|327:340|335:312,1,59.375,10|0,0:0|0:0,0:0:0:0:
391,201,48666,2,0,P|361:196|333:188,1,59.375,2|2,0:0|0:0,0:0:0:0:
251,5,48835,6,0,P|238:63|223:120,1,118.75,2|0,3:2|0:0,0:0:0:0:
476,71,49174,2,0,P|480:41|488:13,1,59.375,10|0,0:0|0:0,0:0:0:0:
335,27,49344,2,0,P|330:56|322:84,1,59.375,2|0,0:0|0:0,0:0:0:0:
492,9,49513,6,0,P|484:37|480:67,1,59.375,2|0,3:0|0:0,0:0:0:0:
318,88,49683,2,0,P|326:60|331:31,1,59.375,2|0,0:0|0:0,0:0:0:0:
404,124,49852,1,8,0:0:0:0:
251,5,50022,6,0,P|193:17|136:33,1,118.75,2|0,0:0|0:0,0:0:0:0:
283,243,50360,6,0,P|292:214|299:186,1,59.375,2|0,0:0|0:0,0:0:0:0:
208,142,50530,2,0,P|230:121|250:100,1,59.375,10|0,0:0|0:0,0:0:0:0:
193,17,50699,2,0,P|222:10|250:2,1,59.375,2|0,0:0|0:0,0:0:0:0:
53,127,50868,6,0,P|73:149|94:169,1,59.375,2|0,3:0|0:0,0:0:0:0:
138,91,51038,2,0,P|167:100|195:107,1,59.375,2|0,0:0|0:0,0:0:0:0:
193,17,51208,2,0,P|222:10|250:2,1,59.375,8|0,0:0|0:0,0:0:0:0:
279,87,51378,1,0,0:0:0:0:
119,292,51547,6,0,P|62:277|4:265,1,118.75,2|0,3:2|0:0,0:0:0:0:
160,219,51886,2,0,P|103:204|45:192,1,118.75,10|0,0:0|0:0,0:0:0:0:
190,353,52225,6,0,P|198:312|209:272,1,59.375,2|0,3:0|0:0,0:0:0:0:
160,219,52395,2,0,P|130:213|102:206,1,59.375,2|0,0:0|0:0,0:0:0:0:
276,340,52564,2,0,P|305:345|333:352,1,59.375,10|0,0:0|0:0,0:0:0:0:
225,160,52733,6,0,P|283:148|340:134,1,118.75,2|2,0:0|3:2,0:0:0:0:
448,336,53072,2,0,P|408:291|367:248,1,118.75,0|8,0:0|0:0,0:0:0:0:
488,54,53411,2,0,P|469:110|452:167,1,118.75,2|0,0:0|3:0,0:0:0:0:
155,110,53750,5,2,0:0:0:0:
151,106,53835,1,0,0:0:0:0:
147,102,53920,2,0,P|137:130|129:158,1,59.375,10|0,0:0|0:0,0:0:0:0:
225,300,54089,2,0,P|234:271|242:243,1,59.375,2|2,0:0|0:0,0:0:0:0:
28,288,54259,6,0,P|64:299|138:261,1,118.75,2|0,3:2|0:0,0:0:0:0:
229,63,54598,6,0,P|224:33|216:5,1,59.375,10|0,0:0|0:0,0:0:0:0:
341,135,54768,2,0,P|368:124|397:117,1,59.375,2|0,0:0|0:0,0:0:0:0:
212,1,54937,6,0,P|220:29|224:58,1,59.375,2|0,3:0|0:0,0:0:0:0:
401,121,55106,2,0,P|372:128|344:138,1,59.375,2|2,0:0|0:0,0:0:0:0:
251,150,55276,1,10,0:0:0:0:
488,95,55445,6,0,P|455:46|399:31,1,118.75,2|0,0:0|3:0,0:0:0:0:
295,229,55784,6,0,P|264:232|230:218,1,59.375,2|0,0:0|0:0,0:0:0:0:
286,133,55954,2,0,P|267:107|263:71,1,59.375,10|0,0:0|0:0,0:0:0:0:
365,77,56123,2,0,P|377:48|407:26,1,59.375,2|0,0:0|0:0,0:0:0:0:
120,103,56293,6,0,P|141:83|153:56,1,59.375,2|0,3:0|0:0,0:0:0:0:
195,147,56462,2,0,P|223:140|247:123,1,59.375,2|0,0:0|0:0,0:0:0:0:
238,223,56632,2,0,P|266:232|295:228,1,59.375,10|0,0:0|0:0,0:0:0:0:
351,126,56801,1,0,0:0:0:0:
351,126,56971,6,0,L|346:142,5,15.8333333333333,2|2|2|2|2|2,0:0|0:0|0:0|0:0|0:0|0:0,0:0:0:0:
289,195,57310,6,0,B|346:173|397:210|371:234|423:274|482:253,1,213.750008153916,14|0,0:2|0:0,0:0:0:0:
503,126,57649,6,0,P|466:149|453:187,1,71.2500027179719,2|0,3:0|0:0,0:0:0:0:
487,261,57818,2,0,P|504:291|503:326,1,71.2500027179719,2|0,0:0|0:0,0:0:0:0:
317,273,57988,2,0,P|299:303|300:338,1,71.2500027179719,10|0,0:0|0:0,0:0:0:0:
500,372,58157,6,0,B|471:352|471:352|367:380,1,142.500005435944,2|0,0:0|3:0,0:0:0:0:
133,348,58496,2,0,B|237:320|237:320|266:340,2,142.500005435944,2|8|2,0:0|0:0|0:0,0:0:0:0:
7,197,59005,1,0,3:0:0:0:
42,316,59174,1,2,0:0:0:0:
46,320,59259,1,0,0:0:0:0:
50,324,59344,1,10,0:0:0:0:
169,218,59513,2,0,P|134:228|100:236,1,71.2500027179719,2|0,0:0|0:0,0:0:0:0:
7,119,59683,5,2,3:0:0:0:
58,133,59796,2,0,P|72:69|31:17,1,118.750004529953,2|0,0:0|0:0,0:0:0:0:
146,0,60022,2,0,P|180:7|214:18,1,71.2500027179719,10|0,0:0|0:0,0:0:0:0:
259,90,60191,2,0,P|293:97|327:108,1,71.2500027179719,2|0,0:0|0:0,0:0:0:0:
417,67,60361,1,2,3:0:0:0:
382,186,60530,1,2,0:0:0:0:
378,190,60615,1,2,0:0:0:0:
374,194,60700,1,10,0:0:0:0:
512,234,60869,6,0,P|436:151|437:271,1,285.000010871888,2|2,0:0|0:0,0:0:0:0:
442,354,61293,1,0,0:0:0:0:
357,324,61378,6,0,P|322:334|288:342,1,71.2500027179719,10|0,0:0|0:0,0:0:0:0:
293,223,61547,2,0,P|268:249|242:273,1,71.2500027179719,2|0,0:0|0:0,0:0:0:0:
4,237,61716,6,0,P|28:263|54:287,1,71.2500027179719,2|0,3:0|0:0,0:0:0:0:
109,181,61885,2,0,P|116:215|127:249,1,71.2500027179719,2|0,0:0|0:0,0:0:0:0:
154,384,62055,6,0,P|164:349|172:315,1,71.2500027179719,10|0,0:0|0:0,0:0:0:0:
205,184,62225,1,0,0:0:0:0:
0,0,62394,6,0,P|120:32|242:57,1,249.375002378225,6|0,3:2|0:0,0:0:0:0:
303,0,62733,1,2,0:0:0:0:
494,211,62903,6,0,P|518:193|501:215,1,83.1250007927418,0|0,3:0|0:0,0:0:0:0:
411,332,63072,2,0,B|413:261|334:220|341:254|279:213|277:133,1,249.375002378225,10|2,0:0|0:0,0:0:0:0:
335,75,63411,1,2,0:0:0:0:
226,248,63581,6,0,B|201:277|201:277|215:228,1,83.1250007927418,2|0,0:0|0:0,0:0:0:0:
373,141,63750,2,0,P|273:113|171:93,1,166.250001585484,2|2,3:0|0:0,0:0:0:0:
150,150,64005,2,0,P|76:156|17:60,1,166.250001585484,0|0,3:0|0:0,0:0:0:0:
76,24,64259,2,0,B|78:0|99:-11|99:-11|96:13|76:24,1,83.1250007927418,2|0,3:0|0:0,0:0:0:0:
4,204,64428,1,8,0:0:0:0:
138,383,64598,6,0,P|179:374|219:363,1,83.1250007927418,2|0,3:0|3:0,0:0:0:0:
142,240,64767,2,0,P|122:276|100:312,1,83.1250007927418,2|0,3:0|3:0,0:0:0:0:
20,289,64937,2,0,P|11:248|0:208,1,83.1250007927418,2|0,3:0|3:0,0:0:0:0:
145,54,65106,6,0,P|183:66|237:78,3,71.2500027179719,12|0|0|0,3:2|3:0|3:0|3:0,0:0:0:0:
307,62,65445,2,0,P|295:95|286:130,1,71.2500027179719,10|0,3:2|3:0,0:0:0:0:
390,196,65615,2,0,P|351:208|297:220,1,71.2500027179719,2|0,3:0|3:0,0:0:0:0:
220,196,65784,1,10,3:2:0:0:
224,200,65869,1,0,3:0:0:0:
228,204,65954,2,0,P|239:237|248:272,1,71.2500027179719,2|0,3:0|3:0,0:0:0:0:
410,284,66123,6,0,P|419:319|431:353,3,71.2500027179719,8|0|2|0,3:2|3:0|3:0|3:0,0:0:0:0:
511,324,66462,2,0,P|499:290|490:255,1,71.2500027179719,8|0,3:2|3:0,0:0:0:0:
457,172,66632,5,2,3:0:0:0:
435,159,66716,1,0,3:0:0:0:
411,156,66801,1,2,3:2:0:0:
387,164,66886,1,0,3:0:0:0:
369,181,66970,1,2,3:2:0:0:
360,204,67055,1,0,3:0:0:0:
360,227,67140,1,2,3:2:0:0:
361,269,67224,1,0,3:0:0:0:
342,305,67309,1,2,3:2:0:0:
308,329,67394,1,0,3:0:0:0:
267,334,67478,1,2,3:2:0:0:
229,319,67563,1,0,3:0:0:0:
202,287,67648,1,2,3:2:0:0:
193,247,67733,1,0,3:0:0:0:
238,185,67818,6,0,P|228:139|213:93,2,95,6|0|2,3:2|0:0|0:0,0:0:0:0:
380,140,68327,6,0,P|358:182|333:223,2,95,0|2|2,0:0|0:0|0:0,0:0:0:0:
373,317,68835,6,0,P|418:307|464:292,1,95,2|2,0:0|0:0,0:0:0:0:
463,157,69174,6,0,B|463:149|463:149|470:149|470:157|470:157|470:164|463:164|463:164|455:164|455:157|455:157|455:149|463:149|463:149|463:157,1,59.375,2|0,0:0|0:0,0:0:0:0:
380,141,69344,1,2,0:0:0:0:
347,72,69513,1,2,0:0:0:0:
381,4,69683,1,2,0:0:0:0:
271,72,69852,5,2,0:0:0:0:
216,16,70021,1,0,0:0:0:0:
141,25,70191,1,2,0:0:0:0:
105,92,70361,1,0,0:0:0:0:
10,219,70530,6,0,P|24:264|34:310,2,95,2|2|2,0:0|0:0|0:0,0:0:0:0:
131,264,71039,6,0,P|121:218|107:173,2,95,2|2|2,0:0|0:0|0:0,0:0:0:0:
204,127,71547,6,0,P|218:172|228:218,1,95,2|2,0:0|0:0,0:0:0:0:
292,262,71801,1,2,0:0:0:0:
296,265,71886,6,0,B|296:258|296:258|303:258|303:265|303:265|303:273|296:273|296:273|288:273|288:265|288:265|288:258|296:258|296:258|296:265,1,59.375,2|0,0:0|0:0,0:0:0:0:
268,337,72055,1,0,0:0:0:0:
338,365,72225,1,2,0:0:0:0:
366,295,72394,1,0,0:0:0:0:
396,127,72564,5,2,0:0:0:0:
473,161,72734,1,2,0:0:0:0:
440,239,72903,1,2,0:0:0:0:
360,208,73073,1,2,0:0:0:0:
338,56,73242,6,0,P|282:74|224:86,1,106.875004076958,2|0,0:0|0:0,0:0:0:0:
186,147,73581,1,2,0:0:0:0:
73,39,73750,5,2,0:0:0:0:
0,62,73920,1,2,0:0:0:0:
0,139,74089,1,2,0:0:0:0:
73,163,74259,1,2,0:0:0:0:
118,101,74428,1,2,0:0:0:0:
186,147,74598,6,0,B|186:139|186:139|193:139|193:147|193:147|193:154|186:154|186:154|178:154|178:147|178:147|178:139|186:139|186:139|186:147,1,59.375,2|0,0:0|0:0,0:0:0:0:
110,93,74767,5,2,0:0:0:0:
102,85,75106,5,2,0:0:0:0:
94,77,75445,5,2,0:0:0:0:
146,21,75615,1,2,0:0:0:0:
213,54,75784,1,2,0:0:0:0:
263,0,75954,1,2,0:0:0:0:
271,8,76293,5,2,0:0:0:0:
338,41,76462,1,2,0:0:0:0:
346,49,76801,5,2,0:0:0:0:
354,57,77140,5,2,0:0:0:0:
449,55,77310,6,0,P|439:82|433:111,1,47.5,8|8,0:3|0:3,0:0:0:0:
477,165,77479,1,8,0:3:0:0:
481,169,77564,1,8,0:3:0:0:
510,184,77649,6,0,P|519:211|525:240,1,47.5,8|8,0:3|0:3,0:0:0:0:
471,290,77818,1,8,0:3:0:0:
467,294,77903,1,8,0:3:0:0:
446,316,77988,6,0,P|421:321|398:329,1,47.5,8|8,0:3|0:3,0:0:0:0:
364,229,78157,2,0,P|350:250|339:272,1,47.5,8|8,0:3|0:3,0:0:0:0:
209,211,78327,2,0,P|214:235|222:258,1,47.5,8|0,0:3|0:0,0:0:0:0:
69,317,78496,2,0,P|90:330|112:341,1,47.5,8|0,0:3|0:0,0:0:0:0:
329,371,78666,6,0,P|254:347|174:329,1,142.5,6|0,3:2|0:0,0:0:0:0:
114,352,79005,1,2,0:0:0:0:
44,126,79174,6,0,B|39:153|15:176|15:176|91:167|114:88|88:102|103:31|175:25,1,285,6|0,3:2|0:0,0:0:0:0:
408,165,80022,6,0,P|396:109|372:43,1,95,8|10,2:3|2:3,0:0:0:0:
416,4,80276,1,8,2:3:0:0:
420,0,80361,1,10,2:3:0:0:
308,92,80530,1,10,2:3:0:0:
239,55,80700,5,10,2:3:0:0:
202,124,80869,1,10,2:3:0:0:
271,161,81039,1,10,2:3:0:0:
234,230,81208,1,2,3:2:0:0:
429,367,81378,6,0,P|407:290|486:234,1,142.5,6|0,3:2|0:0,0:0:0:0:
486,176,81716,1,2,0:0:0:0:
321,351,81886,6,0,P|183:301|40:275,1,285,6|0,3:2|0:0,0:0:0:0:
321,251,82733,6,0,P|332:195|356:129,1,95,8|8,2:3|2:3,0:0:0:0:
313,90,82987,1,8,2:3:0:0:
309,86,83072,1,10,2:3:0:0:
365,21,83242,1,10,2:3:0:0:
252,152,83411,5,10,2:3:0:0:
175,157,83580,1,10,2:3:0:0:
128,95,83750,1,10,2:3:0:0:
152,21,83919,1,10,2:3:0:0:
15,211,84089,6,0,P|24:254|33:315,1,95,14|0,2:0|0:0,0:0:0:0:
89,173,84428,2,0,P|98:216|107:277,1,95,10|0,0:0|0:0,0:0:0:0:
251,373,84767,6,0,P|294:363|355:354,1,95,10|0,0:0|0:0,0:0:0:0:
363,273,85022,1,8,0:0:0:0:
367,269,85106,2,0,P|410:259|471:250,1,95,2|10,3:0|0:0,0:0:0:0:
280,283,85445,6,0,P|270:236|262:189,1,95,10|0,0:0|0:0,0:0:0:0:
200,273,85784,1,10,0:0:0:0:
182,179,85954,1,0,0:0:0:0:
15,145,86123,6,0,P|58:135|119:126,1,95,10|0,0:0|0:0,0:0:0:0:
127,45,86378,1,10,3:0:0:0:
131,41,86462,1,2,3:0:0:0:
224,23,86632,1,10,0:0:0:0:
485,148,86801,6,0,P|473:117|469:86,1,40.375000770092,10|0,0:0|0:0,0:0:0:0:
399,17,86970,2,0,P|412:46|416:77,1,40.375000770092,8|0,0:0|0:0,0:0:0:0:
404,162,87140,6,0,P|376:139|356:113,1,40.375000770092,10|0,0:0|0:0,0:0:0:0:
258,88,87309,2,0,P|286:108|306:135,1,40.375000770092,10|0,0:0|0:0,0:0:0:0:
342,213,87479,6,0,P|306:207|274:194,1,40.375000770092,10|0,0:0|0:0,0:0:0:0:
171,222,87648,2,0,P|207:226|239:239,1,40.375000770092,10|0,0:0|0:0,0:0:0:0:
313,285,87818,6,0,P|278:298|242:303,1,40.375000770092,10|0,0:0|0:0,0:0:0:0:
161,383,87987,2,0,P|196:367|232:363,1,40.375000770092,10|0,0:0|0:0,0:0:0:0:
47,324,88157,5,10,0:0:0:0:
76,321,88241,1,8,0:0:0:0:
106,321,88326,1,10,0:0:0:0:
136,323,88411,1,8,0:0:0:0:
167,326,88495,1,10,0:0:0:0:
196,329,88580,1,8,0:0:0:0:
226,335,88665,1,10,0:0:0:0:
256,342,88750,1,8,0:0:0:0:
283,355,88835,5,10,0:0:0:0:
302,319,88919,1,10,0:0:0:0:
325,285,89004,1,10,0:0:0:0:
352,256,89089,1,10,0:0:0:0:
382,228,89173,1,10,0:0:0:0:
415,206,89258,1,10,0:0:0:0:
450,186,89343,1,10,0:0:0:0:
488,172,89428,1,10,0:0:0:0:
500,178,89512,5,14,0:2:0:0:
376,18,89767,5,0,1:0:0:0:
377,21,89810,6,0,L|385:51,1,20.187500385046,0|0,1:0|1:0,0:0:0:0:
235,44,90106,5,0,3:0:0:0:
236,47,90149,6,0,L|244:77,1,20.187500385046,0|0,3:0|3:0,0:0:0:0:
94,70,90445,5,0,3:0:0:0:
53,143,90700,6,0,P|65:182|72:222,1,80.750001540184,0|0,3:0|1:0,0:0:0:0:
12,302,91547,6,0,P|56:310|105:327,2,80.750001540184,2|2|2,0:3|0:3|0:3,0:0:0:0:
146,384,92055,1,2,0:3:0:0:
360,174,92225,6,0,B|328:129|270:119|270:119|251:150|205:162,1,166.250001585484,6|0,3:2|0:0,0:0:0:0:
142,89,92479,1,2,0:0:0:0:
138,85,92564,2,0,P|168:71|194:73,1,59.375,10|0,0:0|0:0,0:0:0:0:
290,225,92734,1,2,0:0:0:0:
76,150,92903,6,0,P|82:180|92:209,1,59.375,2|0,3:0|0:0,0:0:0:0:
201,283,93072,2,0,P|172:273|143:266,1,59.375,2|0,0:0|0:0,0:0:0:0:
23,327,93242,2,0,P|45:307|64:285,1,59.375,10|0,0:0|0:0,0:0:0:0:
300,378,93412,6,0,B|351:330|419:354|419:354|485:299|451:226,1,249.375002378225,2|0,0:0|0:0,0:0:0:0:
352,210,93751,5,2,0:0:0:0:
328,172,93834,1,2,0:0:0:0:
327,132,93919,1,10,0:0:0:0:
343,97,94004,1,2,0:0:0:0:
373,72,94088,1,2,0:0:0:0:
412,64,94173,1,2,0:0:0:0:
450,75,94259,2,0,P|441:103|433:132,1,59.375,2|0,3:0|0:0,0:0:0:0:
233,233,94428,5,2,0:0:0:0:
229,229,94513,1,2,0:0:0:0:
225,225,94598,2,0,P|216:197|208:168,1,59.375,10|0,0:0|0:0,0:0:0:0:
134,124,94767,2,0,P|125:96|117:67,1,59.375,2|2,0:0|0:0,0:0:0:0:
184,9,94937,6,0,B|199:-2|199:-2|216:0|216:0|202:11|202:11|184:9,1,71.25,2|0,3:0|0:0,0:0:0:0:
18,30,95276,2,0,P|42:109|60:190,1,166.250001585484,10|2,0:0|0:0,0:0:0:0:
51,316,95530,5,0,0:0:0:0:
115,256,95615,2,0,B|145:249|172:285|155:282|180:313|221:310,1,118.75,2|2,3:0|0:0,0:0:0:0:
335,354,95869,5,0,0:0:0:0:
296,279,95954,1,10,0:0:0:0:
296,279,96123,6,0,P|375:243|375:135,1,178.125,2|2,0:0|0:0,0:0:0:0:
325,105,96462,5,2,0:0:0:0:
372,77,96547,1,2,0:0:0:0:
424,84,96631,1,10,0:0:0:0:
462,121,96716,1,2,0:0:0:0:
481,171,96801,1,2,0:0:0:0:
468,223,96886,1,2,0:0:0:0:
455,275,96971,2,0,P|426:282|398:291,1,59.375,2|0,3:0|0:0,0:0:0:0:
260,196,97140,6,0,L|321:179,2,39.5833333333333,0|2|2,0:0|0:0|0:0,0:0:0:0:
226,218,97310,2,0,P|218:246|209:274,1,59.375,10|0,0:0|0:0,0:0:0:0:
137,321,97479,2,0,P|129:349|120:377,1,59.375,2|0,0:0|0:0,0:0:0:0:
75,254,97649,6,0,L|-20:237,1,95,2|2,3:3|0:3,0:0:0:0:
216,370,97988,5,10,0:0:0:0:
220,366,98072,1,2,0:0:0:0:
224,362,98157,1,2,0:0:0:0:
474,224,98327,6,0,L|457:269,1,47.5,2|0,3:0|0:0,0:0:0:0:
429,384,98497,1,2,0:0:0:0:
312,267,98666,1,10,0:0:0:0:
512,128,98835,6,0,B|451:138|423:84|448:90|412:30|348:40|348:40|372:53|383:77,1,249.375002378225,2|0,0:0|0:0,0:0:0:0:
367,169,99175,5,2,0:0:0:0:
308,120,99259,1,2,0:0:0:0:
262,150,99344,1,10,0:0:0:0:
224,124,99429,1,2,0:0:0:0:
186,131,99513,1,2,0:0:0:0:
75,173,99683,5,2,3:0:0:0:
0,58,99852,1,0,0:0:0:0:
83,181,100022,1,10,0:0:0:0:
0,384,100191,1,2,0:0:0:0:
284,297,100361,6,0,P|220:222|129:221,1,166.250001585484,2|2,3:0|3:0,0:0:0:0:
36,313,100700,1,10,0:0:0:0:
349,367,100869,6,0,B|387:333|381:280|368:299|359:238|395:216,1,166.250001585484,2|2,3:0|3:0,0:0:0:0:
504,116,101208,1,2,3:0:0:0:
419,129,101293,1,2,3:0:0:0:
361,63,101378,6,0,B|387:33|387:33|312:81|245:57,1,166.250001585484,10|2,0:0|3:0,0:0:0:0:
127,11,101716,6,0,P|143:39|154:69,1,59.375,10|8,0:3|0:3,0:0:0:0:
116,7,101886,2,0,P|141:56|149:107,1,106.875004076958,10|8,0:3|0:3,0:0:0:0:
262,232,102055,6,0,P|228:232|198:226,1,59.375,10|8,0:3|0:3,0:0:0:0:
270,224,102225,2,0,P|214:221|166:202,1,106.875004076958,10|8,0:3|0:3,0:0:0:0:
1,239,102394,6,0,P|17:210|37:186,1,59.375,10|8,0:3|0:3,0:0:0:0:
5,249,102564,2,0,P|34:202|75:169,1,106.875004076958,10|8,0:3|0:3,0:0:0:0:
236,136,102733,5,6,3:3:0:0:
236,136,103072,6,0,P|318:150|396:178,1,166.250001585484,6|0,3:2|0:0,0:0:0:0:
485,89,103327,1,0,0:0:0:0:
489,85,103411,6,0,P|481:126|467:165,1,59.375,10|0,0:0|0:0,0:0:0:0:
327,245,103581,1,2,0:0:0:0:
504,374,103750,5,2,3:0:0:0:
508,370,103835,1,0,0:0:0:0:
512,366,103920,2,0,P|506:336|496:307,1,59.375,2|0,0:0|0:0,0:0:0:0:
410,196,104089,2,0,P|416:226|426:255,1,59.375,10|0,0:0|0:0,0:0:0:0:
253,379,104259,6,0,B|218:328|159:347|181:360|113:376|75:325|75:325|102:333|126:324,1,249.375002378225,2|0,0:0|0:0,0:0:0:0:
21,222,104598,5,2,0:0:0:0:
57,245,104683,1,2,0:0:0:0:
98,246,104767,1,10,0:0:0:0:
133,230,104852,1,2,0:0:0:0:
158,200,104937,1,2,0:0:0:0:
166,162,105022,1,2,0:0:0:0:
154,123,105106,2,0,P|124:117|94:107,1,59.375,2|0,3:0|0:0,0:0:0:0:
339,38,105276,5,2,0:0:0:0:
343,42,105360,1,2,0:0:0:0:
347,46,105446,2,0,P|338:74|330:103,1,59.375,10|0,0:0|0:0,0:0:0:0:
256,147,105615,2,0,P|247:175|239:204,1,59.375,2|2,0:0|0:0,0:0:0:0:
296,273,105785,6,0,P|321:282|297:272,1,71.25,2|0,3:0|0:0,0:0:0:0:
147,325,106123,2,0,P|226:301|307:283,1,166.250001585484,10|2,0:0|0:0,0:0:0:0:
430,366,106378,5,0,0:0:0:0:
394,289,106462,2,0,P|414:232|496:202,1,118.75,2|2,3:0|0:0,0:0:0:0:
443,86,106716,5,0,0:0:0:0:
512,135,106801,1,10,0:0:0:0:
512,135,106971,6,0,P|477:118|432:122,1,59.375,2|0,0:0|0:0,0:0:0:0:
384,15,107140,2,0,P|345:55|268:55,1,95,0|2,3:0|0:0,0:0:0:0:
161,47,107310,5,2,0:0:0:0:
121,18,107394,1,2,0:0:0:0:
72,19,107479,1,10,0:0:0:0:
33,48,107564,1,2,0:0:0:0:
18,94,107648,1,2,0:0:0:0:
33,140,107733,1,2,0:0:0:0:
72,169,107818,1,2,3:0:0:0:
243,64,107988,6,0,L|258:2,2,39.5833333333333,0|2|2,0:0|0:0|0:0,0:0:0:0:
224,100,108158,2,0,P|231:128|237:156,1,59.375,10|0,0:0|0:0,0:0:0:0:
306,208,108327,2,0,P|313:236|319:264,1,59.375,2|0,0:0|0:0,0:0:0:0:
128,280,108496,5,2,3:0:0:0:
128,280,108666,2,0,L|173:263,1,47.5
303,358,108835,5,10,0:0:0:0:
299,354,108919,1,0,0:0:0:0:
295,350,109005,2,0,L|249:333,1,47.5,2|0,0:0|0:0,0:0:0:0:
24,218,109174,5,2,3:0:0:0:
69,378,109344,2,0,L|60:330,1,47.5,2|0,0:0|0:0,0:0:0:0:
186,261,109513,1,10,0:0:0:0:
1,120,109683,6,0,B|62:130|90:76|65:82|101:22|165:32|165:32|141:45|130:69,1,249.375002378225,2|0,0:0|0:0,0:0:0:0:
148,159,110022,5,2,0:0:0:0:
207,110,110106,1,2,0:0:0:0:
253,140,110191,1,10,0:0:0:0:
291,114,110276,1,2,0:0:0:0:
329,121,110361,1,2,0:0:0:0:
437,173,110530,5,2,3:0:0:0:
512,58,110699,1,0,0:0:0:0:
429,181,110869,1,10,0:0:0:0:
512,384,111038,1,2,0:0:0:0:
346,207,111208,5,2,3:0:0:0:
173,371,111378,2,0,B|159:321|108:304|120:324|66:308|57:263,1,166.250001585484,2|10,0:0|0:0,0:0:0:0:
164,207,111632,1,0,0:0:0:0:
168,203,111716,2,0,P|154:161|142:118,1,83.1250007927418,2|2,0:0|0:0,0:0:0:0:
0,0,111886,6,0,P|68:49|146:29,1,166.250001585484,2|2,3:0|0:0,0:0:0:0:
225,46,112141,1,2,0:0:0:0:
246,132,112225,1,10,0:0:0:0:
338,0,112394,1,2,0:0:0:0:
469,221,112564,6,0,P|484:139|512:61,1,166.250001585484,2|2,3:0|0:0,0:0:0:0:
379,211,112903,5,10,0:0:0:0:
345,189,112988,1,2,0:0:0:0:
297,192,113072,1,2,0:0:0:0:
264,232,113157,1,2,0:0:0:0:
316,305,113242,5,2,3:0:0:0:
293,356,113327,1,2,0:0:0:0:
231,384,113411,1,2,0:0:0:0:
169,346,113496,1,2,0:0:0:0:
182,258,113581,5,10,0:0:0:0:
103,278,113665,1,2,0:0:0:0:
25,300,113750,1,2,0:0:0:0:
52,77,113920,6,0,B|111:33|181:60|158:96|231:126|293:84,1,249.375002378225,6|0,3:2|0:0,0:0:0:0:
304,0,114259,1,10,0:0:0:0:
52,154,114428,6,0,B|137:163|193:94|149:70|206:-2|294:4,1,285,6|0,3:2|0:0,0:0:0:0:
361,57,114767,1,10,0:0:0:0:
0,77,114937,6,0,B|85:14|186:53|153:105|258:148|346:87,1,356.25001358986,6|0,3:2|0:0,0:0:0:0:
384,12,115445,6,0,P|400:6|386:16,2,47.5000018119813
286,41,115615,6,0,B|286:33|286:33|293:33|293:41|293:41|293:48|286:48|286:48|278:48|278:41|278:41|278:33|286:33|286:33|286:41,1,59.375,2|0,0:0|0:0,0:0:0:0:
270,75,115700,6,0,B|270:67|270:67|277:67|277:75|277:75|277:82|270:82|270:82|262:82|262:75|262:75|262:67|270:67|270:67|270:75,1,59.375,2|0,0:0|0:0,0:0:0:0:
272,112,115784,6,0,B|272:104|272:104|279:104|279:112|279:112|279:119|272:119|272:119|264:119|264:112|264:112|264:104|272:104|272:104|272:112,1,59.375,2|0,0:0|0:0,0:0:0:0:
290,145,115869,6,0,B|290:137|290:137|297:137|297:145|297:145|297:152|290:152|290:152|282:152|282:145|282:145|282:137|290:137|290:137|290:145,1,59.375,2|0,0:0|0:0,0:0:0:0:
320,166,115954,6,0,B|320:158|320:158|327:158|327:166|327:166|327:173|320:173|320:173|312:173|312:166|312:166|312:158|320:158|320:158|320:166,1,59.375,2|0,0:0|0:0,0:0:0:0:
356,173,116039,6,0,B|356:165|356:165|364:165|364:173|364:173|364:180|356:180|356:180|349:180|349:173|349:173|349:165|356:165|356:165|356:173,1,59.375,2|0,0:0|0:0,0:0:0:0:
392,162,116123,6,0,B|392:154|392:154|399:154|399:162|399:162|399:169|392:169|392:169|384:169|384:162|384:162|384:154|392:154|392:154|392:162,1,59.375,2|0,0:0|0:0,0:0:0:0:
420,137,116208,6,0,B|420:129|420:129|427:129|427:137|427:137|427:144|420:144|420:144|412:144|412:137|412:137|412:129|420:129|420:129|420:137,1,59.375,2|0,0:0|0:0,0:0:0:0:
433,102,116293,6,0,P|405:112|375:116,1,59.375,10|2,0:0|0:0,0:0:0:0:
304,171,116462,2,0,P|276:181|246:185,1,59.375,8|2,0:0|0:0,0:0:0:0:
460,307,116632,6,0,B|400:350|330:323|353:287|280:257|218:299,1,249.375002378225,6|0,3:2|0:0,0:0:0:0:
208,384,116971,1,10,0:0:0:0:
460,230,117140,6,0,B|374:220|318:289|362:313|305:386|217:379,1,285,6|0,3:2|0:0,0:0:0:0:
151,327,117479,1,10,0:0:0:0:
512,308,117649,6,0,B|424:371|321:331|354:278|247:237|161:286|161:286|105:314|32:313|-16:245|-49:136|48:54|182:58|226:153|199:239,1,902.499975900651,6|0,3:2|0:0,2:0:0:0:
