osu file format v14

[General]
AudioFilename: audio.ogg
AudioLeadIn: 0
PreviewTime: 58366
Countdown: 0
SampleSet: Soft
StackLeniency: 0.4
Mode: 0
LetterboxInBreaks: 0
WidescreenStoryboard: 0

[Editor]
Bookmarks: 97330,109037,161727,167574
DistanceSpacing: 1.3
BeatDivisor: 4
GridSize: 8
TimelineZoom: 1.1

[Metadata]
Title:Snow Colored Score
TitleUnicode:Snow Colored Score
Artist:Irodorimidori
ArtistUnicode:イロドリミドリ
Creator:Momochikun
Version:Insane
Source:CHUNITHM SUN PLUS
Tags:osuplayer111 andrea darksonic lecana maimai dx deluxe でらっくす + FESTiVAL ongeki オンゲキ bright MEMORY sega video game female vocal vocalist japanese pop jpop j-pop 明坂芹菜 新田恵海 Akesaka Serina Emi Nitta 御形アリシアナ 福原綾香 Ogata Aliciana Ayaka Fukuhara 天王洲なずな 山本彩乃 Tennozu Nazuna Ayano Yamamoto 小仏凪 佐倉薫 Kobotoke Nagi Kaoru Sakura 箱部なる M・A・O Hakobe Naru M.A.O 市道真央 Mao Ichimichi 月鈴白奈 高野麻里佳 Tsukisuzu Shirona Marika Kouno 月鈴那知 今村彩夏 Tsukisuzu Nachi Ayaka Imamura coloured
BeatmapID:4467973
BeatmapSetID:2125627

[Difficulty]
HPDrainRate:7
CircleSize:4
OverallDifficulty:8
ApproachRate:9
SliderMultiplier:1.6
SliderTickRate:1

[Events]
//Background and Video events
Video,-54,"video.m4v"
0,0,"Irodorimidori.jpg",0,0
//Break Periods
2,97529,108437
//Storyboard Layer 0 (Background)
//Storyboard Layer 1 (Fail)
//Storyboard Layer 2 (Pass)
//Storyboard Layer 3 (Foreground)
//Storyboard Layer 4 (Overlay)
//Storyboard Sound Samples

[TimingPoints]
745,365.853658536585,4,2,1,70,1,0
3671,-125,4,2,1,60,0,0
6598,-100,4,2,1,70,0,0
9708,-100,4,2,1,50,0,0
10074,-100,4,2,1,65,0,0
10257,-100,4,2,1,50,0,0
10623,-100,4,2,1,65,0,0
10805,-100,4,2,1,50,0,0
11171,-100,4,2,1,65,0,0
11354,-100,4,2,1,50,0,0
11720,-100,4,2,1,70,0,0
12452,-111.111111111111,4,2,2,60,0,0
24159,-100,4,2,1,70,0,0
35318,-100,4,2,1,60,0,0
35866,-125,4,2,1,55,0,0
44647,-100,4,2,1,65,0,0
47940,-100,4,2,1,45,0,0
49037,-100,4,2,1,50,0,0
49769,-100,4,2,1,55,0,0
50866,-100,4,2,1,45,0,0
51964,-100,4,2,1,50,0,0
52696,-100,4,2,1,55,0,0
53427,-100,4,2,1,69,0,0
55805,-100,4,2,1,55,0,0
56354,-100,4,2,1,65,0,0
59281,-100,4,2,1,75,0,1
64494,-100,4,2,1,65,0,1
65135,-100,4,2,1,75,0,1
76476,-100,4,2,1,65,0,1
76842,-100,4,2,1,75,0,1
82696,-117.647058823529,4,2,1,60,0,0
85257,-117.647058823529,4,2,1,50,0,0
85623,-100,4,2,1,70,0,1
85805,-100,4,2,1,65,0,0
90927,-100,4,2,1,55,0,0
91476,-100,4,2,1,65,0,0
93946,-100,4,2,1,55,0,0
94494,-100,4,2,1,50,0,0
95684,-200,4,2,1,60,0,0
95866,-200,4,2,1,50,0,0
109037,-111.111111111111,4,2,2,60,0,0
114891,-100,4,2,1,65,0,1
115074,-100,4,2,1,50,0,0
116354,-100,4,2,1,55,0,0
117086,-100,4,2,1,60,0,0
118001,-100,4,2,1,50,0,0
120744,-100,4,2,1,55,0,0
121476,-100,4,2,1,60,0,0
122208,-100,4,2,1,75,0,1
127421,-100,4,2,1,65,0,1
128062,-100,4,2,1,75,0,1
145623,-125,4,2,1,65,0,0
145805,-125,4,2,1,55,0,0
148641,-125,4,2,1,30,0,0
150013,-100,4,2,1,65,0,1
150196,-100,4,2,1,65,0,0
152940,-125,4,2,1,60,0,0
155866,-100,4,2,1,65,0,0
158976,-100,4,2,1,50,0,0
159342,-100,4,2,1,65,0,0
159525,-100,4,2,1,50,0,0
159891,-100,4,2,1,65,0,0
160074,-100,4,2,1,50,0,0
160440,-100,4,2,1,65,0,0
160623,-100,4,2,1,50,0,0
160988,-100,4,2,1,65,0,0
161812,-100,4,2,1,50,0,0
163184,-100,4,2,1,40,0,0
164647,-100,4,2,1,30,0,0
166110,-100,4,2,1,20,0,0
167574,-100,4,2,1,5,0,0

[Colours]
Combo1 : 121,211,255
Combo2 : 128,255,255
Combo3 : 83,169,255

[HitObjects]
44,256,379,5,0,3:0:0:0:
70,268,745,6,0,B|111:283|111:283|139:269|139:269|175:311|241:285,1,160,4|8,1:0|0:0,0:0:0:0:
309,224,1293,1,0,0:0:0:0:
309,224,1385,1,8,0:0:0:0:
309,224,1476,1,0,3:0:0:0:
344,62,1659,1,0,3:0:0:0:
435,90,1842,2,0,L|524:68,1,80,8|0,0:0|0:0,0:0:0:0:
424,274,2208,6,0,L|409:361,1,80,0|0,3:0|3:0,0:0:0:0:
357,133,2574,1,8,0:0:0:0:
309,224,2757,1,0,0:0:0:0:
309,224,2848,1,8,0:0:0:0:
309,224,2940,1,0,3:0:0:0:
164,69,3123,1,0,3:0:0:0:
251,30,3305,2,0,P|273:68|275:114,1,80,8|0,0:0|0:0,0:0:0:0:
247,270,3671,5,4,0:0:0:0:
247,270,3854,2,0,P|314:255|386:237,1,128,0|0,3:0|3:0,0:0:0:0:
393,221,4312,1,0,3:0:0:0:
393,221,4403,2,0,P|413:188|413:152,1,64,8|0,0:0|0:0,0:0:0:0:
313,304,4769,2,0,P|317:335|335:361,1,64,0|0,3:0|0:0,0:0:0:0:
502,187,5135,5,4,0:0:0:0:
436,85,5318,2,0,P|378:97|338:158,1,128,0|0,3:0|0:0,0:0:0:0:
283,254,5866,1,8,0:0:0:0:
264,259,5958,1,0,0:0:0:0:
246,264,6049,1,0,0:0:0:0:
227,269,6141,1,0,0:0:0:0:
206,299,6232,1,0,3:0:0:0:
187,304,6324,1,0,0:0:0:0:
169,309,6415,1,0,0:0:0:0:
150,314,6507,1,0,0:0:0:0:
130,319,6598,6,0,P|59:325|-9:262,1,160,4|10,0:0|0:0,0:0:0:0:
66,148,7147,1,0,0:0:0:0:
66,148,7238,1,0,0:0:0:0:
66,148,7330,2,0,L|94:62,1,80,2|0,3:0|3:0,0:0:0:0:
207,218,7696,2,0,L|231:294,1,80,10|0,0:0|0:0,0:0:0:0:
288,107,8062,6,0,P|365:89|471:66,1,160,2|10,3:0|0:0,0:0:0:0:
464,184,8610,2,0,L|456:224,2,40,0|8|0,0:0|0:0|3:0,0:0:0:0:
354,254,8976,5,8,0:0:0:0:
332,274,9068,1,8,0:0:0:0:
305,288,9159,1,8,0:0:0:0:
276,292,9251,1,8,0:0:0:0:
247,286,9342,1,0,3:0:0:0:
268,64,9525,1,4,0:0:0:0:
125,198,9708,5,8,0:0:0:0:
125,198,9799,1,8,0:0:0:0:
125,198,9891,1,8,0:0:0:0:
125,198,9982,1,8,0:0:0:0:
125,198,10074,2,8,L|135:252,1,40,8|0,0:2|0:0,0:0:0:0:
256,336,10257,5,8,0:0:0:0:
256,336,10348,1,8,0:0:0:0:
256,336,10440,1,8,0:0:0:0:
256,336,10531,1,8,0:0:0:0:
256,336,10623,2,8,L|266:282,1,40,8|0,0:0|0:0,0:0:0:0:
349,183,10805,5,8,0:0:0:0:
349,183,10897,1,8,0:0:0:0:
349,183,10988,1,8,0:0:0:0:
349,183,11080,1,8,0:0:0:0:
349,183,11171,2,8,L|295:173,1,40,8|0,0:0|0:0,0:0:0:0:
159,142,11354,5,8,0:0:0:0:
146,115,11446,1,8,0:0:0:0:
143,85,11537,1,8,0:0:0:0:
151,56,11629,1,8,0:2:0:0:
169,32,11720,1,8,0:0:0:0:
437,86,11903,1,8,0:0:0:0:
437,86,12452,6,0,B|386:102|386:102|352:89|352:89|296:109,1,143.999995605469,4|0,1:0|3:0,0:0:0:0:
239,168,13001,1,0,0:0:0:0:
296,272,13184,2,0,P|339:284|379:293,1,71.9999978027344,0|8,3:0|0:0,0:0:0:0:
207,289,13549,2,0,P|189:324|177:361,1,71.9999978027344,0|0,3:0|0:0,0:0:0:0:
86,215,13915,5,0,3:0:0:0:
92,128,14098,1,0,0:0:0:0:
165,186,14281,1,0,3:0:0:0:
145,63,14464,1,0,0:0:0:0:
242,138,14647,2,0,L|319:154,1,71.9999978027344,0|0,3:0|0:0,0:0:0:0:
424,63,15013,2,0,L|353:48,1,71.9999978027344,8|0,3:2|0:0,0:0:0:0:
292,233,15379,6,0,P|341:226|393:146,1,143.999995605469,0|0,3:0|3:0,0:0:0:0:
242,138,15927,1,0,0:0:0:0:
208,255,16110,2,0,P|215:292|229:325,1,71.9999978027344,0|8,3:0|0:0,0:0:0:0:
110,211,16476,2,0,P|103:174|89:141,1,71.9999978027344,0|0,3:0|0:0,0:0:0:0:
73,118,16751,5,0,0:0:0:0:
73,118,16842,1,0,3:0:0:0:
212,82,17025,1,0,0:0:0:0:
147,24,17208,1,0,3:0:0:0:
191,173,17391,1,0,0:0:0:0:
64,37,17574,1,0,3:0:0:0:
212,82,17757,1,0,0:0:0:0:
212,82,17940,2,0,L|280:61,1,71.9999978027344,8|0,3:2|0:0,0:0:0:0:
381,210,18305,6,0,P|388:135|410:50,1,143.999995605469,0|0,3:0|3:0,0:0:0:0:
453,293,18854,1,0,0:0:0:0:
381,210,19037,1,0,3:0:0:0:
405,377,19220,1,8,0:0:0:0:
341,224,19403,1,0,3:0:0:0:
491,280,19586,1,0,0:0:0:0:
308,234,19769,6,0,P|270:240|236:248,1,71.9999978027344,0|0,3:0|0:0,0:0:0:0:
110,164,20135,2,0,P|148:158|182:150,1,71.9999978027344,0|0,3:2|0:0,0:0:0:0:
296,49,20501,2,0,L|283:139,1,71.9999978027344,0|0,3:0|0:0,0:0:0:0:
413,6,20866,2,0,L|400:96,1,71.9999978027344,0|0,3:0|3:0,0:0:0:0:
336,223,21232,6,0,P|297:293|293:364,1,143.999995605469,0|8,3:0|3:2,0:0:0:0:
411,169,21781,1,0,0:0:0:0:
246,208,21964,2,0,L|165:220,1,71.9999978027344,0|0,3:0|0:0,0:0:0:0:
103,295,22330,5,0,3:0:0:0:
411,169,22513,1,0,1:0:0:0:
423,147,23793,6,0,L|429:119,6,17.9999994506836,2|0|0|0|0|0|0,0:0|0:0|0:0|0:0|0:0|0:0|0:0,0:0:0:0:
438,89,24159,6,0,P|381:83|321:64,1,120,4|0,1:0|0:0,0:0:0:0:
244,35,24525,2,0,P|254:97|260:129,1,80,8|0,0:0|0:0,0:0:0:0:
332,266,24891,1,0,3:0:0:0:
254,148,25074,1,0,3:0:0:0:
221,321,25257,1,8,0:0:0:0:
349,177,25440,1,0,3:0:0:0:
205,236,25623,6,0,P|182:278|182:320,1,80,0|0,0:0|3:0,0:0:0:0:
349,177,25988,1,8,0:0:0:0:
237,98,26171,1,0,0:0:0:0:
237,98,26263,1,0,0:0:0:0:
237,98,26354,1,0,3:0:0:0:
328,310,26537,5,0,3:0:0:0:
262,114,26720,1,8,0:0:0:0:
422,158,26903,1,0,0:0:0:0:
240,272,27086,6,0,P|204:279|161:290,1,80,8|0,0:0|3:0,0:0:0:0:
96,359,27452,1,8,0:0:0:0:
17,203,27635,2,0,P|52:195|95:184,1,80,8|0,0:0|0:0,0:0:0:0:
148,7,28001,1,8,0:0:0:0:
57,105,28184,1,0,0:0:0:0:
323,77,28366,6,0,P|379:136|375:234,1,160,4|0,0:0|3:0,0:0:0:0:
258,140,28915,2,0,P|237:95|240:53,1,80,8|0,0:0|0:0,0:0:0:0:
307,246,29281,1,0,3:0:0:0:
406,86,29464,1,0,3:0:0:0:
258,140,29647,1,8,0:0:0:0:
411,260,29830,5,0,0:0:0:0:
411,260,29921,1,0,0:0:0:0:
411,260,30013,2,0,L|402:342,1,80,4|0,0:0|0:0,0:0:0:0:
504,152,30379,2,0,L|488:72,1,80,8|0,0:0|0:0,0:0:0:0:
306,236,30744,2,0,P|248:218|224:165,1,120,0|0,3:0|0:0,0:0:0:0:
238,125,31110,2,0,P|194:133|156:133,1,80,8|0,0:0|0:0,0:0:0:0:
85,280,31476,6,0,P|129:272|167:272,1,80,0|0,3:0|0:0,0:0:0:0:
270,155,31842,2,0,P|252:115|247:77,1,80,8|0,0:0|0:0,0:0:0:0:
45,255,32208,2,0,P|58:296|63:334,1,80,0|0,3:0|0:0,0:0:0:0:
256,352,32574,1,8,0:0:0:0:
157,170,32757,5,0,0:0:0:0:
157,170,32848,1,8,0:0:0:0:
157,170,32940,2,0,P|95:123|-1:120,1,160,4|8,0:0|0:0,0:0:0:0:
57,15,33488,1,0,0:0:0:0:
224,72,33671,2,0,L|304:55,1,80,8|0,0:0|3:0,0:0:0:0:
329,63,33946,1,8,0:0:0:0:
356,57,34037,1,8,0:0:0:0:
256,248,34220,6,0,L|177:264,1,80,4|0,0:0|0:0,0:0:0:0:
374,169,34586,2,0,L|452:152,1,80,4|8,0:0|0:0,0:0:0:0:
381,316,34952,5,0,3:0:0:0:
234,161,35135,1,0,0:0:0:0:
361,39,35318,1,0,3:0:0:0:
359,54,35409,1,0,3:0:0:0:
357,69,35501,1,8,0:0:0:0:
355,84,35592,1,0,3:0:0:0:
353,100,35684,1,0,3:0:0:0:
351,115,35775,1,0,0:0:0:0:
349,130,35866,6,0,P|287:144|223:108,1,128,4|0,0:0|0:0,0:0:0:0:
193,41,36415,1,0,3:0:0:0:
159,210,36598,2,0,L|180:287,1,64,8|0,0:0|0:0,0:0:0:0:
212,130,36964,2,0,L|133:116,1,64,0|0,3:0|0:0,0:0:0:0:
256,224,37330,1,0,3:0:0:0:
365,181,37513,6,0,P|348:246|349:322,1,128,8|0,0:0|3:0,0:0:0:0:
256,224,38062,1,8,0:0:0:0:
305,60,38244,1,0,0:0:0:0:
401,87,38427,1,8,0:0:0:0:
246,140,38610,5,0,3:0:0:0:
246,140,38702,1,0,3:0:0:0:
246,140,38793,2,0,P|208:148|174:158,1,64,4|0,0:0|0:0,0:0:0:0:
155,249,39159,2,0,P|163:287|173:321,1,64,2|0,0:0|3:0,0:0:0:0:
347,222,39525,2,0,P|339:184|329:150,1,64,10|0,0:0|0:0,0:0:0:0:
246,139,39891,1,2,3:0:0:0:
303,306,40074,1,0,0:0:0:0:
347,222,40257,5,0,3:0:0:0:
177,199,40440,2,0,B|88:223|88:223|126:268,1,128,8|0,0:0|0:0,0:0:0:0:
163,345,40988,1,8,0:0:0:0:
88,266,41171,1,0,3:0:0:0:
189,331,41354,1,8,0:0:0:0:
63,283,41537,1,0,3:0:0:0:
198,162,41720,6,0,B|219:159|239:153|239:153|276:184|337:167,1,128,4|0,0:0|0:0,0:0:0:0:
463,148,42269,1,0,3:0:0:0:
469,293,42452,2,0,P|423:262|398:188,1,128,8|0,0:0|3:0,0:0:0:0:
432,70,43001,5,0,0:0:0:0:
432,70,43092,1,0,0:0:0:0:
432,70,43184,1,4,0:0:0:0:
337,42,43366,2,0,P|335:87|335:119,1,64,8|0,0:0|0:0,0:0:0:0:
432,70,43732,1,0,3:0:0:0:
247,84,43915,2,0,P|245:129|245:161,1,64,8|8,0:0|0:0,0:0:0:0:
258,170,44190,1,8,0:0:0:0:
258,170,44281,1,8,0:0:0:0:
145,247,44464,5,8,0:0:0:0:
145,247,44555,1,8,0:0:0:0:
145,247,44647,2,0,P|77:262|21:342,1,160,4|10,0:0|0:0,0:0:0:0:
169,372,45196,1,0,0:0:0:0:
256,304,45379,2,0,L|340:283,1,80,2|0,3:0|0:0,0:0:0:0:
361,288,45653,1,0,0:0:0:0:
380,268,45744,1,10,0:0:0:0:
393,243,45836,1,0,0:0:0:0:
397,215,45927,1,0,0:0:0:0:
395,186,46019,1,0,0:0:0:0:
387,159,46110,6,0,P|371:119|364:82,1,80,2|0,3:0|0:0,0:0:0:0:
237,248,46476,2,0,P|218:304|207:339,1,80,8|0,0:0|0:0,0:0:0:0:
168,190,46842,1,0,3:0:0:0:
322,337,47025,1,0,0:0:0:0:
130,262,47208,1,8,0:0:0:0:
264,136,47391,1,0,0:0:0:0:
199,364,47574,5,4,0:0:0:0:
199,364,47940,2,0,L|145:349,3,40,8|8|8|8,0:0|0:0|0:0|0:0,0:0:0:0:
313,325,48305,2,0,L|367:340,3,40,8|8|8|8,0:0|0:0|0:0|0:0,0:0:0:0:
237,266,48671,1,8,0:0:0:0:
219,244,48763,1,8,0:0:0:0:
206,219,48854,1,8,0:0:0:0:
201,191,48946,1,8,0:0:0:0:
206,163,49037,6,0,L|220:117,3,40,8|8|8|8,0:0|0:0|0:0|0:0,0:0:0:0:
123,33,49403,2,0,L|134:71,3,40,8|8|8|8,0:0|0:0|0:0|0:0,0:0:0:0:
221,47,49769,1,8,0:0:0:0:
250,42,49860,1,8,0:0:0:0:
280,46,49952,1,8,0:0:0:0:
306,61,50043,1,8,0:0:0:0:
328,81,50135,1,8,0:0:0:0:
351,100,50226,1,8,0:0:0:0:
379,110,50318,1,8,0:0:0:0:
409,108,50409,1,8,0:0:0:0:
437,99,50501,6,0,B|465:169|465:169|457:232,1,120,4|0,0:0|0:0,0:0:0:0:
397,272,50866,2,0,L|355:282,3,40,8|8|8|8,0:0|0:0|0:0|0:0,0:0:0:0:
271,212,51232,2,0,L|229:222,3,40,8|8|8|8,0:0|0:0|0:0|0:0,0:0:0:0:
224,357,51598,2,0,L|182:367,3,40,10|8|8|8,0:0|0:0|0:0|0:0,0:0:0:0:
94,312,51964,5,10,0:0:0:0:
94,312,52055,1,8,0:0:0:0:
94,312,52147,1,8,0:0:0:0:
94,312,52238,1,8,0:0:0:0:
94,312,52330,2,8,L|105:243,1,40
192,185,52513,2,0,L|161:116,1,40,8|8,0:0|0:0,0:0:0:0:
128,51,52696,5,8,0:0:0:0:
155,35,52787,1,8,0:0:0:0:
187,32,52879,1,8,0:0:0:0:
218,36,52970,1,8,0:0:0:0:
247,48,53062,1,8,0:0:0:0:
272,67,53153,1,8,0:0:0:0:
286,95,53244,1,8,0:0:0:0:
294,125,53336,1,8,0:0:0:0:
292,156,53427,1,12,0:0:0:0:
188,275,53610,5,0,3:0:0:0:
188,275,53702,1,0,3:3:0:0:
188,275,53793,1,4,0:3:0:0:
345,354,53976,2,0,P|411:364|481:309,1,160,4|0,0:0|3:0,0:0:0:0:
416,112,54525,1,4,0:0:0:0:
416,112,55074,5,0,3:0:0:0:
264,192,55257,2,0,L|181:213,1,80,8|8,0:0|0:0,0:0:0:0:
186,211,55531,1,8,0:0:0:0:
186,211,55623,1,2,3:0:0:0:
355,36,55805,1,8,0:0:0:0:
355,36,55897,1,8,0:0:0:0:
355,36,55988,2,0,L|419:19,1,40,10|8,0:0|0:0,0:0:0:0:
512,117,56171,2,0,L|448:134,1,40,8|8,0:0|0:0,0:0:0:0:
348,228,56354,5,4,0:0:0:0:
256,192,56446,12,8,57635,0:0:0:0:
165,58,58001,5,8,0:0:0:0:
374,311,58184,1,8,0:0:0:0:
223,260,59281,6,0,P|165:289|97:276,1,120,4|0,1:0|0:0,0:0:0:0:
87,252,59647,2,0,P|81:208|66:170,1,80,10|0,0:0|0:0,0:0:0:0:
49,149,59921,1,8,0:0:0:0:
49,149,60013,1,2,3:0:0:0:
35,334,60196,1,0,3:0:0:0:
167,252,60379,1,10,0:0:0:0:
105,86,60562,1,0,0:0:0:0:
257,133,60744,5,0,3:0:0:0:
427,248,60927,1,0,3:0:0:0:
348,89,61110,2,0,L|319:11,1,80,10|0,0:0|0:0,0:0:0:0:
454,266,61476,2,0,L|446:346,1,80,2|0,3:0|3:0,0:0:0:0:
240,264,61842,2,0,P|193:275|160:283,1,80,10|0,0:0|0:0,0:0:0:0:
32,135,62208,6,0,P|112:117|195:79,1,160,4|8,0:0|0:0,0:0:0:0:
362,65,62757,1,0,0:0:0:0:
260,139,62940,2,0,P|269:85|282:49,1,80,2|0,3:0|3:0,0:0:0:0:
363,237,63305,1,8,0:0:0:0:
260,139,63488,1,0,0:0:0:0:
408,47,63671,6,0,L|488:27,1,80,4|0,0:0|3:0,0:0:0:0:
341,265,64037,2,0,L|263:284,1,80,10|0,0:0|0:0,0:0:0:0:
96,232,64403,5,0,3:0:0:0:
96,232,64494,1,8,0:0:0:0:
96,232,64586,1,8,0:0:0:0:
96,232,64677,1,8,0:0:0:0:
96,232,64769,2,0,L|106:280,1,40,8|8,0:0|0:0,0:0:0:0:
197,179,64952,2,0,L|174:126,1,40,0|0,3:3|3:0,0:0:0:0:
249,55,65135,6,0,P|304:102|315:201,1,160,4|8,0:0|0:0,0:0:0:0:
94,108,65684,1,2,0:0:0:0:
94,108,65775,1,8,0:0:0:0:
94,108,65866,1,0,3:0:0:0:
208,200,66049,2,0,P|198:249|190:288,1,80,2|8,3:0|0:0,0:0:0:0:
317,373,66415,6,0,B|370:338|437:359|437:359|459:334|460:317,1,160,2|0,0:0|3:0,0:0:0:0:
338,182,66964,1,8,0:0:0:0:
228,273,67147,1,2,0:0:0:0:
197,281,67238,1,8,0:0:0:0:
166,290,67330,1,0,3:0:0:0:
86,109,67513,1,2,3:0:0:0:
243,168,67696,1,8,0:0:0:0:
138,298,67879,1,2,0:0:0:0:
168,81,68062,6,0,L|146:-3,1,80,4|0,0:0|0:0,0:0:0:0:
389,137,68427,2,0,L|376:215,1,80,8|2,0:0|0:0,0:0:0:0:
390,245,68702,1,8,0:0:0:0:
390,245,68793,1,0,3:0:0:0:
331,45,68976,1,0,3:0:0:0:
282,184,69159,5,8,0:0:0:0:
473,106,69342,1,2,0:0:0:0:
212,70,69525,6,0,P|168:78|122:100,1,80,4|0,0:0|3:0,0:0:0:0:
188,275,69891,1,8,0:0:0:0:
304,176,70074,1,2,3:0:0:0:
335,169,70165,1,8,0:0:0:0:
365,159,70257,1,8,0:0:0:0:
494,128,70440,5,8,3:0:0:0:
360,308,70623,1,8,0:0:0:0:
389,40,70805,1,0,3:0:0:0:
270,161,70988,6,0,B|322:162|372:202|372:202|389:173|410:162,1,160,4|8,0:0|0:0,0:0:0:0:
451,23,71537,1,2,0:0:0:0:
420,31,71629,1,8,0:0:0:0:
389,40,71720,1,0,3:0:0:0:
270,161,71903,1,0,3:0:0:0:
224,16,72086,1,8,0:0:0:0:
361,51,72269,1,2,0:0:0:0:
290,247,72452,6,0,L|208:273,1,80,4|0,0:0|3:0,0:0:0:0:
361,51,72818,2,0,L|437:26,1,80,8|2,0:0|0:0,0:0:0:0:
437,26,73092,1,8,0:0:0:0:
437,26,73184,1,2,3:0:0:0:
386,173,73366,1,0,3:0:0:0:
248,27,73549,2,0,L|171:51,1,80,8|2,0:0|0:0,0:0:0:0:
94,22,73824,5,8,0:0:0:0:
94,22,73915,2,0,P|52:87|57:157,1,120,4|0,0:0|0:0,0:0:0:0:
59,162,74281,1,10,0:0:0:0:
160,140,74464,1,2,0:0:0:0:
306,347,74647,1,4,0:0:0:0:
222,285,74830,1,0,3:0:0:0:
127,329,75013,1,8,0:0:0:0:
263,155,75196,5,2,0:0:0:0:
263,155,75287,1,8,0:0:0:0:
263,155,75379,2,0,P|278:110|283:71,1,80,4|2,0:0|3:0,0:0:0:0:
115,51,75744,1,8,0:0:0:0:
129,243,75927,2,0,P|135:282|148:320,1,80,2|4,0:0|0:0,0:0:0:0:
354,268,76293,1,8,0:0:0:0:
163,157,76476,2,0,L|101:144,1,40,8|8,0:0|0:0,0:0:0:0:
54,40,76659,2,0,L|93:48,1,40,8|8,0:0|0:0,0:0:0:0:
200,71,76842,6,0,L|282:51,1,80,4|0,0:0|0:0,0:0:0:0:
405,4,77208,2,0,P|455:70|450:160,1,160,8|0,0:0|3:0,0:0:0:0:
299,89,77757,1,2,0:0:0:0:
373,204,77940,2,0,P|370:249|362:295,1,80,8|2,0:0|0:0,0:0:0:0:
347,307,78214,5,8,0:0:0:0:
347,307,78305,1,4,0:0:0:0:
225,128,78488,1,0,0:0:0:0:
148,213,78671,2,0,P|97:215|35:169,1,120,8|0,0:0|0:0,0:0:0:0:
27,148,79037,5,0,3:0:0:0:
150,17,79220,1,2,0:0:0:0:
228,181,79403,1,8,0:0:0:0:
104,98,79586,1,2,0:0:0:0:
161,268,79769,6,0,P|151:320|151:363,1,80,4|0,0:0|0:0,0:0:0:0:
306,143,80135,2,0,P|288:100|252:74,1,80,8|0,0:0|0:0,0:0:0:0:
256,288,80501,2,0,P|328:317|422:294,1,160,0|8,3:0|0:0,0:0:0:0:
488,155,81049,5,2,0:0:0:0:
488,155,81141,1,8,0:0:0:0:
488,155,81232,2,0,P|471:193|468:233,1,80,4|2,0:0|0:0,0:0:0:0:
347,35,81598,1,8,0:0:0:0:
300,152,81781,1,2,0:0:0:0:
475,16,81964,5,0,3:0:0:0:
366,195,82147,1,0,0:0:0:0:
408,87,82330,1,8,0:0:0:0:
510,258,82513,1,2,0:0:0:0:
343,298,82696,6,0,B|297:315|297:315|263:301|263:301|212:319,1,136.000002593994,4|0,0:0|0:0,0:0:0:0:
154,256,83244,1,2,0:0:0:0:
65,368,83427,2,0,P|42:317|69:241,1,136.000002593994,0|2,0:0|0:0,0:0:0:0:
141,163,83976,6,0,L|210:181,1,68.0000012969971,0|4,0:0|0:0,0:0:0:0:
321,125,84342,1,0,0:0:0:0:
388,185,84525,2,0,L|389:266,1,68.0000012969971,2|0,0:0|0:0,0:0:0:0:
237,89,84891,2,0,L|237:21,1,68.0000012969971,2|0,0:0|0:0,0:0:0:0:
277,265,85257,5,0,3:0:0:0:
277,265,85348,1,0,3:0:0:0:
277,265,85440,1,0,3:0:0:0:
277,265,85531,1,0,3:0:0:0:
277,265,85623,2,0,P|205:279|130:237,1,160,4|8,1:0|0:0,0:0:0:0:
172,136,86171,5,0,0:0:0:0:
172,136,86263,1,8,0:0:0:0:
172,136,86354,1,0,3:0:0:0:
36,202,86537,2,0,P|30:252|34:295,1,80,0|8,3:0|0:0,0:0:0:0:
263,164,86903,6,0,P|270:110|223:51,1,120,4|0,0:0|0:0,0:0:0:0:
210,36,87269,1,0,3:0:0:0:
361,75,87452,2,0,L|453:53,1,80,8|0,0:0|0:0,0:0:0:0:
471,50,87726,1,8,0:0:0:0:
471,50,87818,2,0,L|459:139,1,80,0|0,3:0|3:0,0:0:0:0:
412,297,88184,1,8,0:0:0:0:
263,164,88366,5,0,0:0:0:0:
234,182,88458,1,0,0:0:0:0:
216,208,88549,2,0,P|175:271|173:364,1,160,4|8,0:0|0:0,0:0:0:0:
365,255,89098,1,0,0:0:0:0:
273,68,89281,2,0,P|281:117|294:167,1,80,0|0,3:0|3:0,0:0:0:0:
389,278,89647,1,8,0:0:0:0:
180,350,89830,5,4,0:0:0:0:
80,318,90013,1,0,0:0:0:0:
21,231,90196,1,0,3:0:0:0:
34,90,90379,2,0,L|113:112,1,80,8|0,0:0|0:0,0:0:0:0:
111,111,90653,1,8,0:0:0:0:
111,111,90744,1,0,3:0:0:0:
259,178,90927,5,8,0:0:0:0:
259,178,91019,1,8,0:0:0:0:
259,178,91110,1,8,0:0:0:0:
276,153,91202,1,8,0:0:0:0:
283,124,91293,1,8,0:0:0:0:
278,95,91385,1,8,0:0:0:0:
261,72,91476,6,0,P|233:64|211:52,2,53.3333333333333,4|0|0,0:0|0:0|0:0,0:0:0:0:
398,161,91842,2,8,P|418:181|431:203,2,53.3333333333333,8|0|0,0:0|0:0|0:0,0:0:0:0:
381,60,92208,2,8,P|389:31|401:10,2,53.3333333333333,8|0|0,0:0|0:0|0:0,0:0:0:0:
291,181,92574,2,8,P|270:201|248:214,2,53.3333333333333,8|0|0,0:0|0:0|0:0,0:0:0:0:
282,56,92940,5,8,0:0:0:0:
282,56,93062,2,0,L|211:41,1,53.3333333333333
121,140,93305,1,8,0:0:0:0:
121,140,93427,2,0,L|192:155,1,53.3333333333333
249,213,93671,1,8,0:0:0:0:
360,80,93854,5,8,0:0:0:0:
403,68,93946,1,8,0:0:0:0:
445,78,94037,1,8,0:0:0:0:
479,105,94129,1,8,0:0:0:0:
502,142,94220,1,8,0:0:0:0:
504,186,94312,1,8,0:0:0:0:
490,227,94403,1,4,0:0:0:0:
256,192,94494,12,0,95501,3:0:0:0:
256,192,95684,6,0,B|207:199|187:262|187:262|160:232|124:238|124:238|97:208,1,200,8|0,0:0|0:0,0:0:0:0:
12,158,96781,1,0,0:0:0:0:
19,259,96964,2,0,L|28:351,1,80,0|2,0:0|0:0,0:0:0:0:
336,72,109037,6,0,L|264:53,1,71.9999978027344,2|0,3:0|0:0,0:0:0:0:
194,155,109403,2,0,L|211:233,1,71.9999978027344,8|2,3:2|0:0,0:0:0:0:
365,177,109769,1,0,3:0:0:0:
365,177,109952,1,0,0:0:0:0:
317,52,110135,2,0,L|245:33,1,71.9999978027344,0|2,3:2|0:0,0:0:0:0:
188,184,110501,6,0,L|205:262,1,71.9999978027344,0|0,3:0|0:0,0:0:0:0:
384,197,110866,1,0,3:2:0:0:
384,197,111049,1,2,0:0:0:0:
325,301,111232,2,0,L|245:325,1,71.9999978027344,0|0,3:0|0:0,0:0:0:0:
319,131,111598,2,0,L|387:110,1,71.9999978027344,8|2,3:2|0:0,0:0:0:0:
185,263,111964,6,0,P|139:250|105:164,1,143.999995605469,0|0,3:0|3:2,0:0:0:0:
135,84,112513,1,2,0:0:0:0:
332,42,112696,2,0,P|340:115|293:175,1,143.999995605469,0|8,3:0|3:2,0:0:0:0:
211,35,113244,1,2,0:0:0:0:
224,215,113427,6,0,P|256:250|317:258,1,107.999996704102,0|0,3:0|0:0,0:0:0:0:
382,232,113793,2,0,P|416:249|452:263,1,71.9999978027344,2|8,3:0|0:0,0:0:0:0:
256,336,114159,2,0,P|181:349|116:383,1,143.999995605469,2|8,3:0|3:2,0:0:0:0:
232,176,114708,5,0,0:0:0:0:
243,162,114799,1,0,0:0:0:0:
257,147,114891,2,0,L|378:117,1,120,4|0,0:0|0:0,0:0:0:0:
454,91,115257,6,0,L|465:49,3,40,8|8|8|8,0:0|0:0|0:0|0:0,0:0:0:0:
498,184,115623,2,0,L|487:226,3,40,8|8|8|8,0:0|0:0|0:0|0:0,0:0:0:0:
390,240,115988,2,0,L|409:288,1,40,8|8,0:0|0:0,0:0:0:0:
309,318,116171,2,0,L|350:350,1,40,8|8,0:0|0:0,0:0:0:0:
256,248,116354,5,8,0:0:0:0:
226,245,116445,1,8,0:0:0:0:
197,253,116536,1,8,0:0:0:0:
173,271,116628,1,8,0:0:0:0:
157,296,116720,2,0,P|139:308|119:318,1,40,8|8,0:0|0:0,0:0:0:0:
26,245,116903,2,0,P|38:204|41:191,1,40,8|8,0:0|0:0,0:0:0:0:
85,111,117086,5,10,0:0:0:0:
117,102,117177,1,8,0:0:0:0:
149,108,117268,1,8,0:0:0:0:
176,127,117360,1,8,0:0:0:0:
203,147,117451,1,10,0:0:0:0:
234,159,117543,1,8,0:0:0:0:
267,157,117634,1,8,0:0:0:0:
298,150,117726,1,8,0:0:0:0:
324,131,117818,6,0,B|340:58|340:58|319:15,1,120,4|0,0:0|0:0,0:0:0:0:
236,11,118184,1,8,0:0:0:0:
236,11,118275,1,8,0:0:0:0:
236,11,118366,2,8,L|169:31,1,40
247,191,118549,1,8,0:0:0:0:
247,191,118640,1,8,0:0:0:0:
247,191,118731,2,8,L|281:130,1,40
105,98,118915,1,10,0:0:0:0:
105,98,119006,1,8,0:0:0:0:
105,98,119097,2,8,L|98:170,1,40
83,283,119281,5,10,0:0:0:0:
94,285,119373,1,8,0:0:0:0:
105,287,119464,1,8,0:0:0:0:
116,289,119555,1,8,0:0:0:0:
127,291,119647,1,10,0:0:0:0:
138,293,119738,1,8,0:0:0:0:
149,295,119830,1,8,0:0:0:0:
160,297,119921,1,8,0:0:0:0:
171,299,120013,6,0,L|209:288,1,40,10|8,0:0|0:0,0:0:0:0:
295,342,120196,2,0,L|333:353,1,40,8|8,0:0|0:0,0:0:0:0:
346,239,120379,2,0,L|384:228,1,40,10|8,0:0|0:0,0:0:0:0:
470,303,120562,2,0,L|508:314,1,40,8|8,0:0|0:0,0:0:0:0:
487,202,120744,5,10,0:0:0:0:
498,158,120836,1,8,0:0:0:0:
487,115,120927,1,8,0:0:0:0:
462,77,121019,1,8,0:0:0:0:
422,60,121110,1,10,0:0:0:0:
377,59,121202,1,8,0:0:0:0:
333,70,121293,1,8,0:0:0:0:
297,97,121385,1,8,0:0:0:0:
254,106,121476,5,10,0:0:0:0:
201,97,121568,1,8,0:0:0:0:
170,53,121659,1,8,0:0:0:0:
206,15,121751,1,8,0:0:0:0:
256,31,121842,1,8,0:0:0:0:
248,82,121934,1,8,0:0:0:0:
258,132,122025,1,8,0:0:0:0:
285,176,122116,1,8,0:0:0:0:
296,226,122208,6,0,L|279:324,1,80,4|2,1:0|0:0,0:0:0:0:
142,128,122574,2,0,L|169:51,1,80,8|0,0:0|0:0,0:0:0:0:
169,52,122848,1,8,0:0:0:0:
169,52,122940,1,2,3:0:0:0:
345,150,123123,1,0,3:0:0:0:
168,220,123305,1,8,0:0:0:0:
374,141,123488,1,2,0:0:0:0:
187,112,123671,5,2,3:0:0:0:
365,255,123854,1,0,3:0:0:0:
453,117,124037,2,0,P|450:77|419:40,1,80,8|0,0:0|0:0,0:0:0:0:
261,316,124403,2,0,B|303:303|303:303|350:348|411:322,1,160,2|8,3:0|0:0,0:0:0:0:
207,230,124952,5,0,0:0:0:0:
180,239,125043,1,0,0:0:0:0:
153,248,125135,2,0,P|144:304|183:364,1,120,4|0,0:0|0:0,0:0:0:0:
207,376,125501,1,10,0:0:0:0:
218,160,125684,1,0,0:0:0:0:
218,160,125775,1,8,0:0:0:0:
218,160,125866,2,0,P|207:111|189:76,1,80,2|0,3:0|3:0,0:0:0:0:
312,22,126232,1,8,0:0:0:0:
350,201,126415,5,0,0:0:0:0:
361,226,126507,1,8,0:0:0:0:
372,251,126598,2,0,L|355:342,1,80,2|0,3:0|3:0,0:0:0:0:
396,95,126964,2,0,L|480:71,1,80,10|0,0:0|0:0,0:0:0:0:
279,169,127330,5,0,3:0:0:0:
279,169,127421,1,8,0:0:0:0:
279,169,127513,1,8,0:0:0:0:
279,169,127604,1,8,0:0:0:0:
279,169,127696,2,0,L|269:217,1,40,8|8,0:0|0:0,0:0:0:0:
178,288,127879,2,0,L|162:236,1,40,0|0,3:3|0:0,0:0:0:0:
157,37,128062,5,4,0:0:0:0:
197,178,128244,1,2,0:0:0:0:
70,73,128427,1,8,0:0:0:0:
224,104,128610,1,2,0:0:0:0:
93,269,128793,1,0,3:0:0:0:
138,128,128976,5,2,3:0:0:0:
233,323,129159,1,8,0:0:0:0:
51,198,129342,1,0,0:0:0:0:
245,91,129525,6,0,L|319:124,1,80,2|0,3:0|0:0,0:0:0:0:
188,260,129891,2,0,P|162:292|156:329,1,80,8|0,0:0|0:0,0:0:0:0:
169,360,130165,1,8,0:0:0:0:
169,360,130257,1,2,3:0:0:0:
317,201,130440,1,0,3:0:0:0:
188,260,130623,1,8,0:0:0:0:
358,367,130805,1,2,0:0:0:0:
143,231,130988,6,0,P|134:157|125:72,1,160,4|8,0:0|0:0,0:0:0:0:
352,38,131537,1,0,0:0:0:0:
308,126,131720,2,0,L|230:148,1,80,2|0,3:0|3:0,0:0:0:0:
466,206,132086,2,0,L|388:228,1,80,8|0,0:0|0:0,0:0:0:0:
205,131,132452,5,4,0:0:0:0:
143,295,132635,2,0,P|137:257|132:214,1,80,2|8,3:0|0:0,0:0:0:0:
256,328,133001,1,0,3:0:0:0:
286,335,133092,1,8,0:0:0:0:
317,342,133184,1,8,0:0:0:0:
411,167,133366,5,8,3:0:0:0:
256,232,133549,1,8,0:0:0:0:
458,373,133732,1,0,3:0:0:0:
373,98,133915,6,0,B|351:145|351:145|361:168|361:168|331:203|336:256,1,160,4|8,0:0|0:0,0:0:0:0:
460,125,134464,1,2,0:0:0:0:
280,32,134647,2,0,L|203:55,1,80,0|0,3:0|0:0,0:0:0:0:
48,166,135013,1,8,0:0:0:0:
90,79,135196,1,2,0:0:0:0:
208,222,135379,6,0,L|217:134,1,80,4|0,0:0|0:0,0:0:0:0:
183,29,135744,1,8,0:0:0:0:
319,173,135927,1,2,0:0:0:0:
122,120,136110,1,0,3:0:0:0:
301,55,136293,1,0,0:0:0:0:
208,222,136476,2,0,P|207:266|225:298,1,80,8|2,0:0|0:0,0:0:0:0:
294,353,136751,5,8,0:0:0:0:
294,353,136842,2,0,P|230:328|131:338,1,160,4|8,0:0|0:0,0:0:0:0:
305,229,137391,1,2,0:0:0:0:
374,147,137574,2,0,P|398:103|396:67,1,80,0|0,3:0|0:0,0:0:0:0:
213,48,137940,1,8,0:0:0:0:
317,5,138123,1,2,0:0:0:0:
276,208,138305,6,0,L|254:293,1,80,4|0,0:0|0:0,0:0:0:0:
111,142,138671,2,0,L|131:64,1,80,8|2,0:0|0:0,0:0:0:0:
171,333,139037,1,0,3:0:0:0:
74,276,139220,1,0,0:0:0:0:
256,112,139403,2,0,L|345:90,1,80,8|0,0:0|0:0,0:0:0:0:
399,49,139677,5,8,0:0:0:0:
399,49,139769,2,0,P|455:109|460:183,1,160,4|8,0:0|0:0,0:0:0:0:
328,303,140318,2,0,P|331:256|348:217,1,80,0|0,0:0|3:0,0:0:0:0:
256,112,140684,1,0,0:0:0:0:
203,261,140866,2,0,P|162:280|125:290,1,80,8|2,0:0|0:0,0:0:0:0:
0,103,141232,6,0,P|63:104|139:166,1,160,4|8,0:0|0:0,0:0:0:0:
227,132,141781,1,0,0:0:0:0:
312,50,141964,1,0,3:0:0:0:
203,261,142147,1,2,0:0:0:0:
394,290,142330,1,8,0:0:0:0:
327,77,142513,5,0,0:0:0:0:
318,107,142604,1,8,0:0:0:0:
309,138,142696,2,0,P|315:175|327:223,1,80,4|0,0:0|0:0,0:0:0:0:
423,160,143062,1,8,0:0:0:0:
217,68,143244,2,0,P|206:104|197:152,1,80,0|0,0:0|3:0,0:0:0:0:
423,160,143610,1,0,0:0:0:0:
259,245,143793,1,8,0:0:0:0:
442,369,143976,1,2,0:0:0:0:
193,314,144159,6,0,P|138:331|75:357,1,120,4|0,0:0|0:0,0:0:0:0:
39,372,144525,2,0,P|48:333|58:280,1,80,8|0,0:0|0:0,0:0:0:0:
109,110,144891,2,0,P|70:90|28:179,1,160,2|8,3:0|0:0,0:0:0:0:
228,252,145440,5,0,0:0:0:0:
258,262,145531,1,8,0:0:0:0:
288,271,145623,2,0,P|348:253|426:232,1,128,4|0,0:0|0:0,0:0:0:0:
489,292,146171,1,0,0:0:0:0:
475,99,146354,2,0,B|442:81|442:81|389:116|424:174,1,128,2|0,0:0|0:0,0:0:0:0:
497,262,146903,1,0,0:0:0:0:
256,336,147086,5,4,0:0:0:0:
231,341,147452,1,2,0:0:0:0:
206,346,147818,6,0,P|173:335|143:335,1,64,2|0,0:0|0:0,0:0:0:0:
288,269,148184,2,0,L|268:141,1,128,0|2,0:0|0:0,0:0:0:0:
256,192,148641,12,0,149830,0:0:0:0:
256,192,150013,6,0,P|309:202|376:126,1,160,4|8,0:0|0:0,0:0:0:0:
439,281,150562,1,0,0:0:0:0:
439,281,150653,1,8,0:0:0:0:
439,281,150744,2,0,P|390:296|362:306,1,80,0|0,3:0|3:0,0:0:0:0:
179,216,151110,2,0,P|228:201|256:191,1,80,8|0,0:0|0:0,0:0:0:0:
384,103,151476,5,0,3:0:0:0:
277,281,151659,2,0,P|228:296|200:306,1,80,0|8,3:0|0:0,0:0:0:0:
63,193,152025,1,0,0:0:0:0:
63,193,152116,1,8,0:0:0:0:
63,193,152208,1,0,3:0:0:0:
162,287,152391,1,0,3:0:0:0:
17,356,152574,2,0,L|29:271,1,80,8|0,0:0|0:0,0:0:0:0:
59,65,152940,5,4,0:0:0:0:
156,43,153123,2,0,P|191:76|199:159,1,128,0|0,3:0|3:0,0:0:0:0:
182,176,153580,1,0,0:0:0:0:
182,176,153671,2,0,P|149:191|124:215,1,64,8|0,0:0|0:0,0:0:0:0:
296,89,154037,2,0,P|329:97|364:111,1,64,0|0,3:0|0:0,0:0:0:0:
463,244,154403,5,4,0:0:0:0:
334,304,154586,2,0,P|309:264|339:186,1,128,0|0,3:0|3:0,0:0:0:0:
383,41,155135,1,8,0:0:0:0:
364,46,155227,1,0,0:0:0:0:
346,51,155318,1,0,0:0:0:0:
327,56,155410,1,0,0:0:0:0:
306,86,155501,1,0,3:0:0:0:
287,91,155593,1,0,0:0:0:0:
269,96,155684,1,0,0:0:0:0:
250,101,155776,1,0,0:0:0:0:
230,106,155867,6,0,B|201:121|201:121|126:102|71:177,1,160,4|10,0:0|0:0,0:0:0:0:
150,302,156415,1,0,0:0:0:0:
150,302,156507,1,0,0:0:0:0:
150,302,156598,2,0,P|168:260|170:218,1,80,2|0,3:0|3:0,0:0:0:0:
362,82,156964,2,0,P|344:124|342:166,1,80,10|0,0:0|0:0,0:0:0:0:
225,276,157330,6,0,P|183:286|147:303,1,80,2|0,3:0|3:0,0:0:0:0:
286,107,157696,2,0,P|327:96|364:80,1,80,10|0,0:0|0:0,0:0:0:0:
381,55,157970,1,8,0:0:0:0:
381,55,158062,1,0,3:0:0:0:
192,32,158244,5,8,0:0:0:0:
172,54,158336,1,8,0:0:0:0:
158,81,158427,1,8,0:0:0:0:
154,110,158519,1,8,0:0:0:0:
160,139,158610,1,0,3:0:0:0:
341,292,158793,1,4,0:0:0:0:
187,342,158976,5,8,0:0:0:0:
187,342,159068,1,8,0:0:0:0:
187,342,159159,1,8,0:0:0:0:
187,342,159251,1,8,0:0:0:0:
187,342,159342,2,8,L|194:289,1,40,8|0,0:0|0:0,0:0:0:0:
337,105,159525,5,8,0:0:0:0:
337,105,159616,1,8,0:0:0:0:
337,105,159708,1,8,0:0:0:0:
337,105,159799,1,8,0:0:0:0:
337,105,159891,2,8,L|330:158,1,40,8|0,0:0|0:0,0:0:0:0:
159,200,160074,5,8,0:0:0:0:
159,200,160165,1,8,0:0:0:0:
159,200,160257,1,8,0:0:0:0:
159,200,160348,1,8,0:0:0:0:
159,200,160440,2,8,L|198:194,1,40,8|0,0:0|0:0,0:0:0:0:
354,233,160623,5,8,0:0:0:0:
367,260,160715,1,8,0:0:0:0:
370,290,160806,1,8,0:0:0:0:
362,319,160898,1,8,0:2:0:0:
344,343,160989,1,8,0:0:0:0:
89,267,161172,1,8,0:0:0:0:
302,53,161720,5,2,0:0:0:0:
256,192,161812,12,0,167574,0:0:0:0:
