osu file format v14

[General]
AudioFilename: audio.mp3
AudioLeadIn: 0
PreviewTime: 66220
Countdown: 0
SampleSet: Normal
StackLeniency: 0.7
Mode: 1
LetterboxInBreaks: 0
WidescreenStoryboard: 1

[Editor]
Bookmarks: 27801
DistanceSpacing: 2
BeatDivisor: 4
GridSize: 16
TimelineZoom: 3.099999

[Metadata]
Title:Bokura no Freedom DiVE
TitleUnicode:僕らのFreedom DiVE↓
Artist:Irodorimidori
ArtistUnicode:イロドリミドリ
Creator:Edward_Tsui
Version:TAIKO DIMENSIONS
Source:
Tags:CHUNITHM チュウニズム 回レ!GO!GO! Maware! Go! Go! 三年生チーム San'nensei Team Rock JRock J-Rock Japanese Video Game xi Cover BMS MAXBEAT HAPPY HARDCORE 明坂芹菜 新田恵海 Akesaka Serina Emi Nitta 御形アリシアナ 福原綾香 Ogata Aliciana Ayaka Fukuhara 天王洲なずな 山本彩乃 Tennozu Nazuna Ayano Yamamoto 小仏凪 佐倉薫 Kobotoke Nagi Kaoru Sakura 箱部なる M・A・O Hakobe Naru M.A.O 市道真央 Mao Ichimichi 月鈴白奈 高野麻里佳 Tsukisuzu Shirona Marika Kouno 月鈴那知 今村彩夏 Tsukisuzu Nachi Ayaka Imamura
BeatmapID:3204394
BeatmapSetID:1569184

[Difficulty]
HPDrainRate:6
CircleSize:4
OverallDifficulty:6.5
ApproachRate:9.8
SliderMultiplier:1.4
SliderTickRate:1

[Events]
//Background and Video events
0,0,"85717391_p0.jpg",0,40
//Break Periods
//Storyboard Layer 0 (Background)
//Storyboard Layer 1 (Fail)
//Storyboard Layer 2 (Pass)
//Storyboard Layer 3 (Foreground)
//Storyboard Layer 4 (Overlay)
//Storyboard Sound Samples

[TimingPoints]
375,294.117647058824,4,1,0,65,1,0
9198,-99.009900990099,4,1,0,65,0,0
9272,-98.0392156862745,4,1,0,65,0,0
9345,-97.0873786407767,4,1,0,65,0,0
9419,-96.1538461538461,4,1,0,65,0,0
9492,-95.2380952380952,4,1,0,65,0,0
9566,-94.3396226415094,4,1,0,65,0,0
9639,-93.4579439252336,4,1,0,65,0,0
9713,-92.5925925925926,4,1,0,65,0,0
9786,-91.743119266055,4,1,0,75,0,0
20375,-92.5925925925926,4,1,0,75,0,0
20448,-93.4579439252336,4,1,0,75,0,0
20522,-94.3396226415094,4,1,0,75,0,0
20595,-95.2380952380952,4,1,0,75,0,0
20669,-96.1538461538461,4,1,0,75,0,0
20742,-97.0873786407767,4,1,0,75,0,0
20816,-98.0392156862745,4,1,0,75,0,0
20889,-99.009900990099,4,1,0,75,0,0
20963,-100,4,1,0,75,0,0
21036,-101.010101010101,4,1,0,75,0,0
21110,-102.040816326531,4,1,0,75,0,0
21183,-103.092783505155,4,1,0,75,0,0
21257,-104.166666666667,4,1,0,75,0,0
21551,-104.166666666667,4,1,0,65,0,0
40227,-105.263157894737,4,1,0,65,0,0
40375,-106.382978723404,4,1,0,55,0,0
40669,-107.52688172043,4,1,0,55,0,0
40963,-108.695652173913,4,1,0,55,0,0
41257,-109.89010989011,4,1,0,55,0,0
41551,-111.111111111111,4,1,0,55,0,0
42139,-109.89010989011,4,1,0,55,0,0
42213,-108.53915162255,4,1,0,55,0,0
42286,-107.238605898123,4,1,0,55,0,0
42360,-105.951673063409,4,1,0,55,0,0
42433,-104.712041884817,4,1,0,55,0,0
42507,-103.484688489968,4,1,0,55,0,0
42580,-102.30179028133,4,1,0,55,0,0
42654,-101.12997265363,4,1,0,55,0,0
42727,-100,4,1,0,70,0,0
60963,-101.010101010101,4,1,0,70,0,0
61036,-102.040816326531,4,1,0,70,0,0
61110,-103.092783505155,4,1,0,70,0,0
61183,-104.166666666667,4,1,0,70,0,0
61257,-105.263157894737,4,1,0,70,0,0
61330,-106.382978723404,4,1,0,70,0,0
61404,-107.52688172043,4,1,0,70,0,0
61477,-108.695652173913,4,1,0,70,0,0
61551,-109.89010989011,4,1,0,60,0,0
66257,-95.2380952380952,4,1,0,85,0,1
84786,-96.1538461538461,4,1,0,85,0,1
84860,-97.0873786407767,4,1,0,85,0,1
84933,-98.0392156862745,4,1,0,85,0,1
85007,-99.009900990099,4,1,0,85,0,1
85080,-100,4,1,0,80,0,0
93904,-101.010101010101,4,1,0,80,0,0
94125,-103.092783505155,4,1,0,80,0,0
94345,-104.166666666667,4,1,0,80,0,0
94491,-105.263157894737,4,1,0,70,0,0
117433,-104.712041884817,4,1,0,70,0,0
117507,-104.166666666667,4,1,0,70,0,0
117580,-103.626943005181,4,1,0,70,0,0
117654,-103.092783505155,4,1,0,70,0,0
117727,-102.564102564103,4,1,0,60,0,0
117801,-102.040816326531,4,1,0,60,0,0
117875,-101.522842639594,4,1,0,60,0,0
117948,-101.010101010101,4,1,0,60,0,0
118022,-100,4,1,0,75,0,0
126992,-101.010101010101,4,1,0,75,0,0
127139,-103.092783505155,4,1,0,75,0,0
127286,-104.166666666667,4,1,0,75,0,0
127433,-105.263157894737,4,1,0,75,0,0
132139,-100,4,1,0,75,0,0
136257,-99.009900990099,4,1,0,75,0,0
136404,-98.0392156862745,4,1,0,75,0,0
136551,-97.0873786407767,4,1,0,75,0,0
136698,-96.1538461538461,4,1,0,75,0,0
136845,-95.2380952380952,4,1,0,75,0,0
148022,-95.6937799043062,4,1,0,75,0,0
148095,-96.1538461538461,4,1,0,75,0,0
148169,-96.6183574879227,4,1,0,75,0,0
148242,-97.0873786407767,4,1,0,75,0,0
148316,-97.5609756097561,4,1,0,75,0,0
148389,-98.0392156862745,4,1,0,75,0,0
148463,-98.5221674876847,4,1,0,75,0,0
148536,-99.009900990099,4,1,0,75,0,0
148610,-99.502487562189,4,1,0,70,0,0
148904,-105.263157894737,4,1,0,70,0,0
157580,-104.166666666667,4,1,0,70,0,0
157727,-102.742910274291,4,1,0,70,0,0
157875,-101.348252774466,4,1,0,70,0,0
158022,-100,4,1,0,75,0,0
166992,-99.009900990099,4,1,0,75,0,0
167139,-98.0392156862745,4,1,0,75,0,0
167286,-97.0873786407767,4,1,0,75,0,0
167433,-96.1538461538461,4,1,0,75,0,0
169345,-97.0873786407767,4,1,0,75,0,0
169492,-98.0392156862745,4,1,0,75,0,0
169639,-99.009900990099,4,1,0,75,0,0
169786,-100,4,1,0,75,0,0
170080,-102.56298491849,4,1,0,75,0,0
170375,-105.27022190408,4,1,0,75,0,0
170669,-108.114317221099,4,1,0,75,0,0
170963,-111.116358141292,4,1,0,75,0,0
171257,-114.289877598601,4,1,0,75,0,0
171404,-115.945599684636,4,1,0,75,0,0
171551,-117.65,4,1,0,75,0,0
171698,-119.405257282046,4,1,0,75,0,0
171845,-121.213682258397,4,1,0,75,0,0
171992,-123.077727795795,4,1,0,75,0,0
172139,-125,4,1,0,55,0,0
199492,-119.047619047619,4,1,0,55,0,0
199639,-114.942528735632,4,1,0,55,0,0
199786,-112.359550561798,4,1,0,55,0,0
199823,-111.111111111111,4,1,0,55,0,0
200375,-105.263157894737,4,1,0,65,0,0
218463,-104.166666666667,4,1,0,65,0,0
218536,-103.092783505155,4,1,0,65,0,0
218610,-102.040816326531,4,1,0,65,0,0
218683,-101.010101010101,4,1,0,65,0,0
218757,-100,4,1,0,65,0,0
218830,-99.009900990099,4,1,0,65,0,0
218904,-98.0392156862745,4,1,0,65,0,0
224051,-100,4,1,0,65,0,0
224125,-99.009900990099,4,1,0,65,0,0
224198,-98.0392156862745,4,1,0,65,0,0
224272,-97.0873786407767,4,1,0,65,0,0
224345,-96.1538461538461,4,1,0,65,0,0
224419,-95.2380952380952,4,1,0,65,0,0
224492,-94.3396226415094,4,1,0,65,0,0
224639,-98.0392156862745,4,1,0,65,0,0
224713,-97.0873786407767,4,1,0,65,0,0
224786,-96.1538461538461,4,1,0,65,0,0
224860,-95.2380952380952,4,1,0,65,0,0
224933,-94.3396226415094,4,1,0,65,0,0
225007,-93.4579439252336,4,1,0,65,0,0
225080,-92.5925925925926,4,1,0,65,0,0
225227,-95.2380952380952,4,1,0,65,0,0
228610,-95.2380952380952,4,1,0,85,0,1
246918,-94.7867298578199,4,1,0,85,0,1
246991,-94.3396226415094,4,1,0,85,0,1
247065,-93.8967136150235,4,1,0,85,0,1
247138,-93.4579439252336,4,1,0,85,0,1
247212,-93.0232558139535,4,1,0,85,0,1
247285,-92.5925925925926,4,1,0,85,0,1
247359,-92.1658986175115,4,1,0,85,0,1
247432,-91.743119266055,4,1,0,85,0,1
265668,-91.743119266055,4,1,0,85,0,1
265741,-91.324200913242,4,1,0,85,0,1
265815,-90.9090909090909,4,1,0,85,0,1
265888,-90.4977375565611,4,1,0,85,0,1
265962,-90.0900900900901,4,1,0,85,0,1
266035,-89.6860986547085,4,1,0,85,0,1
266109,-89.2857142857143,4,1,0,85,0,1
266182,-88.8888888888889,4,1,0,85,0,1
266256,-88.4955752212389,4,1,0,85,0,1
275227,-90.0900900900901,4,1,0,85,0,1
275375,-91.743119266055,4,1,0,85,0,1
275522,-93.4579439252336,4,1,0,85,0,1
275669,-95.2380952380952,4,1,0,75,0,1
279713,-94.3396226415094,4,1,0,75,0,1
279786,-93.4579439252336,4,1,0,75,0,1
279860,-92.5925925925926,4,1,0,75,0,1
279933,-91.743119266055,4,1,0,75,0,1
280007,-90.9090909090909,4,1,0,75,0,1
280080,-90.0900900900901,4,1,0,75,0,1
284051,-91.533180778032,4,1,0,75,0,1
284198,-93.0232558139535,4,1,0,75,0,1
284345,-94.5626477541371,4,1,0,75,0,1
284492,-96.1538461538461,4,1,0,75,0,1
284639,-97.799511002445,4,1,0,75,0,1
284786,-99.5024875621891,4,1,0,75,0,1
284933,-101.26582278481,4,1,0,75,0,1
285080,-103.092783505155,4,1,0,75,0,0
289198,-104.166666666667,4,1,0,75,0,0
289345,-105.263157894737,4,1,0,75,0,0
289492,-106.382978723404,4,1,0,75,0,0
289639,-107.52688172043,4,1,0,75,0,0
289785,-90.9090909090909,4,1,0,75,0,0
289860,-76.9230769230769,4,1,0,75,0,0
290080,-80,4,1,0,75,0,0
290963,-83.3333333333333,4,1,0,75,0,0
292139,-90.9090909090909,4,1,0,75,0,0
293316,-100,4,1,0,75,0,0
295080,-111.111111111111,4,1,0,75,0,0
298022,-111.111111111111,4,1,0,45,0,0
298610,-112.359550561798,4,1,0,45,0,0
299198,-113.636363636364,4,1,0,45,0,0
299786,-114.942528735632,4,1,0,45,0,0
300375,-116.279069767442,4,1,0,45,0,0
300963,-117.647058823529,4,1,0,45,0,0
301551,-119.047619047619,4,1,0,45,0,0
302139,-120.481927710843,4,1,0,35,0,0
302433,-121.951219512195,4,1,0,35,0,0
302727,-123.456790123457,4,1,0,35,0,0
303316,-125,4,1,0,35,0,0
303610,-126.582278481013,4,1,0,35,0,0
303904,-128.205128205128,4,1,0,35,0,0
304198,-129.87012987013,4,1,0,35,0,0
304492,-131.578947368421,4,1,0,35,0,0
304786,-133.333333333333,4,1,0,35,0,0
305080,-135.135135135135,4,1,0,25,0,0
305375,-136.986301369863,4,1,0,25,0,0
305669,-138.888888888889,4,1,0,25,0,0
305963,-140.845070422535,4,1,0,25,0,0
306257,-142.857142857143,4,1,0,25,0,0
307433,-144.927536231884,4,1,0,25,0,0
307727,-147.058823529412,4,1,0,25,0,0
308022,-149.253731343284,4,1,0,25,0,0
308316,-151.515151515152,4,1,0,25,0,0
308610,-153.846153846154,4,1,0,15,0,0
308904,-156.25,4,1,0,15,0,0
309198,-158.730158730159,4,1,0,15,0,0
309492,-161.290322580645,4,1,0,15,0,0
309786,-163.934426229508,4,1,0,15,0,0
310080,-166.666666666667,4,1,0,15,0,0
310375,-169.491525423729,4,1,0,15,0,0
310669,-172.413793103448,4,1,0,15,0,0
310963,-175.438596491228,4,1,0,15,0,0
311257,-178.571428571429,4,1,0,15,0,0
311551,-181.818181818182,4,1,0,15,0,0
311845,-185.185185185185,4,1,0,15,0,0
312139,-188.679245283019,4,1,0,15,0,0
313022,-200,4,1,0,5,0,0
315669,-250,4,1,0,5,0,0
316845,-333.333333333333,4,1,0,5,0,0

[HitObjects]
126,282,375,5,4,0:0:0:0:
109,78,669,1,8,0:0:0:0:
122,77,816,1,0,0:0:0:0:
65,84,1110,1,0,0:0:0:0:
65,84,1257,1,8,0:0:0:0:
65,84,1404,1,0,0:0:0:0:
65,84,1551,1,0,0:0:0:0:
65,84,1698,1,0,0:0:0:0:
65,84,1845,1,8,0:0:0:0:
62,76,1992,1,0,0:0:0:0:
62,76,2286,1,0,0:0:0:0:
62,76,2433,1,8,0:0:0:0:
60,77,2727,1,0,0:0:0:0:
65,77,3022,1,8,0:0:0:0:
65,77,3169,1,0,0:0:0:0:
62,73,3463,1,0,0:0:0:0:
62,73,3610,1,8,0:0:0:0:
62,73,3757,1,0,0:0:0:0:
62,73,3904,1,0,0:0:0:0:
62,73,4051,1,0,0:0:0:0:
62,73,4198,1,8,0:0:0:0:
69,72,4345,1,0,0:0:0:0:
69,73,4639,1,0,0:0:0:0:
69,73,4786,1,8,0:0:0:0:
103,279,5080,1,4,0:0:0:0:
70,72,5375,1,8,0:0:0:0:
70,72,5522,1,0,0:0:0:0:
69,71,5816,1,0,0:0:0:0:
69,71,5963,1,8,0:0:0:0:
69,71,6110,1,0,0:0:0:0:
69,71,6257,1,0,0:0:0:0:
69,71,6404,1,0,0:0:0:0:
69,71,6551,1,8,0:0:0:0:
69,71,6698,1,0,0:0:0:0:
67,70,6992,1,0,0:0:0:0:
67,70,7139,1,8,0:0:0:0:
67,70,7433,1,0,0:0:0:0:
65,70,7727,1,8,0:0:0:0:
65,70,7875,1,0,0:0:0:0:
67,69,8169,1,0,0:0:0:0:
67,69,8316,1,8,0:0:0:0:
67,69,8463,1,0,0:0:0:0:
84,77,8610,1,8,0:0:0:0:
80,77,8683,1,8,0:0:0:0:
84,77,8757,1,0,0:0:0:0:
84,77,8830,1,0,0:0:0:0:
80,77,8904,1,0,0:0:0:0:
84,77,8977,1,0,0:0:0:0:
84,77,9051,1,8,0:0:0:0:
80,77,9125,1,0,0:0:0:0:
77,73,9198,1,8,0:0:0:0:
84,77,9272,1,0,0:0:0:0:
80,77,9345,1,0,0:0:0:0:
77,73,9419,1,0,0:0:0:0:
84,77,9492,1,8,0:0:0:0:
80,77,9566,1,8,0:0:0:0:
77,73,9639,1,8,0:0:0:0:
80,72,9713,1,8,0:0:0:0:
80,77,9786,1,0,0:0:0:0:
88,66,9933,1,0,0:0:0:0:
96,71,10007,1,0,0:0:0:0:
93,73,10080,1,8,0:0:0:0:
101,73,10227,1,0,0:0:0:0:
101,73,10375,1,0,0:0:0:0:
101,73,10522,1,0,0:0:0:0:
108,81,10595,1,0,0:0:0:0:
115,72,10669,1,8,0:0:0:0:
101,73,10742,1,8,0:0:0:0:
99,74,10816,1,0,0:0:0:0:
110,67,10963,1,0,0:0:0:0:
110,67,11110,1,0,0:0:0:0:
100,83,11183,1,0,0:0:0:0:
110,67,11257,1,8,0:0:0:0:
110,67,11404,1,0,0:0:0:0:
110,67,11551,1,0,0:0:0:0:
110,67,11698,1,0,0:0:0:0:
101,73,11772,1,0,0:0:0:0:
110,67,11845,1,8,0:0:0:0:
110,67,11919,1,8,0:0:0:0:
110,67,11992,1,8,0:0:0:0:
110,67,12139,1,0,0:0:0:0:
118,71,12286,1,0,0:0:0:0:
92,82,12360,1,0,0:0:0:0:
118,71,12433,1,8,0:0:0:0:
118,71,12580,1,0,0:0:0:0:
118,71,12727,1,0,0:0:0:0:
112,66,12875,1,0,0:0:0:0:
92,82,12948,1,0,0:0:0:0:
112,66,13022,1,8,0:0:0:0:
113,74,13095,1,8,0:0:0:0:
113,74,13169,1,0,0:0:0:0:
113,74,13316,1,0,0:0:0:0:
115,55,13463,1,0,0:0:0:0:
92,82,13536,1,0,0:0:0:0:
115,55,13610,1,8,0:0:0:0:
115,55,13757,1,0,0:0:0:0:
109,59,13904,1,8,0:0:0:0:
109,60,13977,1,8,0:0:0:0:
109,59,14051,1,0,0:0:0:0:
109,59,14125,1,0,0:0:0:0:
109,60,14198,1,8,0:0:0:0:
109,59,14272,1,8,0:0:0:0:
109,59,14345,1,8,0:0:0:0:
109,60,14419,1,8,0:0:0:0:
109,59,14492,1,0,0:0:0:0:
109,60,14639,1,0,0:0:0:0:
104,64,14786,1,8,0:0:0:0:
99,67,14933,1,0,0:0:0:0:
100,68,15007,1,0,0:0:0:0:
99,67,15080,1,0,0:0:0:0:
99,67,15154,1,8,0:0:0:0:
100,68,15227,1,0,0:0:0:0:
99,67,15375,1,8,0:0:0:0:
99,67,15522,1,8,0:0:0:0:
99,67,15595,1,8,0:0:0:0:
99,67,15669,1,0,0:0:0:0:
99,67,15816,1,0,0:0:0:0:
99,67,15963,1,8,0:0:0:0:
99,67,16110,1,8,0:0:0:0:
99,67,16183,1,8,0:0:0:0:
99,67,16257,1,0,0:0:0:0:
99,67,16330,1,8,0:0:0:0:
99,67,16404,1,0,0:0:0:0:
99,67,16551,1,8,0:0:0:0:
99,67,16698,1,0,0:0:0:0:
104,73,16845,1,0,0:0:0:0:
90,71,16992,1,0,0:0:0:0:
97,72,17066,1,0,0:0:0:0:
97,72,17139,1,8,0:0:0:0:
98,72,17213,1,0,0:0:0:0:
97,72,17286,1,0,0:0:0:0:
98,72,17433,1,0,0:0:0:0:
98,72,17580,1,8,0:0:0:0:
98,72,17654,1,8,0:0:0:0:
98,72,17727,1,0,0:0:0:0:
98,72,17801,1,8,0:0:0:0:
98,72,17875,1,0,0:0:0:0:
98,72,18022,1,0,0:0:0:0:
98,72,18169,1,0,0:0:0:0:
98,72,18316,1,8,0:0:0:0:
88,73,18463,1,0,0:0:0:0:
88,73,18610,1,8,0:0:0:0:
88,73,18683,1,8,0:0:0:0:
88,73,18757,1,0,0:0:0:0:
88,73,18830,1,0,0:0:0:0:
88,73,18904,1,8,0:0:0:0:
88,73,18977,1,8,0:0:0:0:
88,73,19051,1,8,0:0:0:0:
88,73,19125,1,8,0:0:0:0:
88,73,19198,1,8,0:0:0:0:
88,73,19272,1,8,0:0:0:0:
88,73,19345,1,0,0:0:0:0:
88,73,19419,1,0,0:0:0:0:
88,73,19492,1,8,0:0:0:0:
88,73,19566,1,8,0:0:0:0:
88,73,19639,1,0,0:0:0:0:
88,73,19713,1,0,0:0:0:0:
88,73,19786,1,8,0:0:0:0:
88,73,19860,1,8,0:0:0:0:
88,73,19933,1,0,0:0:0:0:
88,73,20007,1,0,0:0:0:0:
88,73,20080,1,8,0:0:0:0:
88,73,20154,1,8,0:0:0:0:
88,73,20227,1,0,0:0:0:0:
88,73,20301,1,0,0:0:0:0:
88,73,20375,1,8,0:0:0:0:
84,83,20448,1,8,0:0:0:0:
84,83,20522,1,8,0:0:0:0:
88,73,20595,1,8,0:0:0:0:
84,83,20669,1,0,0:0:0:0:
88,73,20742,1,0,0:0:0:0:
84,83,20816,1,0,0:0:0:0:
84,83,20889,1,0,0:0:0:0:
84,83,20963,1,8,0:0:0:0:
84,83,21036,1,8,0:0:0:0:
84,83,21110,1,0,0:0:0:0:
84,83,21183,1,0,0:0:0:0:
84,83,21257,1,8,0:0:0:0:
88,85,21551,1,4,0:0:0:0:
130,309,23904,1,12,0:0:0:0:
106,85,25080,1,0,0:0:0:0:
105,85,25375,1,0,0:0:0:0:
105,85,25669,1,8,0:0:0:0:
111,94,25963,1,8,0:0:0:0:
123,284,26257,1,4,0:0:0:0:
107,76,27139,1,0,0:0:0:0:
108,82,27433,1,8,0:0:0:0:
105,87,27875,1,0,0:0:0:0:
116,89,28316,1,0,0:0:0:0:
127,296,28610,1,12,0:0:0:0:
100,70,29786,1,8,0:0:0:0:
83,89,30080,1,8,0:0:0:0:
83,89,30227,1,8,0:0:0:0:
89,88,30375,1,8,0:0:0:0:
89,88,30522,1,0,0:0:0:0:
89,88,30669,1,0,0:0:0:0:
102,68,30816,1,0,0:0:0:0:
141,286,30963,1,12,0:0:0:0:
260,189,31257,1,0,0:0:0:0:
69,104,31404,1,0,0:0:0:0:
74,104,31477,1,0,0:0:0:0:
75,104,31551,1,8,0:0:0:0:
260,189,31698,1,8,0:0:0:0:
77,107,31845,1,0,0:0:0:0:
77,107,31992,1,8,0:0:0:0:
77,107,32139,1,0,0:0:0:0:
77,107,32286,1,0,0:0:0:0:
77,106,32580,1,0,0:0:0:0:
77,106,32654,1,0,0:0:0:0:
77,106,32727,1,8,0:0:0:0:
89,91,33022,1,8,0:0:0:0:
89,91,33169,1,0,0:0:0:0:
113,296,33316,1,4,0:0:0:0:
253,194,33610,1,0,0:0:0:0:
92,105,33757,1,8,0:0:0:0:
92,105,33830,1,8,0:0:0:0:
92,105,33904,1,0,0:0:0:0:
253,194,34051,1,8,0:0:0:0:
99,105,34198,1,0,0:0:0:0:
99,105,34345,1,8,0:0:0:0:
99,105,34492,1,0,0:0:0:0:
107,109,34639,1,0,0:0:0:0:
100,96,34933,1,8,0:0:0:0:
100,96,35007,1,8,0:0:0:0:
100,96,35080,1,0,0:0:0:0:
111,99,35375,1,0,0:0:0:0:
104,295,35669,1,12,0:0:0:0:
87,85,36110,1,0,0:0:0:0:
87,85,36183,1,0,0:0:0:0:
87,85,36257,1,8,0:0:0:0:
99,88,36551,1,0,0:0:0:0:
99,88,36698,1,8,0:0:0:0:
99,88,36845,1,0,0:0:0:0:
99,88,36992,1,0,0:0:0:0:
99,90,37286,1,0,0:0:0:0:
99,90,37360,1,0,0:0:0:0:
99,90,37433,1,8,0:0:0:0:
100,90,37727,1,0,0:0:0:0:
100,90,37875,1,0,0:0:0:0:
89,332,38022,1,12,0:0:0:0:
78,128,38463,1,0,0:0:0:0:
78,128,38536,1,0,0:0:0:0:
78,128,38610,1,8,0:0:0:0:
91,107,38904,1,0,0:0:0:0:
91,107,39051,1,8,0:0:0:0:
98,110,39198,1,0,0:0:0:0:
97,124,39345,1,0,0:0:0:0:
97,124,39639,1,0,0:0:0:0:
97,124,39713,1,0,0:0:0:0:
97,124,39786,1,8,0:0:0:0:
98,124,40080,1,8,0:0:0:0:
98,124,40227,1,8,0:0:0:0:
99,116,40375,1,0,0:0:0:0:
102,119,40669,1,8,0:0:0:0:
102,119,40963,1,0,0:0:0:0:
102,119,41257,1,8,0:0:0:0:
102,119,41551,1,0,0:0:0:0:
102,119,41698,1,8,0:0:0:0:
102,119,41845,1,0,0:0:0:0:
102,119,41992,1,8,0:0:0:0:
99,125,42139,1,8,0:0:0:0:
102,119,42213,1,8,0:0:0:0:
99,125,42286,1,8,0:0:0:0:
99,125,42360,1,8,0:0:0:0:
99,126,42433,1,8,0:0:0:0:
99,125,42507,1,8,0:0:0:0:
99,125,42580,1,8,0:0:0:0:
99,126,42654,1,8,0:0:0:0:
108,300,42727,1,4,0:0:0:0:
97,104,43022,1,8,0:0:0:0:
104,95,43316,1,0,0:0:0:0:
104,95,43463,1,0,0:0:0:0:
94,93,43536,1,0,0:0:0:0:
104,95,43610,1,8,0:0:0:0:
104,95,43757,1,8,0:0:0:0:
116,104,43904,1,0,0:0:0:0:
110,98,44198,1,8,0:0:0:0:
110,98,44345,1,0,0:0:0:0:
110,98,44492,1,8,0:0:0:0:
116,97,44639,1,8,0:0:0:0:
116,97,44713,1,8,0:0:0:0:
116,97,44786,1,0,0:0:0:0:
116,97,44933,1,8,0:0:0:0:
127,290,45080,1,4,0:0:0:0:
137,117,45375,1,8,0:0:0:0:
137,113,45669,1,0,0:0:0:0:
137,113,45816,1,0,0:0:0:0:
137,97,45889,1,0,0:0:0:0:
137,113,45963,1,8,0:0:0:0:
137,113,46110,1,0,0:0:0:0:
140,104,46257,1,8,0:0:0:0:
140,104,46404,1,8,0:0:0:0:
140,104,46551,1,0,0:0:0:0:
143,103,46845,1,8,0:0:0:0:
117,114,46992,1,8,0:0:0:0:
122,113,47139,1,0,0:0:0:0:
122,113,47286,1,0,0:0:0:0:
122,113,47360,1,0,0:0:0:0:
147,310,47433,1,12,0:0:0:0:
98,116,47727,1,8,0:0:0:0:
100,119,48022,1,8,0:0:0:0:
90,104,48169,1,0,0:0:0:0:
90,104,48316,1,8,0:0:0:0:
90,109,48463,1,0,0:0:0:0:
90,109,48610,1,0,0:0:0:0:
94,108,48904,1,8,0:0:0:0:
95,114,49198,1,0,0:0:0:0:
95,114,49345,1,0,0:0:0:0:
95,114,49492,1,8,0:0:0:0:
95,114,49639,1,0,0:0:0:0:
117,301,49786,1,4,0:0:0:0:
59,108,50080,1,8,0:0:0:0:
60,104,50375,1,0,0:0:0:0:
60,104,50522,1,0,0:0:0:0:
60,104,50595,1,0,0:0:0:0:
60,104,50669,1,8,0:0:0:0:
60,104,50816,1,0,0:0:0:0:
60,104,50963,1,8,0:0:0:0:
60,94,51257,1,8,0:0:0:0:
60,94,51551,1,0,0:0:0:0:
69,105,51698,1,0,0:0:0:0:
59,96,51845,1,8,0:0:0:0:
69,105,51992,1,8,0:0:0:0:
107,302,52139,1,4,0:0:0:0:
72,111,52433,1,8,0:0:0:0:
72,111,52727,1,0,0:0:0:0:
72,111,52875,1,0,0:0:0:0:
94,111,52948,1,0,0:0:0:0:
92,109,53022,1,8,0:0:0:0:
86,115,53169,1,0,0:0:0:0:
89,117,53316,1,0,0:0:0:0:
86,107,53610,1,0,0:0:0:0:
86,107,53757,1,8,0:0:0:0:
86,107,53830,1,8,0:0:0:0:
86,107,53904,1,0,0:0:0:0:
86,107,54051,1,8,0:0:0:0:
89,121,54198,1,0,0:0:0:0:
94,113,54345,1,0,0:0:0:0:
94,113,54492,1,4,0:0:0:0:
95,115,54786,1,0,0:0:0:0:
95,115,54933,1,0,0:0:0:0:
95,115,55080,1,8,0:0:0:0:
95,115,55227,1,8,0:0:0:0:
95,115,55301,1,0,0:0:0:0:
95,115,55375,1,8,0:0:0:0:
95,115,55522,1,0,0:0:0:0:
95,115,55669,1,8,0:0:0:0:
102,111,55963,1,8,0:0:0:0:
102,111,56110,1,8,0:0:0:0:
102,111,56257,1,0,0:0:0:0:
110,111,56330,1,0,0:0:0:0:
102,111,56404,1,0,0:0:0:0:
102,110,56551,1,8,0:0:0:0:
102,110,56698,1,0,0:0:0:0:
118,288,56845,1,4,0:0:0:0:
100,104,57139,1,8,0:0:0:0:
108,106,57433,1,0,0:0:0:0:
108,106,57580,1,0,0:0:0:0:
108,106,57727,1,8,0:0:0:0:
101,102,57875,1,0,0:0:0:0:
108,106,57948,1,8,0:0:0:0:
108,102,58022,1,0,0:0:0:0:
105,103,58316,1,8,0:0:0:0:
104,113,58610,1,0,0:0:0:0:
104,113,58757,1,0,0:0:0:0:
112,103,58830,1,0,0:0:0:0:
104,113,58904,1,8,0:0:0:0:
109,109,59051,1,0,0:0:0:0:
106,250,59198,1,12,0:0:0:0:
104,109,59492,1,0,0:0:0:0:
91,106,59566,1,0,0:0:0:0:
96,113,59639,1,0,0:0:0:0:
106,112,59786,1,8,0:0:0:0:
106,112,59933,1,0,0:0:0:0:
107,94,60007,1,0,0:0:0:0:
106,112,60080,1,8,0:0:0:0:
107,96,60154,1,8,0:0:0:0:
106,112,60227,1,0,0:0:0:0:
106,112,60375,1,8,0:0:0:0:
108,114,60669,1,0,0:0:0:0:
96,112,60963,1,8,0:0:0:0:
96,112,61036,1,8,0:0:0:0:
96,112,61110,1,0,0:0:0:0:
96,112,61183,1,0,0:0:0:0:
96,112,61257,1,8,0:0:0:0:
96,112,61330,1,8,0:0:0:0:
96,112,61404,1,8,0:0:0:0:
96,112,61477,1,8,0:0:0:0:
96,112,61551,1,0,0:0:0:0:
96,112,61698,1,0,0:0:0:0:
96,112,61845,1,8,0:0:0:0:
96,112,61992,1,8,0:0:0:0:
101,109,62139,1,0,0:0:0:0:
92,109,62286,1,8,0:0:0:0:
92,109,62433,1,8,0:0:0:0:
92,109,62580,1,0,0:0:0:0:
92,109,62727,1,8,0:0:0:0:
92,109,62875,1,8,0:0:0:0:
101,109,63022,1,0,0:0:0:0:
94,109,63169,1,8,0:0:0:0:
94,109,63316,1,8,0:0:0:0:
94,109,63463,1,0,0:0:0:0:
94,109,63610,1,8,0:0:0:0:
103,100,63757,1,8,0:0:0:0:
104,110,63904,1,0,0:0:0:0:
104,110,64051,1,0,0:0:0:0:
104,110,64198,1,8,0:0:0:0:
104,110,64345,1,8,0:0:0:0:
104,110,64492,1,0,0:0:0:0:
104,110,64639,1,8,0:0:0:0:
104,110,64786,1,8,0:0:0:0:
104,110,64933,1,0,0:0:0:0:
97,117,65080,1,8,0:0:0:0:
96,109,65227,1,0,0:0:0:0:
97,117,65375,1,8,0:0:0:0:
96,109,65522,1,0,0:0:0:0:
95,117,65669,1,8,0:0:0:0:
95,117,65963,1,8,0:0:0:0:
113,280,66257,1,4,0:0:0:0:
106,75,66551,1,8,0:0:0:0:
106,75,66698,1,8,0:0:0:0:
106,75,66772,1,8,0:0:0:0:
146,107,66845,1,0,0:0:0:0:
116,81,66992,1,0,0:0:0:0:
116,81,67139,1,8,0:0:0:0:
113,54,67433,1,0,0:0:0:0:
113,54,67580,1,0,0:0:0:0:
110,59,67654,1,0,0:0:0:0:
113,54,67727,1,8,0:0:0:0:
113,54,67875,1,0,0:0:0:0:
97,52,68022,1,0,0:0:0:0:
112,55,68169,1,0,0:0:0:0:
107,58,68242,1,0,0:0:0:0:
112,55,68316,1,8,0:0:0:0:
106,63,68463,1,0,0:0:0:0:
109,286,68610,1,12,0:0:0:0:
88,86,68904,1,8,0:0:0:0:
72,94,69051,1,8,0:0:0:0:
77,93,69125,1,8,0:0:0:0:
77,93,69198,1,0,0:0:0:0:
85,100,69345,1,0,0:0:0:0:
85,100,69492,1,8,0:0:0:0:
77,93,69786,1,8,0:0:0:0:
77,93,69933,1,0,0:0:0:0:
63,90,70007,1,0,0:0:0:0:
77,93,70080,1,8,0:0:0:0:
74,90,70227,1,0,0:0:0:0:
74,90,70375,1,8,0:0:0:0:
75,97,70448,1,8,0:0:0:0:
67,97,70522,1,0,0:0:0:0:
75,98,70595,1,0,0:0:0:0:
94,97,70669,1,8,0:0:0:0:
75,98,70816,1,8,0:0:0:0:
114,283,70963,1,4,0:0:0:0:
78,111,71257,1,8,0:0:0:0:
97,103,71404,1,8,0:0:0:0:
90,108,71477,1,8,0:0:0:0:
75,109,71551,1,0,0:0:0:0:
75,109,71698,1,0,0:0:0:0:
75,109,71845,1,8,0:0:0:0:
88,96,71992,1,0,0:0:0:0:
63,91,72139,1,8,0:0:0:0:
53,90,72213,1,8,0:0:0:0:
55,90,72286,1,0,0:0:0:0:
54,90,72360,1,0,0:0:0:0:
63,91,72433,1,8,0:0:0:0:
63,91,72580,1,0,0:0:0:0:
59,80,72727,1,8,0:0:0:0:
56,102,72875,1,8,0:0:0:0:
60,94,72948,1,8,0:0:0:0:
48,98,73022,1,0,0:0:0:0:
48,91,73169,1,0,0:0:0:0:
105,315,73316,1,12,0:0:0:0:
90,87,73610,1,8,0:0:0:0:
91,97,73904,1,0,0:0:0:0:
91,97,74051,1,0,0:0:0:0:
87,92,74125,1,0,0:0:0:0:
91,97,74198,1,8,0:0:0:0:
97,90,74345,1,0,0:0:0:0:
91,88,74492,1,8,0:0:0:0:
91,88,74566,1,0,0:0:0:0:
91,88,74639,1,0,0:0:0:0:
91,88,74713,1,0,0:0:0:0:
91,88,74786,1,8,0:0:0:0:
91,88,74860,1,0,0:0:0:0:
91,88,74933,1,0,0:0:0:0:
91,88,75007,1,0,0:0:0:0:
95,84,75080,1,8,0:0:0:0:
96,81,75227,1,0,0:0:0:0:
96,81,75375,1,0,0:0:0:0:
102,89,75522,1,0,0:0:0:0:
88,274,75669,1,12,0:0:0:0:
96,99,76110,1,0,0:0:0:0:
96,99,76183,1,0,0:0:0:0:
96,99,76257,1,8,0:0:0:0:
101,90,76551,1,0,0:0:0:0:
101,90,76698,1,8,0:0:0:0:
101,90,76845,1,0,0:0:0:0:
101,90,76992,1,0,0:0:0:0:
101,88,77286,1,0,0:0:0:0:
101,88,77360,1,0,0:0:0:0:
101,88,77433,1,8,0:0:0:0:
100,84,77727,1,0,0:0:0:0:
100,84,77875,1,0,0:0:0:0:
117,260,78022,1,4,0:0:0:0:
96,82,78463,1,0,0:0:0:0:
101,77,78536,1,0,0:0:0:0:
102,72,78610,1,8,0:0:0:0:
122,69,78904,1,0,0:0:0:0:
122,69,79051,1,8,0:0:0:0:
122,69,79198,1,0,0:0:0:0:
128,64,79345,1,0,0:0:0:0:
85,83,79639,1,0,0:0:0:0:
96,80,79713,1,0,0:0:0:0:
96,77,79786,1,8,0:0:0:0:
106,61,79860,1,8,0:0:0:0:
108,60,79933,1,0,0:0:0:0:
109,59,80007,1,0,0:0:0:0:
106,61,80080,1,8,0:0:0:0:
125,291,80375,1,12,0:0:0:0:
69,73,80522,1,0,0:0:0:0:
69,73,80669,1,8,0:0:0:0:
69,73,80816,1,0,0:0:0:0:
69,73,80889,1,0,0:0:0:0:
69,73,80963,1,8,0:0:0:0:
69,73,81110,1,0,0:0:0:0:
69,73,81257,1,8,0:0:0:0:
69,73,81404,1,0,0:0:0:0:
69,73,81551,1,0,0:0:0:0:
64,59,81698,1,0,0:0:0:0:
79,91,81845,1,8,0:0:0:0:
79,91,81992,1,0,0:0:0:0:
79,91,82066,1,0,0:0:0:0:
79,91,82139,1,0,0:0:0:0:
110,74,82286,1,0,0:0:0:0:
103,78,82433,1,8,0:0:0:0:
120,302,82580,1,8,0:0:0:0:
117,289,82727,1,4,0:0:0:0:
92,123,82875,1,0,0:0:0:0:
92,123,83022,1,8,0:0:0:0:
92,123,83169,1,0,0:0:0:0:
92,123,83242,1,0,0:0:0:0:
92,123,83316,1,8,0:0:0:0:
92,123,83463,1,0,0:0:0:0:
92,123,83610,1,8,0:0:0:0:
92,123,83757,1,8,0:0:0:0:
92,123,83830,1,8,0:0:0:0:
92,123,83904,1,4,0:0:0:0:
63,112,84198,1,8,0:0:0:0:
83,113,84272,1,0,0:0:0:0:
73,117,84345,1,0,0:0:0:0:
90,136,84492,1,8,0:0:0:0:
90,130,84786,1,8,0:0:0:0:
90,130,84860,1,8,0:0:0:0:
90,130,84933,1,0,0:0:0:0:
90,130,85007,1,0,0:0:0:0:
90,130,85080,1,8,0:0:0:0:
92,115,85227,1,0,0:0:0:0:
96,104,85301,1,0,0:0:0:0:
96,106,85375,1,8,0:0:0:0:
92,110,85448,1,8,0:0:0:0:
90,115,85522,1,0,0:0:0:0:
92,115,85595,1,0,0:0:0:0:
96,104,85669,1,0,0:0:0:0:
96,104,85742,1,0,0:0:0:0:
96,106,85816,1,8,0:0:0:0:
96,104,85889,1,0,0:0:0:0:
96,106,85963,1,8,0:0:0:0:
103,107,86036,1,8,0:0:0:0:
96,104,86110,1,0,0:0:0:0:
96,106,86183,1,0,0:0:0:0:
103,107,86257,1,8,0:0:0:0:
96,104,86330,1,0,0:0:0:0:
96,106,86404,1,8,0:0:0:0:
103,107,86477,1,8,0:0:0:0:
93,114,86551,1,8,0:0:0:0:
93,114,86625,1,8,0:0:0:0:
93,114,86698,1,0,0:0:0:0:
90,111,86772,1,0,0:0:0:0:
93,114,86845,1,0,0:0:0:0:
97,107,86919,1,0,0:0:0:0:
95,112,86992,1,8,0:0:0:0:
90,112,87066,1,0,0:0:0:0:
91,112,87139,1,8,0:0:0:0:
91,112,87213,1,8,0:0:0:0:
92,96,87286,1,0,0:0:0:0:
96,104,87360,1,0,0:0:0:0:
92,96,87433,1,8,0:0:0:0:
92,96,87507,1,0,0:0:0:0:
92,96,87580,1,0,0:0:0:0:
92,96,87654,1,0,0:0:0:0:
92,96,87727,1,8,0:0:0:0:
92,96,87801,1,8,0:0:0:0:
92,96,87875,1,0,0:0:0:0:
92,96,87948,1,0,0:0:0:0:
92,96,88022,1,8,0:0:0:0:
92,96,88095,1,0,0:0:0:0:
92,96,88169,1,0,0:0:0:0:
92,96,88242,1,0,0:0:0:0:
92,96,88316,1,8,0:0:0:0:
92,96,88389,1,8,0:0:0:0:
92,96,88463,1,0,0:0:0:0:
92,96,88536,1,0,0:0:0:0:
92,96,88610,1,8,0:0:0:0:
92,96,88683,1,0,0:0:0:0:
92,96,88757,1,0,0:0:0:0:
92,96,88830,1,0,0:0:0:0:
92,96,88904,1,8,0:0:0:0:
92,96,88977,1,8,0:0:0:0:
92,96,89051,1,0,0:0:0:0:
92,96,89125,1,0,0:0:0:0:
92,96,89198,1,8,0:0:0:0:
92,96,89272,1,0,0:0:0:0:
92,96,89345,1,0,0:0:0:0:
92,96,89419,1,0,0:0:0:0:
92,96,89492,1,8,0:0:0:0:
92,96,89566,1,8,0:0:0:0:
90,120,89639,1,8,0:0:0:0:
90,120,89713,1,8,0:0:0:0:
90,120,89786,1,0,0:0:0:0:
81,99,89933,1,0,0:0:0:0:
74,97,90007,1,0,0:0:0:0:
81,99,90080,1,8,0:0:0:0:
81,99,90154,1,8,0:0:0:0:
81,99,90227,1,0,0:0:0:0:
68,97,90301,1,0,0:0:0:0:
73,104,90375,1,0,0:0:0:0:
73,104,90448,1,0,0:0:0:0:
73,104,90522,1,8,0:0:0:0:
82,89,90595,1,0,0:0:0:0:
91,84,90669,1,8,0:0:0:0:
82,89,90742,1,8,0:0:0:0:
91,84,90816,1,0,0:0:0:0:
78,109,90889,1,0,0:0:0:0:
81,107,90963,1,0,0:0:0:0:
91,84,91036,1,0,0:0:0:0:
78,109,91110,1,8,0:0:0:0:
86,89,91183,1,0,0:0:0:0:
91,84,91257,1,8,0:0:0:0:
78,109,91330,1,8,0:0:0:0:
91,84,91404,1,0,0:0:0:0:
74,103,91477,1,0,0:0:0:0:
91,84,91551,1,8,0:0:0:0:
85,85,91625,1,8,0:0:0:0:
91,84,91698,1,0,0:0:0:0:
85,85,91772,1,0,0:0:0:0:
91,84,91845,1,8,0:0:0:0:
85,85,91919,1,8,0:0:0:0:
97,80,91992,1,0,0:0:0:0:
67,98,92066,1,0,0:0:0:0:
144,103,92139,1,8,0:0:0:0:
75,104,92213,1,0,0:0:0:0:
67,97,92286,1,0,0:0:0:0:
73,96,92360,1,0,0:0:0:0:
74,95,92433,1,8,0:0:0:0:
80,93,92507,1,8,0:0:0:0:
73,96,92580,1,0,0:0:0:0:
80,97,92654,1,0,0:0:0:0:
74,91,92727,1,8,0:0:0:0:
73,96,92801,1,0,0:0:0:0:
74,91,92875,1,0,0:0:0:0:
74,91,92948,1,0,0:0:0:0:
74,91,93022,1,8,0:0:0:0:
70,101,93095,1,8,0:0:0:0:
80,92,93169,1,0,0:0:0:0:
70,101,93242,1,0,0:0:0:0:
80,92,93316,1,8,0:0:0:0:
80,92,93389,1,0,0:0:0:0:
80,92,93463,1,0,0:0:0:0:
80,92,93536,1,0,0:0:0:0:
80,92,93610,1,8,0:0:0:0:
70,101,93683,1,8,0:0:0:0:
79,102,93757,1,0,0:0:0:0:
79,102,93904,1,8,0:0:0:0:
74,107,94125,1,8,0:0:0:0:
74,107,94345,1,8,0:0:0:0:
93,285,94492,1,4,0:0:0:0:
88,88,94786,1,0,0:0:0:0:
83,91,94860,1,0,0:0:0:0:
83,91,94933,1,0,0:0:0:0:
83,91,95007,1,0,0:0:0:0:
83,91,95080,1,8,0:0:0:0:
81,60,95227,1,0,0:0:0:0:
78,64,95522,1,0,0:0:0:0:
78,64,95669,1,8,0:0:0:0:
83,67,95963,1,0,0:0:0:0:
83,67,96110,1,0,0:0:0:0:
83,67,96257,1,8,0:0:0:0:
83,67,96404,1,0,0:0:0:0:
83,67,96551,1,8,0:0:0:0:
76,66,96698,1,8,0:0:0:0:
101,307,96845,1,4,0:0:0:0:
118,74,97139,1,0,0:0:0:0:
123,74,97213,1,8,0:0:0:0:
123,74,97286,1,0,0:0:0:0:
125,72,97360,1,0,0:0:0:0:
123,74,97433,1,8,0:0:0:0:
125,66,97580,1,0,0:0:0:0:
124,66,97875,1,0,0:0:0:0:
124,66,98022,1,8,0:0:0:0:
126,68,98316,1,0,0:0:0:0:
126,68,98463,1,8,0:0:0:0:
126,68,98610,1,8,0:0:0:0:
126,68,98757,1,0,0:0:0:0:
127,64,99051,1,8,0:0:0:0:
101,307,99198,1,4,0:0:0:0:
115,64,99492,1,0,0:0:0:0:
115,64,99566,1,0,0:0:0:0:
115,64,99639,1,8,0:0:0:0:
126,72,99713,1,0,0:0:0:0:
126,72,99786,1,8,0:0:0:0:
115,64,99933,1,0,0:0:0:0:
121,62,100227,1,0,0:0:0:0:
121,62,100375,1,8,0:0:0:0:
121,62,100522,1,0,0:0:0:0:
121,62,100669,1,0,0:0:0:0:
121,62,100816,1,0,0:0:0:0:
121,62,100963,1,8,0:0:0:0:
121,62,101110,1,0,0:0:0:0:
122,73,101404,1,8,0:0:0:0:
101,307,101551,1,4,0:0:0:0:
119,77,101845,1,0,0:0:0:0:
119,77,101992,1,8,0:0:0:0:
117,70,102066,1,0,0:0:0:0:
121,88,102139,1,8,0:0:0:0:
117,70,102286,1,0,0:0:0:0:
117,70,102433,1,8,0:0:0:0:
115,71,102580,1,0,0:0:0:0:
115,71,102727,1,8,0:0:0:0:
116,69,103022,1,8,0:0:0:0:
119,81,103169,1,0,0:0:0:0:
116,70,103316,1,8,0:0:0:0:
116,70,103463,1,0,0:0:0:0:
116,70,103610,1,0,0:0:0:0:
116,70,103757,1,0,0:0:0:0:
99,307,103904,1,12,0:0:0:0:
103,74,104198,1,0,0:0:0:0:
103,74,104272,1,0,0:0:0:0:
103,74,104345,1,0,0:0:0:0:
103,74,104419,1,0,0:0:0:0:
103,74,104492,1,8,0:0:0:0:
103,74,104639,1,0,0:0:0:0:
105,72,104933,1,0,0:0:0:0:
105,72,105080,1,8,0:0:0:0:
105,72,105375,1,8,0:0:0:0:
105,72,105522,1,0,0:0:0:0:
105,72,105669,1,8,0:0:0:0:
105,72,105816,1,8,0:0:0:0:
105,72,105963,1,0,0:0:0:0:
105,72,106110,1,0,0:0:0:0:
99,307,106257,1,12,0:0:0:0:
106,73,106551,1,0,0:0:0:0:
106,73,106625,1,8,0:0:0:0:
106,73,106698,1,0,0:0:0:0:
106,73,106772,1,0,0:0:0:0:
106,73,106845,1,8,0:0:0:0:
106,73,106992,1,0,0:0:0:0:
105,76,107286,1,0,0:0:0:0:
105,76,107433,1,8,0:0:0:0:
105,75,107727,1,0,0:0:0:0:
105,75,107875,1,0,0:0:0:0:
105,75,108022,1,8,0:0:0:0:
105,75,108169,1,0,0:0:0:0:
105,75,108316,1,8,0:0:0:0:
105,75,108463,1,0,0:0:0:0:
99,306,108610,1,12,0:0:0:0:
101,78,108904,1,8,0:0:0:0:
101,78,108977,1,0,0:0:0:0:
101,78,109051,1,0,0:0:0:0:
115,85,109125,1,0,0:0:0:0:
112,84,109198,1,8,0:0:0:0:
105,67,109345,1,0,0:0:0:0:
101,78,109639,1,0,0:0:0:0:
101,78,109786,1,8,0:0:0:0:
94,76,109933,1,0,0:0:0:0:
94,76,110080,1,0,0:0:0:0:
94,76,110227,1,0,0:0:0:0:
94,76,110375,1,8,0:0:0:0:
94,76,110522,1,0,0:0:0:0:
95,76,110816,1,0,0:0:0:0:
99,306,110963,1,12,0:0:0:0:
95,78,111257,1,0,0:0:0:0:
95,78,111330,1,0,0:0:0:0:
95,78,111404,1,0,0:0:0:0:
95,78,111477,1,0,0:0:0:0:
95,78,111551,1,8,0:0:0:0:
95,78,111698,1,0,0:0:0:0:
96,78,111992,1,0,0:0:0:0:
96,78,112066,1,0,0:0:0:0:
96,78,112139,1,8,0:0:0:0:
96,78,112213,1,0,0:0:0:0:
96,78,112286,1,0,0:0:0:0:
96,78,112360,1,0,0:0:0:0:
106,80,112433,1,8,0:0:0:0:
96,78,112507,1,0,0:0:0:0:
96,78,112580,1,0,0:0:0:0:
96,78,112654,1,0,0:0:0:0:
115,81,112727,1,8,0:0:0:0:
115,81,112801,1,8,0:0:0:0:
115,81,112875,1,0,0:0:0:0:
115,81,112948,1,0,0:0:0:0:
115,81,113022,1,8,0:0:0:0:
115,81,113095,1,8,0:0:0:0:
115,81,113169,1,8,0:0:0:0:
115,81,113242,1,8,0:0:0:0:
123,287,113316,1,4,0:0:0:0:
123,287,113463,1,4,0:0:0:0:
91,88,113610,1,8,0:0:0:0:
107,78,113757,1,8,0:0:0:0:
107,78,113904,1,0,0:0:0:0:
81,96,114051,1,8,0:0:0:0:
81,96,114198,1,8,0:0:0:0:
103,84,114345,1,0,0:0:0:0:
98,83,114492,1,8,0:0:0:0:
92,87,114639,1,8,0:0:0:0:
92,87,114786,1,0,0:0:0:0:
88,96,114933,1,8,0:0:0:0:
88,96,115080,1,8,0:0:0:0:
88,96,115227,1,0,0:0:0:0:
88,96,115375,1,8,0:0:0:0:
88,96,115522,1,8,0:0:0:0:
90,325,115669,1,4,0:0:0:0:
90,325,115816,1,4,0:0:0:0:
97,77,115963,1,8,0:0:0:0:
97,77,116110,1,8,0:0:0:0:
97,77,116257,1,0,0:0:0:0:
97,77,116404,1,8,0:0:0:0:
97,77,116551,1,8,0:0:0:0:
97,77,116698,1,0,0:0:0:0:
99,86,116845,1,8,0:0:0:0:
98,85,116919,1,0,0:0:0:0:
99,86,116992,1,0,0:0:0:0:
99,86,117066,1,0,0:0:0:0:
98,85,117139,1,8,0:0:0:0:
99,86,117213,1,0,0:0:0:0:
99,86,117286,1,0,0:0:0:0:
98,85,117360,1,0,0:0:0:0:
99,86,117433,1,8,0:0:0:0:
99,86,117507,1,8,0:0:0:0:
98,85,117580,1,0,0:0:0:0:
99,86,117654,1,0,0:0:0:0:
99,86,117727,1,8,0:0:0:0:
98,85,117801,1,8,0:0:0:0:
99,86,117875,1,8,0:0:0:0:
99,86,117948,1,8,0:0:0:0:
105,255,118022,1,4,0:0:0:0:
82,96,118169,1,8,0:0:0:0:
91,96,118316,1,0,0:0:0:0:
91,96,118389,1,0,0:0:0:0:
91,96,118463,1,8,0:0:0:0:
95,82,118610,1,0,0:0:0:0:
95,82,118683,1,8,0:0:0:0:
95,82,118757,1,8,0:0:0:0:
95,82,118904,1,0,0:0:0:0:
95,82,118977,1,0,0:0:0:0:
95,82,119051,1,8,0:0:0:0:
95,82,119198,1,0,0:0:0:0:
89,73,119345,1,8,0:0:0:0:
82,73,119492,1,0,0:0:0:0:
94,73,119566,1,0,0:0:0:0:
95,74,119639,1,0,0:0:0:0:
95,74,119786,1,8,0:0:0:0:
95,74,119933,1,0,0:0:0:0:
104,83,120080,1,0,0:0:0:0:
102,82,120154,1,0,0:0:0:0:
104,83,120227,1,8,0:0:0:0:
104,83,120301,1,0,0:0:0:0:
102,82,120375,1,8,0:0:0:0:
86,78,120522,1,0,0:0:0:0:
101,77,120669,1,8,0:0:0:0:
101,77,120816,1,0,0:0:0:0:
101,77,120889,1,0,0:0:0:0:
101,77,120963,1,8,0:0:0:0:
101,77,121110,1,8,0:0:0:0:
101,77,121183,1,8,0:0:0:0:
101,77,121257,1,0,0:0:0:0:
101,77,121330,1,0,0:0:0:0:
101,77,121404,1,8,0:0:0:0:
101,77,121477,1,8,0:0:0:0:
101,77,121551,1,0,0:0:0:0:
98,71,121698,1,0,0:0:0:0:
98,71,121845,1,8,0:0:0:0:
98,71,121992,1,0,0:0:0:0:
98,71,122066,1,0,0:0:0:0:
98,71,122139,1,8,0:0:0:0:
98,71,122286,1,8,0:0:0:0:
98,71,122360,1,8,0:0:0:0:
98,71,122433,1,0,0:0:0:0:
104,72,122507,1,8,0:0:0:0:
98,71,122580,1,0,0:0:0:0:
98,71,122654,1,0,0:0:0:0:
101,76,122727,1,0,0:0:0:0:
101,76,122875,1,8,0:0:0:0:
101,76,123022,1,0,0:0:0:0:
101,76,123095,1,0,0:0:0:0:
101,76,123169,1,8,0:0:0:0:
101,76,123316,1,0,0:0:0:0:
101,76,123463,1,8,0:0:0:0:
101,76,123536,1,0,0:0:0:0:
118,68,123610,1,0,0:0:0:0:
101,76,123683,1,0,0:0:0:0:
101,76,123757,1,8,0:0:0:0:
101,76,123904,1,8,0:0:0:0:
101,76,123977,1,8,0:0:0:0:
101,76,124051,1,0,0:0:0:0:
101,76,124125,1,0,0:0:0:0:
101,76,124198,1,8,0:0:0:0:
101,76,124272,1,0,0:0:0:0:
101,76,124345,1,0,0:0:0:0:
101,76,124419,1,0,0:0:0:0:
101,76,124492,1,8,0:0:0:0:
101,76,124566,1,0,0:0:0:0:
101,76,124639,1,8,0:0:0:0:
101,76,124713,1,8,0:0:0:0:
101,76,124786,1,0,0:0:0:0:
101,76,124860,1,0,0:0:0:0:
102,82,124933,1,8,0:0:0:0:
102,81,125007,1,8,0:0:0:0:
102,81,125080,1,0,0:0:0:0:
102,82,125154,1,0,0:0:0:0:
102,81,125227,1,8,0:0:0:0:
118,86,125301,1,8,0:0:0:0:
102,81,125375,1,0,0:0:0:0:
102,81,125448,1,0,0:0:0:0:
102,81,125522,1,8,0:0:0:0:
98,86,125595,1,0,0:0:0:0:
99,88,125669,1,0,0:0:0:0:
102,81,125742,1,8,0:0:0:0:
102,81,125816,1,0,0:0:0:0:
102,81,125889,1,0,0:0:0:0:
102,81,125963,1,8,0:0:0:0:
102,81,126036,1,8,0:0:0:0:
102,81,126110,1,0,0:0:0:0:
102,81,126183,1,8,0:0:0:0:
102,81,126257,1,8,0:0:0:0:
102,81,126330,1,8,0:0:0:0:
102,81,126404,1,0,0:0:0:0:
102,81,126477,1,0,0:0:0:0:
102,81,126551,1,8,0:0:0:0:
102,81,126625,1,0,0:0:0:0:
102,81,126698,1,8,0:0:0:0:
102,81,126772,1,8,0:0:0:0:
102,81,126845,1,8,0:0:0:0:
102,81,126992,1,0,0:0:0:0:
102,81,127139,1,8,0:0:0:0:
102,81,127286,1,8,0:0:0:0:
84,296,127433,1,4,0:0:0:0:
100,78,127875,1,0,0:0:0:0:
100,78,127948,1,0,0:0:0:0:
100,78,128022,1,8,0:0:0:0:
113,60,128316,1,0,0:0:0:0:
113,60,128463,1,8,0:0:0:0:
113,60,128610,1,0,0:0:0:0:
118,56,128757,1,0,0:0:0:0:
115,60,129051,1,0,0:0:0:0:
115,60,129125,1,0,0:0:0:0:
115,60,129198,1,8,0:0:0:0:
118,57,129492,1,0,0:0:0:0:
118,57,129639,1,0,0:0:0:0:
44,333,129786,1,4,0:0:0:0:
92,84,130227,1,0,0:0:0:0:
100,81,130301,1,0,0:0:0:0:
101,81,130375,1,8,0:0:0:0:
96,88,130669,1,0,0:0:0:0:
96,88,130816,1,8,0:0:0:0:
96,88,130963,1,0,0:0:0:0:
96,88,131110,1,0,0:0:0:0:
98,89,131404,1,0,0:0:0:0:
98,89,131477,1,8,0:0:0:0:
98,89,131551,1,0,0:0:0:0:
98,89,131625,1,0,0:0:0:0:
98,89,131698,1,8,0:0:0:0:
98,89,131772,1,0,0:0:0:0:
98,89,131845,1,8,0:0:0:0:
85,258,132139,1,4,0:0:0:0:
97,74,132286,1,0,0:0:0:0:
97,74,132433,1,8,0:0:0:0:
97,74,132580,1,0,0:0:0:0:
102,75,132654,1,8,0:0:0:0:
102,75,132727,1,0,0:0:0:0:
121,50,132875,1,0,0:0:0:0:
121,50,133022,1,8,0:0:0:0:
113,58,133169,1,0,0:0:0:0:
87,105,133316,1,0,0:0:0:0:
135,102,133414,1,8,0:0:0:0:
135,102,133512,1,8,0:0:0:0:
140,100,133610,1,8,0:0:0:0:
140,100,133708,1,0,0:0:0:0:
140,100,133806,1,0,0:0:0:0:
140,100,133904,1,8,0:0:0:0:
141,88,134002,1,0,0:0:0:0:
141,88,134100,1,0,0:0:0:0:
141,88,134198,1,8,0:0:0:0:
141,88,134296,1,0,0:0:0:0:
141,88,134394,1,0,0:0:0:0:
94,83,134492,1,8,0:0:0:0:
93,83,134566,1,8,0:0:0:0:
94,83,134639,1,0,0:0:0:0:
94,83,134713,1,8,0:0:0:0:
93,83,134786,1,0,0:0:0:0:
94,83,134860,1,0,0:0:0:0:
94,83,134933,1,8,0:0:0:0:
109,82,135007,1,0,0:0:0:0:
110,82,135080,1,8,0:0:0:0:
110,82,135154,1,8,0:0:0:0:
109,82,135227,1,0,0:0:0:0:
110,82,135301,1,8,0:0:0:0:
110,82,135375,1,0,0:0:0:0:
109,82,135448,1,0,0:0:0:0:
110,82,135522,1,8,0:0:0:0:
110,82,135595,1,0,0:0:0:0:
104,119,135669,1,8,0:0:0:0:
110,91,135816,1,0,0:0:0:0:
110,91,135963,1,0,0:0:0:0:
110,91,136110,1,0,0:0:0:0:
111,320,136257,1,12,0:0:0:0:
121,152,136404,1,0,0:0:0:0:
121,152,136551,1,0,0:0:0:0:
121,152,136698,1,0,0:0:0:0:
129,329,136845,1,12,0:0:0:0:
86,107,136992,1,0,0:0:0:0:
86,107,137066,1,0,0:0:0:0:
86,107,137139,1,8,0:0:0:0:
101,100,137213,1,8,0:0:0:0:
101,100,137286,1,0,0:0:0:0:
101,100,137360,1,0,0:0:0:0:
90,104,137433,1,0,0:0:0:0:
101,100,137507,1,0,0:0:0:0:
78,106,137580,1,8,0:0:0:0:
107,93,137654,1,0,0:0:0:0:
107,93,137727,1,8,0:0:0:0:
107,93,137801,1,8,0:0:0:0:
107,93,137875,1,0,0:0:0:0:
100,103,137948,1,0,0:0:0:0:
107,93,138022,1,0,0:0:0:0:
107,93,138095,1,0,0:0:0:0:
107,93,138169,1,8,0:0:0:0:
79,106,138242,1,0,0:0:0:0:
107,93,138316,1,8,0:0:0:0:
107,93,138389,1,8,0:0:0:0:
107,93,138463,1,0,0:0:0:0:
107,93,138536,1,0,0:0:0:0:
107,93,138610,1,0,0:0:0:0:
107,93,138683,1,0,0:0:0:0:
107,93,138757,1,8,0:0:0:0:
107,93,138830,1,8,0:0:0:0:
107,93,138904,1,8,0:0:0:0:
107,93,138977,1,8,0:0:0:0:
107,93,139051,1,0,0:0:0:0:
107,93,139125,1,0,0:0:0:0:
93,88,139198,1,8,0:0:0:0:
92,93,139272,1,8,0:0:0:0:
100,84,139345,1,0,0:0:0:0:
102,85,139419,1,0,0:0:0:0:
100,84,139492,1,8,0:0:0:0:
101,77,139566,1,0,0:0:0:0:
104,77,139639,1,8,0:0:0:0:
101,77,139713,1,8,0:0:0:0:
111,77,139786,1,0,0:0:0:0:
111,77,139860,1,0,0:0:0:0:
112,77,139933,1,0,0:0:0:0:
111,77,140007,1,0,0:0:0:0:
111,77,140080,1,8,0:0:0:0:
112,77,140154,1,0,0:0:0:0:
111,77,140227,1,8,0:0:0:0:
111,77,140301,1,8,0:0:0:0:
112,77,140375,1,0,0:0:0:0:
111,77,140448,1,0,0:0:0:0:
111,77,140522,1,0,0:0:0:0:
112,77,140595,1,0,0:0:0:0:
111,77,140669,1,8,0:0:0:0:
111,77,140742,1,0,0:0:0:0:
112,77,140816,1,0,0:0:0:0:
111,77,140889,1,0,0:0:0:0:
111,77,140963,1,8,0:0:0:0:
116,76,141183,1,8,0:0:0:0:
116,76,141404,1,8,0:0:0:0:
103,283,141551,1,12,0:0:0:0:
77,129,141698,1,0,0:0:0:0:
77,129,141772,1,0,0:0:0:0:
77,129,141845,1,8,0:0:0:0:
77,129,141919,1,8,0:0:0:0:
91,104,141992,1,0,0:0:0:0:
90,103,142066,1,0,0:0:0:0:
90,103,142139,1,0,0:0:0:0:
80,88,142213,1,0,0:0:0:0:
90,103,142286,1,8,0:0:0:0:
90,103,142360,1,0,0:0:0:0:
91,104,142433,1,8,0:0:0:0:
83,114,142507,1,8,0:0:0:0:
83,114,142580,1,0,0:0:0:0:
99,116,142654,1,0,0:0:0:0:
99,110,142727,1,0,0:0:0:0:
90,103,142801,1,0,0:0:0:0:
91,104,142875,1,8,0:0:0:0:
85,122,142948,1,0,0:0:0:0:
90,103,143022,1,8,0:0:0:0:
91,104,143095,1,8,0:0:0:0:
90,103,143169,1,0,0:0:0:0:
90,103,143242,1,0,0:0:0:0:
91,104,143316,1,0,0:0:0:0:
64,117,143389,1,0,0:0:0:0:
64,114,143463,1,8,0:0:0:0:
91,104,143536,1,0,0:0:0:0:
90,103,143610,1,8,0:0:0:0:
90,103,143683,1,0,0:0:0:0:
91,104,143757,1,8,0:0:0:0:
90,103,143830,1,8,0:0:0:0:
90,103,143904,1,0,0:0:0:0:
99,85,143977,1,0,0:0:0:0:
99,85,144051,1,8,0:0:0:0:
99,85,144125,1,0,0:0:0:0:
99,85,144198,1,8,0:0:0:0:
99,85,144272,1,8,0:0:0:0:
105,85,144345,1,0,0:0:0:0:
95,91,144419,1,0,0:0:0:0:
105,85,144492,1,0,0:0:0:0:
105,85,144566,1,0,0:0:0:0:
105,85,144639,1,8,0:0:0:0:
105,85,144713,1,0,0:0:0:0:
105,85,144786,1,8,0:0:0:0:
105,85,144860,1,8,0:0:0:0:
105,85,144933,1,0,0:0:0:0:
111,85,145007,1,0,0:0:0:0:
120,81,145080,1,0,0:0:0:0:
81,90,145154,1,0,0:0:0:0:
127,70,145227,1,8,0:0:0:0:
133,70,145301,1,0,0:0:0:0:
134,69,145375,1,8,0:0:0:0:
130,78,145448,1,8,0:0:0:0:
130,78,145522,1,0,0:0:0:0:
130,78,145595,1,0,0:0:0:0:
130,78,145669,1,8,0:0:0:0:
130,78,145889,1,8,0:0:0:0:
130,78,146110,1,8,0:0:0:0:
134,69,146257,1,8,0:0:0:0:
138,68,146330,1,8,0:0:0:0:
135,67,146404,1,0,0:0:0:0:
134,69,146477,1,0,0:0:0:0:
138,68,146551,1,8,0:0:0:0:
135,67,146625,1,8,0:0:0:0:
134,69,146698,1,0,0:0:0:0:
138,68,146772,1,0,0:0:0:0:
135,67,146845,1,8,0:0:0:0:
134,69,146919,1,8,0:0:0:0:
138,68,146992,1,0,0:0:0:0:
135,67,147066,1,0,0:0:0:0:
134,69,147139,1,8,0:0:0:0:
138,68,147213,1,8,0:0:0:0:
135,67,147286,1,0,0:0:0:0:
134,69,147360,1,0,0:0:0:0:
144,73,147433,1,8,0:0:0:0:
141,76,147507,1,8,0:0:0:0:
138,76,147580,1,8,0:0:0:0:
138,76,147654,1,8,0:0:0:0:
141,76,147727,1,0,0:0:0:0:
138,76,147801,1,0,0:0:0:0:
138,76,147875,1,8,0:0:0:0:
141,76,147948,1,0,0:0:0:0:
123,70,148022,1,8,0:0:0:0:
134,69,148095,1,0,0:0:0:0:
134,68,148169,1,0,0:0:0:0:
134,67,148242,1,0,0:0:0:0:
134,69,148316,1,8,0:0:0:0:
134,68,148389,1,8,0:0:0:0:
123,70,148463,1,8,0:0:0:0:
134,69,148536,1,8,0:0:0:0:
147,117,148610,1,0,0:0:0:0:
98,73,148904,1,8,0:0:0:0:
107,75,149051,1,8,0:0:0:0:
106,74,149125,1,8,0:0:0:0:
107,75,149198,1,0,0:0:0:0:
106,74,149345,1,0,0:0:0:0:
81,87,149639,1,0,0:0:0:0:
93,84,149786,1,8,0:0:0:0:
109,86,149933,1,0,0:0:0:0:
109,86,150227,1,0,0:0:0:0:
109,86,150301,1,0,0:0:0:0:
97,93,150375,1,8,0:0:0:0:
98,93,150522,1,8,0:0:0:0:
98,93,150669,1,0,0:0:0:0:
100,110,150816,1,8,0:0:0:0:
81,313,150963,1,4,0:0:0:0:
68,80,151257,1,0,0:0:0:0:
68,80,151330,1,0,0:0:0:0:
68,80,151404,1,0,0:0:0:0:
70,87,151477,1,0,0:0:0:0:
70,87,151551,1,8,0:0:0:0:
66,91,151698,1,0,0:0:0:0:
60,94,151992,1,8,0:0:0:0:
60,94,152139,1,0,0:0:0:0:
60,94,152286,1,0,0:0:0:0:
74,86,152433,1,8,0:0:0:0:
74,86,152580,1,0,0:0:0:0:
74,86,152654,1,0,0:0:0:0:
74,86,152727,1,8,0:0:0:0:
80,95,152875,1,0,0:0:0:0:
87,92,153022,1,8,0:0:0:0:
89,328,153316,1,4,0:0:0:0:
78,89,153610,1,0,0:0:0:0:
78,89,153683,1,0,0:0:0:0:
78,89,153757,1,0,0:0:0:0:
78,89,153830,1,0,0:0:0:0:
78,89,153904,1,8,0:0:0:0:
78,89,154051,1,0,0:0:0:0:
110,86,154345,1,0,0:0:0:0:
118,87,154492,1,8,0:0:0:0:
118,87,154639,1,0,0:0:0:0:
118,87,154786,1,0,0:0:0:0:
106,95,154933,1,0,0:0:0:0:
106,95,155007,1,0,0:0:0:0:
106,95,155080,1,8,0:0:0:0:
118,87,155227,1,0,0:0:0:0:
85,70,155375,1,0,0:0:0:0:
100,76,155522,1,8,0:0:0:0:
134,315,155669,1,4,0:0:0:0:
78,65,155816,1,0,0:0:0:0:
87,61,155963,1,8,0:0:0:0:
93,59,156110,1,0,0:0:0:0:
91,56,156183,1,0,0:0:0:0:
87,61,156257,1,8,0:0:0:0:
88,61,156404,1,0,0:0:0:0:
118,51,156698,1,0,0:0:0:0:
108,56,156845,1,8,0:0:0:0:
108,56,156992,1,0,0:0:0:0:
114,52,157139,1,8,0:0:0:0:
114,52,157286,1,0,0:0:0:0:
110,46,157360,1,0,0:0:0:0:
111,46,157433,1,8,0:0:0:0:
110,46,157580,1,8,0:0:0:0:
114,50,157727,1,0,0:0:0:0:
114,50,157875,1,0,0:0:0:0:
101,303,158022,1,12,0:0:0:0:
106,92,158316,1,8,0:0:0:0:
107,83,158610,1,0,0:0:0:0:
111,88,158904,1,8,0:0:0:0:
101,93,159198,1,0,0:0:0:0:
101,93,159492,1,8,0:0:0:0:
101,93,159786,1,0,0:0:0:0:
101,93,159933,1,0,0:0:0:0:
112,98,160080,1,8,0:0:0:0:
94,332,160375,1,4,0:0:0:0:
82,99,160669,1,8,0:0:0:0:
99,105,160963,1,0,0:0:0:0:
101,103,161257,1,8,0:0:0:0:
101,103,161551,1,0,0:0:0:0:
101,103,161845,1,8,0:0:0:0:
99,105,162139,1,0,0:0:0:0:
101,104,162433,1,8,0:0:0:0:
122,317,162727,1,4,0:0:0:0:
99,105,163022,1,8,0:0:0:0:
92,113,163316,1,0,0:0:0:0:
92,113,163463,1,0,0:0:0:0:
90,126,163610,1,8,0:0:0:0:
94,116,163904,1,0,0:0:0:0:
94,116,164198,1,8,0:0:0:0:
94,116,164492,1,0,0:0:0:0:
94,116,164639,1,0,0:0:0:0:
94,116,164786,1,8,0:0:0:0:
80,315,165080,1,12,0:0:0:0:
78,104,165375,1,8,0:0:0:0:
90,99,165522,1,0,0:0:0:0:
90,99,165669,1,0,0:0:0:0:
94,88,165816,1,0,0:0:0:0:
98,95,165889,1,0,0:0:0:0:
99,96,165963,1,8,0:0:0:0:
98,95,166110,1,0,0:0:0:0:
98,95,166257,1,0,0:0:0:0:
98,95,166404,1,0,0:0:0:0:
98,95,166551,1,8,0:0:0:0:
99,100,166698,1,0,0:0:0:0:
92,104,166845,1,0,0:0:0:0:
92,104,166992,1,0,0:0:0:0:
98,103,167139,1,8,0:0:0:0:
93,87,167286,1,0,0:0:0:0:
121,301,167433,1,12,0:0:0:0:
101,82,167580,1,0,0:0:0:0:
107,82,167654,1,0,0:0:0:0:
110,81,167727,1,8,0:0:0:0:
112,80,167801,1,0,0:0:0:0:
107,82,167875,1,0,0:0:0:0:
110,81,167948,1,0,0:0:0:0:
92,95,168022,1,8,0:0:0:0:
101,92,168095,1,0,0:0:0:0:
102,91,168169,1,0,0:0:0:0:
104,91,168242,1,0,0:0:0:0:
101,92,168316,1,8,0:0:0:0:
108,90,168389,1,8,0:0:0:0:
110,89,168463,1,8,0:0:0:0:
111,89,168536,1,8,0:0:0:0:
108,90,168610,1,0,0:0:0:0:
110,89,168683,1,0,0:0:0:0:
120,79,168757,1,8,0:0:0:0:
120,79,168830,1,8,0:0:0:0:
120,79,168904,1,0,0:0:0:0:
120,79,168977,1,0,0:0:0:0:
120,79,169051,1,8,0:0:0:0:
120,79,169125,1,0,0:0:0:0:
120,79,169198,1,8,0:0:0:0:
122,86,169345,1,0,0:0:0:0:
131,80,169492,1,0,0:0:0:0:
131,80,169639,1,0,0:0:0:0:
117,293,169786,1,12,0:0:0:0:
107,138,170080,1,0,0:0:0:0:
113,130,170375,1,0,0:0:0:0:
113,130,170669,1,0,0:0:0:0:
139,322,170963,1,12,0:0:0:0:
111,115,171257,1,0,0:0:0:0:
111,115,171404,1,0,0:0:0:0:
111,115,171551,1,8,0:0:0:0:
111,115,171698,1,8,0:0:0:0:
111,115,171845,1,0,0:0:0:0:
112,121,171992,1,0,0:0:0:0:
124,320,172139,1,12,0:0:0:0:
113,81,172727,1,8,0:0:0:0:
113,81,172764,1,8,0:0:0:0:
107,100,173316,1,0,0:0:0:0:
120,97,173610,1,0,0:0:0:0:
122,96,173904,1,8,0:0:0:0:
122,96,173941,1,8,0:0:0:0:
117,70,174492,1,0,0:0:0:0:
116,66,175080,1,8,0:0:0:0:
116,66,175117,1,8,0:0:0:0:
115,62,175669,1,0,0:0:0:0:
129,50,175963,1,0,0:0:0:0:
129,49,176257,1,8,0:0:0:0:
129,49,176294,1,8,0:0:0:0:
117,70,176845,1,0,0:0:0:0:
116,66,177433,1,8,0:0:0:0:
116,66,177470,1,8,0:0:0:0:
115,62,178022,1,0,0:0:0:0:
129,50,178316,1,0,0:0:0:0:
129,49,178610,1,8,0:0:0:0:
129,49,178647,1,8,0:0:0:0:
117,70,179198,1,0,0:0:0:0:
116,66,179786,1,8,0:0:0:0:
116,66,179823,1,8,0:0:0:0:
115,62,180375,1,0,0:0:0:0:
129,50,180669,1,0,0:0:0:0:
129,49,180963,1,8,0:0:0:0:
129,49,181000,1,8,0:0:0:0:
131,352,181551,1,4,0:0:0:0:
116,66,182139,1,8,0:0:0:0:
116,66,182176,1,8,0:0:0:0:
115,62,182727,1,0,0:0:0:0:
129,50,183022,1,0,0:0:0:0:
129,49,183316,1,8,0:0:0:0:
129,49,183352,1,8,0:0:0:0:
117,70,183904,1,0,0:0:0:0:
116,66,184492,1,8,0:0:0:0:
116,66,184529,1,8,0:0:0:0:
115,62,185080,1,0,0:0:0:0:
129,50,185375,1,0,0:0:0:0:
129,49,185669,1,8,0:0:0:0:
129,49,185705,1,8,0:0:0:0:
117,70,186257,1,0,0:0:0:0:
116,66,186845,1,8,0:0:0:0:
116,66,186882,1,8,0:0:0:0:
101,50,187139,1,0,0:0:0:0:
115,62,187433,1,0,0:0:0:0:
129,50,187727,1,0,0:0:0:0:
129,49,188022,1,8,0:0:0:0:
129,49,188058,1,8,0:0:0:0:
101,49,188316,1,0,0:0:0:0:
126,61,188610,1,0,0:0:0:0:
112,82,188904,1,0,0:0:0:0:
116,66,189198,1,8,0:0:0:0:
116,66,189235,1,8,0:0:0:0:
120,69,189492,1,0,0:0:0:0:
115,62,189786,1,0,0:0:0:0:
129,50,190080,1,0,0:0:0:0:
129,49,190375,1,8,0:0:0:0:
129,49,190411,1,8,0:0:0:0:
117,70,190963,1,0,0:0:0:0:
116,66,191551,1,8,0:0:0:0:
116,66,191588,1,8,0:0:0:0:
148,74,192139,1,0,0:0:0:0:
129,50,192433,1,0,0:0:0:0:
129,49,192727,1,8,0:0:0:0:
129,49,192764,1,8,0:0:0:0:
117,70,193316,1,0,0:0:0:0:
116,66,193904,1,8,0:0:0:0:
116,66,193941,1,8,0:0:0:0:
131,66,194492,1,0,0:0:0:0:
129,50,194786,1,0,0:0:0:0:
129,49,195080,1,8,0:0:0:0:
129,49,195117,1,8,0:0:0:0:
117,70,195669,1,0,0:0:0:0:
116,66,196257,1,8,0:0:0:0:
116,66,196294,1,8,0:0:0:0:
101,59,196551,1,0,0:0:0:0:
106,59,196698,1,0,0:0:0:0:
115,62,196845,1,0,0:0:0:0:
129,50,197139,1,0,0:0:0:0:
129,49,197433,1,8,0:0:0:0:
129,49,197470,1,8,0:0:0:0:
117,70,198022,1,0,0:0:0:0:
116,66,198610,1,8,0:0:0:0:
116,66,198647,1,8,0:0:0:0:
115,62,199198,1,0,0:0:0:0:
129,50,199492,1,0,0:0:0:0:
170,72,199639,1,0,0:0:0:0:
129,49,199786,1,8,0:0:0:0:
129,49,199823,1,8,0:0:0:0:
49,147,200375,1,4,0:0:0:0:
57,153,200816,1,0,0:0:0:0:
57,153,200889,1,0,0:0:0:0:
57,153,200963,1,8,0:0:0:0:
54,148,201257,1,0,0:0:0:0:
82,147,201404,1,8,0:0:0:0:
82,147,201551,1,0,0:0:0:0:
73,150,201698,1,0,0:0:0:0:
74,151,201992,1,0,0:0:0:0:
74,151,202066,1,0,0:0:0:0:
74,151,202139,1,8,0:0:0:0:
69,142,202433,1,8,0:0:0:0:
69,142,202580,1,8,0:0:0:0:
72,292,202727,1,4,0:0:0:0:
74,122,203169,1,8,0:0:0:0:
74,122,203242,1,8,0:0:0:0:
74,122,203316,1,0,0:0:0:0:
75,121,203610,1,0,0:0:0:0:
79,109,203757,1,8,0:0:0:0:
79,109,203904,1,0,0:0:0:0:
79,109,204051,1,0,0:0:0:0:
76,115,204345,1,0,0:0:0:0:
76,115,204419,1,0,0:0:0:0:
76,115,204492,1,8,0:0:0:0:
90,112,204566,1,0,0:0:0:0:
87,113,204639,1,0,0:0:0:0:
88,113,204713,1,0,0:0:0:0:
90,113,204786,1,8,0:0:0:0:
107,312,205080,1,4,0:0:0:0:
87,113,205522,1,0,0:0:0:0:
101,111,205595,1,0,0:0:0:0:
104,111,205669,1,8,0:0:0:0:
96,106,205963,1,0,0:0:0:0:
108,82,206110,1,8,0:0:0:0:
108,82,206257,1,0,0:0:0:0:
108,82,206404,1,0,0:0:0:0:
109,75,206698,1,8,0:0:0:0:
109,75,206772,1,8,0:0:0:0:
109,75,206845,1,0,0:0:0:0:
113,77,207139,1,8,0:0:0:0:
118,78,207286,1,8,0:0:0:0:
127,273,207433,1,4,0:0:0:0:
70,73,207875,1,0,0:0:0:0:
70,73,207948,1,0,0:0:0:0:
70,73,208022,1,8,0:0:0:0:
70,73,208316,1,0,0:0:0:0:
70,73,208463,1,8,0:0:0:0:
99,72,208610,1,0,0:0:0:0:
99,72,208757,1,0,0:0:0:0:
101,64,209051,1,0,0:0:0:0:
101,64,209125,1,0,0:0:0:0:
101,64,209198,1,8,0:0:0:0:
101,64,209272,1,8,0:0:0:0:
101,64,209345,1,0,0:0:0:0:
101,64,209419,1,0,0:0:0:0:
101,64,209492,1,8,0:0:0:0:
80,309,209786,1,4,0:0:0:0:
62,73,210227,1,0,0:0:0:0:
68,78,210301,1,0,0:0:0:0:
68,78,210375,1,8,0:0:0:0:
54,64,210669,1,0,0:0:0:0:
69,67,210816,1,8,0:0:0:0:
69,67,210963,1,0,0:0:0:0:
69,67,211110,1,0,0:0:0:0:
65,66,211404,1,0,0:0:0:0:
65,66,211477,1,0,0:0:0:0:
65,66,211551,1,8,0:0:0:0:
67,66,211845,1,8,0:0:0:0:
67,66,211992,1,8,0:0:0:0:
92,266,212139,1,4,0:0:0:0:
74,89,212580,1,0,0:0:0:0:
74,89,212654,1,0,0:0:0:0:
79,88,212727,1,8,0:0:0:0:
76,91,213022,1,0,0:0:0:0:
76,91,213169,1,8,0:0:0:0:
76,91,213316,1,0,0:0:0:0:
76,91,213463,1,0,0:0:0:0:
77,93,213757,1,0,0:0:0:0:
77,93,213830,1,0,0:0:0:0:
77,93,213904,1,8,0:0:0:0:
70,91,213977,1,8,0:0:0:0:
70,93,214051,1,8,0:0:0:0:
70,92,214125,1,0,0:0:0:0:
84,93,214198,1,8,0:0:0:0:
85,300,214492,1,4,0:0:0:0:
63,96,214933,1,0,0:0:0:0:
63,96,215007,1,0,0:0:0:0:
63,96,215080,1,8,0:0:0:0:
58,100,215375,1,0,0:0:0:0:
65,101,215522,1,8,0:0:0:0:
65,101,215669,1,0,0:0:0:0:
65,101,215816,1,0,0:0:0:0:
58,96,216110,1,0,0:0:0:0:
58,96,216183,1,0,0:0:0:0:
58,96,216257,1,8,0:0:0:0:
58,96,216551,1,0,0:0:0:0:
68,90,216698,1,0,0:0:0:0:
105,303,216845,1,12,0:0:0:0:
61,93,217286,1,0,0:0:0:0:
61,93,217360,1,0,0:0:0:0:
61,93,217433,1,8,0:0:0:0:
62,98,217727,1,0,0:0:0:0:
62,98,217875,1,8,0:0:0:0:
62,98,218022,1,0,0:0:0:0:
69,110,218169,1,0,0:0:0:0:
110,126,218463,1,0,0:0:0:0:
110,126,218536,1,0,0:0:0:0:
110,126,218610,1,8,0:0:0:0:
110,126,218683,1,8,0:0:0:0:
110,126,218757,1,0,0:0:0:0:
110,126,218830,1,0,0:0:0:0:
110,126,218904,1,8,0:0:0:0:
71,108,219198,1,8,0:0:0:0:
71,108,219272,1,8,0:0:0:0:
71,108,219345,1,0,0:0:0:0:
71,108,219419,1,0,0:0:0:0:
71,108,219492,1,8,0:0:0:0:
71,108,219566,1,0,0:0:0:0:
71,108,219639,1,0,0:0:0:0:
71,108,219713,1,0,0:0:0:0:
71,108,219786,1,8,0:0:0:0:
71,108,219860,1,8,0:0:0:0:
71,108,219933,1,0,0:0:0:0:
71,108,220007,1,0,0:0:0:0:
72,102,220080,1,8,0:0:0:0:
72,102,220154,1,0,0:0:0:0:
72,101,220227,1,0,0:0:0:0:
72,102,220301,1,0,0:0:0:0:
72,102,220375,1,8,0:0:0:0:
81,102,220448,1,8,0:0:0:0:
83,101,220522,1,8,0:0:0:0:
85,100,220595,1,8,0:0:0:0:
86,99,220669,1,0,0:0:0:0:
83,101,220742,1,0,0:0:0:0:
85,100,220816,1,8,0:0:0:0:
86,99,220889,1,0,0:0:0:0:
83,101,220963,1,8,0:0:0:0:
85,100,221036,1,8,0:0:0:0:
86,99,221110,1,8,0:0:0:0:
83,101,221183,1,0,0:0:0:0:
85,100,221257,1,8,0:0:0:0:
86,99,221330,1,8,0:0:0:0:
89,98,221404,1,8,0:0:0:0:
85,100,221477,1,8,0:0:0:0:
86,99,221551,1,8,0:0:0:0:
89,98,221625,1,8,0:0:0:0:
84,108,221698,1,0,0:0:0:0:
92,103,221772,1,0,0:0:0:0:
80,102,221845,1,8,0:0:0:0:
81,102,221919,1,8,0:0:0:0:
81,101,221992,1,0,0:0:0:0:
80,102,222066,1,0,0:0:0:0:
81,102,222139,1,8,0:0:0:0:
81,101,222213,1,8,0:0:0:0:
80,102,222286,1,0,0:0:0:0:
81,102,222360,1,0,0:0:0:0:
81,101,222433,1,8,0:0:0:0:
80,102,222507,1,8,0:0:0:0:
81,102,222580,1,0,0:0:0:0:
81,101,222654,1,0,0:0:0:0:
84,98,222727,1,8,0:0:0:0:
81,102,222801,1,0,0:0:0:0:
81,101,222875,1,8,0:0:0:0:
84,98,222948,1,0,0:0:0:0:
88,107,223022,1,0,0:0:0:0:
91,108,223095,1,0,0:0:0:0:
93,108,223169,1,8,0:0:0:0:
93,108,223242,1,0,0:0:0:0:
91,108,223316,1,8,0:0:0:0:
93,108,223389,1,0,0:0:0:0:
93,108,223463,1,0,0:0:0:0:
91,108,223536,1,0,0:0:0:0:
86,105,223610,1,8,0:0:0:0:
61,115,223683,1,8,0:0:0:0:
91,108,223757,1,0,0:0:0:0:
92,103,223830,1,0,0:0:0:0:
93,108,223904,1,8,0:0:0:0:
86,99,224051,1,0,0:0:0:0:
88,100,224125,1,0,0:0:0:0:
85,107,224198,1,8,0:0:0:0:
86,99,224272,1,0,0:0:0:0:
88,100,224345,1,0,0:0:0:0:
85,107,224419,1,0,0:0:0:0:
86,99,224492,1,8,0:0:0:0:
90,112,224639,1,0,0:0:0:0:
93,112,224713,1,0,0:0:0:0:
90,112,224786,1,8,0:0:0:0:
90,112,224860,1,0,0:0:0:0:
85,113,224933,1,0,0:0:0:0:
90,112,225007,1,8,0:0:0:0:
90,112,225080,1,8,0:0:0:0:
90,112,225227,1,0,0:0:0:0:
90,112,225301,1,0,0:0:0:0:
90,112,225375,1,8,0:0:0:0:
89,104,225448,1,8,0:0:0:0:
89,104,225522,1,0,0:0:0:0:
90,104,225595,1,0,0:0:0:0:
89,104,225669,1,8,0:0:0:0:
89,104,225742,1,0,0:0:0:0:
90,104,225816,1,0,0:0:0:0:
89,104,225889,1,0,0:0:0:0:
96,104,225963,1,8,0:0:0:0:
96,104,226036,1,0,0:0:0:0:
89,104,226110,1,8,0:0:0:0:
96,104,226183,1,8,0:0:0:0:
96,104,226257,1,8,0:0:0:0:
95,104,226330,1,0,0:0:0:0:
96,104,226404,1,0,0:0:0:0:
96,104,226477,1,0,0:0:0:0:
95,104,226551,1,8,0:0:0:0:
96,104,226625,1,0,0:0:0:0:
96,104,226698,1,0,0:0:0:0:
95,104,226772,1,0,0:0:0:0:
102,102,226845,1,8,0:0:0:0:
96,104,226919,1,0,0:0:0:0:
101,105,226992,1,0,0:0:0:0:
102,102,227066,1,0,0:0:0:0:
96,104,227139,1,8,0:0:0:0:
101,105,227213,1,0,0:0:0:0:
101,108,227286,1,0,0:0:0:0:
106,95,227360,1,0,0:0:0:0:
101,105,227433,1,0,0:0:0:0:
106,83,227580,1,8,0:0:0:0:
106,83,227654,1,8,0:0:0:0:
106,83,227727,1,8,0:0:0:0:
110,90,227801,1,8,0:0:0:0:
111,91,227875,1,0,0:0:0:0:
112,91,227948,1,0,0:0:0:0:
110,90,228022,1,8,0:0:0:0:
111,91,228095,1,0,0:0:0:0:
112,91,228169,1,0,0:0:0:0:
110,90,228242,1,0,0:0:0:0:
111,91,228316,1,8,0:0:0:0:
113,280,228610,1,4,0:0:0:0:
106,75,228904,1,8,0:0:0:0:
106,75,229051,1,8,0:0:0:0:
106,75,229125,1,8,0:0:0:0:
116,81,229198,1,0,0:0:0:0:
116,81,229345,1,0,0:0:0:0:
116,81,229492,1,8,0:0:0:0:
113,54,229786,1,0,0:0:0:0:
113,54,229933,1,0,0:0:0:0:
110,59,230007,1,0,0:0:0:0:
113,54,230080,1,8,0:0:0:0:
113,54,230227,1,0,0:0:0:0:
97,52,230375,1,8,0:0:0:0:
112,55,230522,1,0,0:0:0:0:
107,58,230595,1,0,0:0:0:0:
112,55,230669,1,8,0:0:0:0:
106,63,230816,1,0,0:0:0:0:
109,286,230963,1,12,0:0:0:0:
88,86,231257,1,8,0:0:0:0:
72,94,231404,1,8,0:0:0:0:
77,93,231477,1,8,0:0:0:0:
77,93,231551,1,0,0:0:0:0:
85,100,231698,1,0,0:0:0:0:
85,100,231845,1,8,0:0:0:0:
77,93,232139,1,8,0:0:0:0:
77,93,232286,1,0,0:0:0:0:
63,90,232360,1,0,0:0:0:0:
77,93,232433,1,8,0:0:0:0:
74,90,232580,1,0,0:0:0:0:
74,90,232727,1,8,0:0:0:0:
75,97,232801,1,8,0:0:0:0:
67,97,232875,1,0,0:0:0:0:
75,98,232948,1,0,0:0:0:0:
94,97,233022,1,8,0:0:0:0:
75,98,233169,1,0,0:0:0:0:
114,283,233316,1,4,0:0:0:0:
78,111,233610,1,8,0:0:0:0:
97,103,233757,1,8,0:0:0:0:
90,108,233830,1,8,0:0:0:0:
75,109,233904,1,0,0:0:0:0:
75,109,234051,1,0,0:0:0:0:
75,109,234198,1,8,0:0:0:0:
88,96,234345,1,0,0:0:0:0:
63,91,234492,1,8,0:0:0:0:
53,90,234566,1,8,0:0:0:0:
55,90,234639,1,0,0:0:0:0:
54,90,234713,1,0,0:0:0:0:
63,91,234786,1,8,0:0:0:0:
63,91,234933,1,0,0:0:0:0:
59,80,235080,1,8,0:0:0:0:
56,102,235227,1,8,0:0:0:0:
60,94,235301,1,8,0:0:0:0:
48,98,235375,1,0,0:0:0:0:
48,91,235522,1,0,0:0:0:0:
105,315,235669,1,12,0:0:0:0:
90,87,235963,1,8,0:0:0:0:
91,97,236257,1,0,0:0:0:0:
91,97,236404,1,0,0:0:0:0:
87,92,236477,1,0,0:0:0:0:
91,97,236551,1,8,0:0:0:0:
97,93,236698,1,8,0:0:0:0:
97,93,236845,1,0,0:0:0:0:
91,88,236992,1,0,0:0:0:0:
91,88,237066,1,0,0:0:0:0:
91,88,237139,1,8,0:0:0:0:
90,96,237286,1,8,0:0:0:0:
100,77,237580,1,0,0:0:0:0:
97,90,237727,1,8,0:0:0:0:
103,88,237875,1,8,0:0:0:0:
113,307,238022,1,4,0:0:0:0:
101,104,238316,1,8,0:0:0:0:
96,99,238463,1,0,0:0:0:0:
96,99,238536,1,0,0:0:0:0:
96,99,238610,1,8,0:0:0:0:
96,104,238757,1,0,0:0:0:0:
96,104,238904,1,8,0:0:0:0:
101,90,239051,1,8,0:0:0:0:
101,90,239198,1,0,0:0:0:0:
101,90,239345,1,0,0:0:0:0:
98,104,239492,1,8,0:0:0:0:
98,104,239639,1,8,0:0:0:0:
98,104,239713,1,0,0:0:0:0:
98,104,239786,1,0,0:0:0:0:
94,84,239933,1,0,0:0:0:0:
94,84,240080,1,8,0:0:0:0:
117,260,240375,1,4,0:0:0:0:
104,95,240669,1,8,0:0:0:0:
96,82,240816,1,0,0:0:0:0:
101,77,240889,1,0,0:0:0:0:
100,97,240963,1,0,0:0:0:0:
122,69,241110,1,0,0:0:0:0:
104,92,241257,1,8,0:0:0:0:
122,69,241404,1,8,0:0:0:0:
122,69,241551,1,0,0:0:0:0:
128,64,241698,1,0,0:0:0:0:
97,83,241845,1,8,0:0:0:0:
85,83,241992,1,0,0:0:0:0:
100,102,242066,1,0,0:0:0:0:
101,69,242139,1,0,0:0:0:0:
108,60,242286,1,0,0:0:0:0:
106,61,242433,1,8,0:0:0:0:
125,291,242727,1,12,0:0:0:0:
69,73,243022,1,8,0:0:0:0:
69,73,243169,1,0,0:0:0:0:
69,73,243242,1,0,0:0:0:0:
69,73,243316,1,8,0:0:0:0:
69,73,243463,1,0,0:0:0:0:
69,73,243610,1,8,0:0:0:0:
69,73,243757,1,0,0:0:0:0:
69,73,243904,1,0,0:0:0:0:
64,59,244051,1,0,0:0:0:0:
79,91,244198,1,8,0:0:0:0:
79,91,244345,1,0,0:0:0:0:
79,91,244419,1,0,0:0:0:0:
79,91,244492,1,0,0:0:0:0:
89,116,244639,1,8,0:0:0:0:
103,78,244786,1,8,0:0:0:0:
120,302,244933,1,0,0:0:0:0:
148,297,245080,1,12,0:0:0:0:
92,123,245227,1,0,0:0:0:0:
92,123,245375,1,8,0:0:0:0:
92,123,245522,1,0,0:0:0:0:
92,123,245595,1,0,0:0:0:0:
92,123,245669,1,8,0:0:0:0:
92,123,245816,1,0,0:0:0:0:
92,123,245963,1,8,0:0:0:0:
92,123,246110,1,0,0:0:0:0:
81,104,246257,1,8,0:0:0:0:
91,104,246404,1,8,0:0:0:0:
91,105,246477,1,8,0:0:0:0:
91,104,246551,1,8,0:0:0:0:
91,105,246698,1,8,0:0:0:0:
86,97,246845,1,8,0:0:0:0:
91,105,246919,1,8,0:0:0:0:
86,97,246992,1,8,0:0:0:0:
86,97,247066,1,8,0:0:0:0:
91,105,247139,1,8,0:0:0:0:
86,97,247213,1,8,0:0:0:0:
86,97,247286,1,8,0:0:0:0:
90,98,247360,1,8,0:0:0:0:
91,98,247433,1,0,0:0:0:0:
108,104,247580,1,8,0:0:0:0:
100,97,247654,1,0,0:0:0:0:
100,98,247727,1,0,0:0:0:0:
100,97,247875,1,8,0:0:0:0:
126,92,247948,1,0,0:0:0:0:
128,100,248022,1,0,0:0:0:0:
129,102,248169,1,8,0:0:0:0:
128,100,248242,1,0,0:0:0:0:
125,95,248316,1,0,0:0:0:0:
133,94,248389,1,0,0:0:0:0:
135,93,248463,1,8,0:0:0:0:
133,94,248610,1,0,0:0:0:0:
135,93,248683,1,0,0:0:0:0:
126,90,248757,1,8,0:0:0:0:
126,90,248830,1,0,0:0:0:0:
126,91,248904,1,0,0:0:0:0:
126,90,249051,1,8,0:0:0:0:
120,91,249198,1,0,0:0:0:0:
126,90,249272,1,0,0:0:0:0:
120,91,249345,1,8,0:0:0:0:
126,90,249492,1,0,0:0:0:0:
120,91,249566,1,0,0:0:0:0:
126,90,249639,1,8,0:0:0:0:
126,90,249713,1,0,0:0:0:0:
120,91,249786,1,8,0:0:0:0:
118,93,249933,1,0,0:0:0:0:
118,93,250080,1,0,0:0:0:0:
118,93,250154,1,8,0:0:0:0:
118,93,250227,1,0,0:0:0:0:
118,93,250375,1,0,0:0:0:0:
118,93,250448,1,0,0:0:0:0:
118,93,250522,1,8,0:0:0:0:
122,72,250595,1,0,0:0:0:0:
113,69,250669,1,0,0:0:0:0:
122,77,250742,1,0,0:0:0:0:
122,78,250816,1,8,0:0:0:0:
108,82,250963,1,0,0:0:0:0:
108,82,251110,1,8,0:0:0:0:
108,82,251257,1,8,0:0:0:0:
108,82,251330,1,0,0:0:0:0:
108,82,251404,1,8,0:0:0:0:
108,82,251477,1,8,0:0:0:0:
108,82,251551,1,0,0:0:0:0:
108,82,251625,1,0,0:0:0:0:
108,82,251698,1,8,0:0:0:0:
108,82,251845,1,0,0:0:0:0:
108,82,251919,1,0,0:0:0:0:
108,82,251992,1,8,0:0:0:0:
95,278,252139,1,4,0:0:0:0:
92,109,252286,1,8,0:0:0:0:
87,110,252360,1,0,0:0:0:0:
99,121,252433,1,0,0:0:0:0:
118,115,252580,1,8,0:0:0:0:
109,98,252727,1,0,0:0:0:0:
109,98,252875,1,8,0:0:0:0:
109,97,253022,1,0,0:0:0:0:
114,69,253095,1,0,0:0:0:0:
115,69,253169,1,8,0:0:0:0:
114,69,253316,1,0,0:0:0:0:
121,76,253463,1,8,0:0:0:0:
123,76,253536,1,0,0:0:0:0:
127,77,253610,1,0,0:0:0:0:
114,69,253683,1,8,0:0:0:0:
114,69,253757,1,0,0:0:0:0:
127,77,253904,1,8,0:0:0:0:
127,77,253977,1,8,0:0:0:0:
127,77,254051,1,0,0:0:0:0:
127,77,254125,1,8,0:0:0:0:
127,77,254198,1,0,0:0:0:0:
97,64,254272,1,0,0:0:0:0:
107,68,254345,1,0,0:0:0:0:
109,69,254419,1,8,0:0:0:0:
109,69,254492,1,0,0:0:0:0:
109,69,254639,1,8,0:0:0:0:
109,69,254786,1,0,0:0:0:0:
116,73,254860,1,8,0:0:0:0:
115,72,254933,1,8,0:0:0:0:
115,72,255080,1,0,0:0:0:0:
115,72,255154,1,0,0:0:0:0:
115,72,255227,1,8,0:0:0:0:
98,66,255375,1,8,0:0:0:0:
98,66,255448,1,8,0:0:0:0:
98,66,255522,1,0,0:0:0:0:
115,65,255669,1,8,0:0:0:0:
119,64,255742,1,8,0:0:0:0:
115,65,255816,1,0,0:0:0:0:
115,65,255889,1,0,0:0:0:0:
119,64,255963,1,8,0:0:0:0:
115,65,256036,1,0,0:0:0:0:
115,65,256110,1,8,0:0:0:0:
119,64,256183,1,8,0:0:0:0:
115,65,256257,1,0,0:0:0:0:
115,65,256330,1,0,0:0:0:0:
119,64,256404,1,8,0:0:0:0:
122,57,256477,1,0,0:0:0:0:
122,57,256551,1,8,0:0:0:0:
122,57,256625,1,8,0:0:0:0:
122,57,256698,1,8,0:0:0:0:
122,57,256772,1,8,0:0:0:0:
124,61,256845,1,0,0:0:0:0:
123,64,256992,1,8,0:0:0:0:
124,61,257066,1,0,0:0:0:0:
123,64,257139,1,0,0:0:0:0:
122,67,257286,1,8,0:0:0:0:
129,66,257433,1,0,0:0:0:0:
131,66,257507,1,0,0:0:0:0:
129,66,257580,1,8,0:0:0:0:
90,73,257727,1,8,0:0:0:0:
90,73,257801,1,8,0:0:0:0:
90,73,257875,1,0,0:0:0:0:
90,73,257948,1,0,0:0:0:0:
90,73,258022,1,8,0:0:0:0:
118,61,258169,1,0,0:0:0:0:
112,64,258242,1,0,0:0:0:0:
112,64,258316,1,0,0:0:0:0:
112,64,258463,1,8,0:0:0:0:
112,64,258536,1,8,0:0:0:0:
112,64,258610,1,0,0:0:0:0:
101,65,258757,1,8,0:0:0:0:
101,65,258904,1,0,0:0:0:0:
101,65,258977,1,0,0:0:0:0:
106,72,259051,1,8,0:0:0:0:
104,69,259125,1,8,0:0:0:0:
104,69,259198,1,0,0:0:0:0:
101,65,259345,1,0,0:0:0:0:
101,65,259492,1,8,0:0:0:0:
101,65,259566,1,8,0:0:0:0:
101,65,259639,1,0,0:0:0:0:
101,65,259786,1,8,0:0:0:0:
101,65,259860,1,8,0:0:0:0:
101,65,259933,1,0,0:0:0:0:
101,65,260007,1,0,0:0:0:0:
101,65,260080,1,8,0:0:0:0:
101,65,260154,1,0,0:0:0:0:
106,57,260227,1,8,0:0:0:0:
97,67,260375,1,8,0:0:0:0:
96,67,260448,1,8,0:0:0:0:
97,67,260522,1,0,0:0:0:0:
97,67,260595,1,8,0:0:0:0:
96,67,260669,1,0,0:0:0:0:
97,67,260742,1,0,0:0:0:0:
97,67,260816,1,8,0:0:0:0:
98,61,260889,1,0,0:0:0:0:
98,60,260963,1,8,0:0:0:0:
109,60,261110,1,0,0:0:0:0:
109,60,261257,1,8,0:0:0:0:
109,60,261330,1,8,0:0:0:0:
109,60,261404,1,0,0:0:0:0:
115,61,261551,1,8,0:0:0:0:
109,70,261698,1,0,0:0:0:0:
111,70,261772,1,0,0:0:0:0:
109,70,261845,1,8,0:0:0:0:
111,70,261992,1,0,0:0:0:0:
123,71,262139,1,8,0:0:0:0:
123,71,262213,1,0,0:0:0:0:
123,71,262286,1,0,0:0:0:0:
123,71,262360,1,0,0:0:0:0:
123,71,262433,1,8,0:0:0:0:
123,71,262507,1,8,0:0:0:0:
123,71,262580,1,0,0:0:0:0:
128,72,262654,1,0,0:0:0:0:
128,72,262727,1,8,0:0:0:0:
128,72,262875,1,0,0:0:0:0:
128,72,262948,1,0,0:0:0:0:
128,72,263022,1,8,0:0:0:0:
128,72,263169,1,0,0:0:0:0:
128,72,263316,1,8,0:0:0:0:
128,72,263389,1,8,0:0:0:0:
128,72,263463,1,0,0:0:0:0:
128,72,263536,1,8,0:0:0:0:
128,72,263610,1,0,0:0:0:0:
128,72,263683,1,0,0:0:0:0:
128,72,263757,1,8,0:0:0:0:
123,46,263904,1,8,0:0:0:0:
128,48,264051,1,0,0:0:0:0:
129,48,264125,1,0,0:0:0:0:
128,48,264198,1,8,0:0:0:0:
129,48,264345,1,0,0:0:0:0:
128,48,264419,1,0,0:0:0:0:
129,48,264492,1,8,0:0:0:0:
128,48,264639,1,8,0:0:0:0:
129,48,264713,1,8,0:0:0:0:
128,48,264786,1,0,0:0:0:0:
128,48,264860,1,8,0:0:0:0:
129,48,264933,1,0,0:0:0:0:
128,48,265080,1,8,0:0:0:0:
129,48,265129,1,8,0:0:0:0:
128,48,265178,1,8,0:0:0:0:
128,48,265227,1,0,0:0:0:0:
128,48,265301,1,0,0:0:0:0:
129,48,265375,1,8,0:0:0:0:
128,48,265448,1,0,0:0:0:0:
128,48,265522,1,0,0:0:0:0:
122,50,265595,1,0,0:0:0:0:
128,48,265669,1,8,0:0:0:0:
119,65,265742,1,8,0:0:0:0:
123,51,265816,1,0,0:0:0:0:
123,51,265889,1,0,0:0:0:0:
123,51,265963,1,8,0:0:0:0:
123,51,266036,1,0,0:0:0:0:
123,51,266110,1,8,0:0:0:0:
123,51,266183,1,0,0:0:0:0:
123,51,266257,1,8,0:0:0:0:
103,50,266404,1,0,0:0:0:0:
106,50,266477,1,0,0:0:0:0:
103,50,266551,1,8,0:0:0:0:
103,50,266625,1,8,0:0:0:0:
106,50,266698,1,0,0:0:0:0:
103,50,266772,1,0,0:0:0:0:
103,50,266845,1,8,0:0:0:0:
108,56,266919,1,0,0:0:0:0:
103,50,266992,1,8,0:0:0:0:
103,50,267066,1,0,0:0:0:0:
103,50,267139,1,8,0:0:0:0:
103,50,267213,1,8,0:0:0:0:
103,50,267286,1,0,0:0:0:0:
98,59,267360,1,0,0:0:0:0:
98,60,267433,1,8,0:0:0:0:
116,59,267507,1,0,0:0:0:0:
95,58,267580,1,8,0:0:0:0:
103,50,267654,1,0,0:0:0:0:
103,50,267727,1,8,0:0:0:0:
103,50,267801,1,8,0:0:0:0:
103,50,267875,1,0,0:0:0:0:
103,50,267948,1,0,0:0:0:0:
103,50,268022,1,8,0:0:0:0:
103,50,268095,1,0,0:0:0:0:
94,64,268169,1,0,0:0:0:0:
102,57,268242,1,0,0:0:0:0:
93,59,268316,1,8,0:0:0:0:
103,50,268389,1,0,0:0:0:0:
103,50,268463,1,8,0:0:0:0:
82,62,268536,1,0,0:0:0:0:
103,50,268610,1,8,0:0:0:0:
91,56,268683,1,8,0:0:0:0:
90,56,268757,1,0,0:0:0:0:
90,56,268830,1,0,0:0:0:0:
98,63,268904,1,8,0:0:0:0:
103,50,268977,1,0,0:0:0:0:
103,50,269051,1,8,0:0:0:0:
103,50,269125,1,0,0:0:0:0:
103,50,269198,1,8,0:0:0:0:
90,57,269272,1,8,0:0:0:0:
103,50,269345,1,0,0:0:0:0:
92,67,269419,1,0,0:0:0:0:
92,67,269492,1,8,0:0:0:0:
103,50,269566,1,0,0:0:0:0:
103,50,269639,1,8,0:0:0:0:
103,50,269713,1,0,0:0:0:0:
103,50,269786,1,8,0:0:0:0:
93,66,269860,1,0,0:0:0:0:
108,48,269933,1,8,0:0:0:0:
108,48,270007,1,8,0:0:0:0:
108,48,270080,1,0,0:0:0:0:
108,48,270154,1,8,0:0:0:0:
108,48,270227,1,0,0:0:0:0:
108,48,270301,1,0,0:0:0:0:
108,48,270375,1,8,0:0:0:0:
108,48,270448,1,0,0:0:0:0:
108,48,270522,1,8,0:0:0:0:
101,53,270595,1,0,0:0:0:0:
101,52,270669,1,8,0:0:0:0:
117,39,270742,1,0,0:0:0:0:
101,53,270816,1,0,0:0:0:0:
101,52,270889,1,0,0:0:0:0:
101,52,270963,1,8,0:0:0:0:
101,52,271110,1,8,0:0:0:0:
101,52,271183,1,8,0:0:0:0:
101,52,271257,1,0,0:0:0:0:
101,52,271330,1,8,0:0:0:0:
101,52,271404,1,0,0:0:0:0:
101,52,271477,1,0,0:0:0:0:
101,52,271551,1,8,0:0:0:0:
101,52,271625,1,0,0:0:0:0:
97,61,271698,1,0,0:0:0:0:
97,60,271772,1,8,0:0:0:0:
97,58,271845,1,0,0:0:0:0:
97,61,271919,1,0,0:0:0:0:
97,60,271992,1,8,0:0:0:0:
97,58,272066,1,0,0:0:0:0:
97,61,272139,1,8,0:0:0:0:
97,60,272213,1,0,0:0:0:0:
104,58,272286,1,0,0:0:0:0:
104,58,272360,1,0,0:0:0:0:
104,58,272433,1,8,0:0:0:0:
104,58,272507,1,0,0:0:0:0:
104,58,272580,1,0,0:0:0:0:
104,58,272654,1,0,0:0:0:0:
104,58,272727,1,8,0:0:0:0:
104,58,272801,1,8,0:0:0:0:
104,58,272875,1,0,0:0:0:0:
104,58,272948,1,0,0:0:0:0:
104,58,273022,1,8,0:0:0:0:
104,58,273095,1,8,0:0:0:0:
104,58,273169,1,0,0:0:0:0:
104,58,273242,1,0,0:0:0:0:
104,58,273316,1,8,0:0:0:0:
104,58,273389,1,0,0:0:0:0:
96,61,273463,1,8,0:0:0:0:
96,61,273536,1,8,0:0:0:0:
96,59,273610,1,0,0:0:0:0:
96,61,273683,1,0,0:0:0:0:
96,61,273757,1,8,0:0:0:0:
96,59,273830,1,0,0:0:0:0:
95,55,273904,1,8,0:0:0:0:
96,61,273977,1,8,0:0:0:0:
96,59,274051,1,0,0:0:0:0:
95,55,274125,1,8,0:0:0:0:
98,54,274198,1,0,0:0:0:0:
96,59,274272,1,8,0:0:0:0:
95,55,274345,1,8,0:0:0:0:
98,54,274419,1,0,0:0:0:0:
99,53,274492,1,8,0:0:0:0:
95,55,274566,1,8,0:0:0:0:
98,54,274639,1,0,0:0:0:0:
99,53,274713,1,0,0:0:0:0:
103,55,274786,1,8,0:0:0:0:
98,54,274860,1,8,0:0:0:0:
99,53,274933,1,0,0:0:0:0:
103,55,275007,1,0,0:0:0:0:
103,55,275080,1,8,0:0:0:0:
103,55,275227,1,0,0:0:0:0:
101,57,275375,1,0,0:0:0:0:
101,57,275522,1,0,0:0:0:0:
108,271,275669,1,12,0:0:0:0:
68,87,276110,1,0,0:0:0:0:
75,85,276183,1,8,0:0:0:0:
77,85,276257,1,0,0:0:0:0:
53,88,276551,1,0,0:0:0:0:
59,85,276698,1,8,0:0:0:0:
104,74,276845,1,0,0:0:0:0:
114,79,276992,1,0,0:0:0:0:
97,88,277286,1,0,0:0:0:0:
97,88,277360,1,0,0:0:0:0:
97,88,277433,1,8,0:0:0:0:
92,92,277727,1,0,0:0:0:0:
92,92,277875,1,0,0:0:0:0:
113,287,278022,1,12,0:0:0:0:
90,91,278316,1,0,0:0:0:0:
90,91,278389,1,0,0:0:0:0:
90,91,278463,1,8,0:0:0:0:
122,81,278536,1,0,0:0:0:0:
122,89,278610,1,0,0:0:0:0:
114,84,278904,1,0,0:0:0:0:
114,84,279051,1,8,0:0:0:0:
114,84,279198,1,0,0:0:0:0:
114,84,279345,1,0,0:0:0:0:
112,86,279639,1,0,0:0:0:0:
112,86,279713,1,0,0:0:0:0:
112,86,279786,1,8,0:0:0:0:
117,85,279860,1,8,0:0:0:0:
117,85,279933,1,0,0:0:0:0:
117,85,280007,1,0,0:0:0:0:
117,85,280080,1,8,0:0:0:0:
122,298,280375,1,4,0:0:0:0:
80,72,280522,1,0,0:0:0:0:
85,73,280669,1,8,0:0:0:0:
82,84,280816,1,0,0:0:0:0:
85,85,280889,1,0,0:0:0:0:
82,84,280963,1,8,0:0:0:0:
85,98,281110,1,0,0:0:0:0:
85,98,281257,1,8,0:0:0:0:
83,88,281404,1,8,0:0:0:0:
82,88,281477,1,8,0:0:0:0:
83,88,281551,1,0,0:0:0:0:
83,88,281625,1,0,0:0:0:0:
82,88,281698,1,8,0:0:0:0:
83,88,281772,1,0,0:0:0:0:
83,88,281845,1,8,0:0:0:0:
83,88,281992,1,8,0:0:0:0:
83,88,282066,1,8,0:0:0:0:
87,82,282139,1,0,0:0:0:0:
83,88,282286,1,0,0:0:0:0:
83,88,282433,1,8,0:0:0:0:
83,88,282580,1,8,0:0:0:0:
101,274,282727,1,12,0:0:0:0:
55,58,282875,1,0,0:0:0:0:
55,58,282948,1,0,0:0:0:0:
59,53,283022,1,8,0:0:0:0:
59,50,283095,1,8,0:0:0:0:
59,50,283169,1,8,0:0:0:0:
59,53,283242,1,8,0:0:0:0:
59,50,283316,1,0,0:0:0:0:
58,80,283463,1,0,0:0:0:0:
63,75,283610,1,8,0:0:0:0:
63,75,283757,1,0,0:0:0:0:
118,293,283904,1,12,0:0:0:0:
48,95,284051,1,0,0:0:0:0:
33,96,284198,1,0,0:0:0:0:
33,96,284345,1,0,0:0:0:0:
55,288,284492,1,12,0:0:0:0:
33,96,284639,1,0,0:0:0:0:
33,96,284786,1,0,0:0:0:0:
36,90,284933,1,0,0:0:0:0:
86,282,285080,1,4,0:0:0:0:
85,119,285669,1,0,0:0:0:0:
88,105,286257,1,0,0:0:0:0:
89,105,286845,1,8,0:0:0:0:
108,327,287433,1,12,0:0:0:0:
55,114,287727,1,8,0:0:0:0:
58,106,288022,1,0,0:0:0:0:
58,106,288316,1,0,0:0:0:0:
61,95,288610,1,8,0:0:0:0:
71,95,288904,1,0,0:0:0:0:
72,94,289198,1,8,0:0:0:0:
104,153,289345,1,0,0:0:0:0:
74,94,289492,1,8,0:0:0:0:
117,123,289639,1,8,0:0:0:0:
71,296,289786,1,4,0:0:0:0:
256,192,289933,12,0,295080,0:0:0:0:
90,93,298022,5,8,0:0:0:0:
92,93,298610,1,8,0:0:0:0:
92,93,299198,1,0,0:0:0:0:
92,93,299786,1,0,0:0:0:0:
92,93,300375,1,8,0:0:0:0:
92,93,300963,1,0,0:0:0:0:
92,93,301551,1,0,0:0:0:0:
92,93,302139,1,0,0:0:0:0:
92,93,302433,1,0,0:0:0:0:
92,93,302727,1,8,0:0:0:0:
90,92,303316,1,0,0:0:0:0:
90,92,303610,1,8,0:0:0:0:
90,92,303904,1,8,0:0:0:0:
90,92,304198,1,8,0:0:0:0:
90,92,304492,1,0,0:0:0:0:
90,92,304786,1,0,0:0:0:0:
83,94,305080,1,8,0:0:0:0:
83,94,305375,1,0,0:0:0:0:
83,94,305669,1,0,0:0:0:0:
83,94,305963,1,8,0:0:0:0:
83,94,306257,1,0,0:0:0:0:
84,93,307433,1,0,0:0:0:0:
84,93,307727,1,0,0:0:0:0:
84,93,308022,1,0,0:0:0:0:
84,93,308316,1,8,0:0:0:0:
81,88,308610,1,8,0:0:0:0:
81,88,308904,1,8,0:0:0:0:
81,88,309198,1,0,0:0:0:0:
81,88,309492,1,0,0:0:0:0:
81,88,309786,1,0,0:0:0:0:
81,88,310080,1,0,0:0:0:0:
81,88,310375,1,8,0:0:0:0:
81,88,310669,1,8,0:0:0:0:
80,88,310963,1,8,0:0:0:0:
80,88,311257,1,0,0:0:0:0:
80,88,311551,1,0,0:0:0:0:
80,88,311845,1,0,0:0:0:0:
80,88,312139,1,8,0:0:0:0:
80,88,313022,1,0,0:0:0:0:
80,88,313169,1,0,0:0:0:0:
80,88,313316,1,8,0:0:0:0:
79,88,313610,1,0,0:0:0:0:
79,88,313904,1,8,0:0:0:0:
78,88,314198,1,8,0:0:0:0:
78,88,314492,1,8,0:0:0:0:
76,92,315669,1,8,0:0:0:0:
167,112,316845,1,0,0:0:0:0:
