osu file format v14

[General]
AudioFilename: audio.mp3
AudioLeadIn: 0
PreviewTime: 120385
Countdown: 0
SampleSet: Soft
StackLeniency: 0.5
Mode: 0
LetterboxInBreaks: 0
EpilepsyWarning: 1
WidescreenStoryboard: 1

[Editor]
Bookmarks: 89985,100363,196363,206742
DistanceSpacing: 1
BeatDivisor: 4
GridSize: 4
TimelineZoom: 1

[Metadata]
Title:Ray of bullet
TitleUnicode:Ray of bullet
Artist:Iris Freyja(CV:Rina Hidaka), Mitsuki Mononobe(CV:Manami Numakura)
ArtistUnicode:イリス・フレイア(CV:日高里菜)、物部深月(CV:沼倉愛美)
Creator:Meg
Version:Akitoshi's Normal
Source:銃皇無尽のファフニール
Tags:Juuou Mujin no Fafnir unlimited ending iMage-- Akitoshi Corinn Kanau fuyuyu- Mamayu Silky Lecana
BeatmapID:1329127
BeatmapSetID:628968

[Difficulty]
HPDrainRate:4
CircleSize:2.8
OverallDifficulty:4
ApproachRate:5
SliderMultiplier:0.999999999999999
SliderTickRate:1

[Events]
//Background and Video events
0,0,"BG.jpg",0,0
//Break Periods
2,90185,99163
2,196363,205542
//Storyboard Layer 0 (Background)
//Storyboard Layer 1 (Fail)
//Storyboard Layer 2 (Pass)
//Storyboard Layer 3 (Foreground)
//Storyboard Sound Samples

[TimingPoints]
472,324.324324324324,4,2,1,60,1,0
51066,-100,4,2,1,70,0,1
84796,-100,4,2,1,60,0,0
121120,-100,4,2,1,70,0,1
154850,-100,4,2,1,60,0,0
193769,-100,4,2,1,30,0,0
193931,-100,4,2,1,50,0,0
206742,-100,4,2,1,60,0,0
212904,-100,4,2,1,80,0,1
235120,-100,4,2,1,80,0,0

[Colours]
Combo1 : 255,0,255
Combo2 : 208,208,255
Combo3 : 255,202,255
Combo4 : 138,138,255

[HitObjects]
494,50,1769,6,0,B|431:42|431:42|373:59|373:59|291:45,1,200,6|8,0:0|0:0,0:0:0:0:
219,109,2742,2,0,P|191:223|221:300,1,200,4|0,0:0|0:0,0:0:0:0:
304,354,3715,1,0,0:0:0:0:
405,370,4039,1,0,0:0:0:0:
495,327,4363,6,0,L|476:124,1,200,6|8,0:0|0:0,0:0:0:0:
404,58,5336,2,0,P|316:98|216:72,1,200,4|2,0:0|3:0,0:0:0:0:
130,27,6309,1,0,0:0:0:0:
35,60,6634,1,0,0:0:0:0:
16,158,6958,6,0,P|14:232|46:307,2,150,6|8|8,0:0|0:0|0:0,0:0:0:0:
59,132,8093,2,0,B|107:159|107:159|221:142,1,150,6|8,0:0|0:0,0:0:0:0:
240,114,8742,2,0,P|281:121|349:209,1,150,6|8,0:0|0:0,0:0:0:0:
365,298,9553,6,0,L|470:290,2,99.9999999999999,6|8|0,0:0|0:0|0:0,0:0:0:0:
284,358,10526,1,8,0:0:0:0:
203,298,10850,2,0,L|98:290,2,99.9999999999999,2|8|0,0:0|0:0|0:0,0:0:0:0:
284,358,11823,1,10,0:0:0:0:
365,298,12147,6,0,P|376:248|365:197,1,99.9999999999999,2|8,0:0|0:0,0:0:0:0:
303,123,12796,2,0,L|307:18,1,99.9999999999999,2|8,0:0|0:0,0:0:0:0:
207,15,13444,2,0,L|203:114,1,99.9999999999999,2|10,0:0|0:0,0:0:0:0:
129,183,14093,2,0,P|119:231|130:280,1,99.9999999999999,2|10,0:0|0:0,0:0:0:0:
207,343,14742,6,0,L|311:329,2,99.9999999999999,6|8|2,0:0|0:0|0:0,0:0:0:0:
112,376,15715,1,8,0:0:0:0:
29,319,16039,2,0,P|14:276|18:205,1,99.9999999999999,2|8,0:0|0:0,0:0:0:0:
98,169,16688,2,0,P|113:126|109:55,1,99.9999999999999,2|8,0:0|0:0,0:0:0:0:
204,32,17336,6,0,L|315:22,1,99.9999999999999,8|0,0:0|0:0,0:0:0:0:
398,55,17985,2,0,P|413:98|409:169,1,99.9999999999999,0|8,0:0|0:0,0:0:0:0:
375,185,18471,2,0,L|391:298,1,99.9999999999999,4|8,0:0|0:0,0:0:0:0:
324,360,19120,1,2,3:0:0:0:
228,330,19444,2,0,L|212:217,1,99.9999999999999,2|0,3:0|3:0,0:0:0:0:
198,183,19931,6,0,P|116:219|5:165,1,200,4|0,0:0|0:0,0:0:0:0:
1,81,20904,1,8,0:0:0:0:
83,25,21228,2,0,L|287:42,1,200,0|0,0:0|0:0,0:0:0:0:
343,121,22201,1,8,0:0:0:0:
411,193,22526,6,0,L|510:184,2,99.9999999999999,0|8|0,0:0|0:0|0:0,0:0:0:0:
343,266,23499,1,8,0:0:0:0:
267,331,23823,2,0,P|189:352|84:295,1,200,0|0,0:0|0:0,0:0:0:0:
36,213,24796,1,8,0:0:0:0:
78,122,25120,6,0,L|183:112,1,99.9999999999999,0|10,0:0|0:0,0:0:0:0:
252,45,25769,2,0,P|323:30|398:58,2,150,2|2|10,0:0|0:0|0:0,0:0:0:0:
178,113,27066,2,0,L|188:218,1,99.9999999999999,0|8,0:0|0:0,0:0:0:0:
276,258,27715,6,0,L|266:363,1,99.9999999999999,0|10,0:0|0:0,0:0:0:0:
169,334,28363,2,0,P|118:323|17:372,2,150,2|2|10,0:0|0:0|0:0,0:0:0:0:
267,358,29661,2,0,L|372:348,1,99.9999999999999,0|12,0:0|0:0,0:0:0:0:
457,306,30309,6,0,P|478:211|433:120,1,200,4|0,0:0|0:0,0:0:0:0:
351,66,31282,1,8,0:0:0:0:
267,121,31607,2,0,B|196:111|196:111|138:121|138:121|64:110,1,200,2|0,0:0|0:0,0:0:0:0:
6,188,32580,1,8,0:0:0:0:
58,272,32904,6,0,L|47:381,2,99.9999999999999,2|8|0,0:0|0:0|0:0,0:0:0:0:
141,217,33877,1,8,0:0:0:0:
229,262,34201,2,0,P|283:274|344:256,1,99.9999999999999,0|8,0:0|0:0,0:0:0:0:
404,202,34850,2,0,B|419:155|419:155|398:87,1,99.9999999999999,12|8,0:0|0:0,0:0:0:0:
326,44,35499,6,0,B|234:23|219:83|120:58,1,200,4|0,0:0|0:0,0:0:0:0:
38,20,36471,2,0,P|32:87|141:160,1,200,14|8,0:0|0:0,0:0:0:0:
228,149,37444,1,0,0:0:0:0:
326,131,37769,6,0,L|343:239,1,99.9999999999999,14|0,0:0|0:0,0:0:0:0:
438,254,38417,2,0,L|421:362,1,99.9999999999999,8|0,0:0|0:0,0:0:0:0:
325,376,39066,1,8,0:0:0:0:
253,306,39390,2,0,P|187:283|103:299,1,150,12|2,0:0|1:2,0:0:0:0:
16,333,40201,2,0,L|7:223,1,99.9999999999999,6|8,0:0|0:0,0:0:0:0:
43,198,40688,6,0,L|52:88,1,99.9999999999999,14|8,0:0|0:0,0:0:0:0:
134,42,41336,2,0,P|218:36|273:89,2,150,10|8|0,0:0|0:0|0:0,0:0:0:0:
183,129,42634,2,0,L|174:228,1,99.9999999999999,10|8,0:0|0:0,0:0:0:0:
180,328,43282,6,0,P|236:340|296:325,1,99.9999999999999,10|8,0:0|0:0,0:0:0:0:
343,257,43931,2,0,L|492:267,2,150,10|8|0,0:0|0:0|0:0,0:0:0:0:
262,197,45228,2,0,P|248:146|253:92,1,99.9999999999999,10|8,0:0|0:0,0:0:0:0:
176,32,45877,6,0,L|64:44,1,99.9999999999999,4|8,0:0|0:0,0:0:0:0:
40,77,46363,2,0,P|28:121|49:185,1,99.9999999999999,4|8,0:0|0:0,0:0:0:0:
69,213,46850,2,0,B|143:205|143:205|198:222|198:222|288:211,1,200,4|8,0:0|0:0,0:0:0:0:
364,196,47823,1,8,0:0:0:0:
433,123,48147,5,4,0:0:0:0:
256,192,48309,12,14,49769,0:0:0:0:
401,243,51066,6,0,L|297:233,1,99.9999999999999,6|8,0:0|0:0,0:0:0:0:
236,156,51715,2,0,L|132:166,1,99.9999999999999,2|10,0:0|0:0,0:0:0:0:
36,172,52363,2,0,P|27:221|41:277,2,99.9999999999999,2|8|2,0:0|0:0|0:0,0:0:0:0:
80,82,53336,1,8,0:0:0:0:
174,114,53661,6,0,P|256:118|322:90,2,150,2|2|8,0:0|0:0|0:0,0:0:0:0:
80,82,54958,2,0,L|64:187,1,99.9999999999999,2|8,0:0|0:0,0:0:0:0:
55,280,55607,1,2,0:0:0:0:
127,348,55931,1,12,0:0:0:0:
214,298,56255,6,0,P|263:287|328:307,1,99.9999999999999,6|8,0:0|0:0,0:0:0:0:
391,356,56904,2,0,P|408:313|399:252,1,99.9999999999999,2|8,0:0|0:0,0:0:0:0:
368,166,57553,2,0,L|378:53,2,99.9999999999999,2|8|2,0:0|0:0|0:0,0:0:0:0:
272,195,58526,1,8,0:0:0:0:
188,140,58850,6,0,P|94:128|32:170,2,150,2|2|8,0:0|0:0|0:0,0:0:0:0:
272,195,60147,2,0,L|263:294,1,99.9999999999999,2|8,0:0|0:0,0:0:0:0:
185,358,60796,1,2,0:0:0:0:
85,370,61120,1,12,0:0:0:0:
3,311,61444,6,0,L|23:105,1,200,6|8,0:0|3:0,0:0:0:0:
102,51,62417,2,0,P|159:96|298:76,1,200,14|10,0:0|0:0,0:0:0:0:
363,30,63390,1,2,0:0:0:0:
461,50,63715,1,10,0:0:0:0:
497,143,64039,6,0,P|507:192|482:256,2,99.9999999999999,6|8|6,0:0|0:0|0:0,0:0:0:0:
407,188,65012,1,8,0:0:0:0:
319,236,65336,2,0,L|217:224,1,99.9999999999999,6|8,0:0|0:0,0:0:0:0:
167,138,65985,2,0,L|65:150,1,99.9999999999999,6|4,0:0|3:0,0:0:0:0:
17,236,66634,6,0,P|12:283|37:341,1,99.9999999999999,6|8,0:0|0:0,0:0:0:0:
122,369,67282,2,0,P|169:374|227:349,1,99.9999999999999,0|10,0:0|0:0,0:0:0:0:
287,284,67931,2,0,L|390:293,2,99.9999999999999,0|8|2,0:0|0:0|0:0,0:0:0:0:
235,197,68904,1,8,0:0:0:0:
287,112,69228,6,0,P|359:93|455:127,2,150,2|2|8,0:0|0:0|0:0,0:0:0:0:
235,197,70526,2,0,L|127:192,1,99.9999999999999,2|8,0:0|0:0,0:0:0:0:
35,182,71174,1,2,0:0:0:0:
9,85,71499,1,8,0:0:0:0:
91,29,71823,6,0,P|144:17|196:25,1,99.9999999999999,6|8,0:0|0:0,0:0:0:0:
256,95,72471,2,0,P|309:107|361:99,1,99.9999999999999,0|10,0:0|0:0,0:0:0:0:
429,166,73120,2,0,L|438:276,2,99.9999999999999,2|8|2,0:0|0:0|0:0,0:0:0:0:
334,200,74093,1,8,0:0:0:0:
241,238,74417,6,0,P|172:253|85:212,1,150,2|2,0:0|0:0,0:0:0:0:
33,150,75228,1,2,0:0:0:0:
87,65,75553,2,0,B|144:60|144:60|184:73|184:73|255:67,1,150,6|8,0:0|0:0,0:0:0:0:
334,62,76363,1,6,0:0:0:0:
423,106,76688,1,8,0:0:0:0:
455,200,77012,6,0,P|423:283|312:320,1,200,6|8,0:0|3:0,0:0:0:0:
244,262,77985,2,0,B|177:251|177:251|117:266|117:266|42:254,1,200,14|2,0:0|0:0,0:0:0:0:
7,163,78958,1,2,0:0:0:0:
47,71,79282,1,10,0:0:0:0:
136,25,79607,6,0,P|193:22|275:135,1,200,6|8,0:0|3:0,0:0:0:0:
272,224,80580,2,0,L|473:195,1,200,14|8,0:0|0:0,0:0:0:0:
495,98,81553,1,8,3:0:0:0:
443,12,81877,1,12,0:0:0:0:
351,52,82201,6,0,P|298:61|235:50,1,99.9999999999999,6|8,0:0|0:0,0:0:0:0:
157,24,82850,2,0,L|147:129,1,99.9999999999999,0|8,0:0|0:0,0:0:0:0:
114,161,83336,2,0,L|128:314,1,150,6|8,0:0|0:0,0:0:0:0:
161,347,83985,2,0,P|227:359|315:321,1,150,6|8,0:0|0:0,0:0:0:0:
355,245,84796,6,0,L|504:250,2,150,6|4|6,0:0|0:0|0:0,0:0:0:0:
230,88,86417,2,0,P|182:71|79:101,1,150,4|8,0:0|0:0,0:0:0:0:
52,128,87066,6,0,L|64:334,1,200,6|8,0:0|0:0,0:0:0:0:
159,356,88039,2,0,P|206:360|261:340,1,99.9999999999999,2|8,0:0|0:0,0:0:0:0:
326,272,88688,2,0,L|313:102,1,150,4|0,0:0|0:0,0:0:0:0:
314,72,89336,2,0,P|354:48|410:42,1,99.9999999999999,4|0,0:0|0:0,0:0:0:0:
491,94,89985,5,4,0:0:0:0:
295,90,100363,6,0,P|394:73|482:134,1,200,6|2,0:0|0:0,0:0:0:0:
500,220,101336,1,8,0:0:0:0:
456,310,101661,2,0,L|252:275,1,200,2|2,0:0|0:0,0:0:0:0:
160,255,102634,1,8,0:0:0:0:
78,196,102958,6,0,P|70:150|91:91,2,99.9999999999999,2|8|2,0:0|0:0|0:0,0:0:0:0:
169,154,103931,1,8,0:0:0:0:
263,122,104255,2,0,L|469:134,1,200,2|12,0:0|0:0,0:0:0:0:
501,225,105228,1,8,0:0:0:0:
464,318,105553,6,0,P|399:343|272:295,1,200,6|0,0:0|0:0,0:0:0:0:
214,227,106526,2,0,B|147:216|147:216|78:232|78:232|10:219,1,200,14|8,0:0|0:0,0:0:0:0:
2,121,107499,1,0,0:0:0:0:
56,37,107823,6,0,P|107:30|165:46,1,99.9999999999999,14|2,0:0|0:0,0:0:0:0:
225,110,108471,2,0,P|276:117|334:101,1,99.9999999999999,8|0,0:0|0:0,0:0:0:0:
399,41,109120,1,8,0:0:0:0:
467,113,109444,2,0,L|483:277,2,150,14|14|14,0:0|0:0|0:0,0:0:0:0:
399,41,110742,6,0,P|352:28|282:40,1,99.9999999999999,6|2,0:0|0:0,0:0:0:0:
217,87,111390,2,0,L|45:74,2,150,8|0|8,0:0|0:0|0:0,0:0:0:0:
298,146,112688,2,0,P|312:196|303:258,1,99.9999999999999,2|8,0:0|0:0,0:0:0:0:
253,327,113336,6,0,P|203:341|141:332,1,99.9999999999999,12|2,0:0|0:0,0:0:0:0:
86,263,113985,2,0,L|71:103,2,150,8|2|8,0:0|0:0|0:0,0:0:0:0:
183,238,115282,2,0,L|173:131,1,99.9999999999999,2|8,3:0|0:0,0:0:0:0:
229,55,115931,6,0,P|273:43|336:56,1,99.9999999999999,6|8,0:0|0:0,0:0:0:0:
368,77,116417,2,0,L|378:184,1,99.9999999999999,6|8,0:0|0:0,0:0:0:0:
377,226,116904,2,0,B|282:256|282:256|174:236,1,200,6|8,0:0|0:0,0:0:0:0:
86,213,117877,1,8,0:0:0:0:
37,125,118201,5,12,0:0:0:0:
256,192,118363,12,14,119823,0:0:0:0:
124,234,121120,6,0,L|234:223,1,99.9999999999999,6|8,0:0|0:0,0:0:0:0:
294,153,121769,2,0,L|404:164,1,99.9999999999999,2|10,0:0|0:0,0:0:0:0:
492,179,122417,2,0,P|498:229|481:281,2,99.9999999999999,2|8|2,0:0|0:0|0:0,0:0:0:0:
457,85,123390,1,8,0:0:0:0:
367,39,123715,6,0,L|218:30,2,150,2|2|8,0:0|0:0|0:0,0:0:0:0:
457,85,125012,2,0,P|467:136|451:190,1,99.9999999999999,2|8,0:0|0:0,0:0:0:0:
378,246,125661,1,2,0:0:0:0:
278,254,125985,1,8,0:0:0:0:
199,191,126309,6,0,L|190:76,1,99.9999999999999,6|8,0:0|0:0,0:0:0:0:
91,99,126958,2,0,L|100:214,1,99.9999999999999,2|8,0:0|0:0,0:0:0:0:
104,298,127607,2,0,P|55:310|6:308,2,99.9999999999999,2|8|2,0:0|0:0|0:0,0:0:0:0:
188,244,128580,1,8,0:0:0:0:
268,184,128904,6,0,L|418:189,2,150,2|2|8,0:0|0:0|0:0,0:0:0:0:
188,244,130201,2,0,P|187:303|211:348,1,99.9999999999999,2|8,0:0|0:0,0:0:0:0:
299,368,130850,1,2,0:0:0:0:
396,346,131174,1,12,0:0:0:0:
455,265,131499,6,0,L|431:61,1,200,6|8,0:0|3:0,0:0:0:0:
336,37,132471,2,0,P|281:74|146:58,1,200,14|10,0:0|0:0,0:0:0:0:
59,27,133444,1,2,0:0:0:0:
5,111,133769,1,10,0:0:0:0:
53,198,134093,6,0,L|38:312,2,99.9999999999999,6|8|6,0:0|0:0|0:0,0:0:0:0:
144,156,135066,1,8,0:0:0:0:
219,221,135390,2,0,L|334:207,1,99.9999999999999,6|8,0:0|0:0,0:0:0:0:
367,121,136039,2,0,L|482:135,1,99.9999999999999,6|4,0:0|3:0,0:0:0:0:
502,226,136688,6,0,P|505:279|477:328,1,99.9999999999999,6|8,0:0|0:0,0:0:0:0:
389,349,137336,2,0,P|336:352|287:324,1,99.9999999999999,2|10,0:0|0:0,0:0:0:0:
218,267,137985,2,0,L|97:278,2,99.9999999999999,2|8|2,0:0|0:0|0:0,0:0:0:0:
271,182,138958,1,8,0:0:0:0:
323,96,139282,6,0,P|380:130|477:123,2,150,2|2|8,0:0|0:0|0:0,0:0:0:0:
244,33,140580,2,0,L|129:27,1,99.9999999999999,2|8,0:0|0:0,0:0:0:0:
44,21,141228,1,2,0:0:0:0:
1,111,141553,1,8,0:0:0:0:
51,196,141877,6,0,P|97:208|156:199,1,99.9999999999999,6|8,0:0|0:0,0:0:0:0:
235,151,142526,2,0,P|281:139|340:148,1,99.9999999999999,2|8,0:0|0:0,0:0:0:0:
412,205,143174,2,0,L|400:317,2,99.9999999999999,2|8|2,0:0|0:0|0:0,0:0:0:0:
423,105,144147,1,8,0:0:0:0:
349,37,144471,6,0,P|284:25|200:83,1,150,2|2,0:0|0:0,0:0:0:0:
163,150,145282,1,2,0:0:0:0:
228,226,145607,2,0,L|378:219,1,150,4|8,0:0|0:0,0:0:0:0:
477,221,146417,1,6,0:0:0:0:
497,319,146742,1,8,0:0:0:0:
407,364,147066,6,0,B|333:367|333:367|291:340|291:340|203:344,1,200,6|8,0:0|3:0,0:0:0:0:
114,341,148039,2,0,P|48:297|42:170,1,200,14|2,0:0|0:0,0:0:0:0:
78,93,149012,1,2,0:0:0:0:
165,44,149336,1,10,0:0:0:0:
255,87,149661,6,0,B|277:145|277:145|259:222|259:222|278:278,1,200,6|8,0:0|3:0,0:0:0:0:
339,356,150634,2,0,P|416:353|486:254,1,200,14|8,0:0|0:0,0:0:0:0:
491,160,151607,1,2,0:0:0:0:
427,82,151931,1,8,0:0:0:0:
340,32,152255,6,0,L|236:44,1,99.9999999999999,6|8,0:0|0:0,0:0:0:0:
163,107,152904,2,0,P|145:156|149:217,1,99.9999999999999,2|8,0:0|0:0,0:0:0:0:
164,249,153390,2,0,B|255:256|255:256|310:235,1,150,6|8,0:0|0:0,0:0:0:0:
351,206,154039,2,0,P|419:203|491:261,1,150,6|8,0:0|0:0,0:0:0:0:
458,345,154850,6,0,L|248:357,1,200,6|10,0:0|0:0,0:0:0:0:
158,365,155823,1,0,0:0:0:0:
71,314,156147,2,0,P|57:273|63:212,1,99.9999999999999,2|0,0:0|0:0,0:0:0:0:
114,132,156796,2,0,P|155:118|216:124,1,99.9999999999999,10|0,0:0|0:0,0:0:0:0:
283,190,157444,6,0,B|422:207|422:207|483:180,1,200,2|10,0:0|0:0,0:0:0:0:
508,87,158417,1,0,0:0:0:0:
431,22,158742,2,0,P|387:19|320:47,1,99.9999999999999,2|0,0:0|0:0,0:0:0:0:
254,96,159390,2,0,P|210:99|143:71,1,99.9999999999999,10|8,0:0|3:0,0:0:0:0:
69,33,160039,6,0,L|81:235,1,200,2|10,0:0|0:0,0:0:0:0:
90,332,161012,1,0,0:0:0:0:
186,358,161336,2,0,P|238:361|293:341,1,99.9999999999999,2|8,0:0|0:0,0:0:0:0:
347,269,161985,2,0,P|350:217|330:162,1,99.9999999999999,0|8,0:0|3:0,0:0:0:0:
256,110,162634,6,0,L|263:10,2,99.9999999999999,14|8|8,0:0|0:0|0:0,0:0:0:0:
185,180,163607,1,8,0:0:0:0:
114,250,163931,2,0,L|121:350,2,99.9999999999999,10|8|8,0:0|0:0|0:0,0:0:0:0:
43,179,164904,1,8,0:0:0:0:
113,108,165228,6,0,L|106:8,2,99.9999999999999,10|8|8,0:0|0:0|0:0,0:0:0:0:
185,180,166201,1,10,0:0:0:0:
255,250,166526,2,0,L|248:350,2,99.9999999999999,8|8|14,0:0|0:0|0:0,0:0:0:0:
325,179,167499,1,8,3:0:0:0:
395,108,167823,6,0,P|449:140|473:273,1,200,6|8,0:0|3:0,0:0:0:0:
412,344,168796,2,0,B|351:332|351:332|280:347|280:347|198:328,1,200,14|8,0:0|0:0,0:0:0:0:
118,309,169769,1,10,0:0:0:0:
53,232,170093,1,8,0:0:0:0:
68,133,170417,6,0,P|133:74|254:77,1,200,6|2,0:0|0:0,0:0:0:0:
326,122,171390,1,8,0:0:0:0:
405,182,171715,2,0,L|396:284,1,99.9999999999999,2|8,0:0|0:0,0:0:0:0:
332,358,172363,2,0,L|230:349,1,99.9999999999999,2|4,3:0|3:0,0:0:0:0:
182,342,172850,6,0,P|156:285|172:181,1,150,6|8,0:0|0:0,0:0:0:0:
218,116,173661,2,0,L|328:112,1,99.9999999999999,2|8,0:0|0:0,0:0:0:0:
398,52,174309,2,0,L|508:56,2,99.9999999999999,2|8|2,0:0|0:0|0:0,0:0:0:0:
305,13,175282,1,8,0:0:0:0:
317,112,175607,6,0,P|329:163|316:222,1,99.9999999999999,2|8,0:0|0:0,0:0:0:0:
249,278,176255,2,0,P|198:290|139:277,1,99.9999999999999,2|8,0:0|0:0,0:0:0:0:
72,220,176904,2,0,L|60:58,2,150,2|2|8,0:0|0:0|0:0,0:0:0:0:
151,282,178201,6,0,P|202:270|261:283,1,99.9999999999999,2|8,0:0|0:0,0:0:0:0:
334,328,178850,2,0,P|385:340|444:327,1,99.9999999999999,2|8,0:0|0:0,0:0:0:0:
501,261,179499,2,0,L|488:96,2,150,2|2|8,0:0|0:0|0:0,0:0:0:0:
401,247,180796,6,0,L|393:138,1,99.9999999999999,2|8,0:0|0:0,0:0:0:0:
335,66,181444,2,0,P|285:47|220:52,1,99.9999999999999,2|10,0:0|0:0,0:0:0:0:
151,95,182093,2,0,B|137:143|137:143|151:190|151:190|131:233|131:233|149:306,1,200,2|6,0:0|0:0,0:0:0:0:
220,349,183066,1,8,0:0:0:0:
299,288,183390,6,0,B|363:277|426:315|426:315|473:256,1,200,6|8,0:0|3:0,0:0:0:0:
507,170,184363,2,0,P|479:123|341:88,1,200,14|8,0:0|0:0,0:0:0:0:
250,115,185336,1,2,0:0:0:0:
192,196,185661,1,8,0:0:0:0:
182,295,185985,6,0,P|106:313|37:284,2,150,6|2|8,0:0|0:0|0:0,0:0:0:0:
275,257,187282,2,0,B|345:250|345:250|402:272|402:272|474:264,1,200,2|8,0:0|3:0,0:0:0:0:
507,171,188255,1,8,0:0:0:0:
468,78,188580,6,0,P|402:44|271:63,1,200,6|8,0:0|3:0,0:0:0:0:
196,112,189553,2,0,B|185:180|185:180|209:232|209:232|198:312,1,200,14|8,0:0|0:0,0:0:0:0:
128,376,190526,1,8,0:0:0:0:
30,356,190850,1,8,3:0:0:0:
11,257,191174,6,0,L|43:56,1,200,6|8,0:0|3:0,0:0:0:0:
135,23,192147,1,6,0:0:0:0:
256,192,192309,12,0,193769,0:0:0:0:
359,59,206742,6,0,P|263:26|157:65,1,200,6|8,0:0|0:3,0:0:0:0:
101,125,207715,2,0,L|123:324,1,200,4|8,0:0|0:0,0:0:0:0:
213,366,208688,1,8,0:0:0:0:
310,344,209012,1,0,3:0:0:0:
379,272,209336,6,0,P|391:222|375:156,1,99.9999999999999,4|0,0:0|0:0,0:0:0:0:
335,86,209985,2,0,P|285:74|219:90,1,99.9999999999999,4|2,0:0|0:3,0:0:0:0:
148,127,210634,2,0,L|30:114,2,99.9999999999999,4|8|8,0:0|0:0|0:0,0:0:0:0:
218,197,211607,1,8,0:0:0:0:
288,267,211931,6,0,L|406:254,2,99.9999999999999,2|8|8,0:0|0:0|0:0,0:0:0:0:
217,337,212904,5,14,0:0:0:0:
126,293,213228,2,0,P|99:245|99:179,1,99.9999999999999,0|8,0:0|0:0,0:0:0:0:
117,103,213877,2,0,P|165:76|231:76,1,99.9999999999999,2|8,0:0|0:0,0:0:0:0:
296,121,214526,6,0,L|465:100,2,150,2|2|8,0:0|0:0|0:0,0:0:0:0:
225,192,215823,2,0,P|214:239|233:301,1,99.9999999999999,2|8,0:0|0:0,0:0:0:0:
296,359,216471,1,2,0:0:0:0:
396,359,216796,1,8,0:0:0:0:
466,288,217120,6,0,L|470:183,1,99.9999999999999,6|8,0:0|0:0,0:0:0:0:
429,96,217769,2,0,P|376:86|314:103,1,99.9999999999999,2|8,0:0|0:0,0:0:0:0:
264,168,218417,2,0,L|260:273,2,99.9999999999999,2|8|2,0:0|0:0|0:0,0:0:0:0:
205,86,219390,1,8,0:0:0:0:
117,135,219715,6,0,L|110:301,1,150,2|2,0:0|0:0,0:0:0:0:
193,342,220526,1,2,0:0:0:0:
260,267,220850,2,0,P|315:255|404:295,1,150,6|8,0:0|0:0,0:0:0:0:
478,350,221661,2,0,P|495:312|490:250,1,99.9999999999999,6|8,0:0|0:0,0:0:0:0:
442,168,222309,6,0,B|388:139|388:139|233:151,1,200,6|8,0:0|3:0,0:0:0:0:
179,220,223282,2,0,P|111:232|32:140,1,200,14|2,0:0|0:0,0:0:0:0:
80,53,224255,1,2,0:0:0:0:
173,18,224580,1,8,0:0:0:0:
264,57,224904,6,0,B|367:86|367:30|471:60,1,200,6|8,0:0|3:0,0:0:0:0:
498,150,225877,2,0,P|492:258|409:321,1,200,14|8,0:0|0:0,0:0:0:0:
329,337,226850,1,8,0:0:0:0:
233,308,227174,1,8,0:0:0:0:
180,222,227499,6,0,L|188:101,1,99.9999999999999,6|8,0:0|0:0,0:0:0:0:
145,31,228147,2,0,P|96:25|44:46,1,99.9999999999999,0|8,0:0|0:0,0:0:0:0:
12,76,228634,2,0,L|22:236,1,150,6|8,0:0|0:0,0:0:0:0:
24,275,229282,2,0,P|86:272|165:325,1,150,6|8,0:0|0:0,0:0:0:0:
246,365,230093,6,0,L|363:353,1,99.9999999999999,6|8,0:0|0:0,0:0:0:0:
394,344,230580,2,0,P|411:286|400:236,1,99.9999999999999,6|8,0:0|0:0,0:0:0:0:
363,220,231066,2,0,B|345:158|345:158|365:91|365:91|344:23,1,200,6|8,0:0|0:0,0:0:0:0:
246,13,232039,1,4,3:0:0:0:
152,47,232363,1,12,0:0:0:0:
96,130,232688,6,0,L|110:235,1,99.9999999999999,6|8,0:0|0:0,0:0:0:0:
161,314,233336,2,0,P|202:299|273:307,1,99.9999999999999,0|8,0:0|0:0,0:0:0:0:
302,323,233823,2,0,L|324:170,1,150,6|8,0:0|0:0,0:0:0:0:
330,125,234471,2,0,P|266:123|193:70,1,150,6|8,0:0|0:0,0:0:0:0:
167,34,235120,5,6,0:0:0:0:
256,192,235282,12,10,237715,0:0:0:0:
