osu file format v14

[General]
AudioFilename: audio.mp3
AudioLeadIn: 0
PreviewTime: 120385
Countdown: 0
SampleSet: Soft
StackLeniency: 0.5
Mode: 0
LetterboxInBreaks: 0
EpilepsyWarning: 1
WidescreenStoryboard: 1

[Editor]
Bookmarks: 9553,19931,51066,84796,89985,110742,121120,154850,172850,183390,196363,206742,211931,212904,237715
DistanceSpacing: 1.1
BeatDivisor: 4
GridSize: 4
TimelineZoom: 1

[Metadata]
Title:Ray of bullet
TitleUnicode:Ray of bullet
Artist:Iris Freyja(CV:Rina Hidaka), Mitsuki Mononobe(CV:Manami Numakura)
ArtistUnicode:イリス・フレイア(CV:日高里菜)、物部深月(CV:沼倉愛美)
Creator:Meg
Version:Light
Source:銃皇無尽のファフニール
Tags:Juuou Mujin no Fafnir unlimited ending iMage-- Akitoshi Corinn Kanau fuyuyu- Mamayu Silky Lecana
BeatmapID:1327000
BeatmapSetID:628968

[Difficulty]
HPDrainRate:6
CircleSize:4
OverallDifficulty:8
ApproachRate:9.3
SliderMultiplier:1.75
SliderTickRate:1

[Events]
//Background and Video events
0,0,"BG.jpg",0,0
//Break Periods
2,196358,205701
//Storyboard Layer 0 (Background)
//Storyboard Layer 1 (Fail)
//Storyboard Layer 2 (Pass)
//Storyboard Layer 3 (Foreground)
//Storyboard Sound Samples

[TimingPoints]
472,324.324324324324,4,2,1,60,1,0
472,-133.333333333333,4,2,1,60,0,0
6958,-100,4,2,1,60,0,0
19931,-133.333333333333,4,2,1,60,0,0
35012,-100,4,2,1,60,0,0
36147,-200,4,2,1,60,0,0
36471,-100,4,2,1,60,0,0
37444,-200,4,2,1,60,0,0
37769,-100,4,2,1,60,0,0
50417,-200,4,2,1,60,0,0
51066,-90.9090909090909,4,2,1,70,0,1
62093,-200,4,2,1,70,0,1
62417,-90.9090909090909,4,2,1,70,0,1
64039,-133.333333333333,4,2,1,70,0,1
64688,-100,4,2,1,70,0,1
65336,-80,4,2,1,70,0,1
65985,-66.6666666666667,4,2,1,70,0,1
66634,-90.9090909090909,4,2,1,70,0,1
77661,-200,4,2,1,70,0,1
77985,-90.9090909090909,4,2,1,70,0,1
78634,-125,4,2,1,70,0,1
79607,-90.9090909090909,4,2,1,70,0,1
80255,-200,4,2,1,70,0,1
80580,-90.9090909090909,4,2,1,70,0,1
81228,-125,4,2,1,70,0,1
82201,-90.9090909090909,4,2,1,70,0,1
84796,-100,4,2,1,60,0,0
89985,-133.333333333333,4,2,1,60,0,0
100363,-100,4,2,1,60,0,0
106201,-200,4,2,1,60,0,0
106526,-100,4,2,1,60,0,0
107499,-200,4,2,1,60,0,0
107823,-100,4,2,1,60,0,0
121120,-90.9090909090909,4,2,1,70,0,1
132147,-200,4,2,1,70,0,1
132471,-90.9090909090909,4,2,1,70,0,1
134093,-133.333333333333,4,2,1,70,0,1
134742,-100,4,2,1,70,0,1
135390,-80,4,2,1,70,0,1
136039,-66.6666666666667,4,2,1,70,0,1
136688,-90.9090909090909,4,2,1,70,0,1
147715,-200,4,2,1,70,0,1
148039,-90.9090909090909,4,2,1,70,0,1
148688,-125,4,2,1,70,0,1
149661,-90.9090909090909,4,2,1,70,0,1
150309,-200,4,2,1,70,0,1
150634,-90.9090909090909,4,2,1,70,0,1
151282,-125,4,2,1,70,0,1
152255,-90.9090909090909,4,2,1,70,0,1
154850,-133.333333333333,4,2,1,60,0,0
162634,-100,4,2,1,60,0,0
168471,-200,4,2,1,60,0,0
168796,-100,4,2,1,60,0,0
184039,-200,4,2,1,60,0,0
184363,-100,4,2,1,60,0,0
193769,-100,4,2,1,30,0,0
193850,-100,4,2,1,50,0,0
206417,-200,4,2,1,60,0,0
206742,-100,4,2,1,60,0,0
212904,-66.6666666666667,4,2,1,80,0,1
213228,-86.9565217391304,4,2,1,80,0,1
222958,-200,4,2,1,80,0,1
223282,-86.9565217391304,4,2,1,80,0,1
223931,-117.647058823529,4,2,1,80,0,1
224904,-86.9565217391302,4,2,1,80,0,1
225553,-200,4,2,1,80,0,1
225877,-86.9565217391302,4,2,1,80,0,1
235120,-100,4,2,1,80,0,0
237715,-100,4,2,1,80,0,0

[Colours]
Combo1 : 255,0,255
Combo2 : 208,208,255
Combo3 : 255,202,255
Combo4 : 138,138,255

[HitObjects]
212,134,796,6,0,L|226:3,2,131.25000500679
212,134,1769,6,0,B|176:135|148:120|148:120|118:132|108:169,1,131.25000500679,6|0,0:0|0:0,0:0:0:0:
191,242,2255,1,8,0:0:0:0:
280,74,2417,2,0,P|296:103|301:135,1,65.6250025033952,8|0,0:0|0:0,0:0:0:0:
86,277,2742,5,4,0:0:0:0:
264,354,3390,2,0,L|249:223,2,131.25000500679
264,354,4363,6,0,P|330:346|395:347,1,131.25000500679,6|0,0:0|0:0,0:0:0:0:
433,164,4850,1,8,0:0:0:0:
359,271,5012,2,0,P|355:238|357:205,1,65.6250025033952,8|0,0:0|0:0,0:0:0:0:
481,51,5336,5,4,0:0:0:0:
481,51,5823,1,8,0:0:0:0:
391,108,5985,1,2,3:0:0:0:
294,67,6147,1,0,0:0:0:0:
278,62,6228,1,8,0:0:0:0:
262,57,6309,1,8,0:0:0:0:
352,201,6471,5,8,0:0:0:0:
336,196,6553,1,8,0:0:0:0:
320,191,6634,2,0,L|325:223,1,32.8125012516976
223,160,6796,2,0,L|228:192,1,32.8125012516976,8|0,0:0|0:0,0:0:0:0:
152,324,6958,6,0,P|89:328|40:286,1,131.25,6|0,0:0|0:0,0:0:0:0:
38,268,7282,2,0,L|50:181,1,87.5,8|8,0:0|0:0,0:0:0:0:
149,46,7607,1,8,0:0:0:0:
228,192,7769,1,8,0:0:0:0:
147,27,7931,1,8,0:0:0:0:
49,181,8093,6,0,B|31:305|31:305|76:284,1,175,6|0,0:0|0:0,0:0:0:0:
220,101,8580,1,8,0:0:0:0:
343,281,8742,2,0,B|284:262|284:262|235:278|235:278|175:261,1,175,6|0,0:0|0:0,0:0:0:0:
286,354,9228,1,8,0:0:0:0:
190,174,9390,2,0,L|232:188,1,43.75
343,281,9553,6,0,P|387:276|431:277,1,87.5,6|0,0:0|0:0,0:0:0:0:
175,261,9877,2,0,P|131:265|87:264,1,87.5,8|0,0:0|0:0,0:0:0:0:
232,188,10201,1,0,0:0:0:0:
338,368,10363,2,0,L|342:280,1,87.5,2|8,0:0|0:0,0:0:0:0:
420,107,10688,1,0,0:0:0:0:
477,172,10850,5,2,0:0:0:0:
334,123,11012,1,0,0:0:0:0:
448,25,11174,1,8,0:0:0:0:
449,254,11336,5,2,0:0:0:0:
306,205,11499,1,0,0:0:0:0:
420,107,11661,1,0,0:0:0:0:
421,336,11823,5,10,0:0:0:0:
421,336,12147,5,0,0:0:0:0:
430,249,12309,2,0,L|421:336,1,87.5,2|8,0:0|0:0,0:0:0:0:
220,287,12634,5,0,0:0:0:0:
307,297,12796,2,0,L|220:287,1,87.5,2|0,0:0|0:0,0:0:0:0:
268,85,13120,5,8,0:0:0:0:
259,171,13282,2,0,L|268:84,1,87.5,2|0,0:0|0:0,0:0:0:0:
470,133,13607,5,0,0:0:0:0:
384,124,13769,2,0,L|470:133,1,87.5,10|0,0:0|0:0,0:0:0:0:
306,296,14093,5,2,0:0:0:0:
259,171,14255,1,0,0:0:0:0:
384,124,14417,1,10,0:0:0:0:
430,249,14580,1,0,0:0:0:0:
195,267,14742,5,6,0:0:0:0:
313,339,14904,1,0,0:0:0:0:
309,317,14985,1,0,0:0:0:0:
306,296,15066,2,0,L|296:209,1,87.5,8|0,0:0|0:0,0:0:0:0:
120,307,15390,2,0,B|151:339|151:339|192:349,1,87.5,2|0,0:0|0:0,0:0:0:0:
106,190,15715,2,0,L|19:200,1,87.5,8|0,0:0|0:0,0:0:0:0:
76,26,16039,5,2,0:0:0:0:
225,141,16201,1,0,0:0:0:0:
189,14,16363,5,8,0:0:0:0:
208,163,16526,1,0,0:0:0:0:
277,85,16688,5,2,0:0:0:0:
191,185,16850,1,0,0:0:0:0:
321,210,17012,5,8,0:0:0:0:
76,26,17174,1,0,0:0:0:0:
18,200,17336,5,8,0:0:0:0:
183,272,17499,2,0,L|190:184,1,87.5,10|0,0:0|0:0,0:0:0:0:
274,42,17823,1,0,0:0:0:0:
276,64,17904,1,8,0:0:0:0:
277,85,17985,1,8,0:0:0:0:
372,55,18147,1,8,0:0:0:0:
180,73,18309,1,8,0:0:0:0:
467,192,18471,5,4,0:0:0:0:
146,340,18796,1,8,0:0:0:0:
172,229,18958,1,8,0:0:0:0:
255,307,19120,1,2,3:0:0:0:
256,318,19444,1,2,3:0:0:0:
257,329,19769,1,0,3:0:0:0:
274,162,19931,6,0,P|293:100|322:41,1,131.25000500679,4|8,0:0|0:0,0:0:0:0:
172,229,20417,1,0,0:0:0:0:
154,129,20580,2,0,P|144:98|132:68,1,65.6250025033952
274,162,20904,2,0,P|262:192|252:223,1,65.6250025033952,8|0,0:0|0:0,0:0:0:0:
200,344,21228,6,0,L|103:324,1,98.4375037550928
79,311,21553,2,0,L|143:298,1,65.6250025033952,8|0,0:0|0:0,0:0:0:0:
376,281,21877,1,0,0:0:0:0:
285,314,22039,1,0,0:0:0:0:
252,223,22201,1,8,0:0:0:0:
343,190,22363,1,0,0:0:0:0:
376,281,22526,6,0,P|438:297|502:282,1,131.25000500679,0|8,0:0|0:0,0:0:0:0:
297,347,23012,1,0,0:0:0:0:
375,215,23174,2,0,P|379:247|376:280,1,65.6250025033952
252,223,23499,2,0,P|247:190|250:157,1,65.6250025033952,8|0,0:0|0:0,0:0:0:0:
475,36,23823,5,0,0:0:0:0:
433,127,23985,2,0,P|464:136|496:134,2,65.6250025033952,0|8|0,0:0|0:0|0:0,0:0:0:0:
249,158,24471,1,0,0:0:0:0:
375,215,24634,1,0,0:0:0:0:
362,78,24796,1,8,0:0:0:0:
248,24,24958,1,0,0:0:0:0:
229,28,25039,1,8,0:0:0:0:
213,30,25120,1,0,0:0:0:0:
112,169,25282,5,2,0:0:0:0:
52,98,25444,2,0,P|81:82|113:77,1,65.6250025033952,10|0,0:0|0:0,0:0:0:0:
191,204,25769,5,2,0:0:0:0:
281,187,25931,2,0,P|279:220|268:251,1,65.6250025033952,2|8,0:0|0:0,0:0:0:0:
120,254,26255,5,2,0:0:0:0:
88,339,26417,2,0,P|61:322|41:297,1,65.6250025033952,2|0,0:0|0:0,0:0:0:0:
112,169,26742,5,10,0:0:0:0:
191,204,26904,1,2,0:0:0:0:
120,254,27066,1,0,0:0:0:0:
104,84,27228,5,2,0:0:0:0:
128,339,27390,1,8,0:0:0:0:
270,239,27553,1,0,0:0:0:0:
120,254,27715,1,0,0:0:0:0:
272,341,27877,5,2,0:0:0:0:
272,341,28039,2,0,P|303:329|336:325,1,65.6250025033952,10|0,0:0|0:0,0:0:0:0:
479,283,28363,5,2,0:0:0:0:
479,283,28526,2,0,P|453:262|433:236,1,65.6250025033952,2|8,0:0|0:0,0:0:0:0:
325,133,28850,5,2,0:0:0:0:
325,133,29012,2,0,P|319:165|307:195,1,65.6250025033952,2|0,0:0|0:0,0:0:0:0:
271,341,29336,5,10,0:0:0:0:
214,228,29499,1,2,0:0:0:0:
191,204,29580,1,8,0:0:0:0:
165,184,29661,1,0,0:0:0:0:
306,195,29823,1,2,0:0:0:0:
137,263,29985,2,0,L|72:273,1,65.6250025033952,12|0,0:0|0:0,0:0:0:0:
414,361,30309,6,0,P|407:296|432:236,1,131.25000500679,4|8,0:0|0:0,0:0:0:0:
442,151,30796,1,0,0:0:0:0:
492,281,30958,2,0,P|481:311|486:343,1,65.6250025033952
271,341,31282,1,8,0:0:0:0:
432,236,31444,1,0,0:0:0:0:
432,236,31526,1,0,0:0:0:0:
432,236,31607,6,0,P|400:227|370:213,1,65.6250025033952,2|0,0:0|0:0,0:0:0:0:
325,130,31931,1,8,0:0:0:0:
369,46,32093,1,0,0:0:0:0:
463,35,32255,2,0,P|460:68|447:98,1,65.6250025033952
325,130,32580,1,8,0:0:0:0:
248,77,32742,1,0,0:0:0:0:
155,75,32904,6,0,L|57:91,1,98.4375037550928,2|0,0:0|0:0,0:0:0:0:
46,98,33228,2,0,L|41:163,1,65.6250025033952,8|0,0:0|0:0,0:0:0:0:
160,164,33553,2,0,L|110:206,1,65.6250025033952
193,291,33877,2,0,L|127:286,1,65.6250025033952,8|0,0:0|0:0,0:0:0:0:
21,270,34201,5,0,0:0:0:0:
21,270,34363,1,0,0:0:0:0:
193,291,34526,2,0,L|197:225,1,65.6250025033952,8|0,0:0|0:0,0:0:0:0:
157,46,34850,1,12,0:0:0:0:
60,74,35012,5,0,0:0:0:0:
67,88,35093,1,0,0:0:0:0:
74,101,35174,2,0,P|88:119|106:131,1,43.75,8|0,0:0|0:0,0:0:0:0:
205,131,35336,2,0,P|223:118|238:102,1,43.75,8|8,0:0|0:0,0:0:0:0:
312,32,35499,6,0,B|438:53|438:53|396:74,1,175,4|8,0:0|0:0,0:0:0:0:
396,74,35985,1,0,0:0:0:0:
405,223,36147,6,0,L|416:288,1,65.625
382,175,36471,6,0,B|357:275|357:275|395:336,1,175,14|0,0:0|0:0,0:0:0:0:
250,254,36958,1,0,0:0:0:0:
382,175,37120,2,0,P|424:191|466:200,1,87.5,8|0,0:0|0:0,0:0:0:0:
232,85,37444,6,0,B|216:128|216:128|234:120,1,65.625
306,85,37769,6,0,P|256:18|177:39,1,175,14|0,0:0|0:0,0:0:0:0:
415,287,38417,1,8,0:0:0:0:
123,194,38742,1,0,0:0:0:0:
284,193,38904,1,0,0:0:0:0:
414,98,39066,1,8,0:0:0:0:
236,347,39390,5,12,0:0:0:0:
234,40,39553,1,12,0:0:0:0:
415,287,39877,5,2,1:2:0:0:
123,194,40201,1,6,0:0:0:0:
414,98,40526,2,0,L|378:123,1,43.75,8|8,0:0|0:0,0:0:0:0:
284,193,40688,6,0,L|301:278,1,87.5,14|0,0:0|0:0,0:0:0:0:
37,211,41012,2,0,L|122:193,1,87.5,8|0,0:0|0:0,0:0:0:0:
302,81,41336,2,0,P|282:120|259:157,1,87.5,10|0,0:0|0:0,0:0:0:0:
142,42,41661,1,8,0:0:0:0:
111,280,41823,6,0,L|122:193,1,87.5,8|2,0:0|0:0,0:0:0:0:
376,301,42147,2,0,B|333:308|333:308|300:278,1,87.5,8|0,0:0|0:0,0:0:0:0:
478,316,42471,1,8,0:0:0:0:
252,207,42634,6,0,P|222:238|212:280,1,87.5,10|0,0:0|0:0,0:0:0:0:
416,154,42958,2,0,P|410:110|408:66,1,87.5,8|0,0:0|0:0,0:0:0:0:
415,44,43201,1,0,0:0:0:0:
415,44,43282,6,0,L|501:58,1,87.5,10|0,0:0|0:0,0:0:0:0:
232,95,43607,2,0,L|318:109,1,87.5,8|0,0:0|0:0,0:0:0:0:
49,146,43931,2,0,L|135:160,1,87.5,10|0,0:0|0:0,0:0:0:0:
318,109,44255,1,8,0:0:0:0:
460,346,44417,6,0,P|418:333|374:336,1,87.5,8|2,0:0|0:0,0:0:0:0:
487,147,44742,2,0,P|489:190|491:234,1,87.5,8|0,0:0|0:0,0:0:0:0:
415,44,45066,1,8,0:0:0:0:
271,194,45228,6,0,P|312:206|356:203,1,87.5,10|0,0:0|0:0,0:0:0:0:
67,222,45553,1,8,0:0:0:0:
133,340,45715,1,8,0:0:0:0:
143,344,45796,1,8,0:0:0:0:
153,348,45877,6,0,B|142:284|142:284|163:243|163:243|155:179,1,175,4|8,0:0|0:0,0:0:0:0:
359,36,46363,2,0,B|370:100|370:100|349:141|349:141|356:204,1,175,4|8,0:0|0:0,0:0:0:0:
36,125,46850,2,0,P|142:136|233:117,1,175,4|2,0:0|3:0,0:0:0:0:
311,288,47390,5,8,0:0:0:0:
311,288,47499,6,0,P|338:296|367:301,1,58.3333333333333,8|8,0:0|0:0,0:0:0:0:
261,208,47715,6,0,P|239:227|221:250,1,58.3333333333333,8|8,0:0|0:0,0:0:0:0:
356,204,47931,6,0,P|349:175|339:148,1,58.3333333333333,8|8,0:0|0:0,0:0:0:0:
256,356,48147,5,4,0:0:0:0:
256,356,48796,1,0,0:0:0:0:
177,225,48958,1,0,0:0:0:0:
177,225,49039,1,0,0:0:0:0:
177,225,49120,6,0,L|191:266,1,43.75,10|0,0:0|0:0,0:0:0:0:
335,225,49282,2,0,L|320:266,1,43.75,10|0,0:0|0:0,0:0:0:0:
140,136,49444,6,0,L|98:150,1,43.75,10|0,0:0|0:0,0:0:0:0:
372,134,49607,2,0,L|413:148,1,43.75,10|0,0:0|0:0,0:0:0:0:
256,28,49769,5,14,0:0:0:0:
256,28,50417,2,0,P|254:80|242:29,1,153.125,2|0,0:0|0:0,0:0:0:0:
348,35,51066,6,0,P|336:104|280:148,1,144.375004405975,6|0,0:0|0:0,0:0:0:0:
249,156,51390,2,0,P|295:169|337:192,1,96.250002937317,8|0,0:0|0:0,0:0:0:0:
496,153,51715,2,0,P|474:196|457:241,1,96.250002937317
306,290,52039,1,10,0:0:0:0:
498,342,52201,1,0,0:0:0:0:
368,223,52363,6,0,P|360:175|360:127,1,96.250002937317,2|0,0:0|0:0,0:0:0:0:
483,28,52688,2,0,P|490:75|490:123,1,96.250002937317,8|0,0:0|0:0,0:0:0:0:
381,339,53012,1,2,0:0:0:0:
265,202,53174,1,0,0:0:0:0:
104,280,53336,1,8,0:0:0:0:
146,70,53499,1,0,0:0:0:0:
146,70,53580,1,8,0:0:0:0:
146,70,53661,6,0,B|204:120|204:120|189:187,1,144.375004405975,2|0,0:0|0:0,0:0:0:0:
185,212,53985,1,8,0:0:0:0:
345,320,54147,2,0,P|299:309|251:306,1,96.250002937317,0|2,0:0|0:0,0:0:0:0:
90,198,54471,2,0,P|136:209|184:212,1,96.250002937317,0|8,0:0|0:0,0:0:0:0:
250,306,54796,1,0,0:0:0:0:
30,374,54958,6,0,B|20:325|20:325|27:279,1,96.250002937317,2|0,0:0|0:0,0:0:0:0:
76,75,55282,1,8,0:0:0:0:
227,126,55444,1,0,0:0:0:0:
255,121,55526,1,8,0:0:0:0:
283,117,55607,5,2,0:0:0:0:
146,172,55769,1,0,0:0:0:0:
283,227,55931,1,12,0:0:0:0:
146,282,56093,1,0,0:0:0:0:
283,337,56255,1,6,0:0:0:0:
298,360,56580,5,8,0:0:0:0:
134,294,56742,1,0,0:0:0:0:
298,228,56904,1,2,0:0:0:0:
134,162,57066,1,0,0:0:0:0:
298,95,57228,2,0,P|311:48|317:1,1,96.250002937317,8|0,0:0|0:0,0:0:0:0:
478,222,57553,6,0,L|334:206,1,144.375004405975,2|0,0:0|0:0,0:0:0:0:
298,228,57877,2,0,P|300:280|298:324,1,96.250002937317,8|0,0:0|0:0,0:0:0:0:
478,125,58201,2,0,P|475:177|478:221,1,96.250002937317,2|0,0:0|0:0,0:0:0:0:
298,22,58526,1,8,0:0:0:0:
214,185,58688,1,0,0:0:0:0:
214,185,58769,1,8,0:0:0:0:
214,185,58850,6,0,P|251:214|297:227,1,96.250002937317,2|0,0:0|0:0,0:0:0:0:
477,220,59174,1,8,0:0:0:0:
324,264,59336,1,0,0:0:0:0:
439,375,59499,1,2,0:0:0:0:
448,221,59661,1,0,0:0:0:0:
339,287,59823,1,8,0:0:0:0:
451,349,59985,1,0,0:0:0:0:
242,349,60147,6,0,B|178:329|106:349|106:349|130:333|141:305,1,192.500005874634,2|8,0:0|0:0,0:0:0:0:
35,153,60634,1,0,0:0:0:0:
30,176,60715,1,8,0:0:0:0:
24,200,60796,2,0,P|36:245|69:280,1,96.250002937317,2|0,0:0|0:0,0:0:0:0:
222,251,61120,1,12,0:0:0:0:
128,362,61282,1,0,0:0:0:0:
437,375,61444,6,0,B|449:311|449:311|432:252|432:252|439:187,1,192.500005874634,6|8,0:0|0:0,0:0:0:0:
448,66,61931,1,0,0:0:0:0:
286,259,62093,6,0,L|221:250,1,65.625,8|0,3:0|0:0,0:0:0:0:
67,338,62417,6,0,P|106:257|194:273,1,192.500005874634,14|8,0:0|3:0,0:0:0:0:
346,325,62904,1,0,0:0:0:0:
409,208,63066,2,0,P|445:239|468:281,1,96.250002937317,10|0,0:0|0:0,0:0:0:0:
286,259,63390,2,0,L|191:246,1,96.250002937317,2|0,0:0|0:0,0:0:0:0:
370,54,63715,1,10,0:0:0:0:
409,208,63877,1,0,0:0:0:0:
232,88,64039,6,0,P|185:104|136:112,1,98.4375037550928,6|0,0:0|0:0,0:0:0:0:
106,117,64363,1,8,0:0:0:0:
253,0,64526,1,0,0:0:0:0:
252,176,64688,6,0,P|314:194|380:200,1,131.25,6|0,0:0|0:0,0:0:0:0:
411,202,65012,1,8,0:0:0:0:
232,88,65174,1,0,0:0:0:0:
232,271,65336,6,0,P|153:293|71:297,1,164.0625,6|0,0:0|0:0,0:0:0:0:
38,292,65661,1,8,0:0:0:0:
252,176,65823,1,0,0:0:0:0:
251,365,65985,6,0,P|316:373|381:369,1,131.25000500679,6|0,0:0|0:0,0:0:0:0:
449,307,66228,2,0,P|424:330|404:355,1,65.6250025033952,4|4,3:0|3:0,0:0:0:0:
306,114,66471,2,0,L|299:48,1,65.6250025033952,8|8,0:0|0:0,0:0:0:0:
111,73,66634,6,0,P|77:133|103:197,1,144.375004405975,6|0,0:0|0:0,0:0:0:0:
116,209,66958,2,0,L|214:215,1,96.250002937317,8|0,0:0|0:0,0:0:0:0:
361,287,67282,2,0,L|263:293,1,96.250002937317
116,365,67607,2,0,L|214:371,1,96.250002937317,10|0,0:0|0:0,0:0:0:0:
457,281,67931,6,0,L|359:287,1,96.250002937317
116,209,68255,2,0,L|214:215,1,96.250002937317,8|0,0:0|0:0,0:0:0:0:
457,137,68580,2,0,L|359:143,1,96.250002937317,2|0,0:0|0:0,0:0:0:0:
116,65,68904,2,0,L|214:71,1,96.250002937317,8|0,0:0|0:0,0:0:0:0:
456,281,69228,6,0,P|410:333|340:336,1,144.375004405975,2|0,0:0|0:0,0:0:0:0:
317,324,69553,1,8,0:0:0:0:
456,138,69715,2,0,L|459:234,1,96.250002937317,0|2,0:0|0:0,0:0:0:0:
215,167,70039,2,0,L|211:70,1,96.250002937317,0|8,0:0|0:0,0:0:0:0:
315,275,70363,2,0,L|316:323,1,48.1250014686585
317,371,70526,6,0,L|126:350,1,192.500005874634,2|8,0:0|0:0,0:0:0:0:
215,167,71012,1,0,0:0:0:0:
215,191,71093,1,8,0:0:0:0:
216,215,71174,1,2,0:0:0:0:
303,145,71336,5,0,0:0:0:0:
128,237,71499,1,8,0:0:0:0:
304,237,71661,1,0,0:0:0:0:
127,145,71823,1,6,0:0:0:0:
109,135,72147,5,8,0:0:0:0:
321,246,72309,1,0,0:0:0:0:
110,246,72471,1,0,0:0:0:0:
320,135,72634,1,0,0:0:0:0:
309,371,72796,2,0,P|265:355|217:346,1,96.250002937317,10|0,0:0|0:0,0:0:0:0:
22,332,73120,6,0,P|9:262|23:192,1,144.375004405975,2|0,0:0|0:0,0:0:0:0:
39,170,73444,1,8,0:0:0:0:
216,215,73607,1,0,0:0:0:0:
393,260,73769,2,0,P|404:213|401:165,1,96.250002937317,2|0,0:0|0:0,0:0:0:0:
135,50,74093,2,0,P|123:96|126:144,1,96.250002937317,8|0,0:0|0:0,0:0:0:0:
246,315,74417,5,2,0:0:0:0:
216,215,74580,1,0,0:0:0:0:
145,291,74742,1,8,0:0:0:0:
393,260,74904,1,0,0:0:0:0:
397,283,74985,1,0,0:0:0:0:
401,307,75066,1,2,0:0:0:0:
216,215,75228,2,0,L|228:119,1,96.250002937317,0|8,0:0|0:0,0:0:0:0:
433,18,75553,2,0,P|443:39|445:63,1,48.1250014686585,0|0,1:0|0:0,0:0:0:0:
323,134,75715,6,0,L|227:119,1,96.250002937317,2|0,0:0|0:0,0:0:0:0:
393,260,76039,1,8,0:0:0:0:
126,144,76201,1,6,0:0:0:0:
445,63,76363,1,2,0:0:0:0:
277,253,76526,1,8,0:0:0:0:
277,253,76607,1,8,0:0:0:0:
277,253,76688,2,0,L|282:300,1,48.1250014686585,8|0,0:0|0:0,0:0:0:0:
76,276,76850,2,0,L|81:323,1,48.1250014686585,8|0,0:0|0:0,0:0:0:0:
182,313,77012,6,0,L|160:121,1,192.500005874634,6|8,0:0|0:0,0:0:0:0:
323,134,77499,1,0,0:0:0:0:
416,238,77661,6,0,P|404:269|395:301,1,65.625,8|0,3:0|0:0,0:0:0:0:
470,331,77985,6,0,P|408:263|316:272,1,192.500005874634,14|8,0:0|3:0,0:0:0:0:
81,323,78471,1,0,0:0:0:0:
270,364,78634,6,0,P|279:330|281:295,1,70,2|0,0:0|0:0,0:0:0:0:
156,228,78958,2,0,P|180:252|209:272,1,70,2|0,0:0|0:0,0:0:0:0:
330,197,79282,2,0,P|296:205|264:220,1,70,10|0,0:0|0:0,0:0:0:0:
33,96,79607,6,0,L|224:118,1,192.500005874634,6|8,0:0|0:0,0:0:0:0:
281,295,80093,1,0,0:0:0:0:
105,237,80255,6,0,P|87:265|81:297,1,65.625,8|0,3:0|0:0,0:0:0:0:
5,349,80580,6,0,P|81:297|163:337,1,192.500005874634,14|8,0:0|3:0,0:0:0:0:
416,263,81066,2,0,L|368:268,1,48.1250014686585
281,295,81228,6,0,L|284:225,1,70,8|0,0:0|0:0,0:0:0:0:
343,31,81553,1,8,3:0:0:0:
453,99,81715,1,8,0:0:0:0:
257,80,81877,1,12,0:0:0:0:
367,148,82039,1,8,0:0:0:0:
171,129,82201,6,0,L|30:93,1,144.375004405975,6|0,0:0|0:0,0:0:0:0:
12,88,82526,1,8,0:0:0:0:
138,247,82688,2,0,P|182:227|228:217,1,96.250002937317
368,267,83012,1,0,0:0:0:0:
257,80,83174,1,8,0:0:0:0:
188,321,83336,6,0,P|118:333|62:292,1,144.375004405975,6|0,0:0|0:0,0:0:0:0:
53,273,83661,1,0,0:0:0:0:
330,197,83823,1,8,0:0:0:0:
185,34,83985,6,0,P|171:80|170:128,1,96.250002937317,6|0,0:0|0:0,0:0:0:0:
307,324,84309,1,8,0:0:0:0:
330,321,84390,1,8,0:0:0:0:
354,319,84471,1,8,0:0:0:0:
185,253,84634,1,8,0:0:0:0:
162,250,84715,1,8,0:0:0:0:
138,248,84796,6,0,L|312:232,1,175,6|0,0:0|0:0,0:0:0:0:
63,158,85282,2,0,P|22:233|44:316,1,175,4|8,0:0|0:0,0:0:0:0:
387,322,85769,2,0,P|427:246|405:163,1,175,6|0,0:0|0:0,0:0:0:0:
405,163,86255,1,8,0:0:0:0:
138,248,86417,6,0,L|225:240,1,87.5,4|0,0:0|0:0,0:0:0:0:
268,236,86661,1,8,0:0:0:0:
312,232,86742,1,8,0:0:0:0:
211,88,86904,1,8,0:0:0:0:
465,42,87066,6,0,B|449:76|449:76|473:103|473:103|445:150|465:201,1,175,6|0,0:0|0:0,0:0:0:0:
392,335,87553,1,0,0:0:0:0:
478,349,87715,2,0,L|391:334,1,87.5,8|0,0:0|0:0,0:0:0:0:
34,349,88039,1,2,0:0:0:0:
120,335,88201,1,2,0:0:0:0:
34,349,88363,2,0,L|39:261,1,87.5,8|0,0:0|0:0,0:0:0:0:
50,93,88688,6,0,B|65:116|65:116|100:68|145:62|200:90,1,175,4|0,0:0|0:0,0:0:0:0:
392,124,89174,1,0,0:0:0:0:
212,217,89336,2,0,B|162:207|142:153|142:153|111:176|108:217,1,175,4|0,0:0|0:0,0:0:0:0:
153,297,89823,1,0,0:0:0:0:
240,326,89985,6,0,L|304:316,1,65.6250025033952,4|0,0:0|0:0,0:0:0:0:
460,367,90309,1,8,0:0:0:0:
460,265,90471,1,0,0:0:0:0:
363,233,90634,1,0,0:0:0:0:
304,316,90796,1,0,0:0:0:0:
460,265,90958,1,8,0:0:0:0:
460,163,91120,1,0,0:0:0:0:
366,127,91282,6,0,L|301:117,1,65.6250025033952,2|0,0:0|0:0,0:0:0:0:
119,275,91607,1,8,0:0:0:0:
40,128,91769,1,0,0:0:0:0:
41,144,91850,1,0,0:0:0:0:
42,160,91931,1,0,0:0:0:0:
114,195,92093,1,0,0:0:0:0:
47,240,92255,1,8,0:0:0:0:
119,275,92417,1,0,0:0:0:0:
52,320,92580,5,2,0:0:0:0:
114,195,92742,1,0,0:0:0:0:
191,311,92904,1,8,0:0:0:0:
119,275,93066,1,0,0:0:0:0:
253,186,93228,1,2,0:0:0:0:
263,347,93390,1,0,0:0:0:0:
186,231,93553,1,8,0:0:0:0:
124,355,93715,1,0,0:0:0:0:
257,267,93877,6,0,P|290:270|318:287,1,65.6250025033952,2|0,0:0|0:0,0:0:0:0:
453,170,94201,1,8,0:0:0:0:
301,117,94363,1,0,0:0:0:0:
285,120,94444,1,0,0:0:0:0:
269,124,94526,1,2,0:0:0:0:
425,74,94688,1,0,0:0:0:0:
385,216,94850,2,0,P|373:185|372:152,1,65.6250025033952,8|0,0:0|0:0,0:0:0:0:
225,29,95174,5,2,0:0:0:0:
264,126,95336,1,0,0:0:0:0:
160,111,95499,1,8,0:0:0:0:
217,34,95661,5,2,0:0:0:0:
256,131,95823,1,0,0:0:0:0:
152,116,95985,1,0,0:0:0:0:
209,39,96147,5,10,0:0:0:0:
248,136,96309,1,0,0:0:0:0:
144,121,96471,1,0,0:0:0:0:
303,345,96634,5,2,0:0:0:0:
264,248,96796,1,8,0:0:0:0:
368,263,96958,1,0,0:0:0:0:
376,261,97039,1,0,0:0:0:0:
384,259,97120,5,2,0:0:0:0:
423,162,97282,1,0,0:0:0:0:
264,248,97444,5,8,0:0:0:0:
303,345,97607,1,0,0:0:0:0:
224,151,97769,6,0,P|230:118|238:86,1,65.6250025033952,2|0,0:0|0:0,0:0:0:0:
264,248,98093,1,8,0:0:0:0:
161,234,98255,2,0,P|135:212|111:190,1,65.6250025033952,2|0,0:0|0:0,0:0:0:0:
264,248,98580,1,0,0:0:0:0:
200,331,98742,2,0,P|169:342|137:351,1,65.6250025033952,10|0,0:0|0:0,0:0:0:0:
264,248,99066,5,0,0:0:0:0:
328,331,99228,2,0,P|358:342|390:351,1,65.6250025033952,2|8,0:0|0:0,0:0:0:0:
444,104,99553,1,0,0:0:0:0:
444,104,99634,1,0,0:0:0:0:
444,104,99715,5,2,0:0:0:0:
340,160,99877,1,0,0:0:0:0:
215,39,100039,1,14,0:0:0:0:
140,223,100201,1,0,0:0:0:0:
57,58,100363,6,0,P|134:18|217:40,1,175,6|8,0:0|0:0,0:0:0:0:
340,160,100850,1,0,0:0:0:0:
140,223,101012,2,0,L|146:136,1,87.5,2|0,0:0|0:0,0:0:0:0:
287,280,101336,1,8,0:0:0:0:
192,342,101499,1,0,0:0:0:0:
261,201,101661,6,0,P|324:204|368:252,1,131.25,2|0,0:0|0:0,0:0:0:0:
372,274,101985,2,0,L|458:262,1,87.5,8|0,0:0|0:0,0:0:0:0:
278,354,102309,2,0,L|192:342,1,87.5,2|0,0:0|0:0,0:0:0:0:
31,306,102634,1,8,0:0:0:0:
175,223,102796,1,0,0:0:0:0:
15,312,102958,6,0,P|8:247|27:184,1,131.25,2|0,0:0|0:0,0:0:0:0:
22,167,103282,2,0,P|66:172|109:166,1,87.5,8|0,0:0|0:0,0:0:0:0:
154,63,103607,2,0,P|110:58|67:64,1,87.5,2|0,0:0|0:0,0:0:0:0:
197,256,103931,1,8,0:0:0:0:
109,166,104093,1,0,0:0:0:0:
245,24,104255,6,0,B|263:86|263:86|255:152,1,131.25,2|0,0:0|0:0,0:0:0:0:
248,170,104580,2,0,P|280:141|322:131,1,87.5,8|0,0:0|0:0,0:0:0:0:
467,72,104904,2,0,L|477:158,1,87.5,12|0,0:0|0:0,0:0:0:0:
477,158,105147,1,8,0:0:0:0:
477,158,105228,1,8,0:0:0:0:
344,343,105390,1,8,0:0:0:0:
344,343,105471,1,8,0:0:0:0:
344,343,105553,6,0,P|277:289|192:294,1,175,6|8,0:0|0:0,0:0:0:0:
450,291,106039,1,0,0:0:0:0:
297,210,106201,6,0,P|264:204|231:201,1,65.625
191,294,106526,6,0,P|205:207|199:120,1,175,14|0,0:0|0:0,0:0:0:0:
82,224,107012,1,0,0:0:0:0:
296,210,107174,2,0,P|339:201|383:195,1,87.5,8|0,0:0|0:0,0:0:0:0:
203,55,107499,6,0,P|198:87|199:119,1,65.625
240,44,107823,6,0,P|177:28|112:26,1,131.25,14|0,0:0|0:0,0:0:0:0:
90,31,108147,6,0,P|47:100|103:160,1,175,2|8,0:0|0:0,0:0:0:0:
409,224,108796,1,0,0:0:0:0:
422,353,108958,1,0,0:0:0:0:
303,299,109120,1,8,0:0:0:0:
303,299,109444,5,14,0:0:0:0:
325,97,109607,1,0,0:0:0:0:
139,179,109769,1,0,0:0:0:0:
372,204,109931,5,14,0:0:0:0:
186,286,110093,1,0,0:0:0:0:
209,85,110255,1,0,0:0:0:0:
281,340,110417,2,0,L|289:252,1,87.5,14|0,0:0|0:0,0:0:0:0:
139,179,110742,5,12,0:0:0:0:
43,265,110904,2,0,P|19:228|9:186,1,87.5,10|0,0:0|0:0,0:0:0:0:
235,93,111228,2,0,P|258:129|268:171,1,87.5,10|0,0:0|0:0,0:0:0:0:
139,179,111553,1,0,0:0:0:0:
281,340,111715,1,8,0:0:0:0:
130,266,111877,6,0,P|86:262|42:264,1,87.5,10|0,0:0|0:0,0:0:0:0:
325,97,112201,1,10,0:0:0:0:
325,97,113336,5,8,0:0:0:0:
349,269,113499,2,0,L|336:182,1,87.5,10|0,0:0|0:0,0:0:0:0:
313,11,113823,2,0,L|325:97,1,87.5,10|0,0:0|0:0,0:0:0:0:
261,149,114147,1,0,0:0:0:0:
399,129,114309,1,8,0:0:0:0:
175,161,114471,6,0,L|261:149,1,87.5,10|0,0:0|0:0,0:0:0:0:
399,129,114796,1,10,0:0:0:0:
399,129,115282,6,0,L|411:215,1,87.5,8|0,3:2|0:0,0:0:0:0:
467,273,115526,2,0,P|448:284|428:293,1,43.75,8|8,0:0|0:0,0:0:0:0:
243,366,115769,2,0,P|224:354|204:345,1,43.75,8|8,0:0|0:0,0:0:0:0:
189,258,115931,6,0,P|134:293|73:316,1,131.25,6|0,0:0|0:0,0:0:0:0:
53,315,116255,1,8,0:0:0:0:
185,150,116417,6,0,P|243:180|293:221,1,131.25,6|0,0:0|0:0,0:0:0:0:
302,240,116742,1,8,0:0:0:0:
93,209,116904,6,0,P|90:143|101:78,1,131.25,6|0,0:0|0:0,0:0:0:0:
112,61,117228,1,0,0:0:0:0:
189,258,117390,5,8,0:0:0:0:
185,150,117553,1,8,0:0:0:0:
53,315,117715,1,8,0:0:0:0:
302,240,117877,1,8,0:0:0:0:
93,209,118039,1,8,0:0:0:0:
341,346,118201,2,0,P|385:338|428:333,1,87.5,12|0,0:0|0:0,0:0:0:0:
441,72,118526,6,0,P|402:123|399:188,1,131.25,6|0,0:0|0:0,0:0:0:0:
406,208,118850,2,0,P|364:194|321:187,1,87.5,8|0,0:0|0:0,0:0:0:0:
93,209,119174,1,2,0:0:0:0:
186,132,119336,1,2,0:0:0:0:
105,295,119499,2,0,L|92:208,1,87.5,8|0,0:0|0:0,0:0:0:0:
25,58,119823,5,6,0:0:0:0:
250,181,119985,2,0,P|260:98|191:51,1,175,8|0,0:0|0:0,0:0:0:0:
105,295,120471,5,8,0:0:0:0:
105,295,120634,2,0,P|126:292|148:290,1,43.75,4|4,3:0|3:0,0:0:0:0:
291,356,120796,5,8,0:0:0:0:
291,356,120958,2,0,P|269:358|247:360,1,43.75,4|4,3:0|3:0,0:0:0:0:
92,208,121120,6,0,P|72:139|97:73,1,144.375004405975,6|0,0:0|0:0,0:0:0:0:
112,63,121444,2,0,L|206:81,1,96.250002937317,8|0,0:0|0:0,0:0:0:0:
399,188,121769,1,0,0:0:0:0:
280,148,121931,1,0,0:0:0:0:
320,29,122093,1,10,0:0:0:0:
439,69,122255,1,0,0:0:0:0:
399,188,122417,6,0,L|387:283,1,96.250002937317,2|0,0:0|0:0,0:0:0:0:
153,335,122742,2,0,L|164:239,1,96.250002937317,8|0,0:0|0:0,0:0:0:0:
280,148,123066,2,0,L|268:243,1,96.250002937317,2|0,0:0|0:0,0:0:0:0:
34,295,123390,2,0,L|45:199,1,96.250002937317,8|0,0:0|0:0,0:0:0:0:
47,175,123634,1,8,0:0:0:0:
49,150,123715,6,0,P|103:76|195:83,1,192.500005874634,2|8,0:0|0:0,0:0:0:0:
362,97,124201,2,0,P|320:121|279:147,1,96.250002937317,0|2,0:0|0:0,0:0:0:0:
163,239,124526,2,0,P|205:262|247:285,1,96.250002937317,0|8,0:0|0:0,0:0:0:0:
279,147,124850,1,0,0:0:0:0:
386,341,125012,6,0,P|385:292|383:244,1,96.250002937317,2|0,0:0|0:0,0:0:0:0:
195,83,125336,1,8,0:0:0:0:
362,97,125499,1,8,3:0:0:0:
385,91,125580,1,8,3:0:0:0:
409,85,125661,2,0,P|375:25|306:18,1,144.375004405975,2|0,0:0|0:0,0:0:0:0:
270,84,125985,2,0,P|236:144|167:151,1,144.375004405975,8|0,0:0|0:0,0:0:0:0:
195,83,126309,6,0,P|204:154|197:225,1,144.375004405975,6|0,0:0|0:0,0:0:0:0:
182,243,126634,1,8,0:0:0:0:
325,187,126796,1,0,0:0:0:0:
161,252,126958,1,2,0:0:0:0:
318,284,127120,1,0,0:0:0:0:
143,258,127282,1,8,0:0:0:0:
263,364,127444,1,0,0:0:0:0:
124,254,127607,6,0,P|76:245|28:244,1,96.250002937317,2|0,0:0|0:0,0:0:0:0:
229,177,127931,2,0,P|276:185|324:186,1,96.250002937317,8|0,0:0|0:0,0:0:0:0:
166,47,128255,2,0,P|141:88|110:124,1,96.250002937317,2|0,0:0|0:0,0:0:0:0:
28,244,128580,1,8,0:0:0:0:
257,317,128742,1,0,0:0:0:0:
259,340,128823,1,0,0:0:0:0:
263,364,128904,6,0,L|406:350,1,144.375004405975,2|0,0:0|0:0,0:0:0:0:
424,348,129228,1,8,0:0:0:0:
174,251,129390,2,0,P|156:295|153:343,1,96.250002937317,0|2,0:0|0:0,0:0:0:0:
324,185,129715,2,0,P|321:137|303:92,1,96.250002937317,0|8,0:0|0:0,0:0:0:0:
109,124,130039,1,0,0:0:0:0:
263,264,130201,6,0,B|331:283|331:283|378:262|378:262|444:282,1,192.500005874634,2|8,0:0|0:0,0:0:0:0:
303,92,130688,1,0,0:0:0:0:
296,72,130769,1,8,0:0:0:0:
289,52,130850,1,2,0:0:0:0:
435,144,131012,1,0,0:0:0:0:
208,138,131174,2,0,L|113:120,1,96.250002937317,12|0,0:0|0:0,0:0:0:0:
227,239,131499,6,0,P|302:184|303:92,1,192.500005874634,6|8,0:0|0:0,0:0:0:0:
208,138,131985,1,0,0:0:0:0:
327,272,132147,6,0,P|359:269|390:274,1,65.625,8|0,3:0|0:0,0:0:0:0:
453,311,132471,6,0,L|260:301,1,192.500005874634,14|8,0:0|3:0,0:0:0:0:
167,312,132958,1,0,0:0:0:0:
75,324,133120,5,10,0:0:0:0:
32,213,133282,1,0,0:0:0:0:
167,312,133444,5,2,0:0:0:0:
152,150,133607,1,0,0:0:0:0:
260,301,133769,5,10,0:0:0:0:
272,87,133931,1,0,0:0:0:0:
166,312,134093,6,0,P|215:316|261:335,1,98.4375037550928,6|0,0:0|0:0,0:0:0:0:
280,349,134417,1,8,0:0:0:0:
113,189,134580,1,0,0:0:0:0:
307,255,134742,6,0,P|243:267|185:299,1,131.25,6|0,0:0|0:0,0:0:0:0:
166,312,135066,1,8,0:0:0:0:
418,124,135228,1,0,0:0:0:0:
141,177,135390,6,0,P|220:195|287:242,1,164.0625,6|0,0:0|0:0,0:0:0:0:
307,255,135715,1,8,0:0:0:0:
53,12,135877,1,0,0:0:0:0:
352,62,136039,6,0,P|287:74|230:105,1,131.25000500679,6|0,0:0|0:0,0:0:0:0:
140,177,136282,2,0,L|149:112,1,65.6250025033952,4|4,3:0|3:0,0:0:0:0:
448,276,136526,2,0,L|456:341,1,65.6250025033952,8|8,0:0|0:0,0:0:0:0:
285,327,136688,6,0,B|235:309|235:309|193:317|193:317|146:299,1,144.375004405975,6|0,0:0|0:0,0:0:0:0:
132,296,137012,2,0,L|37:315,1,96.250002937317,8|0,0:0|0:0,0:0:0:0:
149,111,137336,2,0,L|168:205,1,96.250002937317
285,327,137661,1,10,0:0:0:0:
388,295,137823,1,0,0:0:0:0:
261,186,137985,6,0,B|200:212|200:212|136:199|136:199|77:221,2,192.500005874634,2|8|2,0:0|0:0|0:0,0:0:0:0:
132,296,138796,1,0,0:0:0:0:
91,125,138958,2,0,L|78:220,1,96.250002937317,8|0,0:0|0:0,0:0:0:0:
278,333,139282,6,0,B|343:301|343:301|413:314,1,144.375004405975,2|0,0:0|0:0,0:0:0:0:
440,320,139607,1,8,0:0:0:0:
470,152,139769,2,0,P|436:185|407:223,1,96.250002937317,0|2,0:0|0:0,0:0:0:0:
472,32,140093,2,0,P|423:30|376:37,1,96.250002937317,0|8,0:0|0:0,0:0:0:0:
261,186,140417,1,0,0:0:0:0:
21,65,140580,6,0,P|104:29|168:93,1,192.500005874634,2|8,0:0|0:0,0:0:0:0:
261,186,141066,1,0,0:0:0:0:
263,162,141147,1,8,0:0:0:0:
266,138,141228,5,2,0:0:0:0:
155,207,141390,1,0,0:0:0:0:
304,255,141553,1,8,0:0:0:0:
117,323,141715,1,0,0:0:0:0:
341,370,141877,6,0,P|386:354|433:345,1,96.250002937317,6|0,0:0|0:0,0:0:0:0:
327,161,142201,2,0,L|304:255,1,96.250002937317,8|0,0:0|0:0,0:0:0:0:
117,323,142526,2,0,L|93:229,1,96.250002937317,2|0,0:0|0:0,0:0:0:0:
351,68,142850,1,8,0:0:0:0:
420,134,143012,1,0,0:0:0:0:
420,134,143093,1,0,0:0:0:0:
420,134,143174,5,2,0:0:0:0:
258,95,143336,1,0,0:0:0:0:
444,41,143499,1,8,0:0:0:0:
327,161,143661,1,0,0:0:0:0:
189,29,143823,2,0,L|93:40,1,96.250002937317,2|0,0:0|0:0,0:0:0:0:
94,229,144147,2,0,L|189:217,1,96.250002937317,8|0,0:0|0:0,0:0:0:0:
372,302,144471,5,2,0:0:0:0:
327,161,144634,1,0,0:0:0:0:
375,308,144796,1,8,0:0:0:0:
462,173,144958,1,0,0:0:0:0:
465,149,145039,1,0,0:0:0:0:
469,125,145120,1,2,0:0:0:0:
378,312,145282,1,0,0:0:0:0:
324,155,145444,1,8,0:0:0:0:
237,290,145607,2,0,L|224:342,1,48.1250014686585,0|0,1:0|0:0,0:0:0:0:
32,250,145769,6,0,L|127:241,1,96.250002937317,2|0,0:0|0:0,0:0:0:0:
206,57,146093,1,8,0:0:0:0:
321,149,146255,1,4,0:0:0:0:
361,42,146417,1,2,0:0:0:0:
172,176,146580,1,8,0:0:0:0:
171,27,146742,1,8,0:0:0:0:
361,190,146904,1,8,0:0:0:0:
361,190,146985,1,8,0:0:0:0:
361,190,147066,6,0,B|347:331|347:331|389:302,1,192.500005874634,6|8,0:0|0:0,0:0:0:0:
467,225,147553,1,0,0:0:0:0:
282,220,147715,6,0,L|275:285,1,65.625,8|0,3:0|0:0,0:0:0:0:
389,302,148039,6,0,L|197:281,1,192.500005874634,14|8,0:0|3:0,0:0:0:0:
107,164,148526,1,0,0:0:0:0:
50,301,148688,2,0,P|53:266|65:233,1,70,2|0,0:0|0:0,0:0:0:0:
197,281,149012,2,0,P|165:295|130:301,1,70,2|0,0:0|0:0,0:0:0:0:
107,164,149336,2,0,P|135:184|158:210,1,70,10|0,0:0|0:0,0:0:0:0:
391,304,149661,6,0,B|369:211|369:211|390:116,1,192.500005874634,6|8,0:0|0:0,0:0:0:0:
206,57,150147,1,0,0:0:0:0:
291,164,150309,6,0,P|259:169|226:168,1,65.625,8|0,3:0|0:0,0:0:0:0:
107,163,150634,6,0,P|195:174|199:262,1,192.500005874634,14|8,0:0|3:0,0:0:0:0:
206,57,151120,1,0,0:0:0:0:
84,243,151282,6,0,P|53:227|29:201,1,70,8|0,0:0|0:0,0:0:0:0:
296,219,151607,1,2,0:0:0:0:
180,353,151769,1,2,0:0:0:0:
193,192,151931,2,0,L|198:261,1,70,12|0,0:0|0:0,0:0:0:0:
394,372,152255,6,0,L|407:179,1,192.500005874634,6|8,0:0|0:0,0:0:0:0:
206,57,152742,1,0,0:0:0:0:
206,57,152904,2,0,P|253:60|301:56,1,96.250002937317,2|0,0:0|0:0,0:0:0:0:
427,47,153228,1,8,0:0:0:0:
463,247,153390,6,0,P|372:258|315:186,1,192.500005874634,6|0,0:0|0:0,0:0:0:0:
301,56,153877,1,8,0:0:0:0:
407,179,154039,2,0,L|400:275,1,96.250002937317,6|0,0:0|0:0,0:0:0:0:
228,124,154363,1,8,0:0:0:0:
228,124,154444,1,8,0:0:0:0:
228,124,154526,1,8,0:0:0:0:
83,314,154688,1,8,0:0:0:0:
83,314,154769,1,8,0:0:0:0:
83,314,154850,6,0,P|88:250|142:218,1,131.25000500679,6|0,0:0|0:0,0:0:0:0:
228,124,155336,1,0,0:0:0:0:
262,243,155499,2,0,P|292:255|324:261,1,65.6250025033952,10|0,0:0|0:0,0:0:0:0:
300,54,155823,1,0,0:0:0:0:
228,124,155985,1,0,0:0:0:0:
325,152,156147,5,2,0:0:0:0:
203,26,156309,1,8,0:0:0:0:
155,195,156471,2,0,L|150:260,1,65.6250025033952
54,355,156796,2,0,L|58:289,1,65.6250025033952,10|0,0:0|0:0,0:0:0:0:
262,243,157120,2,0,L|257:308,1,65.6250025033952
40,192,157444,6,0,B|22:142|22:142|52:69,1,131.25000500679,2|0,0:0|0:0,0:0:0:0:
151,29,157931,1,0,0:0:0:0:
220,204,158093,2,0,L|154:198,1,65.6250025033952,10|0,0:0|0:0,0:0:0:0:
300,54,158417,2,0,L|365:48,1,65.6250025033952
450,238,158742,5,2,0:0:0:0:
349,157,158904,1,8,0:0:0:0:
469,110,159066,1,0,0:0:0:0:
469,110,159390,5,10,0:0:0:0:
450,238,159553,1,0,0:0:0:0:
431,366,159715,1,8,3:0:0:0:
431,366,160039,6,0,L|414:235,1,131.25000500679,2|0,0:0|0:0,0:0:0:0:
275,104,160526,1,0,0:0:0:0:
222,178,160688,1,10,0:0:0:0:
349,157,160850,1,0,0:0:0:0:
328,30,161012,1,0,0:0:0:0:
201,51,161174,1,0,0:0:0:0:
222,178,161336,6,0,P|222:210|217:243,2,65.6250025033952,2|8|8,0:0|0:0|0:0,0:0:0:0:
201,51,161823,1,0,0:0:0:0:
28,90,161985,2,0,P|22:122|23:155,1,65.6250025033952,8|0,0:0|0:0,0:0:0:0:
46,209,162228,1,8,3:0:0:0:
71,216,162309,1,8,3:0:0:0:
64,328,162471,1,8,0:0:0:0:
89,335,162553,1,8,0:0:0:0:
114,342,162634,6,0,L|200:330,1,87.5,14|0,0:0|0:0,0:0:0:0:
414,235,162958,2,0,L|327:246,1,87.5,8|0,0:0|0:0,0:0:0:0:
46,209,163282,2,0,L|132:197,1,87.5,8|0,0:0|0:0,0:0:0:0:
346,102,163607,2,0,L|259:113,1,87.5,8|8,0:0|0:0,0:0:0:0:
132,196,163931,6,0,L|143:110,1,87.5,10|8,0:0|0:0,0:0:0:0:
326,245,164255,2,0,L|316:332,1,87.5,8|0,0:0|0:0,0:0:0:0:
259,112,164580,2,0,L|270:26,1,87.5,8|8,0:0|0:0,0:0:0:0:
453,161,164904,2,0,L|443:248,1,87.5,8|8,0:0|0:0,0:0:0:0:
200,329,165228,5,10,0:0:0:0:
326,245,165390,1,8,0:0:0:0:
132,196,165553,1,8,0:0:0:0:
239,254,165715,1,8,0:0:0:0:
171,121,165877,5,8,0:0:0:0:
113,338,166039,1,8,0:0:0:0:
284,325,166201,1,10,0:0:0:0:
132,196,166363,1,8,0:0:0:0:
303,183,166526,5,8,0:0:0:0:
200,329,166688,1,8,0:0:0:0:
171,121,166850,1,8,0:0:0:0:
371,316,167012,1,8,0:0:0:0:
217,201,167174,6,0,L|302:182,1,87.5,14|0,0:0|0:0,0:0:0:0:
324,178,167417,1,8,3:0:0:0:
345,173,167499,2,0,L|335:130,1,43.75,8|0,3:0|0:0,0:0:0:0:
427,45,167661,2,0,L|436:87,1,43.75,8|8,0:0|0:0,0:0:0:0:
511,212,167823,6,0,P|456:247|432:307,1,131.25,6|0,0:0|0:0,0:0:0:0:
434,335,168147,1,8,0:0:0:0:
243,280,168309,1,0,0:0:0:0:
330,109,168471,6,0,L|345:173,1,65.625,8|0,3:0|0:0,0:0:0:0:
380,57,168796,6,0,P|298:43|256:114,1,175,14|8,0:0|3:0,0:0:0:0:
345,173,169282,1,0,0:0:0:0:
186,62,169444,2,0,L|12:42,2,175,8|10|8,0:0|0:0|0:0,0:0:0:0:
108,225,170255,1,0,0:0:0:0:
108,225,170336,1,0,0:0:0:0:
108,225,170417,6,0,P|101:182|109:139,1,87.5,6|0,0:0|0:0,0:0:0:0:
256,114,170742,1,8,0:0:0:0:
256,114,170904,1,0,0:0:0:0:
156,300,171066,6,0,P|120:274|96:238,1,87.5,2|0,0:0|0:0,0:0:0:0:
256,114,171390,1,8,0:0:0:0:
256,114,171553,1,0,0:0:0:0:
242,319,171715,6,0,P|199:325|156:317,1,87.5,2|0,0:0|0:0,0:0:0:0:
256,114,172039,1,8,0:0:0:0:
256,114,172201,1,0,0:0:0:0:
441,211,172363,6,0,L|435:298,1,87.5,2|0,3:0|0:0,0:0:0:0:
418,312,172607,2,0,L|421:356,1,43.75,4|4,3:0|3:0,0:0:0:0:
503,102,172850,6,0,P|420:81|348:127,1,175,6|0,0:0|0:0,0:0:0:0:
237,254,173336,2,0,P|241:210|239:166,1,87.5,8|0,0:0|0:0,0:0:0:0:
350,38,173661,2,0,P|345:82|348:126,1,87.5
239,166,173985,1,8,0:0:0:0:
441,211,174147,1,2,0:0:0:0:
357,311,174309,6,0,P|331:275|314:235,1,87.5
349,39,174634,1,8,0:0:0:0:
349,39,174796,1,0,0:0:0:0:
141,123,174958,1,2,0:0:0:0:
229,192,175120,1,2,0:0:0:0:
245,81,175282,1,8,0:0:0:0:
53,54,175444,1,8,3:0:0:0:
47,63,175526,1,8,3:0:0:0:
41,72,175607,6,0,L|45:203,1,131.25,2|0,0:0|0:0,0:0:0:0:
42,220,175931,2,0,P|103:199|162:225,1,131.25,8|0,0:0|0:0,0:0:0:0:
173,238,176255,1,2,0:0:0:0:
77,368,176417,2,0,P|82:324|99:285,1,87.5,2|8,0:0|0:0,0:0:0:0:
237,167,176742,1,0,0:0:0:0:
346,268,176904,5,0,0:0:0:0:
346,268,177066,2,0,L|259:278,1,87.5,2|8,0:0|0:0,0:0:0:0:
150,156,177390,2,0,L|236:166,1,87.5,2|0,0:0|0:0,0:0:0:0:
100,285,177715,1,0,0:0:0:0:
259,278,177877,2,0,L|345:288,1,87.5,8|0,0:0|0:0,0:0:0:0:
431,298,178120,1,8,0:0:0:0:
452,300,178201,6,0,P|460:258|462:214,1,87.5,2|0,0:0|0:0,0:0:0:0:
333,88,178526,1,8,0:0:0:0:
236,166,178688,1,0,0:0:0:0:
236,166,178850,1,0,0:0:0:0:
353,212,179012,1,2,0:0:0:0:
247,79,179174,2,0,L|235:165,1,87.5,8|0,0:0|0:0,0:0:0:0:
341,306,179499,5,2,0:0:0:0:
461,213,179661,2,0,P|436:176|409:142,1,87.5,2|8,0:0|0:0,0:0:0:0:
255,316,179985,2,0,P|298:313|341:306,1,87.5,2|0,0:0|0:0,0:0:0:0:
269,85,180309,2,0,P|249:124|234:165,1,87.5,2|8,0:0|0:0,0:0:0:0:
99,238,180634,1,8,3:0:0:0:
77,236,180715,1,8,3:0:0:0:
55,234,180796,6,0,L|43:147,1,87.5,2|0,0:0|0:0,0:0:0:0:
223,78,181120,2,0,L|234:164,1,87.5,8|0,0:0|0:0,0:0:0:0:
278,375,181444,1,2,0:0:0:0:
300,373,181526,1,0,0:0:0:0:
321,366,181607,1,0,0:0:0:0:
339,354,181688,1,0,0:0:0:0:
354,338,181769,2,0,L|348:294,1,43.75,10|0,0:0|0:0,0:0:0:0:
192,134,181931,2,0,L|198:178,1,43.75
122,238,182093,5,2,0:0:0:0:
156,264,182174,1,0,0:0:0:0:
199,273,182255,1,0,0:0:0:0:
241,263,182336,1,0,0:0:0:0:
275,236,182417,1,8,0:0:0:0:
309,209,182499,1,0,0:0:0:0:
351,199,182580,1,0,0:0:0:0:
394,208,182661,1,0,0:0:0:0:
429,235,182742,1,6,0:0:0:0:
192,134,182904,5,0,0:0:0:0:
192,134,182985,1,8,0:0:0:0:
192,134,183066,1,8,0:0:0:0:
354,338,183228,1,8,0:0:0:0:
354,338,183309,1,8,0:0:0:0:
354,338,183390,6,0,L|351:206,1,131.25,6|0,0:0|0:0,0:0:0:0:
351,199,183715,1,8,0:0:0:0:
241,263,183877,1,0,0:0:0:0:
131,327,184039,6,0,L|67:308,1,65.625,8|0,3:0|0:0,0:0:0:0:
0,176,184363,6,0,B|37:130|37:130|148:162,1,175,14|8,0:0|3:0,0:0:0:0:
241,263,184850,2,0,L|237:306,2,43.75,0|0|8,0:0|0:0|0:0,0:0:0:0:
150,33,185174,1,0,0:0:0:0:
148,162,185336,2,0,P|184:138|226:125,1,87.5,2|0,0:0|0:0,0:0:0:0:
347,24,185661,2,0,L|374:108,1,87.5,8|0,0:0|0:0,0:0:0:0:
454,315,185985,6,0,P|410:311|366:307,2,87.5,6|0|8,0:0|0:0|0:0,0:0:0:0:
462,174,186471,1,2,0:0:0:0:
293,355,186634,2,0,P|280:292|313:237,1,131.25
331,224,186958,1,8,0:0:0:0:
454,315,187120,1,0,0:0:0:0:
462,174,187282,6,0,L|467:86,1,87.5,2|0,0:0|0:0,0:0:0:0:
414,33,187526,2,0,P|401:50|394:70,1,43.75,2|8,0:0|0:0,0:0:0:0:
331,224,187769,2,0,P|323:203|310:186,1,43.75,2|0,0:0|0:0,0:0:0:0:
212,104,187931,6,0,L|125:113,1,87.5,8|0,3:0|0:0,0:0:0:0:
38,122,188174,1,8,0:0:0:0:
17,124,188255,1,8,0:0:0:0:
199,259,188417,1,8,0:0:0:0:
220,261,188498,1,8,0:0:0:0:
241,263,188580,6,0,L|414:283,1,175,6|8,0:0|0:0,0:0:0:0:
311,174,189066,1,0,0:0:0:0:
171,352,189228,1,8,3:0:0:0:
171,352,189390,1,0,0:0:0:0:
13,228,189553,6,0,P|77:171|159:190,1,175,14|8,0:0|3:0,0:0:0:0:
101,261,190039,1,4,0:3:0:0:
142,59,190201,2,0,L|157:189,1,131.25,8|4,0:0|0:3,0:0:0:0:
159,204,190526,1,8,0:0:0:0:
258,120,190688,1,8,3:0:0:0:
197,344,190850,1,8,3:0:0:0:
101,261,191012,1,10,3:0:0:0:
318,353,191174,6,0,B|335:286|335:286|325:229|266:214,1,175,6|4,0:0|3:0,0:0:0:0:
159,204,191661,1,0,0:0:0:0:
277,67,191823,1,0,3:0:0:0:
277,67,191985,1,0,3:0:0:0:
256,289,192147,5,6,0:0:0:0:
256,192,192228,12,0,193769,0:0:0:0:
215,76,206255,6,0,L|219:119,1,43.75,8|8,3:0|3:0,0:0:0:0:
292,172,206417,6,0,L|278:236,1,65.625,4|0,0:0|0:0,0:0:0:0:
219,302,206742,6,0,L|46:275,1,175,6|0,0:0|0:0,0:0:0:0:
130,339,207228,1,0,1:0:0:0:
308,265,207390,1,8,0:3:0:0:
308,265,207715,6,0,L|480:238,1,175,4|0,0:0|0:0,0:0:0:0:
342,46,208201,1,8,3:0:0:0:
324,53,208282,1,8,0:0:0:0:
306,60,208363,2,0,L|294:146,1,87.5,8|0,0:0|0:0,0:0:0:0:
330,211,208607,1,8,0:0:0:0:
337,224,208688,5,8,0:0:0:0:
249,207,208850,1,0,3:0:0:0:
162,191,209012,1,0,3:0:0:0:
74,174,209174,1,0,3:0:0:0:
408,125,209336,5,4,0:0:0:0:
104,259,209985,5,4,0:0:0:0:
255,192,210309,5,2,0:3:0:0:
323,344,210634,5,4,0:0:0:0:
180,225,210796,1,0,0:0:0:0:
408,125,210958,1,8,0:0:0:0:
289,268,211120,1,8,0:0:0:0:
189,40,211282,5,8,0:0:0:0:
332,159,211444,1,8,0:0:0:0:
104,259,211607,1,8,0:0:0:0:
223,116,211769,1,8,0:0:0:0:
323,344,211931,6,0,L|344:345,4,21.875,2|0|0|0|0,0:0|0:0|0:0|0:0|0:0,0:0:0:0:
260,255,212147,5,8,0:0:0:0:
228,267,212255,2,0,L|213:323,1,58.3333333333333,8|8,0:0|0:0,0:0:0:0:
346,215,212471,2,0,L|331:158,1,58.3333333333333,8|8,0:0|0:0,0:0:0:0:
351,143,212904,6,0,L|154:124,1,196.875007510186,14|0,0:0|0:0,0:0:0:0:
73,67,213228,6,0,P|57:115|67:163,1,100.62500191927
36,302,213553,2,0,P|85:293|135:286,1,100.62500191927,8|0,0:0|0:0,0:0:0:0:
323,230,213877,1,2,0:0:0:0:
239,341,214039,1,0,0:0:0:0:
429,270,214201,1,8,0:0:0:0:
276,336,214363,1,0,0:0:0:0:
499,357,214526,6,0,P|505:281|500:206,1,150.937502878904,2|0,0:0|0:0,0:0:0:0:
494,190,214850,1,8,0:0:0:0:
397,29,215012,2,0,P|378:76|368:125,1,100.62500191927,0|2,0:0|0:0,0:0:0:0:
247,240,215336,2,0,P|265:286|275:335,1,100.62500191927,0|8,0:0|0:0,0:0:0:0:
429,270,215661,1,0,0:0:0:0:
265,138,215823,6,0,P|166:125|67:106,1,201.250003838539,2|8,0:0|0:0,0:0:0:0:
138,261,216309,1,8,3:0:0:0:
135,286,216390,1,8,3:0:0:0:
130,310,216471,5,2,0:0:0:0:
237,224,216634,1,0,0:0:0:0:
39,298,216796,1,8,0:0:0:0:
118,126,216958,1,0,0:0:0:0:
214,314,217120,5,6,0:0:0:0:
227,324,217444,2,0,P|232:274|236:223,1,100.62500191927,8|0,0:0|0:0,0:0:0:0:
285,74,217769,2,0,P|238:94|193:116,1,100.62500191927,2|0,0:0|0:0,0:0:0:0:
40,149,218093,2,0,P|80:178|122:207,1,100.62500191927,8|0,0:0|0:0,0:0:0:0:
393,167,218417,6,0,P|319:182|249:211,1,150.937502878904,2|0,0:0|0:0,0:0:0:0:
236,223,218742,2,0,P|232:274|226:324,1,100.62500191927,8|0,0:0|0:0,0:0:0:0:
122,207,219066,1,2,0:0:0:0:
326,303,219228,1,0,0:0:0:0:
393,167,219390,2,0,L|375:67,1,100.62500191927,8|0,0:0|0:0,0:0:0:0:
64,70,219715,6,0,P|137:85|212:98,1,150.937502878904,2|0,0:0|0:0,0:0:0:0:
228,99,220039,1,8,0:0:0:0:
393,167,220201,1,0,0:0:0:0:
371,179,220282,1,8,0:0:0:0:
350,193,220363,1,2,0:0:0:0:
186,231,220526,2,0,P|207:277|226:324,1,100.62500191927,0|8,0:0|0:0,0:0:0:0:
228,99,220850,2,0,L|232:48,1,50.3125009596348,0|0,1:0|0:0,0:0:0:0:
323,29,221012,6,0,L|313:129,1,100.62500191927,2|0,0:0|0:0,0:0:0:0:
226,324,221336,1,8,0:0:0:0:
145,75,221499,1,6,0:0:0:0:
401,129,221661,1,0,0:0:0:0:
184,197,221823,1,8,0:0:0:0:
272,101,221986,1,8,0:0:0:0:
313,226,222147,1,8,0:0:0:0:
313,226,222228,1,8,0:0:0:0:
313,226,222309,6,0,L|162:233,1,150.937502878904,6|0,0:0|0:0,0:0:0:0:
125,235,222634,1,8,0:0:0:0:
246,129,222796,1,0,0:0:0:0:
56,281,222958,6,0,P|47:250|43:218,1,65.625,8|0,3:0|0:0,0:0:0:0:
5,350,223282,6,0,P|90:300|187:318,1,201.250003838539,14|8,0:0|3:0,0:0:0:0:
313,226,223769,1,0,0:0:0:0:
437,324,223931,6,0,P|400:320|363:312,1,74.3750014185906,2|0,0:0|0:0,0:0:0:0:
313,226,224255,2,0,P|297:191|286:156,1,74.3750014185906,2|0,0:0|0:0,0:0:0:0:
335,69,224580,2,0,P|356:38|381:11,1,74.3750014185906,8|0,0:0|0:0,0:0:0:0:
121,164,224904,6,0,B|199:184|182:125|264:145,1,150.937502878904,6|0,0:0|0:0,0:0:0:0:
285,156,225228,1,8,0:0:0:0:
193,32,225390,1,0,0:0:0:0:
235,213,225553,6,0,L|226:278,1,65.625,8|0,3:0|0:0,0:0:0:0:
325,221,225877,6,0,P|233:207|224:115,2,201.250003838539,14|8|8,0:0|3:0|0:0,0:0:0:0:
325,221,226850,1,8,0:0:0:0:
147,238,227012,1,8,0:0:0:0:
298,364,227174,2,0,P|340:337|389:326,1,100.62500191927,8|0,0:0|0:0,0:0:0:0:
185,314,227499,6,0,P|135:258|62:245,1,150.937502878904,6|0,0:0|0:0,0:0:0:0:
48,249,227823,2,0,L|58:148,1,100.62500191927,8|0,0:0|0:0,0:0:0:0:
187,16,228147,2,0,L|197:116,1,100.62500191927
197,116,228390,1,4,3:0:0:0:
197,116,228471,1,8,0:0:0:0:
185,314,228634,6,0,B|235:288|235:288|328:302,1,150.937502878904,6|0,0:0|0:0,0:0:0:0:
359,308,228958,1,8,3:0:0:0:
192,187,229120,1,8,0:0:0:0:
324,30,229282,6,0,P|344:75|347:125,1,100.62500191927,6|0,0:0|0:0,0:0:0:0:
359,308,229607,1,0,0:0:0:0:
381,297,229688,1,8,0:0:0:0:
404,287,229769,1,8,0:0:0:0:
247,101,229931,1,8,0:0:0:0:
247,101,230012,1,8,0:0:0:0:
247,101,230093,6,0,L|223:300,1,201.250003838539,6|8,0:0|0:0,0:0:0:0:
273,10,230580,1,0,1:0:0:0:
155,121,230742,1,0,0:0:0:0:
310,169,230904,1,8,0:0:0:0:
93,188,231066,6,0,P|70:96|143:35,1,201.250003838539,6|0,0:0|0:0,0:0:0:0:
358,152,231553,2,0,L|310:168,1,50.3125009596348,4|0,3:0|0:0,0:0:0:0:
235,200,231715,2,0,L|223:300,1,100.62500191927,8|0,0:0|0:0,0:0:0:0:
148,332,231958,1,4,3:0:0:0:
148,332,232039,5,4,3:0:0:0:
46,300,232201,1,8,3:0:0:0:
44,193,232363,1,12,0:0:0:0:
145,159,232526,1,8,3:0:0:0:
209,244,232688,6,0,L|359:230,1,150.937502878904,6|0,0:0|0:0,0:0:0:0:
379,238,233012,2,0,P|361:191|354:141,1,100.62500191927,8|0,0:0|0:0,0:0:0:0:
490,277,233336,2,0,P|483:327|465:373,1,100.62500191927
209,244,233661,1,8,0:0:0:0:
354,141,233823,6,0,L|203:127,1,150.937502878904,6|0,0:0|0:0,0:0:0:0:
178,137,234147,1,8,3:0:0:0:
323,34,234309,1,8,0:0:0:0:
385,248,234471,6,0,L|234:234,1,150.937502878904,6|0,0:0|0:0,0:0:0:0:
209,244,234795,1,8,3:0:0:0:
354,141,234958,1,8,0:0:0:0:
416,355,235120,6,0,L|241:339,1,175,6|0,0:0|0:0,0:0:0:0:
91,185,235607,1,0,0:0:0:0:
209,244,235769,1,8,0:0:0:0:
109,316,235931,1,8,0:0:0:0:
211,126,236093,1,8,0:0:0:0:
241,339,236255,1,8,0:0:0:0:
96,193,236417,1,8,0:0:0:0:
312,186,236580,5,8,0:0:0:0:
143,293,236742,1,8,0:0:0:0:
95,59,236904,1,8,0:0:0:0:
203,189,237066,1,8,0:0:0:0:
326,59,237228,5,10,0:0:0:0:
96,193,237390,1,10,0:0:0:0:
297,233,237553,1,10,0:0:0:0:
95,59,237715,1,10,0:0:0:0:
