osu file format v14

[General]
AudioFilename: audio.mp3
AudioLeadIn: 0
PreviewTime: 120385
Countdown: 0
SampleSet: Soft
StackLeniency: 0.5
Mode: 0
LetterboxInBreaks: 0
EpilepsyWarning: 1
WidescreenStoryboard: 1

[Editor]
Bookmarks: 9553,19931,51066,84796,89985,110742,121120,154850,172850,183390,196363,206742,211931,212904,237715
DistanceSpacing: 0.6
BeatDivisor: 4
GridSize: 4
TimelineZoom: 2

[Metadata]
Title:Ray of bullet
TitleUnicode:Ray of bullet
Artist:Iris Freyja(CV:Rina Hidaka), Mitsuki Mononobe(CV:Manami Numakura)
ArtistUnicode:イリス・フレイア(CV:日高里菜)、物部深月(CV:沼倉愛美)
Creator:Meg
Version:Lecana's Insane
Source:銃皇無尽のファフニール
Tags:Juuou Mujin no Fafnir unlimited ending iMage-- Akitoshi Corinn Kanau fuyuyu- Mamayu Silky Lecana
BeatmapID:1332737
BeatmapSetID:628968

[Difficulty]
HPDrainRate:6
CircleSize:4
OverallDifficulty:7
ApproachRate:9
SliderMultiplier:1.82
SliderTickRate:1

[Events]
//Background and Video events
0,0,"BG.jpg",0,0
//Break Periods
2,90185,99763
2,196358,205493
//Storyboard Layer 0 (Background)
//Storyboard Layer 1 (Fail)
//Storyboard Layer 2 (Pass)
//Storyboard Layer 3 (Foreground)
//Storyboard Sound Samples

[TimingPoints]
472,324.324324324324,4,2,1,60,1,0
472,-133.333333333333,4,2,1,60,0,0
1769,-111.111111111111,4,2,1,60,0,0
2742,-133.333333333333,4,2,1,60,0,0
4363,-111.111111111111,4,2,1,60,0,0
6958,-100,4,2,1,60,0,0
19931,-133.333333333333,4,2,1,60,0,0
34526,-100,4,2,1,60,0,0
35012,-100,4,2,1,60,0,0
45877,-125,4,2,1,60,0,0
46850,-111.111111111111,4,2,1,60,0,0
48147,-200,4,2,1,60,0,0
48796,-100,4,2,1,60,0,0
50417,-200,4,2,1,60,0,0
51066,-100,4,2,1,70,0,1
61444,-133.333333333333,4,2,1,70,0,1
64039,-133.333333333333,4,2,1,70,0,1
64688,-117.647058823529,4,2,1,70,0,1
65985,-100,4,2,1,70,0,1
66634,-100,4,2,1,70,0,1
84796,-100,4,2,1,60,0,0
89985,-133.333333333333,4,2,1,60,0,0
100363,-133.333333333333,4,2,1,60,0,0
104904,-111.111111111111,4,2,1,60,0,0
115931,-133.333333333333,4,2,1,60,0,0
118201,-111.111111111111,4,2,1,60,0,0
119174,-111.111111111111,4,2,1,60,0,0
119499,-99.9999999999999,4,2,1,60,0,0
119823,-90.9090909090909,4,2,1,60,0,0
121120,-100,4,2,1,70,0,1
131499,-125,4,2,1,70,0,1
132471,-100,4,2,1,70,0,1
134093,-111.111111111111,4,2,1,70,0,1
134742,-100,4,2,1,70,0,1
135390,-90.9090909090909,4,2,1,70,0,1
136039,-100,4,2,1,70,0,1
136688,-100,4,2,1,70,0,1
152255,-111.111111111111,4,2,1,70,0,1
154850,-133.333333333333,4,2,1,60,0,0
162147,-111.111111111111,4,2,1,60,0,0
162634,-100,4,2,1,60,0,0
181444,-133.333333333333,4,2,1,60,0,0
181769,-117.647058823529,4,2,1,60,0,0
182093,-105.263157894737,4,2,1,60,0,0
182417,-95.2380952380952,4,2,1,60,0,0
182742,-86.9565217391304,4,2,1,60,0,0
183066,-80,4,2,1,60,0,0
183390,-100,4,2,1,60,0,0
193769,-100,4,2,1,30,0,0
193850,-100,4,2,1,50,0,0
206093,-133.333333333333,4,2,1,40,0,0
206417,-200,4,2,1,60,0,0
206742,-111.111111111111,4,2,1,60,0,0
211931,-90.9090909090909,4,2,1,60,0,0
212904,-111.111111111111,4,2,1,80,0,1
213228,-100,4,2,1,80,0,1
222309,-111.111111111111,4,2,1,80,0,1
223931,-100,4,2,1,80,0,1
224904,-111.111111111111,4,2,1,80,0,1
226526,-100,4,2,1,80,0,1
235120,-100,4,2,1,80,0,0
237715,-100,4,2,1,80,0,0

[Colours]
Combo1 : 255,0,255
Combo2 : 208,208,255
Combo3 : 255,202,255
Combo4 : 138,138,255

[HitObjects]
245,261,796,6,0,L|270:114,2,136.500005207062,0|0|0,0:0|0:0|0:0,0:0:0:0:
224,35,1607,1,0,0:0:0:0:
224,35,1688,1,0,0:0:0:0:
224,35,1769,6,0,P|287:18|360:152,1,245.699992501831,6|8,0:0|0:0,0:0:0:0:
108,286,2417,1,8,0:0:0:0:
108,286,2742,2,0,L|130:151,1,136.500005207062,4|0,0:0|0:0,0:0:0:0:
224,35,3390,6,0,L|239:101,1,68.250002603531,0|0,0:0|0:0,0:0:0:0:
320,182,3715,2,0,L|304:263,1,68.250002603531,0|0,0:0|0:0,0:0:0:0:
231,322,4039,1,0,0:0:0:0:
445,257,4201,1,0,0:0:0:0:
445,257,4282,1,0,0:0:0:0:
445,257,4363,6,0,B|385:258|347:234|347:234|306:250|306:250|257:222|209:225,1,245.699992501831,6|8,0:0|0:0,0:0:0:0:
148,360,5012,1,8,0:0:0:0:
148,360,5336,2,0,L|311:350,1,163.799995001221,4|0,0:0|0:0,0:0:0:0:
445,257,5823,5,8,0:0:0:0:
327,123,5985,2,0,P|318:163|317:203,1,81.8999975006104,2|0,3:0|0:0,0:0:0:0:
317,203,6228,1,8,0:0:0:0:
317,203,6309,1,8,0:0:0:0:
273,354,6471,2,0,L|232:346,1,40.9499987503052,8|8,0:0|0:0,0:0:0:0:
89,316,6634,2,0,L|73:235,1,81.8999975006104,0|8,0:0|0:0,0:0:0:0:
60,161,6877,1,0,0:0:0:0:
60,161,6958,6,0,P|106:91|205:111,1,182,6|8,0:0|0:0,0:0:0:0:
359,272,7444,2,0,B|319:287|319:287|274:267,1,91,8|8,0:0|0:0,0:0:0:0:
277,42,7769,1,8,0:0:0:0:
147,169,7931,1,8,0:0:0:0:
277,42,8093,6,0,P|345:115|319:191,1,182,6|0,0:0|0:0,0:0:0:0:
95,297,8580,1,8,0:0:0:0:
95,297,8742,2,0,P|184:286|285:265,1,182,6|0,0:0|0:0,0:0:0:0:
400,304,9228,1,8,0:0:0:0:
253,182,9390,1,0,0:0:0:0:
253,182,9471,1,0,0:0:0:0:
253,182,9553,6,0,L|276:87,1,91,6|0,0:0|0:0,0:0:0:0:
430,208,9877,1,8,0:0:0:0:
227,309,10039,1,0,0:0:0:0:
352,350,10201,2,0,L|329:255,1,91,0|2,0:0|0:0,0:0:0:0:
186,212,10526,1,8,0:0:0:0:
333,117,10688,1,0,0:0:0:0:
203,36,10850,6,0,P|221:84|228:131,1,91,2|0,0:0|0:0,0:0:0:0:
112,291,11174,2,0,P|94:243|87:196,1,91,8|2,0:0|0:0,0:0:0:0:
333,117,11499,2,0,P|336:179|302:292,1,182,0|10,0:0|0:0,0:0:0:0:
87,203,11985,1,0,0:0:0:0:
87,203,12066,1,0,0:0:0:0:
87,203,12147,6,0,L|188:181,1,91,0|2,0:0|0:0,0:0:0:0:
296,155,12471,1,8,0:0:0:0:
296,155,12634,1,0,0:0:0:0:
429,315,12796,2,0,L|328:293,1,91,2|0,0:0|0:0,0:0:0:0:
217,274,13120,1,8,0:0:0:0:
217,274,13282,1,2,0:0:0:0:
382,43,13444,6,0,B|368:113|368:113|380:134|380:134|361:221,2,182,0|10|2,0:0|0:0|0:0,0:0:0:0:
453,97,14255,1,0,0:0:0:0:
297,160,14417,1,10,0:0:0:0:
482,244,14580,1,0,0:0:0:0:
359,313,14742,6,0,P|283:291|169:260,1,182,6|8,0:0|0:0,0:0:0:0:
111,185,15228,1,0,0:0:0:0:
310,106,15390,2,0,P|329:50|332:17,2,91,2|0|8,0:0|0:0|0:0,0:0:0:0:
353,278,15877,1,0,0:0:0:0:
353,278,15958,1,0,0:0:0:0:
353,278,16039,6,0,P|290:246|181:265,1,182,2|8,0:0|0:0,0:0:0:0:
98,349,16526,1,0,0:0:0:0:
98,349,16688,2,0,L|-6:327,1,91,2|0,0:0|0:0,0:0:0:0:
259,173,17012,1,8,0:0:0:0:
183,263,17174,1,0,0:0:0:0:
183,263,17255,1,0,0:0:0:0:
183,263,17336,5,8,0:0:0:0:
72,215,17499,2,0,L|38:109,1,91,10|0,0:0|0:0,0:0:0:0:
232,166,17823,1,0,0:0:0:0:
232,166,17904,1,8,0:0:0:0:
232,166,17985,2,0,L|279:146,1,45.5,8|0,0:0|0:0,0:0:0:0:
435,91,18147,2,0,L|406:141,1,45.5,8|0,0:0|0:0,0:0:0:0:
305,227,18309,2,0,L|354:249,1,45.5,8|0,0:0|0:0,0:0:0:0:
474,304,18471,6,0,P|497:256|415:161,1,182,4|8,0:0|0:0,0:0:0:0:
208,260,18958,1,8,0:0:0:0:
123,196,19120,2,0,P|136:146|146:102,1,91,2|0,3:0|0:0,0:0:0:0:
255,17,19444,2,0,P|263:82|279:217,1,182,2|0,3:0|3:0,0:0:0:0:
369,243,19931,6,0,P|419:251|475:178,1,136.500005207062,4|8,0:0|0:0,0:0:0:0:
491,90,20417,2,0,P|441:82|385:155,1,136.500005207062,0|0,0:0|0:0,0:0:0:0:
322,313,20904,1,8,0:0:0:0:
322,313,21066,2,0,P|224:295|183:289,1,136.500005207062,0|0,0:0|0:0,0:0:0:0:
108,344,21553,1,8,0:0:0:0:
203,184,21715,2,0,L|191:109,2,68.250002603531,0|0|0,0:0|0:0|0:0,0:0:0:0:
105,215,22201,1,8,0:0:0:0:
297,158,22363,6,0,L|431:118,1,136.500005207062,0|0,0:0|0:0,0:0:0:0:
308,48,22850,1,8,0:0:0:0:
211,155,23012,2,0,P|203:228|194:304,1,136.500005207062,0|0,0:0|0:0,0:0:0:0:
114,364,23499,1,8,0:0:0:0:
114,364,23661,2,0,P|62:337|54:255,1,136.500005207062,0|0,0:0|0:0,0:0:0:0:
114,184,24147,1,8,0:0:0:0:
209,277,24309,2,0,P|271:257|295:249,1,68.250002603531,0|0,0:0|0:0,0:0:0:0:
327,160,24634,1,0,0:0:0:0:
405,264,24796,1,8,0:0:0:0:
467,168,24958,6,0,L|490:129,2,34.1250013017655,0|8|0,0:0|0:0|0:0,0:0:0:0:
405,264,25282,1,2,0:0:0:0:
327,160,25444,1,10,0:0:0:0:
279,326,25607,1,0,0:0:0:0:
171,231,25769,2,0,L|244:240,1,68.250002603531,2|2,0:0|0:0,0:0:0:0:
137,109,26093,2,0,L|92:167,1,68.250002603531,8|2,0:0|0:0,0:0:0:0:
112,27,26417,5,2,0:0:0:0:
264,125,26580,1,0,0:0:0:0:
171,231,26742,1,10,0:0:0:0:
143,142,26904,2,0,L|134:99,2,34.1250013017655,2|0|0,0:0|0:0|0:0,0:0:0:0:
190,317,27228,1,2,0:0:0:0:
335,195,27390,1,8,0:0:0:0:
335,195,27715,5,0,0:0:0:0:
413,112,27877,1,2,0:0:0:0:
305,92,28039,1,10,0:0:0:0:
466,182,28201,2,0,L|503:155,2,34.1250013017655,0|0|2,0:0|0:0|0:0,0:0:0:0:
351,270,28526,1,2,0:0:0:0:
274,168,28688,1,8,0:0:0:0:
428,251,28850,1,2,0:0:0:0:
281,331,29012,6,0,L|192:313,1,68.250002603531,2|0,0:0|0:0,0:0:0:0:
51,202,29336,2,0,L|124:219,1,68.250002603531,10|2,0:0|0:0,0:0:0:0:
153,226,29580,1,8,0:0:0:0:
153,226,29661,1,0,0:0:0:0:
305,161,29823,1,2,0:0:0:0:
209,83,29985,2,0,L|233:13,1,68.250002603531,12|0,0:0|0:0,0:0:0:0:
362,97,30309,6,0,B|399:142|378:211|378:211|399:235,1,136.500005207062,4|8,0:0|0:0,0:0:0:0:
447,342,30796,2,0,P|484:310|469:217,1,136.500005207062,0|0,0:0|0:0,0:0:0:0:
362,97,31282,1,8,0:0:0:0:
273,255,31444,2,0,P|250:196|251:122,1,136.500005207062,0|0,0:0|0:0,0:0:0:0:
284,22,31931,1,8,0:0:0:0:
149,136,32093,2,0,L|13:108,1,136.500005207062,0|0,0:0|0:0,0:0:0:0:
91,36,32580,1,8,0:0:0:0:
111,214,32742,6,0,L|118:297,1,68.250002603531,0|2,0:0|0:0,0:0:0:0:
201,342,33066,1,0,0:0:0:0:
201,342,33228,2,0,L|292:358,1,68.250002603531,8|0,0:0|0:0,0:0:0:0:
402,219,33553,2,0,P|356:210|287:265,1,136.500005207062,0|8,0:0|0:0,0:0:0:0:
387,366,34039,2,0,L|368:292,1,68.250002603531,0|0,0:0|0:0,0:0:0:0:
280,113,34363,1,0,0:0:0:0:
139,252,34526,6,0,L|193:239,3,45.5,8|0|0|0,0:0|0:0|0:0|0:0,0:0:0:0:
303,196,34850,2,0,L|289:251,1,45.5,12|0,0:0|0:0,0:0:0:0:
240,369,35012,2,0,L|231:322,1,45.5,0|0,0:0|0:0,0:0:0:0:
205,158,35174,1,8,0:0:0:0:
323,332,35336,1,8,0:0:0:0:
335,352,35417,1,8,0:0:0:0:
348,371,35499,6,0,P|397:346|398:228,1,182,4|8,0:0|0:0,0:0:0:0:
104,36,36147,2,0,P|142:66|140:128,1,91
81,250,36471,2,0,B|122:212|169:205|169:205|200:225|252:228,2,182,14|0|8,0:0|0:0|0:0,0:0:0:0:
202,315,37444,6,0,P|273:324|325:270,1,136.5,0|0,0:0|0:0,0:0:0:0:
366,190,37769,2,0,P|421:174|487:273,1,182,14|0,0:0|0:0,0:0:0:0:
490,261,38417,1,8,0:0:0:0:
153,163,38742,1,0,0:0:0:0:
230,70,38904,1,0,0:0:0:0:
215,237,39066,2,0,P|274:228|308:217,1,91,8|0,0:0|0:0,0:0:0:0:
136,84,39390,5,12,0:0:0:0:
150,315,39553,2,0,P|112:268|86:244,1,91,12|0,0:0|0:0,0:0:0:0:
81,31,39877,2,0,P|147:8|215:90,2,182,2|6|8,1:2|0:0|0:0,0:0:0:0:
170,201,40688,6,0,P|276:179|306:169,1,136.5,14|0,0:0|0:0,0:0:0:0:
356,112,41012,2,0,B|395:152|375:198|375:198|394:213|408:252,1,136.5,8|0,0:0|0:0,0:0:0:0:
326,265,41336,2,0,P|305:302|305:350,1,91,10|0,0:0|0:0,0:0:0:0:
391,330,41661,1,8,0:0:0:0:
232,260,41823,1,8,0:0:0:0:
483,216,41985,5,2,0:0:0:0:
389,105,42147,2,0,L|207:84,1,182,8|8,0:0|0:0,0:0:0:0:
230,201,42634,2,0,L|253:290,1,91,10|0,0:0|0:0,0:0:0:0:
89,147,42958,2,0,L|107:53,1,91,8|0,0:0|0:0,0:0:0:0:
253,290,43282,6,0,P|210:330|104:283,1,182,10|8,0:0|0:0,0:0:0:0:
305,189,43769,1,0,0:0:0:0:
305,189,43850,1,0,0:0:0:0:
305,189,43931,2,0,B|407:159|382:223|487:179,1,182,10|8,0:0|0:0,0:0:0:0:
231,251,44417,6,0,B|206:219|206:219|215:161,1,91,8|2,0:0|0:0,0:0:0:0:
323,37,44742,2,0,B|348:69|348:69|339:127,1,91,8|0,0:0|0:0,0:0:0:0:
205,284,45066,1,8,0:0:0:0:
101,135,45228,2,0,L|195:119,1,91,10|0,0:0|0:0,0:0:0:0:
392,272,45553,2,0,L|298:256,1,91,8|8,0:0|0:0,0:0:0:0:
66,273,45877,6,0,B|85:216|85:216|80:189|80:189|99:135,1,145.6,4|8,0:0|0:0,0:0:0:0:
336,118,46363,2,0,B|316:174|316:174|321:201|321:201|302:255,1,145.6,4|8,0:0|0:0,0:0:0:0:
66,273,46850,2,0,B|188:261|188:261|152:239,1,163.799995001221,4|2,0:0|3:0,0:0:0:0:
119,52,47499,6,0,L|183:33,2,54.5999983337403,8|8|8,0:0|0:0|0:0,0:0:0:0:
256,99,47823,2,0,L|314:115,2,54.5999983337403,8|8|8,0:0|0:0|0:0,0:0:0:0:
400,71,48147,6,0,P|420:117|381:199,1,136.5,4|0,0:0|0:0,0:0:0:0:
309,271,48796,6,0,L|248:254,3,45.5,0|0|0|0,0:0|0:0|0:0|0:0,0:0:0:0:
222,350,49120,2,0,L|168:365,3,45.5,10|0|10|0,0:0|0:0|0:0|0:0,0:0:0:0:
109,309,49444,1,10,0:0:0:0:
116,276,49526,1,0,0:0:0:0:
123,243,49607,1,10,0:0:0:0:
131,210,49688,1,0,0:0:0:0:
138,176,49769,1,14,0:0:0:0:
138,176,50417,6,0,P|182:152|226:146,1,91,2|0,0:0|0:0,0:0:0:0:
360,243,51066,6,0,P|410:225|413:109,2,182,6|8|0,0:0|0:0|0:0,0:0:0:0:
225,169,51877,1,0,0:0:0:0:
340,58,52039,2,0,P|325:121|314:161,1,91,10|0,0:0|0:0,0:0:0:0:
268,346,52363,6,0,P|332:330|371:320,1,91,2|0,0:0|0:0,0:0:0:0:
208,247,52688,2,0,P|152:231|73:280,1,136.5,8|0,0:0|0:0,0:0:0:0:
25,303,53012,2,0,P|40:237|49:192,1,91,2|0,0:0|0:0,0:0:0:0:
30,76,53336,1,8,0:0:0:0:
177,142,53499,1,0,0:0:0:0:
177,142,53580,1,8,0:0:0:0:
177,142,53661,6,0,P|253:127|354:102,1,182,2|8,0:0|0:0,0:0:0:0:
479,210,54147,2,0,P|410:195|371:189,1,91,0|2,0:0|0:0,0:0:0:0:
273,254,54471,1,0,0:0:0:0:
354,101,54634,1,8,0:0:0:0:
395,328,54796,6,0,B|335:311|335:311|274:345|274:345|210:318,1,182
73,281,55282,1,8,0:0:0:0:
225,212,55444,1,0,0:0:0:0:
225,212,55526,1,8,0:0:0:0:
225,212,55607,2,0,P|208:169|192:125,1,91,2|0,0:0|0:0,0:0:0:0:
83,36,55931,2,0,P|65:81|50:121,1,91,12|0,0:0|0:0,0:0:0:0:
240,296,56255,6,0,P|291:264|281:149,2,182,6|8|2,0:0|0:0|0:0,0:0:0:0:
54,257,57066,1,0,0:0:0:0:
116,383,57228,2,0,P|166:369|217:358,1,91,8|0,0:0|0:0,0:0:0:0:
354,98,57553,6,0,P|292:76|201:153,2,182,2|8|2,0:0|0:0|0:0,0:0:0:0:
468,158,58363,1,0,0:0:0:0:
323,217,58526,2,0,P|281:231|224:251,1,91,8|0,0:0|0:0,0:0:0:0:
150,333,58850,6,0,P|117:300|131:207,1,136.5,2|0,0:0|0:0,0:0:0:0:
144,195,59174,1,8,0:0:0:0:
409,187,59336,2,0,P|367:201|310:221,1,91,0|2,0:0|0:0,0:0:0:0:
251,342,59661,2,0,P|293:328|350:308,1,91,0|8,0:0|0:0,0:0:0:0:
479,127,59985,6,0,B|412:101|412:101|385:107|385:107|308:78,1,182,0|0,0:0|0:0,0:0:0:0:
236,299,60471,1,8,0:0:0:0:
268,151,60634,1,0,0:0:0:0:
268,151,60715,1,8,0:0:0:0:
268,151,60796,2,0,P|215:166|170:178,1,91,2|0,0:0|0:0,0:0:0:0:
376,264,61120,2,0,P|429:278|474:290,1,91,12|0,0:0|0:0,0:0:0:0:
157,334,61444,6,0,P|95:309|76:246,1,136.500005207062,6|8,0:0|0:0,0:0:0:0:
173,73,61931,1,0,0:0:0:0:
173,73,62093,2,0,P|174:124|179:175,1,102.375003905296,8|0,3:0|0:0,0:0:0:0:
201,179,62417,2,0,L|335:156,1,136.500005207062,14|8,0:0|3:0,0:0:0:0:
409,278,63066,5,10,0:0:0:0:
201,179,63390,1,2,0:0:0:0:
383,56,63715,1,10,0:0:0:0:
383,56,64039,6,0,P|403:89|401:118,1,68.250002603531,6|0,0:0|0:0,0:0:0:0:
330,190,64363,2,0,P|309:156|311:127,1,68.250002603531,8|0,0:0|0:0,0:0:0:0:
430,299,64688,2,0,P|359:282|259:256,1,154.700002950668,6|8,0:0|0:0,0:0:0:0:
184,217,65174,1,0,0:0:0:0:
111,332,65336,6,0,L|189:314,1,77.3500014753342,6|0,0:0|0:0,0:0:0:0:
354,278,65661,2,0,L|279:261,1,77.3500014753342,8|0,0:0|0:0,0:0:0:0:
215,103,65985,2,0,P|254:148|246:196,1,91,6|0,0:0|0:0,0:0:0:0:
162,169,66228,1,4,3:0:0:0:
162,169,66309,2,0,P|139:139|134:82,1,91,4|8,3:0|0:0,0:0:0:0:
191,27,66553,1,8,0:0:0:0:
191,27,66634,6,0,B|255:9|255:9|305:29|305:29|381:9,1,182,6|8,0:0|0:0,0:0:0:0:
485,122,67120,1,0,0:0:0:0:
333,177,67282,2,0,L|236:156,1,91,0|0,0:0|0:0,0:0:0:0:
101,266,67607,2,0,L|201:240,1,91,10|0,0:0|0:0,0:0:0:0:
352,90,67931,6,0,P|407:131|384:246,1,182,0|8,0:0|0:0,0:0:0:0:
240,97,68417,1,0,0:0:0:0:
288,275,68580,2,0,L|302:185,1,91,2|0,0:0|0:0,0:0:0:0:
163,40,68904,2,0,L|75:63,1,91,8|0,0:0|0:0,0:0:0:0:
27,244,69228,6,0,P|112:217|217:192,1,182,2|8,0:0|0:0,0:0:0:0:
366,278,69715,2,0,B|334:295|334:295|270:272,1,91,0|2,0:0|0:0,0:0:0:0:
343,111,70039,2,0,P|334:172|320:209,1,91,0|8,0:0|0:0,0:0:0:0:
286,45,70363,6,0,P|354:26|428:105,1,182
235,226,70850,1,8,0:0:0:0:
420,274,71012,1,0,0:0:0:0:
420,274,71093,1,8,0:0:0:0:
420,274,71174,1,2,0:0:0:0:
335,345,71336,2,0,L|321:250,1,91,0|8,0:0|0:0,0:0:0:0:
140,143,71661,1,0,0:0:0:0:
55,198,71823,6,0,P|36:240|27:294,1,91,6|0,0:0|0:0,0:0:0:0:
258,158,72147,2,0,P|249:113|230:72,1,91,8|0,0:0|0:0,0:0:0:0:
186,275,72471,2,0,L|324:240,1,136.5,0|0,0:0|0:0,0:0:0:0:
400,224,72796,2,0,P|386:277|375:328,1,91,10|0,0:0|0:0,0:0:0:0:
230,72,73120,6,0,P|273:29|383:62,1,182,2|8,0:0|0:0,0:0:0:0:
377,311,73607,1,0,0:0:0:0:
214,185,73769,2,0,P|258:177|303:170,1,91,2|0,0:0|0:0,0:0:0:0:
467,297,74093,2,0,P|422:304|377:311,1,91,8|0,0:0|0:0,0:0:0:0:
199,292,74417,6,0,P|126:280|17:264,1,182,2|8,0:0|0:0,0:0:0:0:
214,185,74904,1,0,0:0:0:0:
214,185,74985,1,0,0:0:0:0:
214,185,75066,1,2,0:0:0:0:
8,119,75228,1,0,0:0:0:0:
19,264,75390,1,8,0:0:0:0:
112,55,75553,6,0,P|119:107|126:156,1,91,0|2,1:0|0:0,0:0:0:0:
303,222,75877,1,0,0:0:0:0:
204,315,76039,2,0,L|102:335,1,91,8|6,0:0|0:0,0:0:0:0:
213,204,76363,2,0,L|303:222,1,91,2|8,0:0|0:0,0:0:0:0:
494,257,76688,1,8,0:0:0:0:
385,338,76850,1,8,0:0:0:0:
385,338,76931,1,0,0:0:0:0:
385,338,77012,6,0,B|360:296|360:296|384:229|384:229|361:161,1,182,6|8,0:0|0:0,0:0:0:0:
249,69,77499,1,0,0:0:0:0:
249,69,77661,2,0,P|188:42|131:76,1,136.5,8|0,3:0|0:0,0:0:0:0:
114,120,77985,2,0,L|82:299,1,182,14|8,0:0|3:0,0:0:0:0:
83,300,78634,6,0,L|173:287,1,91,2|0,0:0|0:0,0:0:0:0:
290,128,78958,2,0,L|199:140,1,91,2|0,0:0|0:0,0:0:0:0:
353,261,79282,2,0,L|443:248,1,91,10|0,0:0|0:0,0:0:0:0:
393,85,79607,6,0,P|458:32|471:115,1,182,6|8,0:0|0:0,0:0:0:0:
258,179,80093,1,0,0:0:0:0:
257,179,80255,2,0,P|191:198|136:237,1,136.5,8|0,3:0|0:0,0:0:0:0:
103,306,80580,1,14,0:0:0:0:
1,147,80904,6,0,P|46:147|85:169,1,91,8|0,3:0|0:0,0:0:0:0:
206,281,81228,1,8,0:0:0:0:
139,80,81390,1,0,0:0:0:0:
266,119,81553,1,8,3:0:0:0:
174,186,81715,1,8,0:0:0:0:
319,222,81877,2,0,P|370:211|415:191,1,91,12|8,0:0|0:0,0:0:0:0:
492,312,82201,6,0,B|446:291|436:280|436:280|378:307|311:313,1,182,6|8,0:0|0:0,0:0:0:0:
97,217,82688,2,0,B|66:184|66:184|145:213|200:212,1,182,0|0,0:0|0:0,0:0:0:0:
326,119,83174,1,8,0:0:0:0:
429,208,83336,6,0,B|489:272|463:328|463:328|416:312,1,182,6|0,0:0|0:0,0:0:0:0:
255,266,83823,1,8,0:0:0:0:
97,217,83985,2,0,P|99:262|117:309,1,91,6|0,0:0|0:0,0:0:0:0:
336,220,84309,1,8,0:0:0:0:
336,220,84390,1,8,0:0:0:0:
336,220,84471,1,8,0:0:0:0:
209,62,84634,2,0,L|263:74,1,45.5,8|8,0:0|0:0,0:0:0:0:
239,152,84796,6,0,B|173:140|173:140|146:113|146:113|33:91,1,182,6|0,0:0|0:0,0:0:0:0:
257,336,85282,2,0,P|320:323|328:211,1,182,4|8,0:0|0:0,0:0:0:0:
70,98,85769,2,0,B|29:177|29:177|57:265,1,182,6|0,0:0|0:0,0:0:0:0:
112,365,86255,1,0,0:0:0:0:
272,263,86417,2,0,L|259:172,1,91,6|8,0:0|0:0,0:0:0:0:
259,172,86661,1,8,0:0:0:0:
259,172,86742,1,8,0:0:0:0:
125,164,86904,1,8,0:0:0:0:
364,202,87066,5,6,0:0:0:0:
256,192,87147,12,4,89985,0:0:0:0:
79,269,100363,6,0,B|131:257|131:257|164:259|164:259|214:244,1,136.500005207062,6|8,0:0|0:0,0:0:0:0:
290,314,100850,2,0,P|328:337|415:286,1,136.500005207062,0|0,0:0|0:0,0:0:0:0:
453,201,101336,1,8,0:0:0:0:
366,158,101499,2,0,L|346:82,1,68.250002603531,0|2,0:0|0:0,0:0:0:0:
245,49,101823,2,0,L|265:125,1,68.250002603531,0|8,0:0|0:0,0:0:0:0:
194,212,102147,2,0,L|158:69,1,136.500005207062,0|0,0:0|0:0,0:0:0:0:
62,82,102634,1,8,0:0:0:0:
262,115,102796,6,0,P|325:128|364:194,1,136.500005207062,0|0,0:0|0:0,0:0:0:0:
287,287,103282,1,8,0:0:0:0:
372,354,103444,2,0,P|409:345|445:332,2,68.250002603531,0|2|0,0:0|0:0|0:0,0:0:0:0:
213,310,103931,2,0,L|133:290,2,68.250002603531,8|0|2,0:0|0:0|0:0,0:0:0:0:
394,215,104417,1,0,0:0:0:0:
242,148,104580,2,0,L|223:71,1,68.250002603531,8|0,0:0|0:0,0:0:0:0:
158,191,104904,5,12,0:0:0:0:
332,97,105066,1,0,0:0:0:0:
332,97,105147,1,8,0:0:0:0:
332,97,105228,1,8,0:0:0:0:
269,308,105390,1,8,0:0:0:0:
269,308,105471,1,8,0:0:0:0:
269,308,105553,6,0,L|399:286,1,122.849996250916,6|0,0:0|0:0,0:0:0:0:
459,332,105877,1,8,0:0:0:0:
216,197,106201,2,0,P|118:216|68:223,1,122.849996250916,0|0,0:0|0:0,0:0:0:0:
58,299,106526,6,0,P|3:261|14:170,1,163.799995001221,14|0,0:0|0:0,0:0:0:0:
299,62,107174,2,0,P|315:118|327:159,1,81.8999975006104,8|0,0:0|0:0,0:0:0:0:
367,275,107499,2,0,P|306:254|231:231,1,122.849996250916,0|0,0:0|0:0,0:0:0:0:
183,280,107823,6,0,B|132:312|132:312|5:275,1,163.799995001221,14|2,0:0|0:0,0:0:0:0:
364,242,108471,2,0,B|377:282|377:282|348:323,1,81.8999975006104,8|0,0:0|0:0,0:0:0:0:
259,350,108796,2,0,P|273:280|292:177,1,163.799995001221,0|8,0:0|0:0,0:0:0:0:
358,102,109282,1,0,0:0:0:0:
155,60,109444,6,0,L|174:157,1,81.8999975006104,14|0,0:0|0:0,0:0:0:0:
363,257,109769,1,0,0:0:0:0:
243,330,109931,2,0,P|184:317|66:288,1,163.799995001221,14|0,0:0|0:0,0:0:0:0:
212,226,110417,2,0,P|238:192|257:152,1,81.8999975006104,14|0,0:0|0:0,0:0:0:0:
123,28,110742,5,12,0:0:0:0:
289,74,110904,1,10,0:0:0:0:
170,140,111066,1,0,0:0:0:0:
379,106,111228,2,0,P|364:170|344:271,1,163.799995001221,10|0,0:0|0:0,0:0:0:0:
403,346,111715,1,8,0:0:0:0:
169,263,111877,2,0,L|259:243,1,81.8999975006104,10|0,0:0|0:0,0:0:0:0:
466,200,112201,1,10,0:0:0:0:
466,200,113336,5,8,0:0:0:0:
325,284,113499,1,10,0:0:0:0:
344,155,113661,1,0,0:0:0:0:
208,274,113823,2,0,P|185:212|147:116,1,163.799995001221,10|0,0:0|0:0,0:0:0:0:
57,85,114309,1,8,0:0:0:0:
301,34,114471,2,0,L|236:99,1,81.8999975006104,10|0,0:0|0:0,0:0:0:0:
65,223,114796,1,10,0:0:0:0:
65,223,115120,5,0,0:0:0:0:
253,312,115282,2,0,L|344:286,1,81.8999975006104,8|0,3:2|0:0,0:0:0:0:
410,267,115526,1,8,0:0:0:0:
410,267,115607,1,8,0:0:0:0:
308,86,115769,1,8,0:0:0:0:
308,86,115850,1,8,0:0:0:0:
308,86,115931,6,0,P|246:93|214:157,1,136.500005207062,6|8,0:0|0:0,0:0:0:0:
203,360,116417,2,0,P|265:353|297:289,1,136.500005207062,6|8,0:0|0:0,0:0:0:0:
214,154,116904,2,0,L|78:173,1,136.500005207062,6|0,0:0|0:0,0:0:0:0:
153,71,117390,1,8,0:0:0:0:
173,247,117553,5,8,0:0:0:0:
173,247,117715,1,8,0:0:0:0:
316,142,117877,1,8,0:0:0:0:
316,142,118039,1,8,0:0:0:0:
222,339,118201,2,0,B|271:320|320:352|320:352|369:320|369:320|429:344|484:286,1,286.649991252136,12|0,0:0|0:0,0:0:0:0:
509,198,118850,6,0,P|449:197|403:236,1,122.849996250916,8|0,0:0|0:0,0:0:0:0:
308,259,119174,6,0,B|314:233|324:222|324:222|306:189|312:163,1,81.8999975006104,2|2,0:0|0:0,0:0:0:0:
158,28,119499,6,0,B|152:54|142:65|142:65|160:91|153:138,1,91,8|0,0:0|0:0,0:0:0:0:
55,307,119823,6,0,B|58:258|74:226|74:226|53:179|53:179|79:110,1,200.200006109619,6|0,0:0|0:0,0:0:0:0:
76,119,120471,5,8,0:0:0:0:
227,315,120634,2,0,L|261:267,2,50.0500015274048,4|4|8,3:0|3:0|0:0,0:0:0:0:
318,190,120958,2,0,L|355:243,1,50.0500015274048,4|4,3:0|3:0,0:0:0:0:
448,215,121120,6,0,P|479:156|410:78,1,182,6|8,0:0|0:0,0:0:0:0:
192,139,121607,1,0,0:0:0:0:
318,190,121769,1,0,0:0:0:0:
162,291,121931,1,0,0:0:0:0:
268,356,122093,2,0,L|250:257,1,91,10|0,0:0|0:0,0:0:0:0:
52,219,122417,5,2,0:0:0:0:
139,134,122580,1,0,0:0:0:0:
174,248,122742,1,8,0:0:0:0:
261,105,122904,1,0,0:0:0:0:
296,277,123066,2,0,L|312:366,1,91,2|0,0:0|0:0,0:0:0:0:
121,370,123390,2,0,P|70:345|69:272,1,136.5,8|8,0:0|0:0,0:0:0:0:
83,237,123715,6,0,P|126:251|174:269,1,91,2|0,0:0|0:0,0:0:0:0:
245,101,124039,1,8,0:0:0:0:
446,162,124201,2,0,P|461:103|472:62,1,91,0|2,0:0|0:0,0:0:0:0:
285,189,124526,2,0,P|296:232|307:277,1,91,0|8,0:0|0:0,0:0:0:0:
424,344,124850,1,0,0:0:0:0:
424,344,125012,6,0,L|517:324,1,91,2|0,0:0|0:0,0:0:0:0:
285,189,125336,1,8,0:0:0:0:
206,279,125499,1,8,3:0:0:0:
206,279,125580,1,8,3:0:0:0:
206,279,125661,1,2,0:0:0:0:
105,135,125823,1,0,0:0:0:0:
234,35,125985,2,0,L|214:128,1,91,8|0,0:0|0:0,0:0:0:0:
318,276,126309,6,0,P|388:261|500:237,2,182,6|8|2,0:0|0:0|0:0,0:0:0:0:
171,207,127120,1,0,0:0:0:0:
305,105,127282,2,0,P|296:168|278:214,1,91,8|0,0:0|0:0,0:0:0:0:
126,301,127607,6,0,P|78:268|79:151,2,182,2|8|2,0:0|0:0|0:0,0:0:0:0:
294,229,128417,1,0,0:0:0:0:
175,199,128580,1,8,0:0:0:0:
360,300,128742,1,0,0:0:0:0:
360,300,128823,1,0,0:0:0:0:
360,300,128904,6,0,B|391:241|391:241|354:129,1,182,2|8,0:0|0:0,0:0:0:0:
124,194,129390,2,0,B|231:172|186:254|302:227,1,182,0|0,0:0|0:0,0:0:0:0:
447,101,129877,1,8,0:0:0:0:
305,71,130039,1,0,0:0:0:0:
305,71,130201,6,0,P|254:26|232:-6,1,91,2|0,0:0|0:0,0:0:0:0:
293,228,130526,2,0,P|335:211|380:204,1,91,8|0,0:0|0:0,0:0:0:0:
379,204,130769,1,8,0:0:0:0:
379,204,130850,1,2,0:0:0:0:
224,84,131012,1,0,0:0:0:0:
105,256,131174,2,0,P|41:278|2:281,1,91,12|0,0:0|0:0,0:0:0:0:
224,84,131499,6,0,P|294:67|367:59,1,145.6,6|8,0:0|0:0,0:0:0:0:
470,144,131985,1,0,0:0:0:0:
470,144,132147,2,0,L|455:252,1,109.2,8|0,3:0|0:0,0:0:0:0:
471,316,132471,2,0,P|410:253|325:271,1,182,14|8,0:0|3:0,0:0:0:0:
132,306,133120,5,10,0:0:0:0:
282,123,133444,1,2,0:0:0:0:
385,338,133769,1,10,0:0:0:0:
184,146,134093,6,0,P|150:123|103:119,1,81.8999975006104,6|0,0:0|0:0,0:0:0:0:
19,247,134417,2,0,P|59:241|92:218,1,81.8999975006104,8|0,0:0|0:0,0:0:0:0:
242,74,134742,6,0,P|267:107|276:162,1,91,6|0,0:0|0:0,0:0:0:0:
238,288,135066,2,0,P|271:262|326:253,1,91,8|0,0:0|0:0,0:0:0:0:
423,180,135390,6,0,P|437:233|447:291,1,100.10000305481,6|0,0:0|0:0,0:0:0:0:
482,59,135715,2,0,P|429:46|371:36,1,100.10000305481,8|0,0:0|0:0,0:0:0:0:
330,187,136039,6,0,B|374:162|374:162|343:108,1,91,6|0,0:0|0:0,0:0:0:0:
299,33,136282,1,4,3:0:0:0:
299,33,136363,2,0,L|272:127,1,91,4|8,3:0|0:0,0:0:0:0:
244,217,136607,1,8,0:0:0:0:
244,217,136688,6,0,P|145:222|53:225,2,182,6|8|0,0:0|0:0|0:0,0:0:0:0:
334,308,137499,1,0,0:0:0:0:
432,254,137661,2,0,L|398:169,1,91,10|0,0:0|0:0,0:0:0:0:
423,84,137985,5,2,0:0:0:0:
297,236,138147,1,0,0:0:0:0:
441,338,138309,2,0,B|454:299|454:299|426:241,1,91,8|0,0:0|0:0,0:0:0:0:
266,324,138634,1,2,0:0:0:0:
324,157,138796,1,0,0:0:0:0:
179,237,138958,2,0,L|35:208,1,136.5,8|0,0:0|0:0,0:0:0:0:
21,208,139282,6,0,L|46:313,1,91,2|0,0:0|0:0,0:0:0:0:
140,114,139607,1,8,0:0:0:0:
276,319,139769,2,0,P|304:255|338:141,1,182,0|0,0:0|0:0,0:0:0:0:
147,202,140255,1,8,0:0:0:0:
245,49,140417,1,0,0:0:0:0:
147,202,140580,6,0,L|172:298,1,91,2|0,0:0|0:0,0:0:0:0:
336,147,140904,2,0,L|361:51,1,91,8|0,0:0|0:0,0:0:0:0:
368,16,141147,1,8,0:0:0:0:
368,16,141228,1,2,0:0:0:0:
248,167,141390,1,0,0:0:0:0:
423,129,141553,1,8,0:0:0:0:
360,251,141715,1,0,0:0:0:0:
217,85,141877,6,0,P|160:138|188:238,2,182,6|8|2,0:0|0:0|0:0,0:0:0:0:
360,251,142688,1,0,0:0:0:0:
275,324,142850,2,0,L|182:310,1,91,8|0,0:0|0:0,0:0:0:0:
45,209,143174,5,2,0:0:0:0:
124,90,143336,1,0,0:0:0:0:
254,241,143499,2,0,L|351:216,1,91,8|0,0:0|0:0,0:0:0:0:
452,61,143823,2,0,P|381:48|305:138,1,182,2|8,0:0|0:0,0:0:0:0:
330,357,144309,1,0,0:0:0:0:
361,239,144471,6,0,P|374:176|384:139,1,91,2|0,0:0|0:0,0:0:0:0:
194,279,144796,1,8,0:0:0:0:
330,357,144958,2,0,B|396:341|396:341|430:348|430:348|515:327,1,182,0|0,0:0|0:0,0:0:0:0:
507,328,145444,1,8,0:0:0:0:
222,240,145607,6,0,B|159:238|125:184|125:184|99:209|64:211,1,182,0|0,1:0|0:0,0:0:0:0:
0,149,146093,1,8,0:0:0:0:
70,358,146255,2,0,P|99:329|107:278,1,91,4|2,0:0|0:0,0:0:0:0:
176,91,146580,2,0,P|186:130|226:163,1,91,8|8,0:0|0:0,0:0:0:0:
378,198,146904,1,8,0:0:0:0:
274,299,147066,6,0,B|233:312|233:312|197:298|197:298|158:320|99:303,1,182,6|8,0:0|0:0,0:0:0:0:
46,90,147553,1,0,0:0:0:0:
46,90,147715,2,0,P|107:115|135:176,1,136.5,8|0,3:0|0:0,0:0:0:0:
140,199,148039,2,0,P|194:132|275:158,1,182,14|8,0:0|3:0,0:0:0:0:
276,299,148688,6,0,P|319:326|412:257,2,182,2|2|10,0:0|0:0|0:0,0:0:0:0:
312,92,149661,6,0,B|345:130|345:130|323:169|323:169|344:201|335:252,1,182,6|8,0:0|0:0,0:0:0:0:
171,336,150147,1,0,0:0:0:0:
171,336,150309,2,0,L|163:197,1,136.5,8|0,3:0|0:0,0:0:0:0:
175,164,150634,2,0,B|57:128|57:128|113:113,1,182,14|8,0:0|3:0,0:0:0:0:
263,256,151120,5,0,0:0:0:0:
263,255,151282,2,0,P|273:211|281:167,1,91,8|0,0:0|0:0,0:0:0:0:
301,12,151607,1,2,0:0:0:0:
356,144,151769,1,2,0:0:0:0:
400,72,151931,1,12,0:0:0:0:
268,117,152093,1,0,0:0:0:0:
438,190,152255,6,0,P|462:249|409:325,1,163.799995001221,6|8,0:0|0:0,0:0:0:0:
291,195,152742,2,0,L|264:105,1,81.8999975006104,0|2,0:0|0:0,0:0:0:0:
310,28,153066,1,0,0:0:0:0:
370,211,153228,1,8,0:0:0:0:
197,325,153390,2,0,L|225:248,1,81.8999975006104,6|0,0:0|0:0,0:0:0:0:
303,119,153715,5,0,0:0:0:0:
138,206,153877,1,8,0:0:0:0:
301,305,154039,2,0,B|350:322|350:322|455:283,1,163.799995001221,6|8,0:0|0:0,0:0:0:0:
454,283,154444,1,8,0:0:0:0:
454,283,154526,1,8,0:0:0:0:
324,138,154688,2,0,P|343:119|357:104,1,40.9499987503052,8|8,0:0|0:0,0:0:0:0:
379,91,154850,6,0,P|375:151|356:237,1,136.500005207062,6|0,0:0|0:0,0:0:0:0:
359,225,155336,1,0,0:0:0:0:
242,181,155499,2,0,P|206:232|229:321,1,136.500005207062,10|0,0:0|0:0,0:0:0:0:
214,302,155985,1,0,0:0:0:0:
312,259,156147,5,2,0:0:0:0:
123,177,156309,1,8,0:0:0:0:
58,257,156471,2,0,L|78:334,1,68.250002603531,0|0,0:0|0:0,0:0:0:0:
228,85,156796,2,0,L|215:237,1,136.500005207062,10|0,0:0|0:0,0:0:0:0:
447,370,157444,6,0,L|434:218,1,136.500005207062,2|0,0:0|0:0,0:0:0:0:
436,234,157931,1,0,0:0:0:0:
284,275,158093,2,0,P|248:224|271:135,1,136.500005207062,10|0,0:0|0:0,0:0:0:0:
256,154,158580,1,0,0:0:0:0:
344,199,158742,5,2,0:0:0:0:
165,279,158904,1,8,0:0:0:0:
282,354,159066,2,0,L|358:329,1,68.250002603531,0|0,0:0|0:0,0:0:0:0:
187,199,159390,2,0,P|123:172|48:177,1,136.500005207062,10|8,0:0|3:0,0:0:0:0:
57,174,159877,1,0,0:0:0:0:
105,333,160039,6,0,P|140:294|77:258,1,136.500005207062,2|0,0:0|0:0,0:0:0:0:
26,357,160526,1,0,0:0:0:0:
216,318,160688,2,0,B|290:298|270:351|347:322,1,136.500005207062,10|0,0:0|0:0,0:0:0:0:
265,105,161174,6,0,P|285:187|307:241,1,136.500005207062,0|8,0:0|0:0,0:0:0:0:
428,320,161661,2,0,P|440:270|444:240,1,68.250002603531,8|0,0:0|0:0,0:0:0:0:
265,105,161985,1,8,0:0:0:0:
126,252,162147,2,0,L|140:290,2,40.9499987503052,0|8|8,0:0|3:0|3:0,0:0:0:0:
41,74,162471,1,8,0:0:0:0:
41,74,162553,1,8,0:0:0:0:
41,74,162634,6,0,P|126:106|218:115,1,182,14|8,0:0|0:0,0:0:0:0:
317,191,163120,2,0,P|378:170|412:141,1,91,0|8,0:0|0:0,0:0:0:0:
237,33,163444,1,0,0:0:0:0:
331,96,163607,2,0,L|351:6,1,91,8|8,0:0|0:0,0:0:0:0:
441,235,163931,6,0,P|485:160|446:83,1,182,10|8,0:0|0:0,0:0:0:0:
217,171,164417,1,0,0:0:0:0:
330,95,164580,2,0,L|322:186,1,91,8|8,0:0|0:0,0:0:0:0:
131,278,164904,2,0,L|121:177,1,91,8|8,0:0|0:0,0:0:0:0:
403,334,165228,5,10,0:0:0:0:
403,334,165553,2,0,P|364:326|308:313,1,91,8|8,0:0|0:0,0:0:0:0:
201,250,165877,1,8,0:0:0:0:
299,182,166039,1,8,0:0:0:0:
234,340,166201,2,0,L|124:366,1,91,10|8,0:0|0:0,0:0:0:0:
41,206,166526,5,8,0:0:0:0:
41,206,166850,1,8,0:0:0:0:
139,147,167012,1,8,0:0:0:0:
132,257,167174,1,14,0:0:0:0:
41,206,167336,1,0,0:0:0:0:
220,162,167499,2,0,B|268:145|268:145|310:168,1,91,8|8,3:0|0:0,0:0:0:0:
350,227,167742,1,8,0:0:0:0:
350,227,167823,6,0,B|395:242|395:242|492:194,1,136.5,6|0,0:0|0:0,0:0:0:0:
506,191,168147,1,8,0:0:0:0:
225,62,168309,2,0,B|180:36|180:36|224:176,1,182,0|0,0:0|0:0,0:0:0:0:
295,352,168796,1,14,0:0:0:0:
295,352,169444,6,0,L|394:328,1,91,8|0,0:0|0:0,0:0:0:0:
257,266,169769,2,0,B|172:238|172:238|125:266,1,136.5,10|0,0:0|0:0,0:0:0:0:
81,286,170093,2,0,L|99:180,1,91,8|0,0:0|0:0,0:0:0:0:
43,368,170417,2,0,P|89:373|133:346,1,91,6|0,0:0|0:0,0:0:0:0:
257,266,170742,2,0,L|276:381,1,91,8|0,0:0|0:0,0:0:0:0:
18,248,171066,1,2,0:0:0:0:
158,147,171228,1,0,0:0:0:0:
38,50,171390,2,0,L|61:146,1,91,8|0,0:0|0:0,0:0:0:0:
257,266,171715,6,0,B|353:240|337:306|449:259,1,182,2|8,0:0|0:0,0:0:0:0:
434,264,172201,1,0,0:0:0:0:
255,166,172363,1,2,3:0:0:0:
221,172,172444,1,0,0:0:0:0:
187,178,172526,1,0,0:0:0:0:
154,185,172607,1,4,3:0:0:0:
121,192,172688,1,4,3:0:0:0:
295,320,172850,6,0,P|360:338|434:263,1,182,6|0,0:0|0:0,0:0:0:0:
326,156,173336,2,0,B|315:194|315:194|349:250,1,91,8|0,0:0|0:0,0:0:0:0:
512,347,173661,1,0,0:0:0:0:
424,176,173823,1,0,0:0:0:0:
424,176,173904,1,0,0:0:0:0:
424,176,173985,1,8,0:0:0:0:
274,271,174147,6,0,P|207:251|83:209,1,182,2|0,0:0|0:0,0:0:0:0:
0,181,174634,1,8,0:0:0:0:
173,83,174796,1,0,0:0:0:0:
61,54,174958,2,0,L|86:156,2,91,2|2|8,0:0|0:0|0:0,0:0:0:0:
261,232,175444,6,0,P|314:179|281:79,1,182,8|0,3:0|0:0,0:0:0:0:
97,201,175931,2,0,L|82:142,2,60.6666666666667,8|0|0,0:0|0:0|0:0,0:0:0:0:
169,244,176255,2,0,L|152:344,1,91,2|2,0:0|0:0,0:0:0:0:
28,279,176580,1,8,0:0:0:0:
255,348,176742,6,0,P|323:354|374:255,2,182,0|2|2,0:0|0:0|0:0,0:0:0:0:
255,348,177715,1,0,0:0:0:0:
84,246,177877,2,0,L|99:146,1,91,8|0,0:0|0:0,0:0:0:0:
342,358,178201,6,0,L|303:168,1,182,2|8,0:0|0:0,0:0:0:0:
305,179,178850,1,0,0:0:0:0:
425,238,179012,1,2,0:0:0:0:
234,309,179174,2,0,L|132:286,1,91,8|0,0:0|0:0,0:0:0:0:
73,343,179499,5,2,0:0:0:0:
290,249,179661,2,0,P|317:290|312:336,1,91,2|8,0:0|0:0,0:0:0:0:
62,214,179985,2,0,B|141:198|141:198|163:204|163:204|239:184,2,182,2|2|8,0:0|0:0|3:0,0:0:0:0:
62,214,180715,1,8,3:0:0:0:
62,214,180796,5,2,0:0:0:0:
229,55,181120,1,8,0:0:0:0:
377,230,181444,6,0,P|384:251|394:269,3,34.1250013017655,2|0|0|0,0:0|0:0|0:0|0:0,0:0:0:0:
456,207,181769,6,0,P|474:188|484:175,3,38.6750007376671,10|0|0|0,0:0|0:0|0:0|0:0,0:0:0:0:
399,147,182093,6,0,P|371:139|346:135,3,43.224998845768,2|0|0|0,0:0|0:0|0:0|0:0,0:0:0:0:
237,221,182417,6,0,P|261:216|299:207,3,47.7749985420228,8|0|0|0,0:0|0:0|0:0|0:0,0:0:0:0:
156,145,182742,6,0,P|120:134|97:127,3,52.3250009980202,6|0|0|8,0:0|0:0|0:0|0:0,0:0:0:0:
44,215,183066,5,8,0:0:0:0:
226,352,183228,1,8,0:0:0:0:
226,352,183309,1,8,0:0:0:0:
226,352,183390,6,0,B|323:305|303:384|408:335,1,182,6|8,0:0|0:0,0:0:0:0:
401,338,184039,1,8,3:0:0:0:
165,231,184201,1,0,0:0:0:0:
307,134,184363,6,0,P|289:239|273:325,1,182,14|8,0:0|3:0,0:0:0:0:
394,101,185012,1,8,0:0:0:0:
394,101,185336,2,0,L|378:204,1,91,2|0,0:0|0:0,0:0:0:0:
361,288,185661,1,8,0:0:0:0:
230,109,185823,1,0,0:0:0:0:
230,109,185904,1,0,0:0:0:0:
230,109,185985,6,0,P|160:94|83:169,1,182,6|8,0:0|0:0,0:0:0:0:
258,300,186471,1,2,0:0:0:0:
130,351,186634,2,0,L|152:247,1,91,0|0,0:0|0:0,0:0:0:0:
65,74,186958,2,0,L|83:163,1,91,8|0,0:0|0:0,0:0:0:0:
258,300,187282,6,0,B|327:286|306:339|404:319,2,136.5,2|2|2,0:0|0:0|0:0,0:0:0:0:
375,158,187931,2,0,P|384:202|365:242,1,91,8|0,3:0|0:0,0:0:0:0:
365,242,188174,1,8,0:0:0:0:
365,242,188255,1,8,0:0:0:0:
201,155,188417,1,8,0:0:0:0:
201,155,188499,1,8,0:0:0:0:
201,155,188580,6,0,L|21:186,1,182,6|8,0:0|0:0,0:0:0:0:
68,29,189066,1,0,0:0:0:0:
67,28,189228,2,0,P|102:55|146:68,1,91,8|0,3:0|0:0,0:0:0:0:
336,52,189553,5,14,0:0:0:0:
336,52,189877,1,8,3:0:0:0:
456,167,190039,1,4,0:3:0:0:
290,277,190201,2,0,L|284:140,1,136.5,8|4,0:0|0:3,0:0:0:0:
360,162,190526,2,0,L|363:252,1,91,8|8,0:0|3:0,0:0:0:0:
214,356,190850,2,0,P|172:336|129:322,1,91,8|10,3:0|3:0,0:0:0:0:
18,201,191174,6,0,P|39:136|155:141,1,182,6|4,0:0|3:0,0:0:0:0:
290,277,191661,1,0,0:0:0:0:
290,276,191823,2,0,P|292:230|290:185,1,91,0|0,3:0|3:0,0:0:0:0:
97,192,192147,5,6,0:0:0:0:
256,192,192228,12,0,193769,0:0:0:0:
427,190,206093,5,0,0:0:0:0:
210,161,206255,2,0,L|237:206,1,34.1250013017655,8|8,3:0|3:0,0:0:0:0:
333,272,206417,6,0,L|348:220,1,45.5,4|0,0:0|0:0,0:0:0:0:
369,119,206742,6,0,L|210:162,1,163.799995001221,6|0,0:0|0:0,0:0:0:0:
26,28,207228,2,0,P|93:16|160:83,1,163.799995001221,0|0,1:0|0:0,0:0:0:0:
115,320,207715,1,4,0:0:0:0:
115,320,208363,6,0,P|231:289|287:277,2,163.799995001221,8|8|0,0:0|0:0|3:0,0:0:0:0:
363,329,209336,2,0,L|384:226,1,81.8999975006104,4|0,0:0|0:0,0:0:0:0:
249,86,209661,1,0,0:0:0:0:
249,86,209985,5,4,0:0:0:0:
117,252,210147,1,0,0:0:0:0:
324,301,210309,1,2,0:3:0:0:
324,301,210634,6,0,L|414:278,1,81.8999975006104,4|0,0:0|0:0,0:0:0:0:
425,129,210958,2,0,P|388:156|374:193,1,81.8999975006104,8|8,0:0|0:0,0:0:0:0:
426,365,211282,2,0,P|485:317|456:224,1,163.799995001221,8|8,0:0|0:0,0:0:0:0:
234,152,211769,1,8,0:0:0:0:
116,240,211931,6,0,L|55:280,2,66.7333353698731,2|0|8,0:0|0:0|0:0,0:0:0:0:
234,152,212255,2,0,L|298:183,2,66.7333353698731,8|8|8,0:0|0:0|0:0,0:0:0:0:
34,64,212580,5,8,0:0:0:0:
34,64,212904,2,0,P|-7:110|16:178,1,122.849996250916,14|0,0:0|0:0,0:0:0:0:
40,204,213228,6,0,P|88:187|128:173,1,91,0|0,0:0|0:0,0:0:0:0:
244,112,213553,2,0,P|196:95|156:81,1,91,8|0,0:0|0:0,0:0:0:0:
264,268,213877,2,0,P|355:248|443:226,1,182,2|8,0:0|0:0,0:0:0:0:
430,54,214363,1,0,0:0:0:0:
265,101,214526,6,0,P|256:149|248:198,1,91,2|0,0:0|0:0,0:0:0:0:
226,316,214850,1,8,0:0:0:0:
71,178,215012,2,0,B|37:206|37:206|99:235,1,91,0|2,0:0|0:0,0:0:0:0:
226,316,215336,2,0,B|260:288|260:288|198:259,1,91,0|8,0:0|0:0,0:0:0:0:
56,338,215661,6,0,B|101:359|101:359|241:312,1,182
172,134,216147,1,8,0:0:0:0:
107,269,216309,1,8,3:0:0:0:
107,269,216390,1,8,3:0:0:0:
107,269,216471,5,2,0:0:0:0:
238,208,216634,1,0,0:0:0:0:
51,159,216796,1,8,0:0:0:0:
264,196,216958,1,0,0:0:0:0:
69,340,217120,6,0,P|37:313|27:262,1,91,6|0,0:0|0:0,0:0:0:0:
188,94,217444,2,0,P|176:182|165:257,1,136.5,8|0,0:0|0:0,0:0:0:0:
220,291,217769,2,0,P|293:275|322:268,1,91,2|0,0:0|0:0,0:0:0:0:
459,110,218093,2,0,P|401:107|353:178,1,136.5,8|0,0:0|0:0,0:0:0:0:
416,214,218417,6,0,P|432:287|439:316,1,91,2|0,0:0|0:0,0:0:0:0:
213,369,218742,2,0,L|238:179,2,182,8|2|8,0:0|0:0|0:0,0:0:0:0:
131,238,219553,1,0,0:0:0:0:
330,169,219715,6,0,B|356:207|356:207|339:256,1,91,2|0,0:0|0:0,0:0:0:0:
205,118,220039,1,8,0:0:0:0:
310,30,220201,2,0,P|387:15|452:97,1,182,0|0,0:0|0:0,0:0:0:0:
341,249,220688,1,8,0:0:0:0:
416,338,220850,6,0,P|443:284|453:248,1,91,0|2,1:0|0:0,0:0:0:0:
364,111,221174,1,0,0:0:0:0:
251,233,221336,2,0,P|300:238|340:248,1,91,8|6,0:0|0:0,0:0:0:0:
197,331,221661,2,0,P|148:326|108:316,1,91,0|8,0:0|0:0,0:0:0:0:
290,130,221985,1,8,0:0:0:0:
394,349,222147,1,8,0:0:0:0:
394,349,222228,1,8,0:0:0:0:
393,348,222309,6,0,B|414:288|414:288|407:257|407:257|426:191,1,163.799995001221,6|8,0:0|0:0,0:0:0:0:
468,58,222796,1,0,0:0:0:0:
468,57,222958,2,0,P|407:68|346:66,1,122.849996250916,8|0,3:0|0:0,0:0:0:0:
325,55,223282,2,0,P|249:75|224:150,1,163.799995001221,14|8,0:0|3:0,0:0:0:0:
393,348,223931,6,0,P|441:333|483:308,1,91,2|0,0:0|0:0,0:0:0:0:
340,184,224255,2,0,P|328:233|329:281,1,91,2|0,0:0|0:0,0:0:0:0:
481,201,224580,1,8,0:0:0:0:
507,43,224742,1,0,0:0:0:0:
339,95,224904,6,0,B|309:99|292:117|292:117|263:102|263:102|232:120|186:111,1,163.799995001221,6|8,0:0|0:0,0:0:0:0:
94,204,225390,1,0,0:0:0:0:
94,204,225553,2,0,L|103:338,1,122.849996250916,8|0,3:0|0:0,0:0:0:0:
175,361,225877,1,14,0:0:0:0:
402,329,226201,6,0,P|398:288|396:248,1,81.8999975006104,8|0,3:0|0:0,0:0:0:0:
339,95,226526,2,0,L|239:70,1,91,8|0,0:0|0:0,0:0:0:0:
91,252,226850,2,0,L|191:227,1,91,8|8,0:0|0:0,0:0:0:0:
88,107,227174,2,0,L|0:129,1,91,8|0,0:0|0:0,0:0:0:0:
274,202,227499,6,0,P|339:218|413:140,1,182,6|8,0:0|0:0,0:0:0:0:
56,74,227985,2,0,L|96:277,1,182,0|0,0:0|0:0,0:0:0:0:
219,342,228471,1,8,0:0:0:0:
332,272,228634,6,0,L|358:170,1,91,6|0,0:0|0:0,0:0:0:0:
374,92,228958,1,8,3:0:0:0:
499,231,229120,1,8,0:0:0:0:
374,92,229282,2,0,P|307:96|274:209,1,182,6|0,0:0|0:0,0:0:0:0:
462,268,229769,1,8,0:0:0:0:
342,355,229931,1,8,0:0:0:0:
342,355,230012,1,8,0:0:0:0:
342,355,230093,6,0,P|306:336|248:328,1,91,6|0,0:0|0:0,0:0:0:0:
146,156,230417,1,8,0:0:0:0:
102,280,230580,2,0,B|203:297|166:208|282:233,1,182,0|8,1:0|0:0,0:0:0:0:
448,223,231066,6,0,B|505:167|450:89|450:89|432:126,1,182,6|0,0:0|0:0,0:0:0:0:
383,276,231553,2,0,P|424:306|472:305,1,91,4|8,3:0|0:0,0:0:0:0:
319,165,231877,2,0,L|343:114,2,45.5,0|4|4,0:0|3:0|3:0,0:0:0:0:
250,333,232201,1,8,3:0:0:0:
134,264,232363,2,0,P|115:225|105:169,1,91,12|8,0:0|3:0,0:0:0:0:
227,28,232688,6,0,P|270:71|234:179,1,182,6|8,0:0|0:0,0:0:0:0:
28,115,233174,2,0,B|78:82|78:82|215:108,1,182,0|0,0:0|0:0,0:0:0:0:
350,141,233661,1,8,0:0:0:0:
265,263,233823,6,0,L|236:171,1,91,6|0,0:0|0:0,0:0:0:0:
443,253,234147,1,8,3:0:0:0:
307,342,234309,1,8,0:0:0:0:
350,141,234471,2,0,P|420:115|497:185,1,182,6|8,0:0|3:0,0:0:0:0:
496,178,234877,1,0,0:0:0:0:
496,178,234958,1,8,0:0:0:0:
193,313,235120,1,6,0:0:0:0:
193,313,235444,5,0,0:0:0:0:
301,262,235607,1,0,0:0:0:0:
346,368,235769,1,8,0:0:0:0:
161,332,235931,1,8,0:0:0:0:
370,226,236093,1,8,0:0:0:0:
242,140,236255,2,0,L|222:234,1,91,8|8,0:0|0:0,0:0:0:0:
258,375,236580,5,8,0:0:0:0:
116,200,236742,1,8,0:0:0:0:
26,316,236904,2,0,L|121:299,1,91,8|8,0:0|0:0,0:0:0:0:
270,260,237228,5,10,0:0:0:0:
197,169,237390,1,10,0:0:0:0:
228,367,237553,1,10,0:0:0:0:
383,240,237715,1,10,0:0:0:0:
