osu file format v14

[General]
AudioFilename: audio.mp3
AudioLeadIn: 0
PreviewTime: 120385
Countdown: 0
SampleSet: Soft
StackLeniency: 0.4
Mode: 0
LetterboxInBreaks: 0
EpilepsyWarning: 1
WidescreenStoryboard: 1

[Editor]
Bookmarks: 110742
DistanceSpacing: 1
BeatDivisor: 2
GridSize: 4
TimelineZoom: 1

[Metadata]
Title:Ray of bullet
TitleUnicode:Ray of bullet
Artist:Iris Freyja(CV:Rina Hidaka), Mitsuki Mononobe(CV:Manami Numakura)
ArtistUnicode:イリス・フレイア(CV:日高里菜)、物部深月(CV:沼倉愛美)
Creator:Meg
Version:Collab Advanced
Source:銃皇無尽のファフニール
Tags:Juuou Mujin no Fafnir unlimited ending iMage-- Akitoshi Corinn Kanau fuyuyu- Mamayu Silky Lecana
BeatmapID:1388283
BeatmapSetID:628968

[Difficulty]
HPDrainRate:4.5
CircleSize:3.5
OverallDifficulty:5
ApproachRate:6
SliderMultiplier:1.15
SliderTickRate:1

[Events]
//Background and Video events
0,0,"BG.jpg",0,0
//Break Periods
2,90185,98665
2,196363,205692
//Storyboard Layer 0 (Background)
//Storyboard Layer 1 (Fail)
//Storyboard Layer 2 (Pass)
//Storyboard Layer 3 (Foreground)
//Storyboard Sound Samples

[TimingPoints]
472,324.324324324324,4,2,10,70,1,0
796,-100,4,2,10,70,0,0
5985,-100,4,2,10,70,0,0
50417,-100,4,2,1,70,0,0
51066,-100,4,2,10,80,0,1
66553,-100,4,2,10,80,0,0
66634,-100,4,2,10,80,0,1
84796,-100,4,2,10,70,0,0
121120,-100,4,2,10,80,0,1
136607,-100,4,2,10,80,0,0
136688,-100,4,2,10,80,0,1
154850,-100,4,2,10,70,0,0
161985,-100,4,2,10,70,0,0
193769,-100,4,2,10,30,0,0
193931,-100,4,2,10,50,0,0
212904,-100,4,2,10,80,0,1
237715,-100,4,2,10,80,0,0

[Colours]
Combo1 : 255,0,255
Combo2 : 208,208,255
Combo3 : 255,202,255
Combo4 : 138,138,255

[HitObjects]
20,286,796,6,0,P|11:231|-2:167,2,115,0|0|0,0:0|0:0|0:0,0:0:0:0:
105,209,1769,2,0,P|191:194|255:265,1,172.5,6|8,0:0|0:0,0:0:0:0:
269,301,2417,1,2,0:0:0:0:
364,364,2742,2,0,P|422:355|490:349,1,115,4|0,0:0|0:0,0:0:0:0:
512,241,3390,1,0,0:0:0:0:
435,154,3715,2,0,P|376:162|309:169,1,115,0|0,0:0|0:0,0:0:0:0:
219,220,4363,6,0,P|168:215|81:205,1,115,6|0,0:0|0:0,0:0:0:0:
51,185,4850,2,0,P|52:156|58:111,1,57.5,8|8,0:0|0:0,0:0:0:0:
132,42,5336,2,0,B|196:30|196:30|244:50|244:50|308:37,1,172.5,6|8,0:0|0:0,0:0:0:0:
355,29,5985,1,0,0:0:0:0:
465,60,6309,2,0,L|449:128,1,57.5,8|8,0:0|0:3,0:0:0:0:
403,146,6634,2,0,L|419:214,1,57.5,4|4,0:3|0:3,0:0:0:0:
448,249,6958,6,0,P|385:258|321:271,1,115,6|2,0:0|0:0,0:0:0:0:
300,313,7444,2,0,P|243:302|186:294,1,115,8|8,0:0|0:0,0:0:0:0:
134,320,7931,1,8,0:0:0:0:
134,320,8093,2,0,P|53:318|52:235,1,172.5,6|8,0:0|0:0,0:0:0:0:
64,186,8742,2,0,B|126:199|126:199|169:174|169:174|229:186,1,172.5,6|8,0:0|0:0,0:0:0:0:
282,201,9390,5,8,0:0:0:0:
282,201,9553,2,0,P|276:139|270:79,1,115,6|8,0:0|0:0,0:0:0:0:
382,57,10201,2,0,P|385:28|389:-5,2,57.5,2|0|8,0:0|0:0|0:0,0:0:0:0:
442,156,10850,2,0,P|424:212|430:270,1,115,2|8,0:0|0:0,0:0:0:0:
406,319,11336,1,0,0:0:0:0:
406,319,11499,2,0,L|291:304,1,115,2|8,0:0|0:0,0:0:0:0:
186,260,12147,6,0,L|176:200,2,57.5,2|0|8,0:0|0:0|0:0,0:0:0:0:
80,306,12796,2,0,P|70:249|58:186,1,115,2|8,0:0|0:0,0:0:0:0:
20,150,13282,1,0,0:0:0:0:
20,150,13444,2,0,P|82:154|136:123,1,115,2|8,0:0|0:0,0:0:0:0:
183,29,14093,2,0,L|251:41,1,57.5,2|0,0:0|0:0,0:0:0:0:
286,71,14417,2,0,L|342:61,1,57.5,8|0,0:0|0:0,0:0:0:0:
390,28,14742,6,0,P|379:82|368:163,1,115,6|8,0:0|0:0,0:0:0:0:
469,198,15390,2,0,P|474:163|482:128,2,57.5,2|0|8,0:0|0:0|0:0,0:0:0:0:
480,312,16039,2,0,L|450:306|415:299,1,57.5,2|0,0:0|0:0,0:0:0:0:
380,338,16363,2,0,P|351:343|323:349,1,57.5,8|0,0:0|0:0,0:0:0:0:
272,322,16688,2,0,P|221:297|157:310,1,115,2|8,0:0|0:0,0:0:0:0:
77,376,17336,5,8,0:0:0:0:
77,376,17499,2,0,P|52:320|64:255,1,115,8|0,0:0|0:0,0:0:0:0:
55,210,17985,2,0,P|31:203|-7:192,2,57.5,8|8|8,0:0|0:0|0:0,0:0:0:0:
109,190,18471,1,6,0:0:0:0:
211,137,18796,2,0,L|202:73,1,57.5,8|8,0:0|0:0,0:0:0:0:
195,23,19120,1,2,0:0:0:0:
92,76,19444,2,0,L|109:190,1,115,2|8,0:0|0:0,0:0:0:0:
68,230,19931,6,0,P|95:285|85:361,1,115,6|8,0:0|0:0,0:0:0:0:
58,382,20417,1,0,0:0:0:0:
58,382,20580,2,0,P|111:358|176:368,1,115,2|8,0:0|0:0,0:0:0:0:
256,292,21228,1,2,0:0:0:0:
347,362,21553,1,8,0:0:0:0:
458,334,21877,2,0,P|464:301|473:260,1,57.5,2|0,0:0|0:0,0:0:0:0:
481,221,22201,2,0,P|475:192|469:164,1,57.5,8|0,0:0|0:0,0:0:0:0:
455,108,22526,6,0,P|397:117|316:132,1,115,2|8,0:0|0:0,0:0:0:0:
293,159,23012,1,0,0:0:0:0:
293,159,23174,2,0,P|297:102|304:37,1,115,2|8,0:0|0:0,0:0:0:0:
191,74,23823,2,0,P|184:30|180:-5,2,57.5,2|0|8,0:0|0:0|0:0,0:0:0:0:
121,165,24471,1,0,0:0:0:0:
6,152,24796,2,0,P|11:178|22:236,1,57.5,8|0,0:0|0:0,0:0:0:0:
2,264,25120,6,0,P|54:263|100:305,1,115,2|8,0:0|0:0,0:0:0:0:
119,357,25607,2,0,P|159:318|216:317,1,115
265,345,26093,1,8,0:0:0:0:
355,274,26417,1,2,0:0:0:0:
462,315,26742,1,8,0:0:0:0:
441,201,27066,2,0,P|472:188|502:176,2,57.5,2|0|8,0:0|0:0|0:0,0:0:0:0:
335,155,27715,6,0,P|280:148|220:142,1,115,2|8,0:0|0:0,0:0:0:0:
178,181,28201,2,0,P|120:174|63:168,1,115,0|0,0:0|0:0,0:0:0:0:
24,125,28688,1,8,0:0:0:0:
87,29,29012,1,2,0:0:0:0:
194,68,29336,1,8,0:0:0:0:
178,181,29661,2,0,P|146:185|104:193,2,57.5,2|0|12,0:0|0:0|0:0,0:0:0:0:
284,225,30309,6,0,P|353:227|403:191,1,115,6|8,0:0|0:0,0:0:0:0:
431,163,30796,1,0,0:0:0:0:
431,163,30958,2,0,P|441:220|453:296,1,115,2|8,0:0|0:0,0:0:0:0:
383,370,31607,1,2,0:0:0:0:
274,330,31931,1,8,0:0:0:0:
164,364,32255,2,0,P|132:357|94:351,1,57.5,2|0,0:0|0:0,0:0:0:0:
50,341,32580,2,0,P|55:314|61:263,1,57.5,8|0,0:0|0:0,0:0:0:0:
30,234,32904,6,0,P|3:180|19:114,1,115,2|8,0:0|0:0,0:0:0:0:
53,88,33390,1,0,0:0:0:0:
53,88,33553,2,0,P|107:124|165:120,1,115,2|8,0:0|0:0,0:0:0:0:
255,66,34201,1,2,0:0:0:0:
354,124,34526,2,0,L|480:109,1,115,8|2,0:0|0:0,0:0:0:0:
453,224,35174,2,0,L|391:231,1,57.5,8|8,0:0|0:0,0:0:0:0:
338,220,35499,6,0,P|359:278|338:337,1,115,6|8,0:0|0:0,0:0:0:0:
296,358,35985,2,0,L|216:347,1,57.5,0|2,0:0|0:0,0:0:0:0:
132,308,36471,2,0,P|71:313|13:319,2,115,12|2|8,0:0|0:0|0:0,0:0:0:0:
156,197,37444,1,2,0:0:0:0:
43,170,37769,6,0,P|25:114|51:54,1,115,12|2,0:0|0:0,0:0:0:0:
146,11,38417,1,8,0:0:0:0:
257,50,38742,2,0,L|329:41,1,57.5,2|0,0:0|0:0,0:0:0:0:
356,81,39066,2,0,L|413:88,1,57.5,8|0,0:0|0:0,0:0:0:0:
460,56,39390,5,12,0:0:0:0:
460,56,39553,1,8,0:0:0:0:
478,169,39877,1,2,0:0:0:0:
496,282,40201,2,0,B|438:273|438:273|393:307,1,115,12|8,0:0|0:0,0:0:0:0:
351,347,40688,5,12,0:0:0:0:
257,279,41012,1,8,0:0:0:0:
161,343,41336,2,0,P|96:338|58:304,1,115,8|8,0:0|0:0,0:0:0:0:
22,262,41823,2,0,L|7:383,2,115,8|8|8,0:0|0:0|0:0,0:0:0:0:
30,204,42634,1,8,0:0:0:0:
16,89,42958,1,8,0:0:0:0:
107,19,43282,5,8,0:0:0:0:
121,134,43606,1,8,0:0:0:0:
230,170,43931,2,0,P|288:159|345:151,1,115,8|8,0:0|0:0,0:0:0:0:
386,113,44417,2,0,P|375:178|409:233,2,115,8|8|8,0:0|0:0|0:0,0:0:0:0:
416,63,45228,1,8,0:0:0:0:
312,12,45553,2,0,P|284:16|246:20,1,57.5,8|8,0:0|0:0,0:0:0:0:
214,59,45877,6,0,P|156:74|103:39,1,115,6|8,0:0|0:0,0:0:0:0:
63,15,46363,2,0,L|76:136,1,115,6|8,0:0|0:0,0:0:0:0:
77,187,46850,2,0,P|41:276|145:263,1,230,6|8,0:0|0:0,0:0:0:0:
221,193,47823,1,8,0:0:0:0:
256,302,48147,5,6,0:0:0:0:
256,192,48309,12,12,49769,0:0:0:0:
256,302,50417,6,0,P|312:278|393:299,1,115,2|0,0:0|0:0,0:0:0:0:
460,347,51066,6,0,P|467:293|478:228,1,115,6|8,0:0|0:0,0:0:0:0:
378,174,51715,2,0,P|370:120|360:55,1,115,2|8,0:0|0:0,0:0:0:0:
256,13,52363,1,2,0:0:0:0:
238,126,52688,1,8,0:0:0:0:
139,185,53012,1,2,0:0:0:0:
29,151,53336,1,8,0:0:0:0:
4,38,53661,6,0,P|61:54|120:65,1,115,2|8,0:0|0:0,0:0:0:0:
167,38,54147,2,0,P|154:89|141:159,1,115,0|0,0:0|0:0,0:0:0:0:
134,207,54634,1,8,0:0:0:0:
97,316,54958,2,0,P|154:300|213:289,1,115,2|8,0:0|0:0,0:0:0:0:
260,263,55444,2,0,P|290:267|330:272,1,57.5,0|2,0:0|0:0,0:0:0:0:
395,354,55931,2,0,P|425:349|465:345,1,57.5,12|0,0:0|0:0,0:0:0:0:
487,302,56255,6,0,P|506:235|486:189,1,115,6|8,0:0|0:0,0:0:0:0:
411,111,56904,2,0,P|364:145|284:127,1,115,2|8,0:0|0:0,0:0:0:0:
203,97,57553,1,2,0:0:0:0:
222,210,57877,1,8,0:0:0:0:
132,282,58201,1,2,0:0:0:0:
113,169,58525,1,8,0:0:0:0:
19,101,58850,6,0,P|-6:163|6:224,1,115,2|8,0:0|0:0,0:0:0:0:
24,260,59336,2,0,P|80:255|131:281,1,115,0|0,0:0|0:0,0:0:0:0:
166,327,59823,1,8,0:0:0:0:
276,359,60147,2,0,P|328:351|399:345,1,115,2|8,0:0|0:0,0:0:0:0:
431,304,60634,2,0,P|467:308|503:315,1,57.5,0|2,0:0|0:0,0:0:0:0:
451,203,61120,2,0,P|422:207|394:211,1,57.5,12|0,0:0|0:0,0:0:0:0:
346,242,61444,6,0,P|295:219|222:235,1,115,6|8,0:0|0:0,0:0:0:0:
202,271,61931,2,0,P|173:266|145:263,1,57.5,0|2,0:0|0:0,0:0:0:0:
53,194,62417,2,0,P|45:251|36:317,2,115,12|2|8,0:0|0:0|0:0,0:0:0:0:
66,79,63390,1,2,0:0:0:0:
156,149,63715,1,8,0:0:0:0:
256,95,64039,6,0,P|319:87|375:79,1,115,12|8,0:0|0:0,0:0:0:0:
474,31,64688,2,0,P|478:61|485:110,1,57.5,8|2,0:0|0:0,0:0:0:0:
450,136,65012,2,0,P|454:166|461:215,1,57.5,8|2,0:0|0:0,0:0:0:0:
466,249,65336,6,0,P|409:240|352:233,1,115,12|8,0:0|0:0,0:0:0:0:
302,262,65823,1,2,0:0:0:0:
302,262,65985,2,0,L|223:273,1,57.5,12|2,0:0|0:0,0:0:0:0:
210,315,66309,2,0,L|153:322,1,57.5,8|8,0:0|0:0,0:0:0:0:
99,301,66634,6,0,P|75:250|93:181,1,115,6|8,0:0|0:0,0:0:0:0:
67,80,67282,2,0,P|117:113|172:110,1,115,2|8,0:0|0:0,0:0:0:0:
256,33,67931,1,2,0:0:0:0:
369,48,68255,1,8,0:0:0:0:
405,157,68580,1,2,0:0:0:0:
319,233,68904,1,8,0:0:0:0:
206,208,69228,6,0,P|141:201|91:226,1,115,2|8,0:0|0:0,0:0:0:0:
42,203,69715,2,0,P|23:267|48:330,1,115,0|0,0:0|0:0,0:0:0:0:
69,357,70201,1,8,0:0:0:0:
183,372,70526,2,0,L|303:359,1,115,2|8,0:0|0:0,0:0:0:0:
341,323,71012,2,0,P|375:327|412:333,1,57.5,0|2,0:0|0:0,0:0:0:0:
500,277,71499,2,0,P|505:244|514:206,1,57.5,12|0,0:0|0:0,0:0:0:0:
480,171,71823,5,6,0:0:0:0:
386,237,72147,1,8,0:0:0:0:
274,210,72471,1,2,0:0:0:0:
221,107,72796,1,8,0:0:0:0:
127,40,73120,1,2,0:0:0:0:
19,85,73444,1,8,0:0:0:0:
0,197,73769,1,2,0:0:0:0:
92,264,74093,1,8,0:0:0:0:
200,226,74417,6,0,P|231:282|216:350,1,115,2|8,0:0|0:0,0:0:0:0:
190,372,74904,2,0,P|134:361|56:350,1,115,0|0,0:0|0:0,0:0:0:0:
0,265,75553,2,0,P|8:208|16:148,1,115,6|2,0:0|0:0,0:0:0:0:
18,93,76039,1,8,0:0:0:0:
125,134,76363,1,0,0:0:0:0:
169,27,76688,1,8,0:0:0:0:
278,62,77012,6,0,P|339:54|401:46,1,115,6|8,0:0|0:0,0:0:0:0:
447,31,77499,2,0,P|451:61|458:112,1,57.5,0|2,0:0|0:0,0:0:0:0:
388,182,77985,2,0,P|445:188|502:196,2,115,12|2|8,0:0|0:0|0:0,0:0:0:0:
274,200,78958,1,2,0:0:0:0:
160,219,79282,1,8,0:0:0:0:
46,235,79607,6,0,P|52:175|59:101,1,115,6|8,0:0|0:0,0:0:0:0:
65,63,80093,2,0,P|95:69|138:76,1,57.5,0|2,0:0|0:0,0:0:0:0:
229,114,80580,2,0,P|222:56|217:-1,2,115,12|2|8,0:0|0:0|0:0,0:0:0:0:
216,230,81553,2,0,P|189:224|139:216,2,57.5,2|8|12,0:0|0:0|0:0,0:0:0:0:
319,179,82201,6,0,P|379:172|440:165,1,115,6|8,0:0|0:0,0:0:0:0:
483,194,82688,1,0,0:0:0:0:
483,194,82850,2,0,P|508:259|479:319,1,115,2|8,0:0|0:0,0:0:0:0:
460,345,83336,2,0,B|401:332|401:332|361:359|361:359|294:343,1,172.5,6|8,0:0|0:0,0:0:0:0:
254,307,83985,2,0,B|228:247|155:256|155:256|120:295,1,172.5,6|8,0:0|0:0,0:0:0:0:
76,332,84634,5,8,0:0:0:0:
76,332,84796,2,0,P|67:272|56:215,1,115,6|8,0:0|0:0,0:0:0:0:
36,164,85282,2,0,P|94:157|177:142,1,115,6|8,0:0|0:0,0:0:0:0:
202,124,85769,2,0,P|234:223|287:160,1,230,6|6,0:0|0:0,0:0:0:0:
282,46,86742,2,0,P|315:54|347:61,1,57.5,8|8,0:0|0:0,0:0:0:0:
393,72,87066,6,0,P|441:48|505:57,2,115,6|0|8,0:0|0:0|0:0,0:0:0:0:
306,148,88039,2,0,L|224:132,2,57.5,2|0|8,0:0|0:0|0:0,0:0:0:0:
414,185,88688,2,0,B|449:223|449:223|468:292|412:331,1,172.5,6|0,0:0|0:0,0:0:0:0:
357,342,89336,2,0,B|304:323|244:354|244:354|225:326|146:314,1,172.5,6|0,0:0|0:0,0:0:0:0:
143,310,89985,5,6,0:0:0:0:
143,310,99715,6,0,L|131:378,2,57.5,0|0|12,0:0|0:0|0:0,0:0:0:0:
55,235,100363,6,0,P|78:180|67:113,1,115,6|8,0:0|0:0,0:0:0:0:
43,76,100850,1,0,0:0:0:0:
43,76,101012,2,0,P|96:107|165:98,1,115,2|8,0:0|0:0,0:0:0:0:
256,66,101661,1,2,0:0:0:0:
363,107,101985,1,8,0:0:0:0:
466,56,102309,2,0,L|481:147,1,57.5,2|0,0:0|0:0,0:0:0:0:
508,160,102634,2,0,L|493:251,1,57.5,8|0,0:0|0:0,0:0:0:0:
487,273,102958,6,0,P|429:264|367:260,1,115,2|8,0:0|0:0,0:0:0:0:
323,231,103444,1,0,0:0:0:0:
323,231,103607,2,0,P|265:239|203:244,1,115,2|8,0:0|0:0,0:0:0:0:
102,200,104255,1,2,0:0:0:0:
11,270,104580,1,8,0:0:0:0:
58,374,104904,2,0,P|88:368|120:363,1,57.5,8|0,0:0|0:0,0:0:0:0:
161,330,105228,2,0,P|191:335|223:341,1,57.5,8|8,0:0|0:0,0:0:0:0:
272,356,105553,6,0,P|325:338|392:362,1,115,6|8,0:0|0:0,0:0:0:0:
432,377,106039,2,0,P|427:340|421:273,1,57.5,0|2,0:0|0:0,0:0:0:0:
396,208,106526,2,0,P|461:202|516:196,2,115,12|2|8,0:0|0:0|0:0,0:0:0:0:
296,265,107499,1,2,0:0:0:0:
237,166,107823,6,0,P|246:106|256:51,1,115,12|2,0:0|0:0,0:0:0:0:
151,4,108471,1,8,0:0:0:0:
57,71,108796,2,0,L|71:148,1,57.5,2|0,0:0|0:0,0:0:0:0:
24,165,109120,2,0,L|38:242,1,57.5,8|0,0:0|0:0,0:0:0:0:
24,278,109444,6,0,P|79:278|128:326,1,115,12|2,0:0|0:0,0:0:0:0:
134,371,109931,2,0,P|176:334|233:333,1,115,12|2,0:0|0:0,0:0:0:0:
286,356,110417,2,0,L|350:346,1,57.5,12|2,0:0|0:0,0:0:0:0:
399,336,110742,5,12,0:0:0:0:
494,272,111066,2,0,P|491:214|466:163,1,115,0|2,0:0|0:0,0:0:0:0:
361,117,111715,1,8,0:0:0:0:
361,117,111877,2,0,L|303:120,1,57.5,8|0,0:0|0:0,0:0:0:0:
261,160,112201,2,0,L|203:156,1,57.5,8|2,0:0|0:0,0:0:0:0:
161,117,112526,1,0,0:0:0:0:
161,117,112688,2,0,P|109:92|52:93,1,115,2|2,0:0|0:0,0:0:0:0:
27,205,113336,5,8,0:0:0:0:
7,318,113661,2,0,L|55:348,1,57.5,0|8,0:0|0:0,0:0:0:0:
110,365,113985,2,0,B|166:376|166:376|220:355,1,115,2|8,0:0|0:0,0:0:0:0:
263,317,114471,2,0,B|319:306|319:306|373:326,1,115,8|8,0:0|0:0,0:0:0:0:
437,230,115120,1,2,0:0:0:0:
437,230,115282,2,0,P|439:172|422:118,1,115,12|8,0:0|0:0,0:0:0:0:
336,42,115931,6,0,L|230:88,1,115,6|8,0:0|0:0,0:0:0:0:
178,113,116417,2,0,L|283:158,1,115,6|8,0:0|0:0,0:0:0:0:
336,183,116904,2,0,P|343:287|239:300,1,230,6|2,0:0|0:0,0:0:0:0:
191,269,117715,1,8,0:0:0:0:
191,269,117877,2,0,L|175:324,1,57.5,8|8,0:0|0:0,0:0:0:0:
129,357,118201,5,6,0:0:0:0:
37,286,118526,1,0,0:0:0:0:
53,171,118850,1,0,0:0:0:0:
160,127,119174,2,0,L|217:120,1,57.5,0|0,0:0|0:0,0:0:0:0:
260,159,119499,2,0,L|317:152,1,57.5,0|0,0:0|0:0,0:0:0:0:
360,191,119823,5,12,0:0:0:0:
360,191,119985,2,0,B|414:184|414:184|467:214|470:280,1,172.5,0|8,0:0|0:0,0:0:0:0:
467,338,120634,2,0,L|413:316,1,57.5,8|8,0:0|0:0,0:0:0:0:
302,288,121120,6,0,P|249:311|193:327,1,115,6|8,0:0|0:0,0:0:0:0:
82,296,121769,2,0,L|72:181,1,115,2|8,0:0|0:0,0:0:0:0:
69,66,122417,1,2,0:0:0:0:
165,128,122742,1,8,0:0:0:0:
266,75,123066,1,2,0:0:0:0:
362,137,123390,1,8,0:0:0:0:
462,83,123715,6,0,P|475:139|461:194,1,115,2|8,0:0|0:0,0:0:0:0:
484,247,124201,2,0,P|427:239|370:246,1,115,0|0,0:0|0:0,0:0:0:0:
320,275,124688,1,8,0:0:0:0:
220,333,125012,2,0,P|167:312|128:271,1,115,2|8,0:0|0:0,0:0:0:0:
122,213,125499,1,0,0:0:0:0:
122,213,125661,2,0,L|138:99,1,115,2|12,0:0|0:0,0:0:0:0:
208,8,126309,5,6,0:0:0:0:
322,24,126634,2,0,P|377:39|434:38,2,115,8|2|8,0:0|0:0|0:0,0:0:0:0:
250,113,127607,2,0,P|194:97|137:98,2,115,2|8|2,0:0|0:0|0:0,0:0:0:0:
300,216,128580,1,8,0:0:0:0:
285,329,128904,6,0,P|342:321|399:321,1,115,2|8,0:0|0:0,0:0:0:0:
451,347,129390,2,0,L|444:232,1,115,0|0,0:0|0:0,0:0:0:0:
459,176,129877,1,8,0:0:0:0:
480,63,130201,2,0,B|426:81|426:81|368:71,1,115,2|8,0:0|0:0,0:0:0:0:
256,47,130850,1,2,0:0:0:0:
238,160,131174,1,12,0:0:0:0:
207,271,131499,6,0,P|169:312|114:324,1,115,6|8,0:0|0:0,0:0:0:0:
57,315,131985,2,0,L|1:300,1,57.5,0|2,0:0|0:0,0:0:0:0:
26,187,132471,2,0,L|137:216,2,115,12|2|8,0:0|0:0|0:0,0:0:0:0:
26,71,133444,1,2,0:0:0:0:
140,51,133769,1,8,0:0:0:0:
193,152,134093,6,0,P|222:201|272:228,1,115,12|8,0:0|0:0,0:0:0:0:
308,338,134742,2,0,P|356:309|383:259,1,115,8|8,0:0|0:0,0:0:0:0:
391,202,135228,1,2,0:0:0:0:
391,202,135390,2,0,L|376:146,1,57.5,12|2,0:0|0:0,0:0:0:0:
391,90,135715,2,0,L|335:75,1,57.5,8|2,0:0|0:0,0:0:0:0:
285,46,136039,2,0,L|170:58,1,115,12|8,0:0|0:0,0:0:0:0:
119,84,136526,1,8,0:0:0:0:
119,84,136688,5,6,0:0:0:0:
77,191,137012,1,8,0:0:0:0:
181,142,137336,1,2,0:0:0:0:
139,249,137660,1,8,0:0:0:0:
243,200,137985,1,2,0:0:0:0:
201,307,138309,1,8,0:0:0:0:
305,258,138634,1,2,0:0:0:0:
263,365,138958,1,8,0:0:0:0:
366,316,139282,6,0,P|390:264|375:210,1,115,2|8,0:0|0:0,0:0:0:0:
335,169,139769,2,0,L|221:185,1,115,0|0,0:0|0:0,0:0:0:0:
164,193,140255,1,8,0:0:0:0:
55,156,140580,2,0,P|43:100|64:48,1,115,2|8,0:0|0:0,0:0:0:0:
116,22,141066,1,0,0:0:0:0:
116,22,141228,2,0,P|144:26|171:34,1,57.5,2|0,0:0|0:0,0:0:0:0:
210,77,141553,2,0,P|238:72|265:64,1,57.5,12|0,0:0|0:0,0:0:0:0:
305,23,141877,6,0,P|362:17|417:34,1,115,6|8,0:0|0:0,0:0:0:0:
465,138,142526,2,0,P|408:143|353:126,1,115,2|8,0:0|0:0,0:0:0:0:
239,138,143174,1,2,0:0:0:0:
216,251,143499,1,8,0:0:0:0:
316,307,143823,1,2,0:0:0:0:
401,229,144147,1,8,0:0:0:0:
352,126,144471,6,0,L|238:138,1,115,2|8,0:0|0:0,0:0:0:0:
184,161,144958,2,0,P|129:151|91:109,1,115,0|0,0:0|0:0,0:0:0:0:
9,189,145607,2,0,L|17:303,1,115,6|2,0:0|0:0,0:0:0:0:
59,342,146093,1,8,0:0:0:0:
172,321,146417,1,0,0:0:0:0:
285,300,146742,1,8,0:0:0:0:
389,348,147066,6,0,P|443:334|478:289,1,115,6|8,0:0|0:0,0:0:0:0:
479,232,147553,2,0,P|470:204|468:176,1,57.5,0|2,0:0|0:0,0:0:0:0:
400,82,148039,2,0,P|364:127|353:183,2,115,12|2|8,0:0|0:0|0:0,0:0:0:0:
468,176,149012,1,2,0:0:0:0:
393,263,149336,1,8,0:0:0:0:
282,230,149661,6,0,P|224:226|167:227,1,115,6|8,0:0|0:0,0:0:0:0:
111,241,150147,2,0,L|124:185,1,57.5,0|2,0:0|0:0,0:0:0:0:
26,125,150634,2,0,L|3:13,2,115,12|2|8,0:0|0:0|0:0,0:0:0:0:
11,239,151607,2,0,P|38:231|67:231,2,57.5,2|8|12,0:0|0:0|0:0,0:0:0:0:
49,347,152255,6,0,P|106:347|163:343,1,115,6|8,0:0|0:0,0:0:0:0:
214,314,152742,2,0,L|206:199,1,115,0|0,0:0|0:0,0:0:0:0:
170,154,153228,1,8,0:0:0:0:
170,154,153390,2,0,P|252:142|282:66,1,172.5,6|8,0:0|0:0,0:0:0:0:
251,15,154039,2,0,B|333:50|333:50|415:32,1,172.5,6|8,0:0|0:0,0:0:0:0:
472,31,154688,5,8,0:0:0:0:
472,31,154850,2,0,P|497:112|458:187,1,172.5,6|2,0:0|0:0,0:0:0:0:
412,222,155499,1,8,0:0:0:0:
298,202,155823,2,0,P|272:215|251:234,1,57.5,0|2,0:0|0:0,0:0:0:0:
224,285,156147,2,0,P|202:303|177:317,1,57.5,0|8,0:0|0:0,0:0:0:0:
121,330,156471,2,0,L|7:312,2,115,2|8|2,0:0|0:0|0:0,0:0:0:0:
98,215,157444,6,0,P|72:165|75:109,1,115,2|0,0:0|0:0,0:0:0:0:
106,60,157931,2,0,L|162:48,1,57.5,2|8,0:0|0:0,0:0:0:0:
274,23,158417,2,0,L|330:34,1,57.5,0|2,0:0|0:0,0:0:0:0:
386,49,158742,2,0,L|374:105,1,57.5,0|8,0:0|0:0,0:0:0:0:
344,154,159066,2,0,P|364:209|373:265,2,115,2|8|0,0:0|0:0|0:0,0:0:0:0:
230,144,160039,6,0,L|115:154,1,115,2|0,0:0|0:0,0:0:0:0:
65,183,160526,2,0,P|49:231|51:272,1,57.5,2|8,0:0|0:0,0:0:0:0:
61,293,160850,1,0,0:0:0:0:
159,352,161174,2,0,L|272:333,1,115
328,347,161661,2,0,L|352:294,1,57.5,2|0,0:0|0:0,0:0:0:0:
399,261,161985,2,0,L|380:206,1,57.5,8|0,0:0|0:0,0:0:0:0:
389,150,162309,2,0,L|336:124,1,57.5,8|8,0:0|0:0,0:0:0:0:
291,92,162634,5,6,0:0:0:0:
182,54,162958,1,8,0:0:0:0:
95,130,163282,1,8,0:0:0:0:
116,242,163607,1,8,0:0:0:0:
225,280,163931,5,8,0:0:0:0:
312,204,164255,1,8,0:0:0:0:
411,263,164580,1,8,0:0:0:0:
385,375,164904,1,8,0:0:0:0:
271,384,165228,5,8,0:0:0:0:
225,280,165553,1,8,0:0:0:0:
237,166,165877,1,8,0:0:0:0:
304,74,166201,1,8,0:0:0:0:
408,28,166526,5,8,0:0:0:0:
395,141,166850,1,8,0:0:0:0:
290,186,167174,1,12,0:0:0:0:
198,118,167499,1,8,0:0:0:0:
210,5,167823,6,0,P|262:26|300:69,1,115,6|8,0:0|0:0,0:0:0:0:
316,124,168309,2,0,P|305:150|297:178,1,57.5,0|2,0:0|0:0,0:0:0:0:
338,286,168796,2,0,P|283:225|204:249,1,172.5,12|0,0:0|0:0,0:0:0:0:
168,293,169444,2,0,P|113:280|55:279,2,115,8|2|8,0:0|0:0|0:0,0:0:0:0:
246,379,170417,6,0,P|301:365|359:364,1,115,6|8,0:0|0:0,0:0:0:0:
463,315,171066,2,0,P|449:259|448:201,1,115,2|8,0:0|0:0,0:0:0:0:
399,98,171715,2,0,P|343:111|285:112,1,115,8|8,0:0|0:0,0:0:0:0:
182,162,172363,2,0,P|195:217|196:275,1,115,8|8,0:0|0:0,0:0:0:0:
154,314,172850,6,0,L|40:297,1,115,6|2,0:0|0:0,0:0:0:0:
9,249,173336,1,8,0:0:0:0:
36,137,173661,1,2,0:0:0:0:
146,104,173985,1,8,0:0:0:0:
146,104,174147,2,0,L|260:118,1,115,0|0,0:0|0:0,0:0:0:0:
300,158,174634,1,8,0:0:0:0:
411,130,174958,1,2,0:0:0:0:
411,130,175120,2,0,P|437:141|460:158,1,57.5,0|8,0:0|0:0,0:0:0:0:
492,205,175444,1,0,0:0:0:0:
492,205,175607,6,0,P|479:261|463:316,1,115,2|8,0:0|0:0,0:0:0:0:
349,300,176255,1,0,0:0:0:0:
349,300,176417,2,0,L|292:310,1,57.5,2|8,0:0|0:0,0:0:0:0:
235,321,176742,2,0,P|184:297|169:244,1,115
150,190,177228,1,8,0:0:0:0:
150,190,177390,2,0,L|35:176,1,115,0|0,0:0|0:0,0:0:0:0:
15,121,177877,2,0,P|15:93|24:65,1,57.5,8|0,0:0|0:0,0:0:0:0:
76,42,178201,5,2,0:0:0:0:
183,83,178526,1,8,0:0:0:0:
287,34,178850,1,2,0:0:0:0:
287,34,179012,2,0,P|316:39|343:47,1,57.5,0|8,0:0|0:0,0:0:0:0:
405,143,179499,1,2,0:0:0:0:
405,143,179661,2,0,P|377:151|349:155,1,57.5,0|8,0:0|0:0,0:0:0:0:
308,195,179985,2,0,P|256:169|199:164,1,115,0|0,0:0|0:0,0:0:0:0:
143,176,180471,1,8,0:0:0:0:
143,175,180634,6,0,P|96:208|71:259,1,115,2|0,0:0|0:0,0:0:0:0:
68,316,181120,1,8,0:0:0:0:
167,370,181444,2,0,P|194:320|248:309,1,115,2|8,0:0|0:0,0:0:0:0:
295,343,181931,1,0,0:0:0:0:
295,343,182093,2,0,L|408:323,1,115,2|8,0:0|0:0,0:0:0:0:
465,326,182580,1,0,0:0:0:0:
465,326,182742,2,0,L|473:269,1,57.5,12|0,0:0|0:0,0:0:0:0:
439,222,183066,2,0,L|447:165,1,57.5,8|0,0:0|0:0,0:0:0:0:
488,126,183390,6,0,P|468:73|417:51,1,115,6|8,0:0|0:0,0:0:0:0:
361,65,183877,2,0,P|333:73|304:73,1,57.5,0|2,0:0|0:0,0:0:0:0:
189,73,184363,2,0,P|117:31|46:73,1,172.5,12|0,0:0|0:0,0:0:0:0:
23,126,185012,2,0,L|36:240,1,115,8|2,0:0|0:0,0:0:0:0:
115,324,185661,1,8,0:0:0:0:
229,316,185985,6,0,P|211:263|167:226,1,115,6|8,0:0|0:0,0:0:0:0:
127,185,186471,2,0,L|238:158,1,115,0|0,0:0|0:0,0:0:0:0:
293,144,186958,1,8,0:0:0:0:
405,171,187282,2,0,P|441:193|483:204,2,86.25,2|0|0,0:0|0:0|0:0,0:0:0:0:
393,114,187931,2,0,P|394:71|383:29,2,86.25,12|8|0,0:0|0:0|0:0,0:0:0:0:
349,153,188580,6,0,P|301:183|275:233,1,115,6|8,0:0|0:0,0:0:0:0:
281,291,189066,2,0,L|286:348,1,57.5,0|2,0:0|0:0,0:0:0:0:
173,368,189553,2,0,L|161:253,1,115,12|2,0:0|0:0,0:0:0:0:
81,170,190201,1,8,0:0:0:0:
100,56,190526,2,0,P|157:59|210:81,1,115,2|8,0:0|0:0,0:0:0:0:
261,105,191012,5,0,0:0:0:0:
261,105,191174,2,0,P|313:82|368:68,1,115,6|8,0:0|0:0,0:0:0:0:
426,73,191661,2,0,B|437:129|437:129|414:179|414:179|426:238,1,172.5,8|12,0:0|0:0,0:0:0:0:
256,192,192309,12,0,193769,0:0:0:0:
292,307,206742,6,0,P|373:327|435:272,2,172.5,6|8|6,0:0|0:0|0:0,0:0:0:0:
191,252,208039,2,0,L|197:194,1,57.5,0|8,0:0|0:0,0:0:0:0:
184,138,208363,2,0,P|134:108|78:101,2,115,2|8|8,0:0|0:0|0:3,0:0:0:0:
298,127,209336,5,6,0:0:0:0:
91,229,209985,1,12,0:0:0:0:
203,253,210309,1,0,0:0:0:0:
281,335,210634,2,0,P|304:354|330:364,1,57.5,6|0,0:0|0:0,0:0:0:0:
388,368,210958,2,0,P|416:365|442:353,1,57.5,8|8,0:0|0:0,0:0:0:0:
485,315,211282,2,0,L|467:201,1,115,12|2,0:0|0:0,0:0:0:0:
426,160,211769,5,8,0:0:0:0:
426,159,211931,2,0,P|476:76|380:63,1,230,2|2,0:0|0:0,0:0:0:0:
285,129,212904,5,12,0:0:0:0:
173,97,213228,2,0,P|118:83|61:86,1,115,2|8,0:0|0:0,0:0:0:0:
14,191,213877,2,0,L|27:305,1,115,2|8,0:0|0:0,0:0:0:0:
127,362,214526,6,0,B|173:325|173:325|232:331,1,115,2|8,0:0|0:0,0:0:0:0:
282,309,215012,2,0,P|332:335|389:338,1,115,0|0,0:0|0:0,0:0:0:0:
441,312,215499,1,8,0:0:0:0:
486,208,215823,2,0,L|469:94,1,115,2|8,0:0|0:0,0:0:0:0:
367,40,216471,1,2,0:0:0:0:
269,101,216796,1,12,0:0:0:0:
274,215,217120,5,6,0:0:0:0:
385,188,217444,2,0,L|500:182,2,115,8|2|8,0:0|0:0|0:0,0:0:0:0:
397,302,218417,2,0,L|512:296,2,115,2|8|2,0:0|0:0|0:0,0:0:0:0:
292,350,219390,1,8,0:0:0:0:
196,283,219715,6,0,P|140:275|86:294,1,115,2|8,0:0|0:0,0:0:0:0:
38,326,220201,2,0,L|34:211,1,115,0|0,0:0|0:0,0:0:0:0:
47,95,220850,2,0,P|91:61|148:62,1,115,6|2,0:0|0:0,0:0:0:0:
204,75,221336,1,8,0:0:0:0:
292,148,221661,1,0,0:0:0:0:
204,221,221985,1,8,0:0:0:0:
292,293,222309,6,0,P|347:280|404:282,1,115,6|8,0:0|0:0,0:0:0:0:
457,306,222796,2,0,L|474:251,1,57.5,0|2,0:0|0:0,0:0:0:0:
497,138,223282,2,0,P|435:80|352:88,1,172.5,12|0,0:0|0:0,0:0:0:0:
307,125,223931,1,8,0:0:0:0:
197,160,224255,1,2,0:0:0:0:
94,107,224580,1,8,0:0:0:0:
193,49,224904,6,0,P|209:103|196:159,1,115,6|8,0:0|0:0,0:0:0:0:
164,207,225390,2,0,P|154:233|154:262,1,57.5,0|2,0:0|0:0,0:0:0:0:
217,358,225877,2,0,L|387:330,1,172.5,12|0,0:0|0:0,0:0:0:0:
442,348,226526,1,8,0:0:0:0:
455,233,226850,2,0,P|471:209|490:188,2,57.5,2|0|12,0:0|0:0|0:0,0:0:0:0:
340,238,227499,6,0,P|283:229|227:214,1,115,6|8,0:0|0:0,0:0:0:0:
184,250,227985,2,0,P|188:194|157:147,1,115,0|0,0:0|0:0,0:0:0:0:
101,134,228471,1,8,0:0:0:0:
101,134,228634,2,0,P|85:57|159:31,1,172.5,6|8,0:0|0:0,0:0:0:0:
214,23,229282,2,0,P|256:62|310:82,1,115,6|2,0:0|0:0,0:0:0:0:
368,79,229769,2,0,P|392:65|420:57,1,57.5,8|0,0:0|0:0,0:0:0:0:
474,76,230093,6,0,L|484:190,1,115,6|8,0:0|0:0,0:0:0:0:
501,245,230580,2,0,P|447:261|406:301,1,115,6|2,0:0|0:0,0:0:0:0:
390,356,231066,2,0,P|307:280|195:285,1,230,12|12,0:0|0:0,0:0:0:0:
91,336,232039,2,0,P|81:310|76:281,1,57.5,2|0,0:0|0:0,0:0:0:0:
47,232,232363,2,0,P|58:205|74:181,1,57.5,12|0,0:0|0:0,0:0:0:0:
88,125,232688,6,0,P|144:137|201:137,1,115,6|8,0:0|0:0,0:0:0:0:
248,104,233174,2,0,L|265:217,1,115,0|0,0:0|0:0,0:0:0:0:
250,273,233661,1,8,0:0:0:0:
250,273,233823,2,0,B|326:317|326:317|405:288,1,172.5,6|8,0:0|0:0,0:0:0:0:
461,273,234471,2,0,P|433:192|450:108,1,172.5,6|8,0:0|0:0,0:0:0:0:
473,54,235120,6,0,P|423:83|367:95,1,115,6|2,0:0|0:0,0:0:0:0:
311,79,235607,1,2,0:0:0:0:
200,47,235931,1,8,0:0:0:0:
225,158,236255,1,8,0:0:0:0:
114,126,236580,6,0,L|98:181,1,57.5,8|8,0:0|0:0,0:0:0:0:
91,238,236904,2,0,L|119:288,1,57.5,8|8,0:0|0:0,0:0:0:0:
154,333,237228,2,0,L|209:348,1,57.5,8|8,0:0|0:0,0:0:0:0:
266,356,237553,2,0,L|316:327,1,57.5,8|8,0:0|0:0,0:0:0:0:
